<?xml version="1.0" standalone="no"?>
<!DOCTYPE svg PUBLIC "-//W3C//DTD SVG 1.1//EN" "http://www.w3.org/Graphics/SVG/1.1/DTD/svg11.dtd" >
<svg xmlns="http://www.w3.org/2000/svg" xmlns:xlink="http://www.w3.org/1999/xlink" version="1.1">
<metadata></metadata>
<defs>
<font id="arial_cyrregular" horiz-adv-x="1139" >
<font-face units-per-em="2048" ascent="1638" descent="-410" />
<missing-glyph horiz-adv-x="569" />
<glyph horiz-adv-x="0" />
<glyph horiz-adv-x="682" />
<glyph unicode=" "  horiz-adv-x="569" />
<glyph unicode="&#x09;" horiz-adv-x="569" />
<glyph unicode="&#xa0;" horiz-adv-x="569" />
<glyph unicode="!" horiz-adv-x="571" d="M173 1141v325h223v-325l-52 -777h-116zM181 0v205h207v-205h-207z" />
<glyph unicode="&#x22;" horiz-adv-x="726" d="M95 1226v240h205v-240l-45 -279h-110zM427 1226v240h205v-240l-48 -279h-108z" />
<glyph unicode="#" d="M25 401v149h199l74 363h-273v149h303l87 429h150l-87 -429h315l87 429h151l-87 -429h173v-149h-203l-75 -363h278v-149h-308l-87 -426h-150l86 426h-314l-87 -426h-150l87 426h-169zM374 550h314l75 363h-315z" />
<glyph unicode="$" d="M77 407l181 34q43 -299 256 -320v573q-406 87 -406 412q0 157 98 274t308 135v86h106v-86q344 -32 391 -361l-186 -28q-28 205 -205 237v-519q427 -87 427 -427q0 -184 -119 -311.5t-308 -134.5v-182h-106v180q-408 42 -437 438zM288 1120q0 -185 226 -253v498 q-103 -14 -164.5 -82.5t-61.5 -162.5zM620 121q92 12 167 84.5t75 198.5q0 92 -45.5 155t-196.5 110v-548z" />
<glyph unicode="%" horiz-adv-x="1821" d="M123 1114q0 163 81 270t226 107q140 0 230 -99.5t90 -288.5q0 -196 -95.5 -291.5t-221.5 -95.5q-134 0 -222 99.5t-88 298.5zM280 1094q0 -127 39 -190.5t117 -63.5q79 0 118 68t39 204q0 128 -39 191.5t-118 63.5q-78 0 -117 -68t-39 -205zM437 -54l802 1545h146 l-799 -1545h-149zM1071 344q0 165 83 271t224 106q152 0 236.5 -105t84.5 -283q0 -187 -92 -287t-225 -100q-135 0 -223 100t-88 298zM1228 324q0 -127 39 -190.5t117 -63.5q79 0 118.5 68t39.5 204q0 128 -39 191.5t-118 63.5q-78 0 -117.5 -68t-39.5 -205z" />
<glyph unicode="&#x26;" horiz-adv-x="1367" d="M88 404q0 271 349 438q-165 188 -165 322q0 133 104.5 230t259.5 97q148 0 244.5 -91.5t96.5 -222.5q0 -208 -277 -356l263 -335q45 88 70 204l187 -40q-48 -194 -130 -316q101 -134 229 -225l-121 -143q-109 70 -225 207q-175 -198 -421 -198q-219 0 -341.5 135 t-122.5 294zM282 415q0 -96 75 -188.5t197 -92.5q87 0 174 54.5t132 126.5l-330 409q-248 -148 -248 -309zM457 1181q0 -68 70 -151l80 -93q186 103 186 236q0 77 -49 123.5t-117 46.5q-69 0 -119.5 -45.5t-50.5 -116.5z" />
<glyph unicode="'" horiz-adv-x="388" d="M93 1221v245h205v-245l-48 -274h-111z" />
<glyph unicode="(" horiz-adv-x="683" d="M124 531q0 487 355 960h129q-299 -480 -299 -958q0 -484 299 -964h-129q-355 466 -355 962z" />
<glyph unicode=")" horiz-adv-x="683" d="M74 -431q299 483 299 964q0 477 -299 958h129q355 -473 355 -960q0 -289 -113 -544.5t-242 -417.5h-129z" />
<glyph unicode="*" horiz-adv-x="796" d="M68 1197l46 142q170 -60 231 -97q-20 181 -20 249h145q-2 -98 -23 -248q103 52 236 96l46 -142q-127 -42 -249 -56q47 -39 172 -189l-120 -85q-59 79 -137 215q-75 -144 -130 -215l-118 85q131 159 166 189q-130 25 -245 56z" />
<glyph unicode="+" horiz-adv-x="1196" d="M114 639v168h399v399h170v-399h399v-168h-399v-402h-170v402h-399z" />
<glyph unicode="," horiz-adv-x="571" d="M166 -213q113 47 114 213h-102v205h205v-205q0 -217 -167 -290z" />
<glyph unicode="-" horiz-adv-x="682" d="M65 440v181h553v-181h-553z" />
<glyph unicode="." horiz-adv-x="571" d="M182 0v205h205v-205h-205z" />
<glyph unicode="/" horiz-adv-x="569" d="M0 -25l425 1516h144l-424 -1516h-145z" />
<glyph unicode="0" d="M89 723q0 375 119.5 562t358.5 187t358.5 -187t119.5 -562q0 -374 -119.5 -561t-358.5 -187t-358.5 187t-119.5 561zM274 723q0 -337 78 -468.5t215 -131.5t215 131t78 469q0 333 -76 466.5t-219 133.5q-140 0 -215.5 -135t-75.5 -465z" />
<glyph unicode="1" d="M227 930v174q316 151 424 368h116v-1472h-180v1147q-136 -132 -360 -217z" />
<glyph unicode="2" d="M64 0v29q0 206 375 513q235 192 321 306t86 221q0 114 -80 184t-193 70q-131 0 -210.5 -77t-79.5 -217l-185 19q16 209 145 316.5t330 107.5q215 0 336.5 -118.5t121.5 -288.5q0 -120 -70 -241t-363 -369q-248 -209 -284 -282h719v-173h-969z" />
<glyph unicode="3" d="M90 387l180 24q57 -288 287 -288q126 0 214 88t88 218q0 123 -81 204t-206 81q-51 0 -127 -20l20 158q17 -2 29 -2q120 0 209.5 63t89.5 182q0 109 -72.5 169t-167.5 60q-224 0 -265 -264l-180 32q30 179 149 279.5t292 100.5q184 0 306.5 -109t122.5 -272 q0 -102 -50.5 -176.5t-151.5 -120.5q136 -28 205 -129t69 -232q0 -203 -146.5 -331t-347.5 -128q-200 0 -325 119.5t-141 293.5z" />
<glyph unicode="4" d="M30 351v165l669 950h147v-950h198v-165h-198v-351h-180v351h-636zM207 516h459v661z" />
<glyph unicode="5" d="M89 384l189 16q19 -137 97 -207t185 -70q140 0 225 104.5t85 253.5q0 154 -87 243t-226 89q-177 0 -267 -142l-169 22l142 753h729v-172h-585l-79 -394q132 92 277 92q184 0 320 -129.5t136 -345.5q0 -205 -131.5 -363.5t-369.5 -158.5q-184 0 -318 104.5t-153 304.5z " />
<glyph unicode="6" d="M85 686q0 408 141.5 597t380.5 189q176 0 288 -97.5t132 -267.5l-179 -14q-51 231 -246 231q-165 0 -251.5 -154.5t-86.5 -413.5q64 98 153 146.5t203 48.5q185 0 309 -134.5t124 -340.5q0 -205 -122.5 -353t-332.5 -148q-219 0 -366 159.5t-147 551.5zM292 475 q0 -144 83.5 -248t215.5 -104q123 0 200.5 98t77.5 243t-77.5 236.5t-206.5 91.5q-126 0 -209.5 -89t-83.5 -228z" />
<glyph unicode="7" d="M101 1274v173h949v-140q-187 -194 -362 -563.5t-197 -743.5h-185q5 288 144.5 649t368.5 625h-718z" />
<glyph unicode="8" d="M87 424q0 132 70 235.5t209 135.5q-110 40 -165 115t-55 184q0 162 117 270t304 108q186 0 306 -108.5t120 -274.5q0 -106 -54 -179.5t-162 -114.5q140 -42 208 -145.5t68 -226.5q0 -207 -141 -327.5t-341 -120.5q-206 0 -345 122.5t-139 326.5zM272 423 q0 -128 84.5 -214t215.5 -86q126 0 211.5 82.5t85.5 211.5q0 132 -88 216t-215 84q-135 0 -214.5 -88.5t-79.5 -205.5zM330 1100q0 -108 69 -172t172 -64q101 0 169 64.5t68 161.5q0 99 -69 166.5t-170 67.5q-103 0 -171 -67t-68 -157z" />
<glyph unicode="9" d="M89 977q0 212 126 353.5t335 141.5q206 0 354.5 -156.5t148.5 -556.5q0 -419 -144.5 -601.5t-380.5 -182.5q-168 0 -279.5 94.5t-132.5 269.5l173 16q36 -232 243 -232q170 0 256 155t86 379q0 10 -1 33q-47 -77 -141.5 -135t-208.5 -58q-182 0 -308 133t-126 347z M274 972q0 -140 84 -228t209 -88q136 0 211 94t75 236q0 144 -78.5 240.5t-202.5 96.5q-132 0 -215 -105.5t-83 -245.5z" />
<glyph unicode=":" horiz-adv-x="571" d="M182 0v205h205v-205h-205zM182 857v205h205v-205h-205z" />
<glyph unicode=";" horiz-adv-x="571" d="M166 -213q113 47 114 213h-102v205h205v-205q0 -217 -167 -290zM178 857v205h205v-205h-205z" />
<glyph unicode="&#x3c;" horiz-adv-x="1196" d="M113 641v168l971 410v-179l-770 -316l770 -319v-179z" />
<glyph unicode="=" horiz-adv-x="1196" d="M114 417v168h968v-168h-968zM114 862v168h968v-168h-968z" />
<glyph unicode="&#x3e;" horiz-adv-x="1196" d="M113 226v179l769 319l-769 316v179l971 -410v-168z" />
<glyph unicode="?" d="M94 1068q24 209 151.5 316t323.5 107q205 0 338 -114t133 -286q0 -87 -37.5 -165.5t-183.5 -208.5q-111 -98 -139 -155.5t-31 -200.5h-173q-1 37 -1 58q0 140 50 223.5t183 200.5q82 71 114.5 120.5t32.5 115.5q0 104 -81.5 184t-201.5 80q-247 0 -293 -297zM465 0v205 h205v-205h-205z" />
<glyph unicode="@" horiz-adv-x="2079" d="M116 469q0 399 254 711.5t735 312.5q394 0 625 -231t231 -549q0 -279 -188.5 -498t-413.5 -219q-93 0 -141.5 42t-51.5 125q-145 -166 -307 -166q-150 0 -256 126t-106 318q0 242 159 442.5t360 200.5q95 0 170.5 -46t131.5 -138l34 155h179l-144 -671q-30 -140 -30 -155 q0 -30 22 -48t48 -18q50 0 147 65.5t168 200.5t71 287q0 276 -206 453.5t-511 177.5q-368 0 -600 -250t-232 -610q0 -244 107 -424t312 -263t447 -83q256 0 435.5 88.5t263.5 213.5h181q-83 -172 -310.5 -311t-572.5 -139q-488 0 -749.5 247.5t-261.5 652.5zM682 434 q0 -132 63.5 -210.5t150.5 -78.5q136 0 250.5 153t114.5 347q0 134 -64.5 212t-167.5 78q-150 0 -248.5 -166.5t-98.5 -334.5z" />
<glyph unicode="A" horiz-adv-x="1367" d="M-1 0l563 1466h209l600 -1466h-221l-171 444h-613l-161 -444h-206zM422 602h497l-153 406q-73 194 -104 304q-28 -141 -79 -280z" />
<glyph unicode="B" horiz-adv-x="1367" d="M151 0v1466h550q236 0 361 -102.5t125 -272.5q0 -104 -51 -182t-154 -129q126 -34 201 -129t75 -226q0 -186 -125 -305.5t-423 -119.5h-559zM345 173h365q179 0 263 60.5t84 189.5q0 135 -90 194.5t-283 59.5h-339v-504zM345 850h317q174 0 254 47t80 172q0 122 -75 173 t-283 51h-293v-443z" />
<glyph unicode="C" horiz-adv-x="1479" d="M105 744q0 352 193 549.5t499 197.5q220 0 371.5 -113.5t207.5 -313.5l-191 -45q-99 306 -381 306q-250 0 -374.5 -157.5t-124.5 -416.5q0 -311 130.5 -460.5t342.5 -149.5q161 0 276.5 94t152.5 279l194 -49q-60 -240 -221.5 -365t-385.5 -125q-355 0 -522 223t-167 546 z" />
<glyph unicode="D" horiz-adv-x="1479" d="M161 0v1466h505q183 0 296 -29.5t209 -122.5t149 -236.5t53 -333.5q0 -266 -97 -443.5t-244 -239t-342 -61.5h-529zM355 173h313q172 0 273.5 44.5t166.5 178t65 349.5q0 217 -71.5 345t-169 165.5t-269.5 37.5h-308v-1120z" />
<glyph unicode="E" horiz-adv-x="1367" d="M162 0v1466h1060v-173h-866v-449h811v-172h-811v-499h900v-173h-1094z" />
<glyph unicode="F" horiz-adv-x="1254" d="M164 0v1466h989v-173h-795v-454h688v-173h-688v-666h-194z" />
<glyph unicode="G" horiz-adv-x="1593" d="M106 726q0 334 190.5 549.5t543.5 215.5q490 0 600 -435l-175 -48q-78 317 -424 317q-274 0 -404.5 -167.5t-130.5 -414.5q0 -300 150 -446.5t388 -146.5q135 0 257 53t171 99v273h-431v173h621v-544q-141 -114 -292.5 -171.5t-314.5 -57.5q-344 0 -546.5 206.5 t-202.5 544.5z" />
<glyph unicode="H" horiz-adv-x="1479" d="M164 0v1466h194v-602h762v602h194v-1466h-194v691h-762v-691h-194z" />
<glyph unicode="I" horiz-adv-x="571" d="M188 0v1466h194v-1466h-194z" />
<glyph unicode="J" horiz-adv-x="1024" d="M59 416l175 24q6 -292 218 -292q118 0 168.5 68.5t50.5 239.5v1010h194v-999q0 -291 -119 -391.5t-293 -100.5q-195 0 -297 112q-97 108 -97 313v16z" />
<glyph unicode="K" horiz-adv-x="1367" d="M151 0v1466h194v-727l728 727h263l-615 -594l642 -872h-256l-522 742l-240 -234v-508h-194z" />
<glyph unicode="L" d="M154 0v1466h194v-1293h722v-173h-916z" />
<glyph unicode="M" horiz-adv-x="1706" d="M154 0v1466h292l347 -1038l70 -217q21 70 78 235l351 1020h261v-1466h-187v1227l-426 -1227h-175l-424 1248v-1248h-187z" />
<glyph unicode="N" horiz-adv-x="1479" d="M162 0v1466h199l770 -1151v1151h186v-1466h-199l-770 1152v-1152h-186z" />
<glyph unicode="O" horiz-adv-x="1593" d="M96 714q0 366 197 572t505 206q309 0 504.5 -209.5t195.5 -551.5q0 -340 -197 -548t-504 -208q-221 0 -387.5 110.5t-240 284t-73.5 344.5zM296 711q0 -251 136 -410.5t364 -159.5q224 0 363 157.5t139 433.5q0 280 -140 436.5t-359 156.5q-215 0 -359 -147t-144 -467z " />
<glyph unicode="P" horiz-adv-x="1367" d="M158 0v1466h553q190 0 303 -33t188 -137.5t75 -253.5q0 -189 -121 -317.5t-428 -128.5h-376v-596h-194zM352 769h379q173 0 259.5 67t86.5 200q0 93 -47 158t-109.5 82t-193.5 17h-375v-524z" />
<glyph unicode="Q" horiz-adv-x="1593" d="M96 733q0 333 192.5 546t509.5 213q216 0 378.5 -104.5t242 -275.5t79.5 -378q0 -363 -221 -577q153 -102 249 -136l-57 -135q-159 56 -315 180q-163 -91 -360 -91q-321 0 -509.5 219.5t-188.5 538.5zM296 733q0 -278 138 -435t362 -157q108 0 199 39q-92 61 -192 84 l47 141q169 -46 277 -140q171 156 171 469q0 266 -133 428.5t-366 162.5q-220 0 -361.5 -150.5t-141.5 -441.5z" />
<glyph unicode="R" horiz-adv-x="1479" d="M164 0v1466h650q171 0 275 -31t175.5 -131.5t71.5 -237.5q0 -160 -105 -267t-308 -132q145 -61 278 -268l255 -399h-244l-194 305q-152 237 -227.5 291.5t-207.5 54.5h-225v-651h-194zM358 819h417q181 0 271 61.5t90 184.5q0 94 -68.5 166.5t-245.5 72.5h-464v-485z" />
<glyph unicode="S" horiz-adv-x="1367" d="M92 471l183 16q17 -179 143 -258.5t286 -79.5q169 0 268.5 67t99.5 182q0 72 -42 123t-117.5 79.5t-284.5 78.5q-178 43 -270.5 87.5t-151 127.5t-58.5 193q0 177 140 290.5t376 113.5q251 0 396.5 -116.5t154.5 -321.5l-186 -14q-23 281 -355 281q-161 0 -250 -58.5 t-89 -161.5q0 -90 67 -137q66 -48 281 -97q222 -50 332.5 -96.5t177 -139t66.5 -215.5q0 -194 -149.5 -317t-392.5 -123q-309 0 -465 139.5t-160 356.5z" />
<glyph unicode="T" horiz-adv-x="1254" d="M44 1293v173h1162v-173h-485v-1293h-194v1293h-483z" />
<glyph unicode="U" horiz-adv-x="1479" d="M163 620v846h194v-846q0 -191 36.5 -283.5t125 -139.5t204.5 -47q219 0 309 98t90 372v846h194v-846q0 -218 -49.5 -351.5t-183.5 -213.5t-343 -80q-309 0 -443 152.5t-134 492.5z" />
<glyph unicode="V" horiz-adv-x="1367" d="M10 1466h210l381 -1065q50 -139 77 -240q34 120 79 240l396 1065h198l-574 -1466h-199z" />
<glyph unicode="W" horiz-adv-x="1933" d="M21 1466h199l223 -961q38 -162 62 -300l66 271l279 990h234l210 -742q78 -275 114 -519q28 139 73 319l230 942h195l-402 -1466h-187l-309 1117l-46 172q-22 -96 -43 -172l-311 -1117h-198z" />
<glyph unicode="X" horiz-adv-x="1367" d="M9 0l567 764l-500 702h231l266 -376q89 -125 118 -180q49 80 116 167l295 389h211l-515 -691l555 -775h-240l-369 523q-33 48 -64 98q-45 -75 -70 -110l-368 -511h-233z" />
<glyph unicode="Y" horiz-adv-x="1367" d="M6 1466h236l289 -442q85 -131 149 -248q66 115 160 259l284 431h226l-585 -845v-621h-194v621z" />
<glyph unicode="Z" horiz-adv-x="1254" d="M37 0v180l751 939q80 100 152 174h-818v173h1050v-173l-823 -1017q-44 -52 -89 -103h936v-173h-1159z" />
<glyph unicode="[" horiz-adv-x="571" d="M136 -407v1873h397v-149h-217v-1575h217v-149h-397z" />
<glyph unicode="\" horiz-adv-x="569" d="M0 1491h145l424 -1516h-144z" />
<glyph unicode="]" horiz-adv-x="571" d="M36 -258h217v1575h-217v149h397v-1873h-397v149z" />
<glyph unicode="^" horiz-adv-x="961" d="M54 690l353 801h145l355 -801h-181l-247 597l-240 -597h-185z" />
<glyph unicode="_" d="M-12 -277h1163v-130h-1163v130z" />
<glyph unicode="`" horiz-adv-x="682" d="M89 1474h241l135 -280h-145z" />
<glyph unicode="a" d="M78 280q0 148 104 228q103 79 314 104q218 26 321 62q1 37 1 47q0 105 -55.5 160.5t-200.5 55.5q-128 0 -188 -44.5t-89 -157.5l-176 24q58 327 472 327q179 0 274 -52.5t119.5 -127.5t24.5 -221v-240q0 -237 9.5 -307t47.5 -138h-188q-29 56 -36 131 q-90 -77 -187.5 -116t-203.5 -39q-168 0 -265.5 83.5t-97.5 220.5zM270 285q0 -73 55.5 -120.5t158.5 -47.5q104 0 186 46t114.5 117t32.5 187v66q-98 -40 -294 -68q-144 -21 -198 -61q-55 -40 -55 -119z" />
<glyph unicode="b" d="M138 0v1466h180v-523q55 72 127.5 107.5t162.5 35.5q204 0 327.5 -149t123.5 -390q0 -271 -134 -421t-327 -150q-93 0 -166 39.5t-127 117.5v-133h-167zM303 539q0 -166 33.5 -241t97.5 -124.5t151 -49.5q133 0 211.5 112t78.5 296q0 177 -70.5 291.5t-211.5 114.5 q-137 0 -213.5 -116t-76.5 -283z" />
<glyph unicode="c" horiz-adv-x="1024" d="M80 527q0 274 132.5 416.5t351.5 142.5q157 0 275.5 -82t148.5 -254l-175 -27q-50 215 -241 215q-143 0 -225 -102t-82 -299q0 -206 74 -309.5t222 -103.5q229 0 267 265l177 -23q-26 -184 -150 -287t-286 -103q-237 0 -363 150t-126 401z" />
<glyph unicode="d" d="M74 529q0 257 123 407t326 150q94 0 167 -36.5t126 -109.5v526h179v-1466h-167v134q-50 -79 -124 -118.5t-172 -39.5q-203 0 -330.5 156t-127.5 397zM259 530q0 -188 79 -297t210 -109q113 0 198 94t85 300q0 188 -75 303.5t-216 115.5q-132 0 -206.5 -107t-74.5 -300z " />
<glyph unicode="e" d="M79 522q0 255 133 409.5t363 154.5q216 0 349.5 -148t133.5 -407q0 -14 -1 -46h-792q8 -166 95 -263.5t226 -97.5q206 0 280 218l186 -23q-40 -155 -159 -249t-308 -94q-238 0 -372 146t-134 400zM275 633h593q-10 158 -96 231.5t-195 73.5q-134 0 -214.5 -90t-87.5 -215 z" />
<glyph unicode="f" horiz-adv-x="571" d="M16 922v140h159v113q0 115 27 178.5t94.5 100.5t172.5 37q76 0 168 -18l-27 -157q-49 10 -109 10q-68 0 -107.5 -29.5t-39.5 -136.5v-98h207v-140h-207v-922h-179v922h-159z" />
<glyph unicode="g" d="M70 535q0 241 121 396t341 155q93 0 170 -38t138 -114v128h166v-918q0 -231 -46 -340t-160.5 -172t-269.5 -63q-214 0 -321 93q-103 91 -103 239v11l175 -26q17 -168 244 -168q121 0 190.5 48t88.5 120t19 253q-58 -69 -131 -104t-160 -35q-220 0 -341 157.5t-121 377.5z M255 550q0 -213 85 -307t206 -94q129 0 210.5 98.5t81.5 300.5q0 170 -77.5 279.5t-217.5 109.5q-130 0 -209 -103.5t-79 -283.5z" />
<glyph unicode="h" d="M138 0v1466h180v-526q61 73 141 109.5t179 36.5q177 0 271 -93t94 -320v-673h-180v673q0 129 -56 193.5t-169 64.5q-98 0 -189 -69t-91 -281v-581h-180z" />
<glyph unicode="i" horiz-adv-x="455" d="M137 0v1062h180v-1062h-180zM137 1259v207h180v-207h-180z" />
<glyph unicode="j" horiz-adv-x="455" d="M-90 -412l34 153q52 -14 85 -14q63 0 86 41.5t23 177.5v1116h180v-1120q0 -197 -58.5 -285t-208.5 -88q-73 0 -141 19zM138 1257v209h180v-209h-180z" />
<glyph unicode="k" horiz-adv-x="1024" d="M136 0v1466h180v-836l426 432h233l-406 -394l447 -668h-222l-351 543l-127 -122v-421h-180z" />
<glyph unicode="l" horiz-adv-x="455" d="M135 0v1466h180v-1466h-180z" />
<glyph unicode="m" horiz-adv-x="1706" d="M134 0v1062h161v-149q57 87 138 130t186 43q116 0 190.5 -46.5t107.5 -139.5q61 93 143 139.5t184 46.5q165 0 247 -89t82 -268v-729h-179v669q0 141 -43.5 201t-144.5 60q-116 0 -188.5 -76t-72.5 -237v-617h-180v690q0 120 -47.5 180t-142.5 60q-97 0 -179 -69.5 t-82 -309.5v-551h-180z" />
<glyph unicode="n" d="M139 0v1062h162v-151q59 88 143.5 131.5t194.5 43.5q130 0 218 -56t116.5 -138.5t28.5 -238.5v-653h-180v646q0 148 -52 216t-171 68q-117 0 -198.5 -75t-81.5 -275v-580h-180z" />
<glyph unicode="o" d="M72 531q0 286 146 420.5t352 134.5q228 0 362.5 -148t134.5 -392q0 -287 -138.5 -428.5t-358.5 -141.5q-212 0 -355 137.5t-143 417.5zM257 531q0 -201 88.5 -304t224.5 -103t224 103t88 310q0 189 -86 294.5t-226 105.5q-137 0 -225 -103t-88 -303z" />
<glyph unicode="p" d="M139 -407v1469h164v-138q55 81 131.5 121.5t174.5 40.5q211 0 331.5 -153t120.5 -381q0 -266 -130 -421t-334 -155q-85 0 -154.5 33.5t-123.5 100.5v-517h-180zM302 525q0 -184 73.5 -292.5t209.5 -108.5q121 0 206.5 102t85.5 318q0 187 -79 294t-204 107 q-128 0 -210 -117t-82 -303z" />
<glyph unicode="q" d="M76 541q0 248 123 396.5t327 148.5q98 0 175 -41.5t133 -124.5v142h162v-1469h-180v520q-34 -53 -111.5 -95t-166.5 -42q-205 0 -333.5 160t-128.5 405zM261 534q0 -190 80 -300t212 -110q114 0 197.5 97t83.5 300q0 180 -77.5 301.5t-215.5 121.5q-129 0 -204.5 -107.5 t-75.5 -302.5z" />
<glyph unicode="r" horiz-adv-x="683" d="M133 0v1062h162v-161q48 93 105.5 139t124.5 46q93 0 185 -58l-62 -167q-66 39 -132 39q-101 0 -152 -86t-51 -258v-556h-180z" />
<glyph unicode="s" horiz-adv-x="1024" d="M63 317l178 28q31 -221 275 -221q120 0 182 49.5t62 119.5q0 61 -45 91q-45 29 -192 66q-176 45 -256.5 78.5t-127 98.5t-46.5 153q0 140 108.5 223t278.5 83q169 0 285 -64.5t140 -233.5l-176 -24q-25 174 -232 174q-107 0 -168.5 -35.5t-61.5 -101.5q0 -59 44 -86 q43 -27 206 -71q184 -49 265 -82.5t122 -98t41 -151.5q0 -143 -115.5 -239.5t-312.5 -96.5q-394 0 -454 341z" />
<glyph unicode="t" horiz-adv-x="571" d="M33 922v140h132v263l179 108v-371h181v-140h-181v-621q0 -85 19 -116t83 -31q32 0 79 7l26 -159q-73 -16 -135 -16q-105 0 -162.5 36t-73 94.5t-15.5 194.5v611h-132z" />
<glyph unicode="u" d="M135 404v658h180v-589q0 -139 13 -198.5t68 -101.5t138 -42q132 0 207 83t75 279v569h180v-1062h-161v156q-62 -90 -146.5 -135t-191.5 -45q-126 0 -214.5 56t-118 139.5t-29.5 232.5z" />
<glyph unicode="v" horiz-adv-x="1024" d="M26 1062h190l228 -636q39 -108 68 -214q21 77 67 202l236 648h185l-402 -1062h-168z" />
<glyph unicode="w" horiz-adv-x="1479" d="M10 1062h186l169 -613l63 -228q4 17 55 219l169 622h185l159 -616l53 -203l61 205l182 614h175l-332 -1062h-187l-169 636q-21 91 -41 181l-215 -817h-188z" />
<glyph unicode="x" horiz-adv-x="1024" d="M15 0l388 552l-359 510h225l163 -249q51 -78 74 -119q37 55 81 117l179 251h215l-367 -500l395 -562h-221l-218 330l-58 89l-279 -419h-218z" />
<glyph unicode="y" horiz-adv-x="1024" d="M33 1062h194l221 -615q45 -123 77 -246q29 120 74 242l227 619h180l-404 -1080q-92 -245 -161.5 -329t-197.5 -84q-54 0 -116 22l-20 169q57 -16 104 -16q86 0 124.5 40.5t84.5 169.5q5 15 16 44z" />
<glyph unicode="z" horiz-adv-x="1024" d="M40 0v146l676 776q-106 -6 -203 -6h-433v146h868v-119l-575 -674q-56 -61 -111 -123q122 9 227 9h491v-155h-940z" />
<glyph unicode="{" horiz-adv-x="683" d="M58 449v163q119 3 163 83.5t44 303.5q0 229 24.5 318t94 131.5t197.5 42.5h56v-157h-31q-100 0 -136 -35.5t-36 -169.5q0 -234 -10 -327.5t-55.5 -159t-143.5 -112.5q102 -40 155.5 -133.5t53.5 -316.5q0 -194 6 -247.5t39 -80t127 -26.5h31v-157h-56q-148 0 -201 44.5 t-84 109.5t-31 338q0 223 -43.5 304t-163.5 84z" />
<glyph unicode="|" horiz-adv-x="532" d="M188 -431v1922h157v-1922h-157z" />
<glyph unicode="}" horiz-adv-x="683" d="M47 -274h31q100 0 136 35.5t36 170.5q0 240 11 332.5t60.5 160.5t137.5 105q-125 56 -167 156t-42 294t-6 247.5t-39 80t-127 26.5h-31v157h56q148 0 200.5 -44t84 -109t31.5 -339q0 -222 43.5 -303t163.5 -84v-163q-119 -3 -163 -83.5t-44 -304.5q0 -229 -24.5 -318 t-94 -131.5t-197.5 -42.5h-56v157z" />
<glyph unicode="~" horiz-adv-x="1196" d="M87 557v205q106 120 278 120q111 0 314 -87q111 -47 173 -47q127 0 258 137v-212q-119 -114 -277 -114q-106 0 -244 61q-161 73 -241 73q-72 0 -128.5 -31.5t-132.5 -104.5z" />
<glyph unicode="&#xa4;" d="M78 354l139 136q-71 110 -71 237q0 124 71 234l-139 136l115 119l139 -139q53 36 112.5 54t124.5 18q66 0 125.5 -18t111.5 -54l139 139l116 -119l-139 -136q71 -110 71 -235q0 -126 -71 -236l139 -136l-116 -119l-139 140q-53 -36 -112 -54.5t-125 -18.5 q-65 0 -124.5 18.5t-112.5 54.5l-139 -140zM309 726q0 -105 74.5 -182.5t184.5 -77.5q107 0 183 76t76 184q0 107 -76 183t-183 76q-111 0 -185 -77.5t-74 -181.5z" />
<glyph unicode="&#xa6;" horiz-adv-x="533" d="M188 360h157v-791h-157v791zM188 701v790h157v-790h-157z" />
<glyph unicode="&#xa7;" d="M85 644q0 100 61.5 176.5t163.5 106.5q-64 60 -96.5 121t-32.5 124q0 128 99.5 223.5t265.5 95.5q374 0 418 -347l-187 -19q-29 218 -215 218q-88 0 -146.5 -47.5t-58.5 -111.5q0 -31 15 -61t45 -60q60 -60 282 -195q204 -124 277 -205t73 -201q0 -107 -56 -171.5 t-171 -112.5q80 -61 119.5 -131t39.5 -149q0 -141 -110.5 -235t-286.5 -94q-181 0 -297.5 90.5t-139.5 270.5l181 26q43 -235 255 -235q103 0 160 53t57 121q0 61 -66 125t-310 214q-191 117 -265 204t-74 206zM248 664q0 -59 43 -116q43 -58 195 -147.5t246 -156.5 q147 75 147 187q0 65 -60 129q-60 63 -217 160q-145 89 -204 138q-150 -85 -150 -194z" />
<glyph unicode="&#xa9;" horiz-adv-x="1509" d="M0 736q0 202 104 382t282.5 276.5t368.5 96.5q311 0 532.5 -221t221.5 -534q0 -310 -221.5 -532t-532.5 -222q-313 0 -534 221t-221 533zM125 736q0 -259 185 -444t445 -185q261 0 445 184.5t184 444.5q0 170 -86 318t-233.5 230t-309.5 82q-259 0 -444.5 -184.5 t-185.5 -445.5zM360 734q0 196 107 311t297 115q133 0 222.5 -65t118.5 -171l-119 -29q-61 153 -226 153q-127 0 -195.5 -90t-68.5 -226q0 -148 69 -229.5t184 -81.5q85 0 156 51t92 142l123 -36q-28 -124 -127.5 -199t-234.5 -75q-198 0 -298 124.5t-100 305.5z" />
<glyph unicode="&#xab;" d="M138 528l319 456h148l-261 -456l259 -456h-146zM530 528l313 456h152l-264 -456l264 -456h-152z" />
<glyph unicode="&#xac;" horiz-adv-x="1196" d="M114 862v168h968v-606h-170v438h-798z" />
<glyph unicode="&#xad;" horiz-adv-x="682" d="M65 440v181h553v-181h-553z" />
<glyph unicode="&#xae;" horiz-adv-x="1509" d="M0 736q0 202 104 382t282.5 276.5t368.5 96.5q311 0 532.5 -221t221.5 -534q0 -310 -221.5 -532t-532.5 -222q-313 0 -534 221t-221 533zM125 736q0 -259 185 -444t445 -185q261 0 445 184.5t184 444.5q0 170 -86 318t-233.5 230t-309.5 82q-259 0 -444.5 -184.5 t-185.5 -445.5zM424 319v812h279q121 0 187 -16t113 -73t47 -131q0 -87 -63 -154t-169 -75q75 -22 189 -204l99 -159h-160l-72 128q-82 144 -125 180.5t-117 36.5h-77v-345h-131zM555 776h159q99 0 148 31t49 93q0 65 -47 93t-160 28h-149v-245z" />
<glyph unicode="&#xb0;" horiz-adv-x="819" d="M132 1214q0 114 81.5 195.5t195.5 81.5q116 0 197 -81t81 -196q0 -116 -81.5 -197t-196.5 -81q-113 0 -195 81.5t-82 196.5zM241 1214q0 -68 48.5 -118.5t119.5 -50.5q70 0 119.5 49.5t49.5 119.5q0 69 -49.5 119t-119.5 50q-72 0 -120 -51t-48 -118z" />
<glyph unicode="&#xb1;" horiz-adv-x="1196" d="M114 0v168h968v-168h-968zM114 663v167h399v399h170v-399h399v-167h-399v-403h-170v403h-399z" />
<glyph unicode="&#xb5;" horiz-adv-x="1159" d="M161 -407v1469h178v-450q0 -191 14.5 -275t77 -141.5t153.5 -57.5t158 55t83.5 135t16.5 281v453h177v-1062h-161v126q-44 -75 -111.5 -113t-157.5 -38q-77 0 -139.5 33t-110.5 99v-514h-178z" />
<glyph unicode="&#xb6;" horiz-adv-x="1100" d="M-4 1044q0 190 119 306t354 116h633v-173h-144v-1700h-170v1700h-223v-1700h-165v1045q-184 8 -294 120.5t-110 285.5z" />
<glyph unicode="&#xb7;" horiz-adv-x="574" d="M184 619v205h205v-205h-205z" />
<glyph unicode="&#xbb;" d="M144 72l264 456l-264 456h151l314 -456l-314 -456h-151zM534 984h148l319 -456l-319 -456h-147l260 456z" />
<glyph unicode="&#x2000;" horiz-adv-x="800" />
<glyph unicode="&#x2001;" horiz-adv-x="1601" />
<glyph unicode="&#x2002;" horiz-adv-x="800" />
<glyph unicode="&#x2003;" horiz-adv-x="1601" />
<glyph unicode="&#x2004;" horiz-adv-x="533" />
<glyph unicode="&#x2005;" horiz-adv-x="400" />
<glyph unicode="&#x2006;" horiz-adv-x="266" />
<glyph unicode="&#x2007;" horiz-adv-x="266" />
<glyph unicode="&#x2008;" horiz-adv-x="200" />
<glyph unicode="&#x2009;" horiz-adv-x="320" />
<glyph unicode="&#x200a;" horiz-adv-x="88" />
<glyph unicode="&#x2010;" horiz-adv-x="682" d="M65 440v181h553v-181h-553z" />
<glyph unicode="&#x2011;" horiz-adv-x="682" d="M65 440v181h553v-181h-553z" />
<glyph unicode="&#x2012;" horiz-adv-x="682" d="M65 440v181h553v-181h-553z" />
<glyph unicode="&#x2013;" d="M-12 458v145h1163v-145h-1163z" />
<glyph unicode="&#x2014;" horiz-adv-x="2048" d="M-12 458v145h2072v-145h-2072z" />
<glyph unicode="&#x2018;" horiz-adv-x="455" d="M131 1011v165q0 131 36 202t129 113l44 -70q-108 -44 -110 -201h94v-209h-193z" />
<glyph unicode="&#x2019;" horiz-adv-x="455" d="M112 1072q109 44 110 200h-94v209h193v-165q0 -131 -35.5 -202t-129.5 -113z" />
<glyph unicode="&#x201a;" horiz-adv-x="463" d="M116 -200q109 44 110 200h-94v209h193v-165q0 -131 -35.5 -202t-129.5 -113z" />
<glyph unicode="&#x201c;" horiz-adv-x="683" d="M83 1011v165q0 131 36 202t129 113l44 -70q-108 -44 -110 -201h94v-209h-193zM393 1011v165q0 131 36 202t129 113l44 -70q-108 -44 -110 -201h94v-209h-193z" />
<glyph unicode="&#x201d;" horiz-adv-x="683" d="M70 1072q109 44 110 200h-94v209h193v-165q0 -131 -35.5 -202t-129.5 -113zM380 1072q109 44 110 200h-94v209h193v-165q0 -131 -35.5 -202t-129.5 -113z" />
<glyph unicode="&#x201e;" horiz-adv-x="683" d="M71 -200q109 44 110 200h-94v209h193v-165q0 -131 -35.5 -202t-129.5 -113zM381 -200q109 44 110 200h-94v209h193v-165q0 -131 -35.5 -202t-129.5 -113z" />
<glyph unicode="&#x2022;" horiz-adv-x="717" d="M105 718q0 104 74.5 178.5t178.5 74.5q105 0 179.5 -74t74.5 -179t-75 -179.5t-179 -74.5t-178.5 74.5t-74.5 179.5z" />
<glyph unicode="&#x2026;" horiz-adv-x="2048" d="M239 0v205h205v-205h-205zM922 0v205h205v-205h-205zM1604 0v205h206v-205h-206z" />
<glyph unicode="&#x202f;" horiz-adv-x="320" />
<glyph unicode="&#x2039;" horiz-adv-x="684" d="M93 527l315 457h149l-265 -457l265 -455h-149z" />
<glyph unicode="&#x203a;" horiz-adv-x="684" d="M127 72l265 458l-265 454h149l315 -454l-315 -458h-149z" />
<glyph unicode="&#x205f;" horiz-adv-x="400" />
<glyph unicode="&#x2122;" horiz-adv-x="2048" d="M225 1345v121h666v-121h-266v-694h-136v694h-264zM982 651v815h200l206 -651l199 651h196v-815h-124v684l-210 -684h-123l-219 694v-694h-125z" />
<glyph unicode="&#x25fc;" horiz-adv-x="1060" d="M0 0v1060h1060v-1060h-1060z" />
</font>
</defs>
</svg>
