<?xml version="1.0" standalone="no"?>
<!DOCTYPE svg PUBLIC "-//W3C//DTD SVG 1.1//EN" "http://www.w3.org/Graphics/SVG/1.1/DTD/svg11.dtd" >
<svg xmlns="http://www.w3.org/2000/svg" xmlns:xlink="http://www.w3.org/1999/xlink" version="1.1">
<metadata>
Created by FontForge 20190420 at Tue Nov 28 11:27:36 2000
 By convertio
Digitized data copyright (C) 1993-2000 Agfa Monotype Corporation. All rights reserved. Arial is a trademark of The Monotype Corporation which may be registered in certain jurisdictions.
</metadata>
<defs>
<font id="ArialUnicodeMS" horiz-adv-x="2048" >
  <font-face 
    font-family="Arial Unicode MS"
    font-weight="400"
    font-stretch="normal"
    units-per-em="2048"
    panose-1="2 11 6 4 2 2 2 2 2 4"
    ascent="1638"
    descent="-410"
    x-height="1061"
    cap-height="1466"
    bbox="-2071 -675 4629 2208"
    underline-thickness="102"
    underline-position="-256"
    unicode-range="U+0020-FFFD"
  />
<missing-glyph 
d="M256 0v1536h1536v-1536h-1536zM384 128h1280v1280h-1280v-1280z" />
    <glyph glyph-name="uni0622" unicode="&#x627;&#x6e4;" horiz-adv-x="498" 
d="M336 0h-174v1466h174v-1466zM552 1675q-71 -86 -166 -86q-36 0 -135 32q-96 31 -129 31q-64 0 -119 -59l-51 55q70 84 164 84q37 0 137 -32q95 -31 129 -31q72 0 119 61zM253 1766z" />
    <glyph glyph-name="uni0623" unicode="&#x627;&#x674;" horiz-adv-x="498" 
d="M336 0h-174v1466h174v-1466zM385 1642l-272 -49v72l59 10q-78 33 -78 109q0 58 37 92.5t98 34.5q122 0 146 -109l-72 -6q-13 37 -72 37q-65 0 -65 -49q0 -37 38.5 -60.5t96.5 -23.5l84 14v-72zM257 1466z" />
    <glyph glyph-name="uni0624" unicode="&#x648;&#x674;" horiz-adv-x="963" 
d="M641 213q-55 -14 -104 -14q-157 0 -281.5 101.5t-124.5 285.5q0 165 101 277t233 112q142 0 256.5 -170.5t114.5 -429.5q0 -206 -118 -394.5t-318.5 -299.5t-424.5 -111q-70 0 -196 14l37 197q89 -17 161 -17q242 0 425 130t239 319zM662 408q-8 142 -68 257t-129 115
q-62 0 -111 -56.5t-49 -137.5t64 -137t157 -56q82 0 136 15zM578 1290l-272 -49v72l59 10q-78 33 -78 109q0 58 37 92.5t98 34.5q122 0 146 -109l-72 -6q-13 37 -72 37q-65 0 -65 -49q0 -37 38.5 -60.5t96.5 -23.5l84 14v-72zM450 1114z" />
    <glyph glyph-name="uni0626" unicode="&#x64a;&#x674;" horiz-adv-x="1497" 
d="M1391 649l-174 -18q-34 102 -203 102q-77 0 -131 -33.5t-54 -87.5q0 -31 34.5 -65t174.5 -103q211 -105 271.5 -178t60.5 -151q0 -153 -163.5 -258t-499.5 -105q-294 0 -467.5 105.5t-173.5 304.5q0 99 47 235l159 -41q-32 -106 -32 -192q0 -110 106 -163.5t363 -53.5
q241 0 364 48.5t123 123.5q0 38 -38 77t-190 115q-201 100 -257 166t-56 135q0 118 101.5 217t257.5 99q313 0 377 -279zM438 652l-272 -49v72l59 10q-78 33 -78 109q0 58 37 92.5t98 34.5q122 0 146 -109l-72 -6q-13 37 -72 37q-65 0 -65 -49q0 -37 38.5 -60.5t96.5 -23.5
l84 14v-72zM310 476z" />
    <glyph glyph-name="uniE818" unicode="&#x64b;&#x651;" horiz-adv-x="0" 
d="M606 1756q6 -38 6 -94q0 -91 -47 -144t-125 -53q-84 0 -118 78q-39 -125 -150 -125q-74 0 -116 42.5t-42 117.5q0 35 6 92h78q-6 -57 -6 -90q0 -38 21 -61t59 -23q102 0 102 160v61h78v-51q0 -59 24 -91t64 -32q41 0 68 36.5t27 84.5q0 39 -7 92h78zM336 1305zM594 2093
l-574 -100v88l574 100v-88zM594 1919l-574 -100v88l574 100v-88zM307 1714z" />
    <glyph glyph-name="uniFD3C" unicode="&#xfe8e;&#x64b;" horiz-adv-x="559" arabic-form="final" 
d="M561 0h-65q-179 0 -256.5 95t-77.5 300v1071h174v-1067q0 -204 151 -204h74v-195zM1259 1845l-861 -100v88l861 100v-88zM1259 1671l-861 -100v88l861 100v-88z" />
    <glyph glyph-name="uniFD3D" unicode="&#x627;&#x64b;" horiz-adv-x="498" arabic-form="isolated" 
d="M336 0h-174v1466h174v-1466zM1259 1845l-861 -100v88l861 100v-88zM1259 1671l-861 -100v88l861 100v-88z" />
    <glyph glyph-name="uniFDF2" unicode="&#x627;&#xfedf;&#xfee0;&#x651;&#x670;&#xfeea;" horiz-adv-x="2374" arabic-form="isolated" 
d="M1184 1763h-74v316h74v-316zM1440 1702q6 -29 6 -94q0 -89 -45.5 -143t-126.5 -54q-83 0 -117 78q-41 -125 -151 -125q-74 0 -116 42.5t-42 117.5q0 32 6 92h78q-6 -60 -6 -90q0 -84 80 -84q49 0 71.5 32t26.5 68.5t4 120.5h78q0 -112 24.5 -143t63.5 -31q42 0 69 36.5
t27 84.5q0 33 -8 92h78zM2206 0h-174v1425h174v-1425zM1774 395q0 -207 -86.5 -301t-272.5 -94q-134 0 -209 84q-78 -84 -250 -84q-144 0 -223 62.5t-106 191.5q-32 -59 -105.5 -94t-144.5 -35q-122 0 -196.5 76.5t-74.5 199.5q0 147 115.5 257.5t327.5 170.5l-10 84h174
q47 -391 59 -503.5t54.5 -163.5t131.5 -51q83 0 122.5 48.5t39.5 155.5v883h174v-883q0 -74 8.5 -114.5t41.5 -65t104 -24.5q151 0 151 204v883h175v-887zM565 686q-266 -78 -266 -280q0 -40 31 -64.5t71 -24.5q60 0 124.5 53t64.5 109q0 26 -25 207z" />
    <glyph glyph-name="uniFE82" unicode="&#xfe8e;&#x6e4;" horiz-adv-x="559" arabic-form="final" 
d="M561 0h-65q-179 0 -256.5 95t-77.5 300v1071h174v-1067q0 -204 151 -204h74v-195zM552 1675q-71 -86 -166 -86q-36 0 -135 32q-96 31 -129 31q-64 0 -119 -59l-51 55q70 84 164 84q37 0 137 -32q95 -31 129 -31q72 0 119 61z" />
    <glyph glyph-name="uniFE84" unicode="&#xfe8e;&#x674;" horiz-adv-x="559" arabic-form="final" 
d="M561 0h-65q-179 0 -256.5 95t-77.5 300v1071h174v-1067q0 -204 151 -204h74v-195zM385 1642l-272 -49v72l59 10q-78 33 -78 109q0 58 37 92.5t98 34.5q122 0 146 -109l-72 -6q-13 37 -72 37q-65 0 -65 -49q0 -37 38.5 -60.5t96.5 -23.5l84 14v-72zM257 1466z" />
    <glyph glyph-name="uniFE86" unicode="&#xfeee;&#x674;" horiz-adv-x="954" arabic-form="final" 
d="M956 0h-170q-60 -213 -270 -321.5t-547 -108.5q-70 0 -196 14l37 197q89 -17 161 -17q283 0 430 56t193 180h-84q-157 0 -281.5 102t-124.5 285q0 165 101 277t233 112q136 0 249.5 -158.5t121.5 -422.5h147v-195zM635 195q0 155 -58.5 271t-138.5 116q-62 0 -110.5 -57
t-48.5 -138t63.5 -136.5t157.5 -55.5h135zM549 1091l-272 -49v72l59 10q-78 33 -78 109q0 58 37 92.5t98 34.5q122 0 146 -109l-72 -6q-13 37 -72 37q-65 0 -65 -49q0 -37 38.5 -60.5t96.5 -23.5l84 14v-72zM421 915z" />
    <glyph glyph-name="uniFE8A" unicode="&#xfef2;&#x674;" horiz-adv-x="1624" arabic-form="final" 
d="M1626 0h-6q-43 0 -127 34q-71 29 -102 29q-23 0 -37.5 -12t-14.5 -28q0 -18 49 -87q70 -101 70 -139q0 -125 -215.5 -237.5t-531.5 -112.5q-294 0 -467.5 105.5t-173.5 304.5q0 99 47 235l159 -41q-32 -107 -32 -192q0 -110 106 -163.5t363 -53.5q247 0 409 56t162 124
q0 18 -45 85q-74 109 -74 156q0 77 66 136t160 59q40 0 132 -35q71 -28 97 -28h6v-195zM465 348l-272 -49v72l59 10q-78 33 -78 109q0 58 37 92.5t98 34.5q122 0 146 -109l-72 -6q-13 37 -72 37q-65 0 -65 -49q0 -37 38.5 -60.5t96.5 -23.5l84 14v-72zM337 172z" />
    <glyph glyph-name="uniFEF5" unicode="&#xfedf;&#xfe82;" horiz-adv-x="1128" arabic-form="isolated" 
d="M971 702q0 -702 -664 -702q-68 0 -170 14l39 195q76 -14 131 -14q177 0 289 55l-580 1071l152 76l557 -1035q72 102 72 281v823h174v-764zM734 1466zM834 -160zM351 1675q-71 -86 -166 -86q-36 0 -135 32q-96 31 -129 31q-64 0 -119 -59l-51 55q70 84 164 84
q37 0 137 -32q95 -31 129 -31q72 0 119 61zM52 1766zM207 -160z" />
    <glyph glyph-name="uniFEF6" unicode="&#xfee0;&#xfe82;" horiz-adv-x="1235" arabic-form="final" 
d="M1237 0h-49q-107 0 -198 63t-130 166q-74 -111 -186.5 -170t-241.5 -59q-150 0 -307 61l41 189q55 -24 135.5 -39.5t130.5 -15.5q97 0 164 55l-580 1071l152 76l557 -1035q72 102 72 281v823h174v-888q0 -175 54 -279t159 -104h53v-195zM734 1466zM834 -160zM353 1676
q-71 -86 -166 -86q-36 0 -135 32q-96 31 -129 31q-64 0 -119 -59l-51 55q70 84 164 84q37 0 137 -32q95 -31 129 -31q72 0 119 61zM52 1766zM207 -160z" />
    <glyph glyph-name="uniFEF7" unicode="&#xfedf;&#xfe84;" horiz-adv-x="1128" arabic-form="isolated" 
d="M971 702q0 -702 -664 -702q-68 0 -170 14l39 195q76 -14 131 -14q177 0 289 55l-580 1071l152 76l557 -1035q72 102 72 281v823h174v-764zM734 1466zM834 -160zM235 1492l-272 -49v72l59 10q-78 33 -78 109q0 58 37 92.5t98 34.5q122 0 146 -109l-72 -6q-13 37 -72 37
q-65 0 -65 -49q0 -37 38.5 -60.5t96.5 -23.5l84 14v-72zM207 -160zM79 1766z" />
    <glyph glyph-name="uniFEF8" unicode="&#xfee0;&#xfe84;" horiz-adv-x="1235" arabic-form="final" 
d="M1237 0h-49q-107 0 -198 63t-130 166q-74 -111 -186.5 -170t-241.5 -59q-150 0 -307 61l41 189q55 -24 135.5 -39.5t130.5 -15.5q97 0 164 55l-580 1071l152 76l557 -1035q72 102 72 281v823h174v-888q0 -175 54 -279t159 -104h53v-195zM734 1466zM834 -160zM235 1492
l-272 -49v72l59 10q-78 33 -78 109q0 58 37 92.5t98 34.5q122 0 146 -109l-72 -6q-13 37 -72 37q-65 0 -65 -49q0 -37 38.5 -60.5t96.5 -23.5l84 14v-72zM207 -160zM79 1766z" />
    <glyph glyph-name="uniFEF9" unicode="&#xfedf;&#xfe88;" horiz-adv-x="1128" arabic-form="isolated" 
d="M971 702q0 -702 -664 -702q-68 0 -170 14l39 195q76 -14 131 -14q177 0 289 55l-580 1071l152 76l557 -1035q72 102 72 281v823h174v-764zM734 1466zM834 -160zM429 -302l-272 -49v72l59 10q-78 33 -78 109q0 58 37 92.5t98 34.5q122 0 146 -109l-72 -6q-13 37 -72 37
q-65 0 -65 -49q0 -37 38.5 -60.5t96.5 -23.5l84 14v-72zM273 -351zM52 1466z" />
    <glyph glyph-name="uniFEFA" unicode="&#xfee0;&#xfe88;" horiz-adv-x="1235" arabic-form="final" 
d="M1237 0h-49q-107 0 -198 63t-130 166q-74 -111 -186.5 -170t-241.5 -59q-150 0 -307 61l41 189q55 -24 135.5 -39.5t130.5 -15.5q97 0 164 55l-580 1071l152 76l557 -1035q72 102 72 281v823h174v-888q0 -175 54 -279t159 -104h53v-195zM734 1466zM834 -160zM446 -303
l-272 -49v72l59 10q-78 33 -78 109q0 58 37 92.5t98 34.5q122 0 146 -109l-72 -6q-13 37 -72 37q-65 0 -65 -49q0 -37 38.5 -60.5t96.5 -23.5l84 14v-72zM290 -352zM52 1466z" />
    <glyph glyph-name="uniFEFB" unicode="&#xfedf;&#xfe8e;" horiz-adv-x="1128" arabic-form="isolated" 
d="M971 702q0 -702 -664 -702q-68 0 -170 14l39 195q76 -14 131 -14q177 0 289 55l-580 1071l152 76l557 -1035q72 102 72 281v823h174v-764zM734 1466zM834 -160zM52 1466zM207 -160z" />
    <glyph glyph-name="uniFEFC" unicode="&#xfee0;&#xfe8e;" horiz-adv-x="1235" arabic-form="final" 
d="M1237 0h-49q-107 0 -198 63t-130 166q-74 -111 -186.5 -170t-241.5 -59q-150 0 -307 61l41 189q55 -24 135.5 -39.5t130.5 -15.5q97 0 164 55l-580 1071l152 76l557 -1035q72 102 72 281v823h174v-888q0 -175 54 -279t159 -104h53v-195zM734 1466zM834 -160zM52 1466z
M207 -160z" />
    <glyph glyph-name="uni064C_uni0651.liga" unicode="&#x64c;&#x651;" horiz-adv-x="0" 
d="M598 1817q-83 12 -160 31q-185 -103 -430 -117v319h78v-239q144 10 274 65q-141 42 -141 152q0 64 46 108t112 44q67 0 114.5 -44t47.5 -110q0 -64 -50 -123q39 -10 109 -18v-68zM418 1921q43 41 43 105q0 32 -23.5 54t-56.5 22q-37 0 -60.5 -22t-23.5 -54
q0 -73 121 -105zM336 1618zM606 1749q6 -38 6 -94q0 -91 -47 -144t-125 -53q-84 0 -118 78q-39 -125 -150 -125q-74 0 -116 42.5t-42 117.5q0 35 6 92h78q-6 -57 -6 -90q0 -38 21 -61t59 -23q102 0 102 160v61h78v-51q0 -59 24 -91t64 -32q41 0 68 36.5t27 84.5q0 39 -7 92
h78zM336 1298z" />
    <glyph glyph-name="uni064D_uni0651.liga" unicode="&#x64d;&#x651;" horiz-adv-x="0" 
d="M606 2181q6 -38 6 -94q0 -91 -47 -144t-125 -53q-84 0 -118 78q-39 -125 -150 -125q-74 0 -116 42.5t-42 117.5q0 35 6 92h78q-6 -57 -6 -90q0 -38 21 -61t59 -23q102 0 102 160v61h78v-51q0 -59 24 -91t64 -32q41 0 68 36.5t27 84.5q0 39 -7 92h78zM336 1730zM594 1691
l-574 -100v88l574 100v-88zM594 1517l-574 -100v88l574 100v-88zM307 1312z" />
    <glyph glyph-name="uni064E_uni0651.liga" unicode="&#x64e;&#x651;" horiz-adv-x="0" 
d="M594 2092l-574 -100v88l574 100v-88zM307 1887zM606 1930q6 -38 6 -94q0 -91 -47 -144t-125 -53q-84 0 -118 78q-39 -125 -150 -125q-74 0 -116 42.5t-42 117.5q0 35 6 92h78q-6 -57 -6 -90q0 -38 21 -61t59 -23q102 0 102 160v61h78v-51q0 -59 24 -91t64 -32
q41 0 68 36.5t27 84.5q0 39 -7 92h78zM336 1479z" />
    <glyph glyph-name="uni064F_uni0651.liga" unicode="&#x64f;&#x651;" horiz-adv-x="0" 
d="M598 1817q-56 7 -164 33q-152 -98 -426 -119v72q209 12 352 73q-141 41 -141 150q0 63 47.5 108.5t110.5 45.5q69 0 117.5 -44t48.5 -110t-58 -123q60 -13 113 -18v-68zM414 1921q51 49 51 105q0 31 -25.5 53.5t-58.5 22.5q-36 0 -60 -22.5t-24 -53.5q0 -75 117 -105z
M336 1618zM606 1757q6 -38 6 -94q0 -91 -47 -144t-125 -53q-84 0 -118 78q-39 -125 -150 -125q-74 0 -116 42.5t-42 117.5q0 35 6 92h78q-6 -57 -6 -90q0 -38 21 -61t59 -23q102 0 102 160v61h78v-51q0 -59 24 -91t64 -32q41 0 68 36.5t27 84.5q0 39 -7 92h78zM336 1306z
" />
    <glyph glyph-name="uni0650_uni0651.liga" unicode="&#x650;&#x651;" horiz-adv-x="0" 
d="M606 2029q6 -38 6 -94q0 -91 -47 -144t-125 -53q-84 0 -118 78q-39 -125 -150 -125q-74 0 -116 42.5t-42 117.5q0 35 6 92h78q-6 -57 -6 -90q0 -38 21 -61t59 -23q102 0 102 160v61h78v-51q0 -59 24 -91t64 -32q41 0 68 36.5t27 84.5q0 39 -7 92h78zM336 1578zM594 1539
l-574 -100v88l574 100v-88zM307 1334z" />
    <glyph glyph-name="uni0651_uni0670.liga" unicode="&#x651;&#x670;" horiz-adv-x="0" 
d="M354 1718h-94v438h94v-438zM307 1606zM606 1704q6 -38 6 -94q0 -91 -47 -144t-125 -53q-84 0 -118 78q-39 -125 -150 -125q-74 0 -116 42.5t-42 117.5q0 35 6 92h78q-6 -57 -6 -90q0 -38 21 -61t59 -23q102 0 102 160v61h78v-51q0 -59 24 -91t64 -32q41 0 68 36.5
t27 84.5q0 39 -7 92h78zM336 1253z" />
    <glyph glyph-name="uniFB50" unicode="&#x671;" horiz-adv-x="498" arabic-form="isolated" 
d="M336 0h-174v1466h174v-1466zM117 1706q57 95 126 143.5t134 48.5t106.5 -35.5t41.5 -85.5q0 -149 -365 -149l-26 -64h-80l26 64h-110v78h147zM199 1706q117 0 182.5 19t65.5 52q0 18 -18.5 30.5t-51.5 12.5q-44 0 -93 -29t-85 -85z" />
    <glyph glyph-name="uniFB51" unicode="&#x671;" horiz-adv-x="559" arabic-form="final" 
d="M561 0h-65q-179 0 -256.5 95t-77.5 300v1071h174v-1067q0 -204 151 -204h74v-195zM117 1706q57 95 126 143.5t134 48.5t106.5 -35.5t41.5 -85.5q0 -149 -365 -149l-26 -64h-80l26 64h-110v78h147zM199 1706q117 0 182.5 19t65.5 52q0 18 -18.5 30.5t-51.5 12.5
q-44 0 -93 -29t-85 -85z" />
    <glyph glyph-name="uniFB52" unicode="&#x67b;" horiz-adv-x="1579" arabic-form="isolated" 
d="M1444 502q8 -45 8 -111q0 -212 -192 -352.5t-521 -140.5q-294 0 -453 113.5t-159 320.5q0 119 39 211l164 -41q-29 -77 -29 -168q0 -242 438 -242q236 0 387.5 94.5t151.5 245.5q0 44 -8 70h174zM841 -296h-147v147h147v-147zM841 -564h-147v147h147v-147z" />
    <glyph glyph-name="uniFB53" unicode="&#x67b;" horiz-adv-x="1614" arabic-form="final" 
d="M1616 0h-4q-195 0 -273 150q-175 -252 -600 -252q-294 0 -453 113.5t-159 320.5q0 119 39 211l164 -41q-29 -77 -29 -168q0 -242 438 -242q236 0 387.5 94.5t151.5 245.5q0 43 -6 70h174q6 -48 6 -111q0 -196 152 -196h12v-195zM807 -304h-147v147h147v-147zM807 -572
h-147v147h147v-147z" />
    <glyph glyph-name="uniFB54" unicode="&#x67b;" horiz-adv-x="565" arabic-form="initial" 
d="M397 395q0 -215 -82 -305t-252 -90h-65v195h74q151 0 151 204v183h174v-187zM327 -248h-147v147h147v-147zM327 -516h-147v147h147v-147z" />
    <glyph glyph-name="uniFB55" unicode="&#x67b;" horiz-adv-x="498" arabic-form="medial" 
d="M500 0h-4q-170 0 -248 84q-78 -84 -246 -84h-4v195h12q152 0 152 204v183h174v-183q0 -204 151 -204h13v-195zM327 -256h-147v147h147v-147zM327 -524h-147v147h147v-147z" />
    <glyph glyph-name="uniFB56" unicode="&#x67e;" horiz-adv-x="1579" arabic-form="isolated" 
d="M1444 502q8 -45 8 -111q0 -212 -192 -352.5t-521 -140.5q-294 0 -453 113.5t-159 320.5q0 119 39 211l164 -41q-29 -77 -29 -168q0 -242 438 -242q236 0 387.5 94.5t151.5 245.5q0 44 -8 70h174zM981 -344h-147v147h147v-147zM713 -344h-148v147h148v-147zM846 -553h-148
v147h148v-147z" />
    <glyph glyph-name="uniFB57" unicode="&#x67e;" horiz-adv-x="1614" arabic-form="final" 
d="M1616 0h-4q-195 0 -273 150q-175 -252 -600 -252q-294 0 -453 113.5t-159 320.5q0 119 39 211l164 -41q-29 -77 -29 -168q0 -242 438 -242q236 0 387.5 94.5t151.5 245.5q0 43 -6 70h174q6 -48 6 -111q0 -196 152 -196h12v-195zM945 -344h-147v147h147v-147zM677 -344
h-148v147h148v-147zM810 -553h-148v147h148v-147z" />
    <glyph glyph-name="uniFB58" unicode="&#x67e;" horiz-adv-x="565" arabic-form="initial" 
d="M397 395q0 -215 -82 -305t-252 -90h-65v195h74q151 0 151 204v183h174v-187zM478 -258h-147v147h147v-147zM210 -258h-148v147h148v-147zM343 -467h-148v147h148v-147z" />
    <glyph glyph-name="uniFB59" unicode="&#x67e;" horiz-adv-x="498" arabic-form="medial" 
d="M500 0h-4q-170 0 -248 84q-78 -84 -246 -84h-4v195h12q152 0 152 204v183h174v-183q0 -204 151 -204h13v-195zM461 -258h-147v147h147v-147zM193 -258h-148v147h148v-147zM326 -467h-148v147h148v-147z" />
    <glyph glyph-name="uniFB5A" unicode="&#x680;" horiz-adv-x="1579" arabic-form="isolated" 
d="M1444 502q8 -45 8 -111q0 -212 -192 -352.5t-521 -140.5q-294 0 -453 113.5t-159 320.5q0 119 39 211l164 -41q-29 -77 -29 -168q0 -242 438 -242q236 0 387.5 94.5t151.5 245.5q0 44 -8 70h174zM980 -283h-147v148h147v-148zM765 -344h-147v147h147v-147zM980 -492h-147
v148h147v-148zM765 -553h-147v147h147v-147z" />
    <glyph glyph-name="uniFB5B" unicode="&#x680;" horiz-adv-x="1614" arabic-form="final" 
d="M1616 0h-4q-195 0 -273 150q-175 -252 -600 -252q-294 0 -453 113.5t-159 320.5q0 119 39 211l164 -41q-29 -77 -29 -168q0 -242 438 -242q236 0 387.5 94.5t151.5 245.5q0 43 -6 70h174q6 -48 6 -111q0 -196 152 -196h12v-195zM917 -283h-147v148h147v-148zM702 -344
h-147v147h147v-147zM917 -492h-147v148h147v-148zM702 -553h-147v147h147v-147z" />
    <glyph glyph-name="uniFB5C" unicode="&#x680;" horiz-adv-x="565" arabic-form="initial" 
d="M397 395q0 -215 -82 -305t-252 -90h-65v195h74q151 0 151 204v183h174v-187zM430 -226h-147v148h147v-148zM215 -287h-147v147h147v-147zM430 -435h-147v148h147v-148zM215 -496h-147v147h147v-147z" />
    <glyph glyph-name="uniFB5D" unicode="&#x680;" horiz-adv-x="498" arabic-form="medial" 
d="M500 0h-4q-170 0 -248 84q-78 -84 -246 -84h-4v195h12q152 0 152 204v183h174v-183q0 -204 151 -204h13v-195zM430 -226h-147v148h147v-148zM215 -287h-147v147h147v-147zM430 -435h-147v148h147v-148zM215 -496h-147v147h147v-147z" />
    <glyph glyph-name="uniFB5E" unicode="&#x67a;" horiz-adv-x="1579" arabic-form="isolated" 
d="M1444 502q8 -45 8 -111q0 -212 -192 -352.5t-521 -140.5q-294 0 -453 113.5t-159 320.5q0 119 39 211l164 -41q-29 -77 -29 -168q0 -242 438 -242q236 0 387.5 94.5t151.5 245.5q0 44 -8 70h174zM862 1016h-147v147h147v-147zM862 748h-147v147h147v-147z" />
    <glyph glyph-name="uniFB5F" unicode="&#x67a;" horiz-adv-x="1614" arabic-form="final" 
d="M1616 0h-4q-195 0 -273 150q-175 -252 -600 -252q-294 0 -453 113.5t-159 320.5q0 119 39 211l164 -41q-29 -77 -29 -168q0 -242 438 -242q236 0 387.5 94.5t151.5 245.5q0 43 -6 70h174q6 -48 6 -111q0 -196 152 -196h12v-195zM854 1016h-147v147h147v-147zM854 748
h-147v147h147v-147z" />
    <glyph glyph-name="uniFB60" unicode="&#x67a;" horiz-adv-x="565" arabic-form="initial" 
d="M397 395q0 -215 -82 -305t-252 -90h-65v195h74q151 0 151 204v183h174v-187zM337 1114h-147v147h147v-147zM337 846h-147v147h147v-147z" />
    <glyph glyph-name="uniFB61" unicode="&#x67a;" horiz-adv-x="498" arabic-form="medial" 
d="M500 0h-4q-170 0 -248 84q-78 -84 -246 -84h-4v195h12q152 0 152 204v183h174v-183q0 -204 151 -204h13v-195zM317 1114h-147v147h147v-147zM317 846h-147v147h147v-147z" />
    <glyph glyph-name="uniFB62" unicode="&#x67f;" horiz-adv-x="1579" arabic-form="isolated" 
d="M1444 502q8 -45 8 -111q0 -212 -192 -352.5t-521 -140.5q-294 0 -453 113.5t-159 320.5q0 119 39 211l164 -41q-29 -77 -29 -168q0 -242 438 -242q236 0 387.5 94.5t151.5 245.5q0 44 -8 70h174zM980 1018h-147v148h147v-148zM765 957h-147v147h147v-147zM980 809h-147
v148h147v-148zM765 748h-147v147h147v-147z" />
    <glyph glyph-name="uniFB63" unicode="&#x67f;" horiz-adv-x="1614" arabic-form="final" 
d="M1616 0h-4q-195 0 -273 150q-175 -252 -600 -252q-294 0 -453 113.5t-159 320.5q0 119 39 211l164 -41q-29 -77 -29 -168q0 -242 438 -242q236 0 387.5 94.5t151.5 245.5q0 43 -6 70h174q6 -48 6 -111q0 -196 152 -196h12v-195zM980 1018h-147v148h147v-148zM765 957
h-147v147h147v-147zM980 809h-147v148h147v-148zM765 748h-147v147h147v-147z" />
    <glyph glyph-name="uniFB64" unicode="&#x67f;" horiz-adv-x="565" arabic-form="initial" 
d="M397 395q0 -215 -82 -305t-252 -90h-65v195h74q151 0 151 204v183h174v-187zM454 1118h-147v148h147v-148zM239 1057h-147v147h147v-147zM454 909h-147v148h147v-148zM239 848h-147v147h147v-147z" />
    <glyph glyph-name="uniFB65" unicode="&#x67f;" horiz-adv-x="498" arabic-form="medial" 
d="M500 0h-4q-170 0 -248 84q-78 -84 -246 -84h-4v195h12q152 0 152 204v183h174v-183q0 -204 151 -204h13v-195zM434 1118h-147v148h147v-148zM219 1057h-147v147h147v-147zM434 909h-147v148h147v-148zM219 848h-147v147h147v-147z" />
    <glyph glyph-name="uniFB66" unicode="&#x679;" horiz-adv-x="1579" arabic-form="isolated" 
d="M1444 502q8 -45 8 -111q0 -212 -192 -352.5t-521 -140.5q-294 0 -453 113.5t-159 320.5q0 119 39 211l164 -41q-29 -77 -29 -168q0 -242 438 -242q236 0 387.5 94.5t151.5 245.5q0 44 -8 70h174zM728 894q96 142 162 142q49 0 88 -44t39 -96q0 -65 -56 -107t-153 -42
h-192v80h41v338h71v-271zM751 827h57q63 0 100 19t37 53q0 22 -16.5 39.5t-38.5 17.5q-49 0 -139 -129z" />
    <glyph glyph-name="uniFB67" unicode="&#x679;" horiz-adv-x="1614" arabic-form="final" 
d="M1616 0h-4q-195 0 -273 150q-175 -252 -600 -252q-294 0 -453 113.5t-159 320.5q0 119 39 211l164 -41q-29 -77 -29 -168q0 -242 438 -242q236 0 387.5 94.5t151.5 245.5q0 43 -6 70h174q6 -48 6 -111q0 -196 152 -196h12v-195zM728 895q96 142 162 142q49 0 88 -44
t39 -96q0 -65 -56 -107t-153 -42h-192v80h41v338h71v-271zM751 828h57q63 0 100 19t37 53q0 22 -16.5 39.5t-38.5 17.5q-49 0 -139 -129z" />
    <glyph glyph-name="uniFB68" unicode="&#x679;" horiz-adv-x="565" arabic-form="initial" 
d="M397 395q0 -215 -82 -305t-252 -90h-65v195h74q151 0 151 204v183h174v-187zM212 995q96 142 162 142q49 0 88 -44t39 -96q0 -65 -56 -107t-153 -42h-192v80h41v338h71v-271zM235 928h57q63 0 100 19t37 53q0 22 -16.5 39.5t-38.5 17.5q-49 0 -139 -129z" />
    <glyph glyph-name="uniFB69" unicode="&#x679;" horiz-adv-x="498" arabic-form="medial" 
d="M500 0h-4q-170 0 -248 84q-78 -84 -246 -84h-4v195h12q152 0 152 204v183h174v-183q0 -204 151 -204h13v-195zM167 995q96 142 162 142q49 0 88 -44t39 -96q0 -65 -56 -107t-153 -42h-192v80h41v338h71v-271zM190 928h57q63 0 100 19t37 53q0 22 -16.5 39.5t-38.5 17.5
q-49 0 -139 -129z" />
    <glyph glyph-name="uniFB6A" unicode="&#x6a4;" horiz-adv-x="1960" arabic-form="isolated" 
d="M1628 426q-74 -23 -110 -23q-159 0 -266 95.5t-107 275.5q0 149 98 257t219 108q141 0 256 -158.5t115 -392.5q0 -302 -248.5 -445t-785.5 -143q-331 0 -501.5 118t-170.5 349q0 124 43 268l164 -41q-33 -118 -33 -225q0 -133 127.5 -203.5t372.5 -70.5q376 0 571 53.5
t256 177.5zM1655 621q0 119 -59 221t-134 102q-60 0 -101.5 -48t-41.5 -122q0 -79 52.5 -127.5t135.5 -48.5q67 0 148 23zM1471 1612h-148v147h148v-147zM1606 1403h-147v147h147v-147zM1338 1403h-148v147h148v-147z" />
    <glyph glyph-name="uniFB6B" unicode="&#x6a4;" horiz-adv-x="1849" arabic-form="final" 
d="M1851 0h-16q-131 0 -270.5 25t-225.5 67q-349 -160 -649 -160q-294 0 -428.5 112.5t-134.5 361.5q0 123 43 268l164 -41q-33 -119 -33 -225q0 -159 95 -220t296 -61q196 0 465 84q-61 41 -102 113.5t-41 142.5q0 142 95.5 240t248.5 98q150 0 247 -98t97 -240t-152 -246
q130 -26 281 -26h20v-195zM1358 279q170 73 170 188q0 59 -48.5 101t-121.5 42q-78 0 -124 -41t-46 -102q0 -111 170 -188zM1422 1280h-148v147h148v-147zM1557 1071h-147v147h147v-147zM1289 1071h-148v147h148v-147z" />
    <glyph glyph-name="uniFB6C" unicode="&#x6a4;" horiz-adv-x="954" arabic-form="initial" 
d="M623 426q-75 -23 -111 -23q-159 0 -266 95.5t-107 275.5q0 149 98.5 257t219.5 108q141 0 255.5 -158.5t114.5 -392.5q0 -277 -219.5 -432.5t-609.5 -155.5v195q268 0 412.5 54t212.5 177zM649 621q0 119 -59 221t-133 102q-61 0 -102.5 -48t-41.5 -122q0 -80 53 -128
t136 -48q66 0 147 23zM486 1614h-148v147h148v-147zM621 1405h-147v147h147v-147zM353 1405h-148v147h148v-147z" />
    <glyph glyph-name="uniFB6D" unicode="&#x6a4;" horiz-adv-x="983" arabic-form="medial" 
d="M985 0h-12q-116 0 -253.5 29.5t-227.5 76.5q-91 -47 -228.5 -76.5t-253.5 -29.5h-12v195h16q122 0 285 30q-68 37 -110 103.5t-42 138.5q0 140 96 239t249 99q150 0 247 -98t97 -240q0 -72 -41.5 -137.5t-110.5 -104.5q134 -30 285 -30h16v-195zM492 283q170 70 170 184
q0 59 -49 101t-121 42q-80 0 -125 -40t-45 -103q0 -108 170 -184zM564 1280h-148v147h148v-147zM699 1071h-147v147h147v-147zM431 1071h-148v147h148v-147z" />
    <glyph glyph-name="uniFB6E" unicode="&#x6a6;" horiz-adv-x="1960" arabic-form="isolated" 
d="M1628 426q-74 -23 -110 -23q-159 0 -266 95.5t-107 275.5q0 149 98 257t219 108q141 0 256 -158.5t115 -392.5q0 -302 -248.5 -445t-785.5 -143q-331 0 -501.5 118t-170.5 349q0 124 43 268l164 -41q-33 -118 -33 -225q0 -133 127.5 -203.5t372.5 -70.5q376 0 571 53.5
t256 177.5zM1655 621q0 119 -59 221t-134 102q-60 0 -101.5 -48t-41.5 -122q0 -79 52.5 -127.5t135.5 -48.5q67 0 148 23zM1579 1675h-147v148h147v-148zM1364 1614h-147v147h147v-147zM1579 1466h-147v148h147v-148zM1364 1405h-147v147h147v-147z" />
    <glyph glyph-name="uniFB6F" unicode="&#x6a6;" horiz-adv-x="1849" arabic-form="final" 
d="M1851 0h-16q-131 0 -270.5 25t-225.5 67q-349 -160 -649 -160q-294 0 -428.5 112.5t-134.5 361.5q0 123 43 268l164 -41q-33 -119 -33 -225q0 -159 95 -220t296 -61q196 0 465 84q-61 41 -102 113.5t-41 142.5q0 142 95.5 240t248.5 98q150 0 247 -98t97 -240t-152 -246
q130 -26 281 -26h20v-195zM1358 279q170 73 170 188q0 59 -48.5 101t-121.5 42q-78 0 -124 -41t-46 -102q0 -111 170 -188zM1503 1341h-147v148h147v-148zM1288 1280h-147v147h147v-147zM1503 1132h-147v148h147v-148zM1288 1071h-147v147h147v-147z" />
    <glyph glyph-name="uniFB70" unicode="&#x6a6;" horiz-adv-x="954" arabic-form="initial" 
d="M623 426q-75 -23 -111 -23q-159 0 -266 95.5t-107 275.5q0 149 98.5 257t219.5 108q141 0 255.5 -158.5t114.5 -392.5q0 -277 -219.5 -432.5t-609.5 -155.5v195q268 0 412.5 54t212.5 177zM649 621q0 119 -59 221t-133 102q-61 0 -102.5 -48t-41.5 -122q0 -80 53 -128
t136 -48q66 0 147 23zM595 1675h-147v148h147v-148zM380 1614h-147v147h147v-147zM595 1466h-147v148h147v-148zM380 1405h-147v147h147v-147z" />
    <glyph glyph-name="uniFB71" unicode="&#x6a6;" horiz-adv-x="983" arabic-form="medial" 
d="M985 0h-12q-116 0 -253.5 29.5t-227.5 76.5q-91 -47 -228.5 -76.5t-253.5 -29.5h-12v195h16q122 0 285 30q-68 37 -110 103.5t-42 138.5q0 140 96 239t249 99q150 0 247 -98t97 -240q0 -72 -41.5 -137.5t-110.5 -104.5q134 -30 285 -30h16v-195zM492 283q170 70 170 184
q0 59 -49 101t-121 42q-80 0 -125 -40t-45 -103q0 -108 170 -184zM675 1341h-147v148h147v-148zM460 1280h-147v147h147v-147zM675 1132h-147v148h147v-148zM460 1071h-147v147h147v-147z" />
    <glyph glyph-name="uniFB72" unicode="&#x684;" horiz-adv-x="1114" arabic-form="isolated" 
d="M1155 -485q-222 -70 -444 -70q-269 0 -437 145.5t-168 368.5q0 244 200.5 423.5t514.5 231.5q-158 75 -263.5 97t-254.5 22q-65 0 -151 -20l-33 190q78 25 164 25q147 0 279 -54t407 -225v-147q-688 -113 -688 -545q0 -137 119 -227t309 -90q174 0 415 61zM778 96h-147
v147h147v-147zM778 -172h-147v147h147v-147z" />
    <glyph glyph-name="uniFB73" unicode="&#x684;" horiz-adv-x="1348" arabic-form="final" 
d="M1350 0h-76q-123 0 -245 81t-333 351q-411 -144 -411 -475q0 -137 119 -227t309 -90q174 0 415 61l31 -186q-222 -70 -444 -70q-269 0 -436.5 145.5t-167.5 368.5q0 244 200.5 423.5t513.5 231.5q-158 75 -263.5 97t-254.5 22q-65 0 -151 -20l-33 190q78 25 164 25
q147 0 279 -54t407 -225v-147q-81 -15 -131 -27q165 -185 254.5 -232.5t173.5 -47.5h80v-195zM712 63h-147v147h147v-147zM712 -205h-147v147h147v-147z" />
    <glyph glyph-name="uniFB74" unicode="&#x684;" horiz-adv-x="1323" arabic-form="initial" 
d="M1161 387q-84 0 -198 -34.5t-366 -165.5q-237 -123 -339 -155t-176 -32h-84v195h90q62 0 155.5 29t318.5 140q302 150 403 158q-413 211 -684 211q-65 0 -152 -20l-33 190q78 25 164 25q109 0 250.5 -45.5t440.5 -214.5q197 -111 204 -111h6v-170zM802 -215h-147v147h147
v-147zM802 -483h-147v147h147v-147z" />
    <glyph glyph-name="uniFB75" unicode="&#x684;" horiz-adv-x="1305" arabic-form="medial" 
d="M1307 0h-76q-160 0 -461 274q-177 -87 -247 -126t-203.5 -93.5t-237.5 -54.5h-84v195h90q62 0 155.5 29t318.5 140q302 150 403 158q-413 211 -684 211q-65 0 -152 -20l-33 190q78 25 164 25q109 0 250.5 -45.5t440.5 -214.5q197 -111 204 -111h6v-170q-104 0 -243 -49
q184 -143 309 -143h80v-195zM770 -215h-147v147h147v-147zM770 -483h-147v147h147v-147z" />
    <glyph glyph-name="uniFB76" unicode="&#x683;" horiz-adv-x="1114" arabic-form="isolated" 
d="M1155 -485q-222 -70 -444 -70q-269 0 -437 145.5t-168 368.5q0 244 200.5 423.5t514.5 231.5q-158 75 -263.5 97t-254.5 22q-65 0 -151 -20l-33 190q78 25 164 25q147 0 279 -54t407 -225v-147q-688 -113 -688 -545q0 -137 119 -227t309 -90q174 0 415 61zM936 -51h-147
v147h147v-147zM668 -51h-148v147h148v-147z" />
    <glyph glyph-name="uniFB77" unicode="&#x683;" horiz-adv-x="1348" arabic-form="final" 
d="M1350 0h-76q-123 0 -245 81t-333 351q-411 -144 -411 -475q0 -137 119 -227t309 -90q174 0 415 61l31 -186q-222 -70 -444 -70q-269 0 -436.5 145.5t-167.5 368.5q0 244 200.5 423.5t513.5 231.5q-158 75 -263.5 97t-254.5 22q-65 0 -151 -20l-33 190q78 25 164 25
q147 0 279 -54t407 -225v-147q-81 -15 -131 -27q165 -185 254.5 -232.5t173.5 -47.5h80v-195zM871 -96h-147v147h147v-147zM603 -96h-148v147h148v-147z" />
    <glyph glyph-name="uniFB78" unicode="&#x683;" horiz-adv-x="1323" arabic-form="initial" 
d="M1161 387q-84 0 -198 -34.5t-366 -165.5q-237 -123 -339 -155t-176 -32h-84v195h90q62 0 155.5 29t318.5 140q302 150 403 158q-413 211 -684 211q-65 0 -152 -20l-33 190q78 25 164 25q109 0 250.5 -45.5t440.5 -214.5q197 -111 204 -111h6v-170zM1067 -215h-147v147
h147v-147zM799 -215h-148v147h148v-147z" />
    <glyph glyph-name="uniFB79" unicode="&#x683;" horiz-adv-x="1305" arabic-form="medial" 
d="M1307 0h-76q-160 0 -461 274q-177 -87 -247 -126t-203.5 -93.5t-237.5 -54.5h-84v195h90q62 0 155.5 29t318.5 140q302 150 403 158q-413 211 -684 211q-65 0 -152 -20l-33 190q78 25 164 25q109 0 250.5 -45.5t440.5 -214.5q197 -111 204 -111h6v-170q-104 0 -243 -49
q184 -143 309 -143h80v-195zM905 -215h-147v147h147v-147zM637 -215h-148v147h148v-147z" />
    <glyph glyph-name="uniFB7A" unicode="&#x686;" horiz-adv-x="1114" arabic-form="isolated" 
d="M1155 -485q-222 -70 -444 -70q-269 0 -437 145.5t-168 368.5q0 244 200.5 423.5t514.5 231.5q-158 75 -263.5 97t-254.5 22q-65 0 -151 -20l-33 190q78 25 164 25q147 0 279 -54t407 -225v-147q-688 -113 -688 -545q0 -137 119 -227t309 -90q174 0 415 61zM961 37h-147
v147h147v-147zM693 37h-148v147h148v-147zM826 -172h-148v147h148v-147z" />
    <glyph glyph-name="uniFB7B" unicode="&#x686;" horiz-adv-x="1348" arabic-form="final" 
d="M1350 0h-76q-123 0 -245 81t-333 351q-411 -144 -411 -475q0 -137 119 -227t309 -90q174 0 415 61l31 -186q-222 -70 -444 -70q-269 0 -436.5 145.5t-167.5 368.5q0 244 200.5 423.5t513.5 231.5q-158 75 -263.5 97t-254.5 22q-65 0 -151 -20l-33 190q78 25 164 25
q147 0 279 -54t407 -225v-147q-81 -15 -131 -27q165 -185 254.5 -232.5t173.5 -47.5h80v-195zM858 -37h-147v147h147v-147zM590 -37h-148v147h148v-147zM723 -246h-148v147h148v-147z" />
    <glyph glyph-name="uniFB7C" unicode="&#x686;" horiz-adv-x="1323" arabic-form="initial" 
d="M1161 387q-84 0 -198 -34.5t-366 -165.5q-237 -123 -339 -155t-176 -32h-84v195h90q62 0 155.5 29t318.5 140q302 150 403 158q-413 211 -684 211q-65 0 -152 -20l-33 190q78 25 164 25q109 0 250.5 -45.5t440.5 -214.5q197 -111 204 -111h6v-170zM934 -217h-147v147h147
v-147zM666 -217h-148v147h148v-147zM799 -426h-148v147h148v-147z" />
    <glyph glyph-name="uniFB7D" unicode="&#x686;" horiz-adv-x="1305" arabic-form="medial" 
d="M1307 0h-76q-160 0 -461 274q-177 -87 -247 -126t-203.5 -93.5t-237.5 -54.5h-84v195h90q62 0 155.5 29t318.5 140q302 150 403 158q-413 211 -684 211q-65 0 -152 -20l-33 190q78 25 164 25q109 0 250.5 -45.5t440.5 -214.5q197 -111 204 -111h6v-170q-104 0 -243 -49
q184 -143 309 -143h80v-195zM903 -217h-147v147h147v-147zM635 -217h-148v147h148v-147zM768 -426h-148v147h148v-147z" />
    <glyph glyph-name="uniFB7E" unicode="&#x687;" horiz-adv-x="1114" arabic-form="isolated" 
d="M1155 -485q-222 -70 -444 -70q-269 0 -437 145.5t-168 368.5q0 244 200.5 423.5t514.5 231.5q-158 75 -263.5 97t-254.5 22q-65 0 -151 -20l-33 190q78 25 164 25q147 0 279 -54t407 -225v-147q-688 -113 -688 -545q0 -137 119 -227t309 -90q174 0 415 61zM890 98h-147
v148h147v-148zM675 37h-147v147h147v-147zM890 -111h-147v148h147v-148zM675 -172h-147v147h147v-147z" />
    <glyph glyph-name="uniFB7F" unicode="&#x687;" horiz-adv-x="1348" arabic-form="final" 
d="M1350 0h-76q-123 0 -245 81t-333 351q-411 -144 -411 -475q0 -137 119 -227t309 -90q174 0 415 61l31 -186q-222 -70 -444 -70q-269 0 -436.5 145.5t-167.5 368.5q0 244 200.5 423.5t513.5 231.5q-158 75 -263.5 97t-254.5 22q-65 0 -151 -20l-33 190q78 25 164 25
q147 0 279 -54t407 -225v-147q-81 -15 -131 -27q165 -185 254.5 -232.5t173.5 -47.5h80v-195zM802 49h-147v148h147v-148zM587 -12h-147v147h147v-147zM802 -160h-147v148h147v-148zM587 -221h-147v147h147v-147z" />
    <glyph glyph-name="uniFB80" unicode="&#x687;" horiz-adv-x="1323" arabic-form="initial" 
d="M1161 387q-84 0 -198 -34.5t-366 -165.5q-237 -123 -339 -155t-176 -32h-84v195h90q62 0 155.5 29t318.5 140q302 150 403 158q-413 211 -684 211q-65 0 -152 -20l-33 190q78 25 164 25q109 0 250.5 -45.5t440.5 -214.5q197 -111 204 -111h6v-170zM909 -213h-147v148h147
v-148zM694 -274h-147v147h147v-147zM909 -422h-147v148h147v-148zM694 -483h-147v147h147v-147z" />
    <glyph glyph-name="uniFB81" unicode="&#x687;" horiz-adv-x="1305" arabic-form="medial" 
d="M1307 0h-76q-160 0 -461 274q-177 -87 -247 -126t-203.5 -93.5t-237.5 -54.5h-84v195h90q62 0 155.5 29t318.5 140q302 150 403 158q-413 211 -684 211q-65 0 -152 -20l-33 190q78 25 164 25q109 0 250.5 -45.5t440.5 -214.5q197 -111 204 -111h6v-170q-104 0 -243 -49
q184 -143 309 -143h80v-195zM876 -215h-147v148h147v-148zM661 -276h-147v147h147v-147zM876 -424h-147v148h147v-148zM661 -485h-147v147h147v-147z" />
    <glyph glyph-name="uniFB82" unicode="&#x68d;" horiz-adv-x="881" arabic-form="isolated" 
d="M461 895q293 -364 293 -502q0 -185 -158.5 -289t-456.5 -104h-61v195h57q445 0 445 198q0 128 -330 502h211zM695 -287h-147v147h147v-147zM427 -287h-148v147h148v-147z" />
    <glyph glyph-name="uniFB83" unicode="&#x68d;" horiz-adv-x="938" arabic-form="final" 
d="M940 0h-4q-215 0 -287 147q-155 -147 -510 -147h-61v195h57q445 0 445 198q0 65 -39.5 169.5t-169.5 330.5h209q132 -280 174 -469q28 -132 68.5 -180.5t105.5 -48.5h12v-195zM703 -287h-147v147h147v-147zM435 -287h-148v147h148v-147z" />
    <glyph glyph-name="uniFB84" unicode="&#x68c;" horiz-adv-x="881" arabic-form="isolated" 
d="M461 895q293 -364 293 -502q0 -185 -158.5 -289t-456.5 -104h-61v195h57q445 0 445 198q0 128 -330 502h211zM535 1110h-147v147h147v-147zM267 1110h-148v147h148v-147z" />
    <glyph glyph-name="uniFB85" unicode="&#x68c;" horiz-adv-x="938" arabic-form="final" 
d="M940 0h-4q-215 0 -287 147q-155 -147 -510 -147h-61v195h57q445 0 445 198q0 65 -39.5 169.5t-169.5 330.5h209q132 -280 174 -469q28 -132 68.5 -180.5t105.5 -48.5h12v-195zM660 1159h-147v147h147v-147zM392 1159h-148v147h148v-147z" />
    <glyph glyph-name="uniFB86" unicode="&#x68e;" horiz-adv-x="881" arabic-form="isolated" 
d="M461 895q293 -364 293 -502q0 -185 -158.5 -289t-456.5 -104h-61v195h57q445 0 445 198q0 128 -330 502h211zM398 1319h-148v147h148v-147zM533 1110h-147v147h147v-147zM265 1110h-148v147h148v-147z" />
    <glyph glyph-name="uniFB87" unicode="&#x68e;" horiz-adv-x="938" arabic-form="final" 
d="M940 0h-4q-215 0 -287 147q-155 -147 -510 -147h-61v195h57q445 0 445 198q0 65 -39.5 169.5t-169.5 330.5h209q132 -280 174 -469q28 -132 68.5 -180.5t105.5 -48.5h12v-195zM531 1368h-148v147h148v-147zM666 1159h-147v147h147v-147zM398 1159h-148v147h148v-147z" />
    <glyph glyph-name="uniFB88" unicode="&#x688;" horiz-adv-x="881" arabic-form="isolated" 
d="M461 895q293 -364 293 -502q0 -185 -158.5 -289t-456.5 -104h-61v195h57q445 0 445 198q0 128 -330 502h211zM276 1257q96 142 162 142q49 0 88 -44t39 -96q0 -65 -56 -107t-153 -42h-192v80h41v338h71v-271zM299 1190h57q63 0 100 19t37 53q0 22 -16.5 39.5t-38.5 17.5
q-49 0 -139 -129z" />
    <glyph glyph-name="uniFB89" unicode="&#x688;" horiz-adv-x="938" arabic-form="final" 
d="M940 0h-4q-215 0 -287 147q-155 -147 -510 -147h-61v195h57q445 0 445 198q0 65 -39.5 169.5t-169.5 330.5h209q132 -280 174 -469q28 -132 68.5 -180.5t105.5 -48.5h12v-195zM386 1306q96 142 162 142q49 0 88 -44t39 -96q0 -65 -56 -107t-153 -42h-192v80h41v338h71
v-271zM409 1239h57q63 0 100 19t37 53q0 22 -16.5 39.5t-38.5 17.5q-49 0 -139 -129z" />
    <glyph glyph-name="uniFB8A" unicode="&#x698;" horiz-adv-x="862" arabic-form="isolated" 
d="M666 594q65 -177 65 -375q0 -310 -184.5 -479.5t-501.5 -169.5q-71 0 -197 14l37 176q90 -16 162 -16q510 0 510 475q0 168 -102 375h211zM607 987h-148v147h148v-147zM742 778h-147v147h147v-147zM474 778h-148v147h148v-147z" />
    <glyph glyph-name="uniFB8B" unicode="&#x698;" horiz-adv-x="893" arabic-form="final" 
d="M895 0h-4q-121 0 -178 49q-44 -230 -222.5 -354.5t-445.5 -124.5q-71 0 -197 14l37 176q90 -16 162 -16q510 0 510 475q0 118 -53 270h192q23 -93 31 -172q12 -122 156 -122h12v-195zM646 967h-148v147h148v-147zM781 758h-147v147h147v-147zM513 758h-148v147h148v-147z
" />
    <glyph glyph-name="uniFB8C" unicode="&#x691;" horiz-adv-x="862" arabic-form="isolated" 
d="M666 594q65 -177 65 -375q0 -310 -184.5 -479.5t-501.5 -169.5q-71 0 -197 14l37 176q90 -16 162 -16q510 0 510 475q0 168 -102 375h211zM466 925q96 142 162 142q49 0 88 -44t39 -96q0 -65 -56 -107t-153 -42h-192v80h41v338h71v-271zM489 858h57q63 0 100 19t37 53
q0 22 -16.5 39.5t-38.5 17.5q-49 0 -139 -129z" />
    <glyph glyph-name="uniFB8D" unicode="&#x691;" horiz-adv-x="893" arabic-form="final" 
d="M895 0h-4q-121 0 -178 49q-44 -230 -222.5 -354.5t-445.5 -124.5q-71 0 -197 14l37 176q90 -16 162 -16q510 0 510 475q0 118 -53 270h192q23 -93 31 -172q12 -122 156 -122h12v-195zM497 905q96 142 162 142q49 0 88 -44t39 -96q0 -65 -56 -107t-153 -42h-192v80h41v338
h71v-271zM520 838h57q63 0 100 19t37 53q0 22 -16.5 39.5t-38.5 17.5q-49 0 -139 -129z" />
    <glyph glyph-name="uniFB8E" unicode="&#x6a9;" horiz-adv-x="1696" arabic-form="isolated" 
d="M1694 1278l-366 -149q-169 -68 -207 -87t-57.5 -36.5t-19.5 -34.5q0 -45 84 -148l181 -216q57 -68 83.5 -131.5t26.5 -127.5q0 -166 -116.5 -257t-315.5 -91h-317q-256 0 -399.5 105.5t-143.5 300.5q0 89 23 202l163 -41q-12 -72 -12 -159q0 -103 96.5 -158t274.5 -55
h317q118 0 187 43.5t69 115.5q0 82 -90 189l-184 220q-54 65 -77.5 113.5t-23.5 100.5q0 81 65.5 141t196.5 115l562 235v-190z" />
    <glyph glyph-name="uniFB8F" unicode="&#x6a9;" horiz-adv-x="1929" arabic-form="final" 
d="M1931 0h-65q-100 0 -221 63.5t-240 180.5q-34 -119 -145 -181.5t-273 -62.5h-317q-256 0 -399.5 105.5t-143.5 300.5q0 89 23 202l163 -41q-12 -72 -12 -159q0 -103 96.5 -158t274.5 -55h317q118 0 187 43.5t69 115.5q0 79 -90 189l-184 220q-54 65 -77.5 113.5
t-23.5 100.5q0 81 65.5 141t196.5 115l562 235v-190l-366 -149q-169 -68 -207 -87t-57.5 -36.5t-19.5 -34.5q0 -44 56 -113l240 -287q183 -218 302 -297t220 -79h69v-195z" />
    <glyph glyph-name="uniFB90" unicode="&#x6a9;" horiz-adv-x="885" arabic-form="initial" 
d="M885 1278l-366 -149q-169 -68 -207 -87t-57 -36.5t-19 -34.5q0 -45 83 -148l181 -216q57 -68 83.5 -131.5t26.5 -127.5q0 -166 -116.5 -257t-315.5 -91h-180v195h182q118 0 187 43.5t69 115.5q0 79 -90 189l-184 220q-54 65 -77.5 113.5t-23.5 100.5q0 81 66 141t196 115
l562 235v-190z" />
    <glyph glyph-name="uniFB91" unicode="&#x6a9;" horiz-adv-x="1124" arabic-form="medial" 
d="M1122 0h-65q-100 0 -221 63.5t-240 180.5q-34 -119 -145 -181.5t-273 -62.5h-180v195h182q118 0 187 43.5t69 115.5q0 79 -90 189l-184 220q-54 65 -77.5 113.5t-23.5 100.5q0 81 66 141t196 115l562 235v-190l-366 -149q-169 -68 -207 -87t-57 -36.5t-19 -34.5
q0 -44 55 -113l240 -287q183 -218 302 -297t220 -79h69v-195z" />
    <glyph glyph-name="uniFB92" unicode="&#x6af;" horiz-adv-x="1696" arabic-form="isolated" 
d="M1694 1278l-366 -149q-169 -68 -207 -87t-57.5 -36.5t-19.5 -34.5q0 -45 84 -148l181 -216q57 -68 83.5 -131.5t26.5 -127.5q0 -166 -116.5 -257t-315.5 -91h-317q-256 0 -399.5 105.5t-143.5 300.5q0 89 23 202l163 -41q-12 -72 -12 -159q0 -103 96.5 -158t274.5 -55
h317q118 0 187 43.5t69 115.5q0 82 -90 189l-184 220q-54 65 -77.5 113.5t-23.5 100.5q0 81 65.5 141t196.5 115l562 235v-190zM1694 1546l-752 -315v78l752 315v-78z" />
    <glyph glyph-name="uniFB93" unicode="&#x6af;" horiz-adv-x="1929" arabic-form="final" 
d="M1931 0h-65q-100 0 -221 63.5t-240 180.5q-34 -119 -145 -181.5t-273 -62.5h-317q-256 0 -399.5 105.5t-143.5 300.5q0 89 23 202l163 -41q-12 -72 -12 -159q0 -103 96.5 -158t274.5 -55h317q118 0 187 43.5t69 115.5q0 79 -90 189l-184 220q-54 65 -77.5 113.5
t-23.5 100.5q0 81 65.5 141t196.5 115l562 235v-190l-366 -149q-169 -68 -207 -87t-57.5 -36.5t-19.5 -34.5q0 -44 56 -113l240 -287q183 -218 302 -297t220 -79h69v-195zM1694 1546l-752 -315v78l752 315v-78z" />
    <glyph glyph-name="uniFB94" unicode="&#x6af;" horiz-adv-x="885" arabic-form="initial" 
d="M885 1278l-366 -149q-169 -68 -207 -87t-57 -36.5t-19 -34.5q0 -45 83 -148l181 -216q57 -68 83.5 -131.5t26.5 -127.5q0 -166 -116.5 -257t-315.5 -91h-180v195h182q118 0 187 43.5t69 115.5q0 79 -90 189l-184 220q-54 65 -77.5 113.5t-23.5 100.5q0 81 66 141t196 115
l562 235v-190zM885 1546l-752 -315v78l752 315v-78z" />
    <glyph glyph-name="uniFB95" unicode="&#x6af;" horiz-adv-x="1124" arabic-form="medial" 
d="M1122 0h-65q-100 0 -221 63.5t-240 180.5q-34 -119 -145 -181.5t-273 -62.5h-180v195h182q118 0 187 43.5t69 115.5q0 79 -90 189l-184 220q-54 65 -77.5 113.5t-23.5 100.5q0 81 66 141t196 115l562 235v-190l-366 -149q-169 -68 -207 -87t-57 -36.5t-19 -34.5
q0 -44 55 -113l240 -287q183 -218 302 -297t220 -79h69v-195zM885 1546l-752 -315v78l752 315v-78z" />
    <glyph glyph-name="uniFB96" unicode="&#x6b3;" horiz-adv-x="1696" arabic-form="isolated" 
d="M1694 1278l-366 -149q-169 -68 -207 -87t-57.5 -36.5t-19.5 -34.5q0 -45 84 -148l181 -216q57 -68 83.5 -131.5t26.5 -127.5q0 -166 -116.5 -257t-315.5 -91h-317q-256 0 -399.5 105.5t-143.5 300.5q0 89 23 202l163 -41q-12 -72 -12 -159q0 -103 96.5 -158t274.5 -55
h317q118 0 187 43.5t69 115.5q0 82 -90 189l-184 220q-54 65 -77.5 113.5t-23.5 100.5q0 81 65.5 141t196.5 115l562 235v-190zM1694 1546l-752 -315v78l752 315v-78zM903 -256h-147v147h147v-147zM903 -524h-147v147h147v-147z" />
    <glyph glyph-name="uniFB97" unicode="&#x6b3;" horiz-adv-x="1929" arabic-form="final" 
d="M1931 0h-65q-100 0 -221 63.5t-240 180.5q-34 -119 -145 -181.5t-273 -62.5h-317q-256 0 -399.5 105.5t-143.5 300.5q0 89 23 202l163 -41q-12 -72 -12 -159q0 -103 96.5 -158t274.5 -55h317q118 0 187 43.5t69 115.5q0 79 -90 189l-184 220q-54 65 -77.5 113.5
t-23.5 100.5q0 81 65.5 141t196.5 115l562 235v-190l-366 -149q-169 -68 -207 -87t-57.5 -36.5t-19.5 -34.5q0 -44 56 -113l240 -287q183 -218 302 -297t220 -79h69v-195zM1694 1546l-752 -315v78l752 315v-78zM909 -259h-147v147h147v-147zM909 -527h-147v147h147v-147z
" />
    <glyph glyph-name="uniFB98" unicode="&#x6b3;" horiz-adv-x="885" arabic-form="initial" 
d="M885 1278l-366 -149q-169 -68 -207 -87t-57 -36.5t-19 -34.5q0 -45 83 -148l181 -216q57 -68 83.5 -131.5t26.5 -127.5q0 -166 -116.5 -257t-315.5 -91h-180v195h182q118 0 187 43.5t69 115.5q0 79 -90 189l-184 220q-54 65 -77.5 113.5t-23.5 100.5q0 81 66 141t196 115
l562 235v-190zM885 1546l-752 -315v78l752 315v-78zM359 -248h-147v147h147v-147zM359 -516h-147v147h147v-147z" />
    <glyph glyph-name="uniFB99" unicode="&#x6b3;" horiz-adv-x="1124" arabic-form="medial" 
d="M1122 0h-65q-100 0 -221 63.5t-240 180.5q-34 -119 -145 -181.5t-273 -62.5h-180v195h182q118 0 187 43.5t69 115.5q0 79 -90 189l-184 220q-54 65 -77.5 113.5t-23.5 100.5q0 81 66 141t196 115l562 235v-190l-366 -149q-169 -68 -207 -87t-57 -36.5t-19 -34.5
q0 -44 55 -113l240 -287q183 -218 302 -297t220 -79h69v-195zM885 1546l-752 -315v78l752 315v-78zM407 -256h-147v147h147v-147zM407 -524h-147v147h147v-147z" />
    <glyph glyph-name="uniFB9A" unicode="&#x6b1;" horiz-adv-x="1696" arabic-form="isolated" 
d="M1694 1278l-366 -149q-169 -68 -207 -87t-57.5 -36.5t-19.5 -34.5q0 -45 84 -148l181 -216q57 -68 83.5 -131.5t26.5 -127.5q0 -166 -116.5 -257t-315.5 -91h-317q-256 0 -399.5 105.5t-143.5 300.5q0 89 23 202l163 -41q-12 -72 -12 -159q0 -103 96.5 -158t274.5 -55
h317q118 0 187 43.5t69 115.5q0 82 -90 189l-184 220q-54 65 -77.5 113.5t-23.5 100.5q0 81 65.5 141t196.5 115l562 235v-190zM1694 1546l-752 -315v78l752 315v-78zM1280 1571h-147v147h147v-147zM1012 1571h-148v147h148v-147z" />
    <glyph glyph-name="uniFB9B" unicode="&#x6b1;" horiz-adv-x="1929" arabic-form="final" 
d="M1931 0h-65q-100 0 -221 63.5t-240 180.5q-34 -119 -145 -181.5t-273 -62.5h-317q-256 0 -399.5 105.5t-143.5 300.5q0 89 23 202l163 -41q-12 -72 -12 -159q0 -103 96.5 -158t274.5 -55h317q118 0 187 43.5t69 115.5q0 79 -90 189l-184 220q-54 65 -77.5 113.5
t-23.5 100.5q0 81 65.5 141t196.5 115l562 235v-190l-366 -149q-169 -68 -207 -87t-57.5 -36.5t-19.5 -34.5q0 -44 56 -113l240 -287q183 -218 302 -297t220 -79h69v-195zM1694 1546l-752 -315v78l752 315v-78zM1280 1571h-147v147h147v-147zM1012 1571h-148v147h148v-147z
" />
    <glyph glyph-name="uniFB9C" unicode="&#x6b1;" horiz-adv-x="885" arabic-form="initial" 
d="M885 1278l-366 -149q-169 -68 -207 -87t-57 -36.5t-19 -34.5q0 -45 83 -148l181 -216q57 -68 83.5 -131.5t26.5 -127.5q0 -166 -116.5 -257t-315.5 -91h-180v195h182q118 0 187 43.5t69 115.5q0 79 -90 189l-184 220q-54 65 -77.5 113.5t-23.5 100.5q0 81 66 141t196 115
l562 235v-190zM885 1546l-752 -315v78l752 315v-78zM453 1571h-147v147h147v-147zM185 1571h-148v147h148v-147z" />
    <glyph glyph-name="uniFB9D" unicode="&#x6b1;" horiz-adv-x="1124" arabic-form="medial" 
d="M1122 0h-65q-100 0 -221 63.5t-240 180.5q-34 -119 -145 -181.5t-273 -62.5h-180v195h182q118 0 187 43.5t69 115.5q0 79 -90 189l-184 220q-54 65 -77.5 113.5t-23.5 100.5q0 81 66 141t196 115l562 235v-190l-366 -149q-169 -68 -207 -87t-57 -36.5t-19 -34.5
q0 -44 55 -113l240 -287q183 -218 302 -297t220 -79h69v-195zM885 1546l-752 -315v78l752 315v-78zM453 1571h-147v147h147v-147zM185 1571h-148v147h148v-147z" />
    <glyph glyph-name="uniFB9E" unicode="&#x6ba;" horiz-adv-x="1417" arabic-form="isolated" 
d="M1262 557q28 -174 28 -317q0 -223 -157 -355.5t-426 -132.5q-267 0 -423.5 133t-156.5 355q0 143 29 317l163 -41q-18 -141 -18 -274q0 -142 104.5 -218.5t303.5 -76.5t303 76.5t104 218.5q0 133 -18 274z" />
    <glyph glyph-name="uniFB9F" unicode="&#x6ba;" horiz-adv-x="1481" arabic-form="final" 
d="M1483 0h-15q-85 0 -141 47q-8 -237 -171 -375.5t-464 -138.5q-285 0 -448.5 128.5t-163.5 356.5q0 147 43 357l164 -41q-33 -184 -33 -314t111.5 -211t326.5 -81q461 0 461 422q0 36 -8 182l170 43q25 -180 153 -180h15v-195z" />
    <glyph glyph-name="uniFBA0" unicode="&#x6bb;" horiz-adv-x="1417" arabic-form="isolated" 
d="M1262 557q28 -174 28 -317q0 -223 -157 -355.5t-426 -132.5q-267 0 -423.5 133t-156.5 355q0 143 29 317l163 -41q-18 -141 -18 -274q0 -142 104.5 -218.5t303.5 -76.5t303 76.5t104 218.5q0 133 -18 274zM655 892q96 142 162 142q49 0 88 -44t39 -96q0 -65 -56 -107
t-153 -42h-192v80h41v338h71v-271zM678 825h57q63 0 100 19t37 53q0 22 -16.5 39.5t-38.5 17.5q-49 0 -139 -129z" />
    <glyph glyph-name="uniFBA1" unicode="&#x6bb;" horiz-adv-x="1481" arabic-form="final" 
d="M1483 0h-15q-85 0 -141 47q-8 -237 -171 -375.5t-464 -138.5q-285 0 -448.5 128.5t-163.5 356.5q0 147 43 357l164 -41q-33 -184 -33 -314t111.5 -211t326.5 -81q461 0 461 422q0 36 -8 182l170 43q25 -180 153 -180h15v-195zM679 892q96 142 162 142q49 0 88 -44t39 -96
q0 -65 -56 -107t-153 -42h-192v80h41v338h71v-271zM702 825h57q63 0 100 19t37 53q0 22 -16.5 39.5t-38.5 17.5q-49 0 -139 -129z" />
    <glyph glyph-name="uniFBA2" unicode="&#x6bb;" horiz-adv-x="565" arabic-form="initial" 
d="M397 395q0 -215 -82 -305t-252 -90h-65v195h74q151 0 151 204v183h174v-187zM212 995q96 142 162 142q49 0 88 -44t39 -96q0 -65 -56 -107t-153 -42h-192v80h41v338h71v-271zM235 928h57q63 0 100 19t37 53q0 22 -16.5 39.5t-38.5 17.5q-49 0 -139 -129z" />
    <glyph glyph-name="uniFBA3" unicode="&#x6bb;" horiz-adv-x="498" arabic-form="medial" 
d="M500 0h-4q-170 0 -248 84q-78 -84 -246 -84h-4v195h12q152 0 152 204v183h174v-183q0 -204 151 -204h13v-195zM167 995q96 142 162 142q49 0 88 -44t39 -96q0 -65 -56 -107t-153 -42h-192v80h41v338h71v-271zM190 928h57q63 0 100 19t37 53q0 22 -16.5 39.5t-38.5 17.5
q-49 0 -139 -129z" />
    <glyph glyph-name="uniFBA4" unicode="&#x6c0;" horiz-adv-x="1053" arabic-form="isolated" 
d="M526 883q400 -200 400 -504q0 -191 -107 -291t-293 -100q-181 0 -290 104t-109 287q0 150 102.5 281.5t296.5 222.5zM752 379q0 96 -65 187.5t-161 144.5q-96 -57 -160.5 -147.5t-64.5 -184.5q0 -197 225 -197q105 0 165.5 50.5t60.5 146.5zM659 1175l-272 -49v72l59 10
q-78 33 -78 109q0 58 37 92.5t98 34.5q122 0 146 -109l-72 -6q-13 37 -72 37q-65 0 -65 -49q0 -37 38.5 -60.5t96.5 -23.5l84 14v-72zM531 999z" />
    <glyph glyph-name="uniFBA5" unicode="&#x6c0;" horiz-adv-x="977" arabic-form="final" 
d="M979 0h-4q-145 0 -222.5 63t-105.5 191q-28 -53 -100 -91t-150 -38q-116 0 -193 74t-77 202q0 139 110.5 253t331.5 175l-10 84h174l43 -358q22 -187 31 -224.5t31 -70.5t54 -49t75 -16h12v-195zM586 686q-267 -76 -267 -280q0 -40 31 -64.5t72 -24.5q57 0 122.5 52
t65.5 110q0 13 -24 207zM700 1175l-272 -49v72l59 10q-78 33 -78 109q0 58 37 92.5t98 34.5q122 0 146 -109l-72 -6q-13 37 -72 37q-65 0 -65 -49q0 -37 38.5 -60.5t96.5 -23.5l84 14v-72zM572 999z" />
    <glyph glyph-name="uniFBA6" unicode="&#x6c1;" horiz-adv-x="1053" arabic-form="isolated" 
d="M526 883q400 -200 400 -504q0 -191 -107 -291t-293 -100q-181 0 -290 104t-109 287q0 150 102.5 281.5t296.5 222.5zM752 379q0 96 -65 187.5t-161 144.5q-96 -57 -160.5 -147.5t-64.5 -184.5q0 -197 225 -197q105 0 165.5 50.5t60.5 146.5z" />
    <glyph glyph-name="uniFBA7" unicode="&#x6c1;" horiz-adv-x="1042" arabic-form="final" 
d="M1044 0h-88q-394 0 -600 127q-73 -109 -182 -301l-170 113q154 187 279 387h67q216 -131 604 -131h90v-195z" />
    <glyph glyph-name="uniFBA8" unicode="&#x6c1;" horiz-adv-x="559" arabic-form="initial" 
d="M397 395q0 -215 -82 -305t-252 -90h-65v195h74q151 0 151 204v183h174v-187zM283 -465l-117 -31q-62 81 -62 187q0 125 97 227l45 -35q-39 -50 -39 -139q0 -53 23.5 -114.5t52.5 -94.5z" />
    <glyph glyph-name="uniFBA9" unicode="&#x6c1;" horiz-adv-x="874" arabic-form="medial" 
d="M877 0h-17q-160 0 -290 -158.5t-130 -365.5v-17h-174v637q-93 -96 -260 -96h-8v195h16q88 0 158.5 55t97.5 151h170v-505q114 299 424 299h13v-195z" />
    <glyph glyph-name="uniFBAA" unicode="&#x6be;" horiz-adv-x="1446" arabic-form="isolated" 
d="M240 1188q133 26 307 26q334 0 553 -173t219 -441q0 -218 -160 -364t-395 -146q-73 0 -199 23q-224 -107 -459 -144l-47 187q152 11 297 55q-77 35 -122.5 110t-45.5 158q0 132 96.5 229t247.5 97q152 0 248.5 -95.5t96.5 -236.5q0 -112 -91 -209q170 6 264.5 97
t94.5 235q0 190 -164 307t-434 117q-102 0 -252 -27zM559 289q143 76 143 184q0 58 -48 97.5t-122 39.5q-77 0 -123.5 -38.5t-46.5 -92.5q0 -131 197 -190z" />
    <glyph glyph-name="uniFBAB" unicode="&#x6be;" horiz-adv-x="1446" arabic-form="final" 
d="M1448 0h-76q-118 0 -323 158q-130 -68 -285 -68q-73 0 -199 23q-224 -107 -459 -144l-47 187q152 11 297 55q-77 35 -122.5 110t-45.5 158q0 132 96.5 229t247.5 97q152 0 248.5 -95.5t96.5 -236.5q0 -112 -91 -209q170 6 264.5 97t94.5 235q0 190 -164 307t-434 117
q-102 0 -252 -27l-55 195q133 26 307 26q334 0 553 -173t219 -441q0 -203 -141 -346q104 -59 190 -59h80v-195zM559 289q143 76 143 184q0 58 -48 97.5t-122 39.5q-77 0 -123.5 -38.5t-46.5 -92.5q0 -131 197 -190z" />
    <glyph glyph-name="uniFBAC" unicode="&#x6be;" horiz-adv-x="1405" arabic-form="initial" 
d="M199 1188q133 26 307 26q334 0 553 -173t219 -441q0 -218 -160 -364t-395 -146q-102 0 -199 23q-246 -113 -514 -113h-12v195h16q151 0 277 22q-144 109 -144 262q0 132 96.5 229t248.5 97q151 0 247.5 -95.5t96.5 -236.5q0 -112 -91 -209q170 6 264.5 97t94.5 235
q0 190 -164 307t-434 117q-102 0 -252 -27zM518 289q144 77 144 184q0 58 -48.5 97.5t-121.5 39.5q-78 0 -124 -38.5t-46 -92.5q0 -131 196 -190z" />
    <glyph glyph-name="uniFBAD" unicode="&#x6be;" horiz-adv-x="1405" arabic-form="medial" 
d="M1407 0h-76q-118 0 -323 158q-133 -68 -285 -68q-102 0 -199 23q-246 -113 -514 -113h-12v195h16q151 0 277 22q-144 109 -144 262q0 132 96.5 229t248.5 97q151 0 247.5 -95.5t96.5 -236.5q0 -112 -91 -209q170 6 264.5 97t94.5 235q0 190 -164 307t-434 117
q-102 0 -252 -27l-55 195q133 26 307 26q334 0 553 -173t219 -441q0 -203 -141 -346q104 -59 190 -59h80v-195zM518 289q144 77 144 184q0 58 -48.5 97.5t-121.5 39.5q-78 0 -124 -38.5t-46 -92.5q0 -131 196 -190z" />
    <glyph glyph-name="uniFBAE" unicode="&#x6d2;" horiz-adv-x="1126" arabic-form="isolated" 
d="M1401 -453h-955q-139 0 -220 72.5t-81 190.5q0 88 52 152.5t131 110t220 110.5q203 93 261.5 166t58.5 179v80h174v-80q0 -166 -87.5 -273.5t-286.5 -193.5q-245 -104 -297 -152.5t-52 -98.5q0 -68 105 -68h977v-195z" />
    <glyph glyph-name="uniFBAF" unicode="&#x6d2;" horiz-adv-x="944" arabic-form="final" 
d="M1382 -453h-958q-141 0 -219 66t-78 182q0 157 214 278.5t462 121.5h143v-195h-139q-221 0 -363.5 -62t-142.5 -145q0 -27 27 -39t96 -12h958v-195z" />
    <glyph glyph-name="uniFBB0" unicode="&#x6d3;" horiz-adv-x="1126" arabic-form="isolated" 
d="M1401 -453h-955q-139 0 -220 72.5t-81 190.5q0 88 52 152.5t131 110t220 110.5q203 93 261.5 166t58.5 179v80h174v-80q0 -166 -87.5 -273.5t-286.5 -193.5q-245 -104 -297 -152.5t-52 -98.5q0 -68 105 -68h977v-195zM551 700l-272 -49v72l59 10q-78 33 -78 109
q0 58 37 92.5t98 34.5q122 0 146 -109l-72 -6q-13 37 -72 37q-65 0 -65 -49q0 -37 38.5 -60.5t96.5 -23.5l84 14v-72zM423 524z" />
    <glyph glyph-name="uniFBB1" unicode="&#x6d3;" horiz-adv-x="944" arabic-form="final" 
d="M1382 -453h-958q-141 0 -219 66t-78 182q0 157 214 278.5t462 121.5h143v-195h-139q-221 0 -363.5 -62t-142.5 -145q0 -27 27 -39t96 -12h958v-195zM559 475l-272 -49v72l59 10q-78 33 -78 109q0 58 37 92.5t98 34.5q122 0 146 -109l-72 -6q-13 37 -72 37q-65 0 -65 -49
q0 -37 38.5 -60.5t96.5 -23.5l84 14v-72zM431 299z" />
    <glyph glyph-name="uniFBD3" unicode="&#x6ad;" horiz-adv-x="1550" arabic-form="isolated" 
d="M1411 649q0 -315 -176.5 -482t-513.5 -167h-51q-256 0 -399.5 105.5t-143.5 300.5q0 89 23 202l163 -41q-12 -72 -12 -159q0 -108 103.5 -160.5t267.5 -52.5h43q256 0 389 114t133 334v823h174v-817zM773 1526h-148v147h148v-147zM908 1317h-147v147h147v-147zM640 1317
h-148v147h148v-147zM860 1026q-54 -10 -91.5 -30.5t-37.5 -43.5q0 -22 70 -55q77 -36 99 -64t22 -59q0 -87 -88 -140t-244 -63v80q117 5 186.5 36.5t69.5 80.5q0 30 -79 68q-72 34 -92 59t-20 53q0 60 56 102t149 56v-80z" />
    <glyph glyph-name="uniFBD4" unicode="&#x6ad;" horiz-adv-x="1501" arabic-form="final" 
d="M1503 0h-4q-248 0 -309 195q-179 -195 -578 -195q-255 0 -398.5 105.5t-143.5 300.5q0 89 22 202l164 -41q-12 -72 -12 -159q0 -103 96 -158t274 -55q279 0 415 109.5t136 338.5v823h174v-1067q0 -204 152 -204h12v-195zM795 1026q-54 -10 -91.5 -30.5t-37.5 -43.5
q0 -22 70 -55q76 -36 98 -64t22 -59q0 -87 -87.5 -140t-244.5 -63v80q117 5 186.5 36.5t69.5 80.5q0 30 -79 68q-71 34 -91 59t-20 53q0 60 56 102t149 56v-80zM711 1526h-148v147h148v-147zM846 1317h-148v147h148v-147zM578 1317h-148v147h148v-147z" />
    <glyph glyph-name="uniFBD5" unicode="&#x6ad;" horiz-adv-x="885" arabic-form="initial" 
d="M885 1278l-366 -149q-169 -68 -207 -87t-57 -36.5t-19 -34.5q0 -45 83 -148l181 -216q57 -68 83.5 -131.5t26.5 -127.5q0 -166 -116.5 -257t-315.5 -91h-180v195h182q118 0 187 43.5t69 115.5q0 79 -90 189l-184 220q-54 65 -77.5 113.5t-23.5 100.5q0 81 66 141t196 115
l562 235v-190zM318 1673h-148v147h148v-147zM453 1464h-147v147h147v-147zM185 1464h-148v147h148v-147z" />
    <glyph glyph-name="uniFBD6" unicode="&#x6ad;" horiz-adv-x="1124" arabic-form="medial" 
d="M1122 0h-65q-100 0 -221 63.5t-240 180.5q-34 -119 -145 -181.5t-273 -62.5h-180v195h182q118 0 187 43.5t69 115.5q0 79 -90 189l-184 220q-54 65 -77.5 113.5t-23.5 100.5q0 81 66 141t196 115l562 235v-190l-366 -149q-169 -68 -207 -87t-57 -36.5t-19 -34.5
q0 -44 55 -113l240 -287q183 -218 302 -297t220 -79h69v-195zM318 1673h-148v147h148v-147zM453 1464h-147v147h147v-147zM185 1464h-148v147h148v-147z" />
    <glyph glyph-name="uniFBD7" unicode="&#x6c7;" horiz-adv-x="963" arabic-form="isolated" 
d="M641 213q-55 -14 -104 -14q-157 0 -281.5 101.5t-124.5 285.5q0 165 101 277t233 112q142 0 256.5 -170.5t114.5 -429.5q0 -206 -118 -394.5t-318.5 -299.5t-424.5 -111q-70 0 -196 14l37 197q89 -17 161 -17q242 0 425 130t239 319zM662 408q-8 142 -68 257t-129 115
q-62 0 -111 -56.5t-49 -137.5t64 -137t157 -56q82 0 136 15zM598 1206q-56 7 -164 33q-152 -98 -426 -119v72q209 12 352 73q-141 41 -141 150q0 63 47.5 108.5t110.5 45.5q69 0 117.5 -44t48.5 -110t-58 -123q60 -13 113 -18v-68zM414 1310q51 49 51 105q0 31 -25.5 53.5
t-58.5 22.5q-36 0 -60 -22.5t-24 -53.5q0 -75 117 -105zM336 1007z" />
    <glyph glyph-name="uniFBD8" unicode="&#x6c7;" horiz-adv-x="954" arabic-form="final" 
d="M956 0h-170q-60 -213 -270 -321.5t-547 -108.5q-70 0 -196 14l37 197q89 -17 161 -17q283 0 430 56t193 180h-84q-157 0 -281.5 102t-124.5 285q0 165 101 277t233 112q136 0 249.5 -158.5t121.5 -422.5h147v-195zM635 195q0 155 -58.5 271t-138.5 116q-62 0 -110.5 -57
t-48.5 -138t63.5 -136.5t157.5 -55.5h135zM598 1078q-56 7 -164 33q-152 -98 -426 -119v72q209 12 352 73q-141 41 -141 150q0 63 47.5 108.5t110.5 45.5q69 0 117.5 -44t48.5 -110t-58 -123q60 -13 113 -18v-68zM414 1182q51 49 51 105q0 31 -25.5 53.5t-58.5 22.5
q-36 0 -60 -22.5t-24 -53.5q0 -75 117 -105zM336 879z" />
    <glyph glyph-name="uniFBD9" unicode="&#x6c6;" horiz-adv-x="963" arabic-form="isolated" 
d="M641 213q-55 -14 -104 -14q-157 0 -281.5 101.5t-124.5 285.5q0 165 101 277t233 112q142 0 256.5 -170.5t114.5 -429.5q0 -206 -118 -394.5t-318.5 -299.5t-424.5 -111q-70 0 -196 14l37 197q89 -17 161 -17q242 0 425 130t239 319zM662 408q-8 142 -68 257t-129 115
q-62 0 -111 -56.5t-49 -137.5t64 -137t157 -56q82 0 136 15zM578 1425l-119 -256h-72l-120 256h84l71 -178l70 178h86z" />
    <glyph glyph-name="uniFBDA" unicode="&#x6c6;" horiz-adv-x="954" arabic-form="final" 
d="M956 0h-170q-60 -213 -270 -321.5t-547 -108.5q-70 0 -196 14l37 197q89 -17 161 -17q283 0 430 56t193 180h-84q-157 0 -281.5 102t-124.5 285q0 165 101 277t233 112q136 0 249.5 -158.5t121.5 -422.5h147v-195zM635 195q0 155 -58.5 271t-138.5 116q-62 0 -110.5 -57
t-48.5 -138t63.5 -136.5t157.5 -55.5h135zM578 1286l-119 -256h-72l-120 256h84l71 -178l70 178h86z" />
    <glyph glyph-name="uniFBDB" unicode="&#x6c8;" horiz-adv-x="963" arabic-form="isolated" 
d="M641 213q-55 -14 -104 -14q-157 0 -281.5 101.5t-124.5 285.5q0 165 101 277t233 112q142 0 256.5 -170.5t114.5 -429.5q0 -206 -118 -394.5t-318.5 -299.5t-424.5 -111q-70 0 -196 14l37 197q89 -17 161 -17q242 0 425 130t239 319zM662 408q-8 142 -68 257t-129 115
q-62 0 -111 -56.5t-49 -137.5t64 -137t157 -56q82 0 136 15zM436 1178h-94v438h94v-438zM389 1066z" />
    <glyph glyph-name="uniFBDC" unicode="&#x6c8;" horiz-adv-x="954" arabic-form="final" 
d="M956 0h-170q-60 -213 -270 -321.5t-547 -108.5q-70 0 -196 14l37 197q89 -17 161 -17q283 0 430 56t193 180h-84q-157 0 -281.5 102t-124.5 285q0 165 101 277t233 112q136 0 249.5 -158.5t121.5 -422.5h147v-195zM635 195q0 155 -58.5 271t-138.5 116q-62 0 -110.5 -57
t-48.5 -138t63.5 -136.5t157.5 -55.5h135zM436 1047h-94v438h94v-438zM389 935z" />
    <glyph glyph-name="uniFBDD" unicode="&#x677;" horiz-adv-x="963" arabic-form="isolated" 
d="M641 213q-55 -14 -104 -14q-157 0 -281.5 101.5t-124.5 285.5q0 165 101 277t233 112q142 0 256.5 -170.5t114.5 -429.5q0 -206 -118 -394.5t-318.5 -299.5t-424.5 -111q-70 0 -196 14l37 197q89 -17 161 -17q242 0 425 130t239 319zM662 408q-8 142 -68 257t-129 115
q-62 0 -111 -56.5t-49 -137.5t64 -137t157 -56q82 0 136 15zM459 1184q-56 7 -164 33q-152 -98 -426 -119v72q209 12 352 73q-141 41 -141 150q0 63 47.5 108.5t110.5 45.5q69 0 117.5 -44t48.5 -110t-58 -123q60 -13 113 -18v-68zM275 1288q51 49 51 105q0 31 -25.5 53.5
t-58.5 22.5q-36 0 -60 -22.5t-24 -53.5q0 -75 117 -105zM197 985zM903 1216l-272 -49v72l59 10q-78 33 -78 109q0 58 37 92.5t98 34.5q122 0 146 -109l-72 -6q-13 37 -72 37q-65 0 -65 -49q0 -37 38.5 -60.5t96.5 -23.5l84 14v-72zM775 1040z" />
    <glyph glyph-name="uniFBDE" unicode="&#x6cb;" horiz-adv-x="963" arabic-form="isolated" 
d="M641 213q-55 -14 -104 -14q-157 0 -281.5 101.5t-124.5 285.5q0 165 101 277t233 112q142 0 256.5 -170.5t114.5 -429.5q0 -206 -118 -394.5t-318.5 -299.5t-424.5 -111q-70 0 -196 14l37 197q89 -17 161 -17q242 0 425 130t239 319zM662 408q-8 142 -68 257t-129 115
q-62 0 -111 -56.5t-49 -137.5t64 -137t157 -56q82 0 136 15zM488 1389h-148v147h148v-147zM623 1180h-147v147h147v-147zM355 1180h-148v147h148v-147z" />
    <glyph glyph-name="uniFBDF" unicode="&#x6cb;" horiz-adv-x="954" arabic-form="final" 
d="M956 0h-170q-60 -213 -270 -321.5t-547 -108.5q-70 0 -196 14l37 197q89 -17 161 -17q283 0 430 56t193 180h-84q-157 0 -281.5 102t-124.5 285q0 165 101 277t233 112q136 0 249.5 -158.5t121.5 -422.5h147v-195zM635 195q0 155 -58.5 271t-138.5 116q-62 0 -110.5 -57
t-48.5 -138t63.5 -136.5t157.5 -55.5h135zM463 1256h-148v147h148v-147zM598 1047h-147v147h147v-147zM330 1047h-148v147h148v-147z" />
    <glyph glyph-name="uniFBE0" unicode="&#x6c5;" horiz-adv-x="963" arabic-form="isolated" 
d="M641 213q-55 -14 -104 -14q-157 0 -281.5 101.5t-124.5 285.5q0 165 101 277t233 112q142 0 256.5 -170.5t114.5 -429.5q0 -206 -118 -394.5t-318.5 -299.5t-424.5 -111q-70 0 -196 14l37 197q89 -17 161 -17q300 0 504 195h-323v80h395q65 86 88 174zM662 408
q-8 142 -68 257t-129 115q-62 0 -111 -56.5t-49 -137.5t64 -137t157 -56q82 0 136 15z" />
    <glyph glyph-name="uniFBE1" unicode="&#x6c5;" horiz-adv-x="954" arabic-form="final" 
d="M956 0h-170q-60 -213 -270 -321.5t-547 -108.5q-70 0 -196 14l37 197q89 -17 161 -17q369 0 510 97h-280v80h362q20 30 31 59h-84q-157 0 -281.5 102t-124.5 285q0 165 101 277t233 112q136 0 249.5 -158.5t121.5 -422.5h147v-195zM635 195q0 155 -58.5 271t-138.5 116
q-62 0 -110.5 -57t-48.5 -138t63.5 -136.5t157.5 -55.5h135z" />
    <glyph glyph-name="uniFBE2" unicode="&#x6c9;" horiz-adv-x="963" arabic-form="isolated" 
d="M641 213q-55 -14 -104 -14q-157 0 -281.5 101.5t-124.5 285.5q0 165 101 277t233 112q142 0 256.5 -170.5t114.5 -429.5q0 -206 -118 -394.5t-318.5 -299.5t-424.5 -111q-70 0 -196 14l37 197q89 -17 161 -17q242 0 425 130t239 319zM662 408q-8 142 -68 257t-129 115
q-62 0 -111 -56.5t-49 -137.5t64 -137t157 -56q82 0 136 15zM578 1188h-86l-70 178l-71 -178h-84l120 256h72z" />
    <glyph glyph-name="uniFBE3" unicode="&#x6c9;" horiz-adv-x="954" arabic-form="final" 
d="M956 0h-170q-60 -213 -270 -321.5t-547 -108.5q-70 0 -196 14l37 197q89 -17 161 -17q283 0 430 56t193 180h-84q-157 0 -281.5 102t-124.5 285q0 165 101 277t233 112q136 0 249.5 -158.5t121.5 -422.5h147v-195zM635 195q0 155 -58.5 271t-138.5 116q-62 0 -110.5 -57
t-48.5 -138t63.5 -136.5t157.5 -55.5h135zM578 1057h-86l-70 178l-71 -178h-84l120 256h72z" />
    <glyph glyph-name="uniFBE4" unicode="&#x6d0;" horiz-adv-x="1599" arabic-form="isolated" 
d="M1495 649l-174 -18q-34 102 -203 102q-77 0 -131 -33.5t-54 -87.5q0 -31 34.5 -65t174.5 -103q211 -105 271.5 -178t60.5 -151q0 -153 -163.5 -258t-499.5 -105q-294 0 -467.5 105.5t-173.5 304.5q0 99 47 235l159 -41q-32 -106 -32 -192q0 -110 106 -163.5t363 -53.5
q241 0 364 48.5t123 123.5q0 38 -38 77t-190 115q-201 100 -257 166t-56 135q0 118 101.5 217t257.5 99q313 0 377 -279zM167 -304h-147v147h147v-147zM167 -572h-147v147h147v-147z" />
    <glyph glyph-name="uniFBE5" unicode="&#x6d0;" horiz-adv-x="1911" arabic-form="final" 
d="M1914 0h-6q-43 0 -127 34q-71 29 -102 29q-23 0 -37.5 -12t-14.5 -28q0 -18 49 -87q70 -101 70 -139q0 -125 -215.5 -237.5t-531.5 -112.5q-294 0 -467.5 105.5t-173.5 304.5q0 99 47 235l159 -41q-32 -107 -32 -192q0 -110 106 -163.5t363 -53.5q247 0 409 56t162 124
q0 18 -45 85q-74 109 -74 156q0 77 66 136t160 59q40 0 132 -35q71 -28 97 -28h6v-195zM215 -304h-147v147h147v-147zM215 -572h-147v147h147v-147z" />
    <glyph glyph-name="uniFBE6" unicode="&#x6d0;" horiz-adv-x="565" arabic-form="initial" 
d="M397 395q0 -215 -82 -305t-252 -90h-65v195h74q151 0 151 204v183h174v-187zM317 -262h-148v148h148v-148zM317 -489h-148v147h148v-147z" />
    <glyph glyph-name="uniFBE7" unicode="&#x6d0;" horiz-adv-x="498" arabic-form="medial" 
d="M500 0h-4q-170 0 -248 84q-78 -84 -246 -84h-4v195h12q152 0 152 204v183h174v-183q0 -204 151 -204h13v-195zM325 -262h-148v148h148v-148zM325 -489h-148v147h148v-147z" />
    <glyph glyph-name="uniFBE8" unicode="&#x649;" horiz-adv-x="565" arabic-form="initial" 
d="M397 395q0 -215 -82 -305t-252 -90h-65v195h74q151 0 151 204v183h174v-187z" />
    <glyph glyph-name="uniFBE9" unicode="&#x649;" horiz-adv-x="498" arabic-form="medial" 
d="M500 0h-4q-170 0 -248 84q-78 -84 -246 -84h-4v195h12q152 0 152 204v183h174v-183q0 -204 151 -204h13v-195z" />
    <glyph glyph-name="uniFBEA" unicode="&#xfbea;" horiz-adv-x="1120" arabic-form="isolated" 
d="M561 0h-65q-179 0 -256.5 95t-77.5 300v1071h174v-1067q0 -204 151 -204h74v-195zM958 395q0 -215 -82 -305t-252 -90h-65v195h74q151 0 151 204v183h174v-187zM972 896l-272 -49v72l59 10q-78 33 -78 109q0 58 37 92.5t98 34.5q122 0 146 -109l-72 -6q-13 37 -72 37
q-65 0 -65 -49q0 -37 38.5 -60.5t96.5 -23.5l84 14v-72zM844 720z" />
    <glyph glyph-name="uniFBEB" unicode="&#xfbeb;" horiz-adv-x="1059" arabic-form="final" 
d="M561 0h-65q-179 0 -256.5 95t-77.5 300v1071h174v-1067q0 -204 151 -204h74v-195zM1061 0h-4q-170 0 -248 84q-78 -84 -246 -84h-4v195h12q152 0 152 204v183h174v-183q0 -204 151 -204h13v-195zM942 897l-272 -49v72l59 10q-78 33 -78 109q0 58 37 92.5t98 34.5
q122 0 146 -109l-72 -6q-13 37 -72 37q-65 0 -65 -49q0 -37 38.5 -60.5t96.5 -23.5l84 14v-72zM814 721z" />
    <glyph glyph-name="uniFBEC" unicode="&#xfbec;" horiz-adv-x="1603" arabic-form="isolated" 
d="M1044 0h-88q-394 0 -600 127q-73 -109 -182 -301l-170 113q154 187 279 387h67q216 -131 604 -131h90v-195zM1441 395q0 -215 -82 -305t-252 -90h-65v195h74q151 0 151 204v183h174v-187zM1455 896l-272 -49v72l59 10q-78 33 -78 109q0 58 37 92.5t98 34.5
q122 0 146 -109l-72 -6q-13 37 -72 37q-65 0 -65 -49q0 -37 38.5 -60.5t96.5 -23.5l84 14v-72zM1327 720z" />
    <glyph glyph-name="uniFBED" unicode="&#xfbed;" horiz-adv-x="1542" arabic-form="final" 
d="M1044 0h-88q-394 0 -600 127q-73 -109 -182 -301l-170 113q154 187 279 387h67q216 -131 604 -131h90v-195zM1544 0h-4q-170 0 -248 84q-78 -84 -246 -84h-4v195h12q152 0 152 204v183h174v-183q0 -204 151 -204h13v-195zM1425 897l-272 -49v72l59 10q-78 33 -78 109
q0 58 37 92.5t98 34.5q122 0 146 -109l-72 -6q-13 37 -72 37q-65 0 -65 -49q0 -37 38.5 -60.5t96.5 -23.5l84 14v-72zM1297 721z" />
    <glyph glyph-name="uniFBEE" unicode="&#xfbee;" horiz-adv-x="1515" arabic-form="isolated" 
d="M956 0h-170q-60 -213 -270 -321.5t-547 -108.5q-70 0 -196 14l37 197q89 -17 161 -17q283 0 430 56t193 180h-84q-157 0 -281.5 102t-124.5 285q0 165 101 277t233 112q136 0 249.5 -158.5t121.5 -422.5h147v-195zM635 195q0 155 -58.5 271t-138.5 116q-62 0 -110.5 -57
t-48.5 -138t63.5 -136.5t157.5 -55.5h135zM1353 395q0 -215 -82 -305t-252 -90h-65v195h74q151 0 151 204v183h174v-187zM1367 896l-272 -49v72l59 10q-78 33 -78 109q0 58 37 92.5t98 34.5q122 0 146 -109l-72 -6q-13 37 -72 37q-65 0 -65 -49q0 -37 38.5 -60.5t96.5 -23.5
l84 14v-72zM1239 720z" />
    <glyph glyph-name="uniFBEF" unicode="&#xfbef;" horiz-adv-x="1454" arabic-form="final" 
d="M956 0h-170q-60 -213 -270 -321.5t-547 -108.5q-70 0 -196 14l37 197q89 -17 161 -17q283 0 430 56t193 180h-84q-157 0 -281.5 102t-124.5 285q0 165 101 277t233 112q136 0 249.5 -158.5t121.5 -422.5h147v-195zM635 195q0 155 -58.5 271t-138.5 116q-62 0 -110.5 -57
t-48.5 -138t63.5 -136.5t157.5 -55.5h135zM1456 0h-4q-170 0 -248 84q-78 -84 -246 -84h-4v195h12q152 0 152 204v183h174v-183q0 -204 151 -204h13v-195zM1337 897l-272 -49v72l59 10q-78 33 -78 109q0 58 37 92.5t98 34.5q122 0 146 -109l-72 -6q-13 37 -72 37
q-65 0 -65 -49q0 -37 38.5 -60.5t96.5 -23.5l84 14v-72zM1209 721z" />
    <glyph glyph-name="uniFBF0" unicode="&#xfbf0;" horiz-adv-x="1515" arabic-form="isolated" 
d="M956 0h-170q-60 -213 -270 -321.5t-547 -108.5q-70 0 -196 14l37 197q89 -17 161 -17q283 0 430 56t193 180h-84q-157 0 -281.5 102t-124.5 285q0 165 101 277t233 112q136 0 249.5 -158.5t121.5 -422.5h147v-195zM635 195q0 155 -58.5 271t-138.5 116q-62 0 -110.5 -57
t-48.5 -138t63.5 -136.5t157.5 -55.5h135zM598 1078q-56 7 -164 33q-152 -98 -426 -119v72q209 12 352 73q-141 41 -141 150q0 63 47.5 108.5t110.5 45.5q69 0 117.5 -44t48.5 -110t-58 -123q60 -13 113 -18v-68zM414 1182q51 49 51 105q0 31 -25.5 53.5t-58.5 22.5
q-36 0 -60 -22.5t-24 -53.5q0 -75 117 -105zM336 879zM1353 395q0 -215 -82 -305t-252 -90h-65v195h74q151 0 151 204v183h174v-187zM1367 896l-272 -49v72l59 10q-78 33 -78 109q0 58 37 92.5t98 34.5q122 0 146 -109l-72 -6q-13 37 -72 37q-65 0 -65 -49q0 -37 38.5 -60.5
t96.5 -23.5l84 14v-72zM1239 720z" />
    <glyph glyph-name="uniFBF1" unicode="&#xfbf1;" horiz-adv-x="1454" arabic-form="final" 
d="M956 0h-170q-60 -213 -270 -321.5t-547 -108.5q-70 0 -196 14l37 197q89 -17 161 -17q283 0 430 56t193 180h-84q-157 0 -281.5 102t-124.5 285q0 165 101 277t233 112q136 0 249.5 -158.5t121.5 -422.5h147v-195zM635 195q0 155 -58.5 271t-138.5 116q-62 0 -110.5 -57
t-48.5 -138t63.5 -136.5t157.5 -55.5h135zM598 1078q-56 7 -164 33q-152 -98 -426 -119v72q209 12 352 73q-141 41 -141 150q0 63 47.5 108.5t110.5 45.5q69 0 117.5 -44t48.5 -110t-58 -123q60 -13 113 -18v-68zM414 1182q51 49 51 105q0 31 -25.5 53.5t-58.5 22.5
q-36 0 -60 -22.5t-24 -53.5q0 -75 117 -105zM336 879zM1456 0h-4q-170 0 -248 84q-78 -84 -246 -84h-4v195h12q152 0 152 204v183h174v-183q0 -204 151 -204h13v-195zM1337 897l-272 -49v72l59 10q-78 33 -78 109q0 58 37 92.5t98 34.5q122 0 146 -109l-72 -6q-13 37 -72 37
q-65 0 -65 -49q0 -37 38.5 -60.5t96.5 -23.5l84 14v-72zM1209 721z" />
    <glyph glyph-name="uniFBF2" unicode="&#xfbf2;" horiz-adv-x="1515" arabic-form="isolated" 
d="M956 0h-170q-60 -213 -270 -321.5t-547 -108.5q-70 0 -196 14l37 197q89 -17 161 -17q283 0 430 56t193 180h-84q-157 0 -281.5 102t-124.5 285q0 165 101 277t233 112q136 0 249.5 -158.5t121.5 -422.5h147v-195zM635 195q0 155 -58.5 271t-138.5 116q-62 0 -110.5 -57
t-48.5 -138t63.5 -136.5t157.5 -55.5h135zM578 1286l-119 -256h-72l-120 256h84l71 -178l70 178h86zM1353 395q0 -215 -82 -305t-252 -90h-65v195h74q151 0 151 204v183h174v-187zM1367 896l-272 -49v72l59 10q-78 33 -78 109q0 58 37 92.5t98 34.5q122 0 146 -109l-72 -6
q-13 37 -72 37q-65 0 -65 -49q0 -37 38.5 -60.5t96.5 -23.5l84 14v-72zM1239 720z" />
    <glyph glyph-name="uniFBF3" unicode="&#xfbf3;" horiz-adv-x="1454" arabic-form="final" 
d="M956 0h-170q-60 -213 -270 -321.5t-547 -108.5q-70 0 -196 14l37 197q89 -17 161 -17q283 0 430 56t193 180h-84q-157 0 -281.5 102t-124.5 285q0 165 101 277t233 112q136 0 249.5 -158.5t121.5 -422.5h147v-195zM635 195q0 155 -58.5 271t-138.5 116q-62 0 -110.5 -57
t-48.5 -138t63.5 -136.5t157.5 -55.5h135zM578 1286l-119 -256h-72l-120 256h84l71 -178l70 178h86zM1456 0h-4q-170 0 -248 84q-78 -84 -246 -84h-4v195h12q152 0 152 204v183h174v-183q0 -204 151 -204h13v-195zM1337 897l-272 -49v72l59 10q-78 33 -78 109q0 58 37 92.5
t98 34.5q122 0 146 -109l-72 -6q-13 37 -72 37q-65 0 -65 -49q0 -37 38.5 -60.5t96.5 -23.5l84 14v-72zM1209 721z" />
    <glyph glyph-name="uniFBF4" unicode="&#xfbf4;" horiz-adv-x="1515" arabic-form="isolated" 
d="M956 0h-170q-60 -213 -270 -321.5t-547 -108.5q-70 0 -196 14l37 197q89 -17 161 -17q283 0 430 56t193 180h-84q-157 0 -281.5 102t-124.5 285q0 165 101 277t233 112q136 0 249.5 -158.5t121.5 -422.5h147v-195zM635 195q0 155 -58.5 271t-138.5 116q-62 0 -110.5 -57
t-48.5 -138t63.5 -136.5t157.5 -55.5h135zM436 1047h-94v438h94v-438zM389 935zM1353 395q0 -215 -82 -305t-252 -90h-65v195h74q151 0 151 204v183h174v-187zM1367 896l-272 -49v72l59 10q-78 33 -78 109q0 58 37 92.5t98 34.5q122 0 146 -109l-72 -6q-13 37 -72 37
q-65 0 -65 -49q0 -37 38.5 -60.5t96.5 -23.5l84 14v-72zM1239 720z" />
    <glyph glyph-name="uniFBF5" unicode="&#xfbf5;" horiz-adv-x="1454" arabic-form="final" 
d="M956 0h-170q-60 -213 -270 -321.5t-547 -108.5q-70 0 -196 14l37 197q89 -17 161 -17q283 0 430 56t193 180h-84q-157 0 -281.5 102t-124.5 285q0 165 101 277t233 112q136 0 249.5 -158.5t121.5 -422.5h147v-195zM635 195q0 155 -58.5 271t-138.5 116q-62 0 -110.5 -57
t-48.5 -138t63.5 -136.5t157.5 -55.5h135zM436 1047h-94v438h94v-438zM389 935zM1456 0h-4q-170 0 -248 84q-78 -84 -246 -84h-4v195h12q152 0 152 204v183h174v-183q0 -204 151 -204h13v-195zM1337 897l-272 -49v72l59 10q-78 33 -78 109q0 58 37 92.5t98 34.5
q122 0 146 -109l-72 -6q-13 37 -72 37q-65 0 -65 -49q0 -37 38.5 -60.5t96.5 -23.5l84 14v-72zM1209 721z" />
    <glyph glyph-name="uniFBF6" unicode="&#xfbf6;" horiz-adv-x="2472" arabic-form="isolated" 
d="M1914 0h-6q-43 0 -127 34q-71 29 -102 29q-23 0 -37.5 -12t-14.5 -28q0 -18 49 -87q70 -101 70 -139q0 -125 -215.5 -237.5t-531.5 -112.5q-294 0 -467.5 105.5t-173.5 304.5q0 99 47 235l159 -41q-32 -107 -32 -192q0 -110 106 -163.5t363 -53.5q247 0 409 56t162 124
q0 18 -45 85q-74 109 -74 156q0 77 66 136t160 59q40 0 132 -35q71 -28 97 -28h6v-195zM215 -304h-147v147h147v-147zM215 -572h-147v147h147v-147zM2310 395q0 -215 -82 -305t-252 -90h-65v195h74q151 0 151 204v183h174v-187zM2324 896l-272 -49v72l59 10q-78 33 -78 109
q0 58 37 92.5t98 34.5q122 0 146 -109l-72 -6q-13 37 -72 37q-65 0 -65 -49q0 -37 38.5 -60.5t96.5 -23.5l84 14v-72zM2196 720z" />
    <glyph glyph-name="uniFBF7" unicode="&#xfbf7;" horiz-adv-x="2411" arabic-form="final" 
d="M1914 0h-6q-43 0 -127 34q-71 29 -102 29q-23 0 -37.5 -12t-14.5 -28q0 -18 49 -87q70 -101 70 -139q0 -125 -215.5 -237.5t-531.5 -112.5q-294 0 -467.5 105.5t-173.5 304.5q0 99 47 235l159 -41q-32 -107 -32 -192q0 -110 106 -163.5t363 -53.5q247 0 409 56t162 124
q0 18 -45 85q-74 109 -74 156q0 77 66 136t160 59q40 0 132 -35q71 -28 97 -28h6v-195zM215 -304h-147v147h147v-147zM215 -572h-147v147h147v-147zM2413 0h-4q-170 0 -248 84q-78 -84 -246 -84h-4v195h12q152 0 152 204v183h174v-183q0 -204 151 -204h13v-195zM2294 897
l-272 -49v72l59 10q-78 33 -78 109q0 58 37 92.5t98 34.5q122 0 146 -109l-72 -6q-13 37 -72 37q-65 0 -65 -49q0 -37 38.5 -60.5t96.5 -23.5l84 14v-72zM2166 721z" />
    <glyph glyph-name="uniFBF8" unicode="&#xfbf8;" horiz-adv-x="1059" arabic-form="initial" 
d="M500 0h-4q-170 0 -248 84q-78 -84 -246 -84h-4v195h12q152 0 152 204v183h174v-183q0 -204 151 -204h13v-195zM327 -256h-147v147h147v-147zM327 -524h-147v147h147v-147zM897 395q0 -215 -82 -305t-252 -90h-65v195h74q151 0 151 204v183h174v-187zM911 896l-272 -49v72
l59 10q-78 33 -78 109q0 58 37 92.5t98 34.5q122 0 146 -109l-72 -6q-13 37 -72 37q-65 0 -65 -49q0 -37 38.5 -60.5t96.5 -23.5l84 14v-72zM783 720z" />
    <glyph glyph-name="uniFBF9" unicode="&#xfbf9;" horiz-adv-x="2185" arabic-form="isolated" 
d="M1626 0h-6q-43 0 -127 34q-71 29 -102 29q-23 0 -37.5 -12t-14.5 -28q0 -18 49 -87q70 -101 70 -139q0 -125 -215.5 -237.5t-531.5 -112.5q-294 0 -467.5 105.5t-173.5 304.5q0 99 47 235l159 -41q-32 -107 -32 -192q0 -110 106 -163.5t363 -53.5q247 0 409 56t162 124
q0 18 -45 85q-74 109 -74 156q0 77 66 136t160 59q40 0 132 -35q71 -28 97 -28h6v-195zM2023 395q0 -215 -82 -305t-252 -90h-65v195h74q151 0 151 204v183h174v-187zM2037 896l-272 -49v72l59 10q-78 33 -78 109q0 58 37 92.5t98 34.5q122 0 146 -109l-72 -6q-13 37 -72 37
q-65 0 -65 -49q0 -37 38.5 -60.5t96.5 -23.5l84 14v-72zM1909 720z" />
    <glyph glyph-name="uniFBFA" unicode="&#xfbfa;" horiz-adv-x="2124" arabic-form="final" 
d="M1626 0h-6q-43 0 -127 34q-71 29 -102 29q-23 0 -37.5 -12t-14.5 -28q0 -18 49 -87q70 -101 70 -139q0 -125 -215.5 -237.5t-531.5 -112.5q-294 0 -467.5 105.5t-173.5 304.5q0 99 47 235l159 -41q-32 -107 -32 -192q0 -110 106 -163.5t363 -53.5q247 0 409 56t162 124
q0 18 -45 85q-74 109 -74 156q0 77 66 136t160 59q40 0 132 -35q71 -28 97 -28h6v-195zM2126 0h-4q-170 0 -248 84q-78 -84 -246 -84h-4v195h12q152 0 152 204v183h174v-183q0 -204 151 -204h13v-195zM2007 897l-272 -49v72l59 10q-78 33 -78 109q0 58 37 92.5t98 34.5
q122 0 146 -109l-72 -6q-13 37 -72 37q-65 0 -65 -49q0 -37 38.5 -60.5t96.5 -23.5l84 14v-72zM1879 721z" />
    <glyph glyph-name="uniFBFB" unicode="&#xfbfb;" horiz-adv-x="1059" arabic-form="initial" 
d="M500 0h-4q-170 0 -248 84q-78 -84 -246 -84h-4v195h12q152 0 152 204v183h174v-183q0 -204 151 -204h13v-195zM897 395q0 -215 -82 -305t-252 -90h-65v195h74q151 0 151 204v183h174v-187zM911 896l-272 -49v72l59 10q-78 33 -78 109q0 58 37 92.5t98 34.5
q122 0 146 -109l-72 -6q-13 37 -72 37q-65 0 -65 -49q0 -37 38.5 -60.5t96.5 -23.5l84 14v-72zM783 720z" />
    <glyph glyph-name="uniFBFC" unicode="&#x6cc;" horiz-adv-x="1497" arabic-form="isolated" 
d="M1391 649l-174 -18q-34 102 -203 102q-77 0 -131 -33.5t-54 -87.5q0 -31 34.5 -65t174.5 -103q211 -105 271.5 -178t60.5 -151q0 -153 -163.5 -258t-499.5 -105q-294 0 -467.5 105.5t-173.5 304.5q0 99 47 235l159 -41q-32 -106 -32 -192q0 -110 106 -163.5t363 -53.5
q241 0 364 48.5t123 123.5q0 38 -38 77t-190 115q-201 100 -257 166t-56 135q0 118 101.5 217t257.5 99q313 0 377 -279z" />
    <glyph glyph-name="uniFBFD" unicode="&#x6cc;" horiz-adv-x="1624" arabic-form="final" 
d="M1626 0h-6q-43 0 -127 34q-71 29 -102 29q-23 0 -37.5 -12t-14.5 -28q0 -18 49 -87q70 -101 70 -139q0 -125 -215.5 -237.5t-531.5 -112.5q-294 0 -467.5 105.5t-173.5 304.5q0 99 47 235l159 -41q-32 -107 -32 -192q0 -110 106 -163.5t363 -53.5q247 0 409 56t162 124
q0 18 -45 85q-74 109 -74 156q0 77 66 136t160 59q40 0 132 -35q71 -28 97 -28h6v-195z" />
    <glyph glyph-name="uniFBFE" unicode="&#x6cc;" horiz-adv-x="565" arabic-form="initial" 
d="M397 395q0 -215 -82 -305t-252 -90h-65v195h74q151 0 151 204v183h174v-187zM445 -287h-147v147h147v-147zM177 -287h-148v147h148v-147z" />
    <glyph glyph-name="uniFBFF" unicode="&#x6cc;" horiz-adv-x="498" arabic-form="medial" 
d="M500 0h-4q-170 0 -248 84q-78 -84 -246 -84h-4v195h12q152 0 152 204v183h174v-183q0 -204 151 -204h13v-195zM457 -287h-147v147h147v-147zM189 -287h-148v147h148v-147z" />
    <glyph glyph-name="uniFC00" unicode="&#xfc00;" horiz-adv-x="1909" arabic-form="isolated" 
d="M1350 0h-76q-123 0 -245 81t-333 351q-411 -144 -411 -475q0 -137 119 -227t309 -90q174 0 415 61l31 -186q-222 -70 -444 -70q-269 0 -436.5 145.5t-167.5 368.5q0 244 200.5 423.5t513.5 231.5q-158 75 -263.5 97t-254.5 22q-65 0 -151 -20l-33 190q78 25 164 25
q147 0 279 -54t407 -225v-147q-81 -15 -131 -27q165 -185 254.5 -232.5t173.5 -47.5h80v-195zM735 -76h-178v178h178v-178zM1747 395q0 -215 -82 -305t-252 -90h-65v195h74q151 0 151 204v183h174v-187zM1761 896l-272 -49v72l59 10q-78 33 -78 109q0 58 37 92.5t98 34.5
q122 0 146 -109l-72 -6q-13 37 -72 37q-65 0 -65 -49q0 -37 38.5 -60.5t96.5 -23.5l84 14v-72zM1633 720z" />
    <glyph glyph-name="uniFC01" unicode="&#xfc01;" horiz-adv-x="1909" arabic-form="isolated" 
d="M1350 0h-76q-123 0 -245 81t-333 351q-411 -144 -411 -475q0 -137 119 -227t309 -90q174 0 415 61l31 -186q-222 -70 -444 -70q-269 0 -436.5 145.5t-167.5 368.5q0 244 200.5 423.5t513.5 231.5q-158 75 -263.5 97t-254.5 22q-65 0 -151 -20l-33 190q78 25 164 25
q147 0 279 -54t407 -225v-147q-81 -15 -131 -27q165 -185 254.5 -232.5t173.5 -47.5h80v-195zM1747 395q0 -215 -82 -305t-252 -90h-65v195h74q151 0 151 204v183h174v-187zM1761 896l-272 -49v72l59 10q-78 33 -78 109q0 58 37 92.5t98 34.5q122 0 146 -109l-72 -6
q-13 37 -72 37q-65 0 -65 -49q0 -37 38.5 -60.5t96.5 -23.5l84 14v-72zM1633 720z" />
    <glyph glyph-name="uniFC02" unicode="&#xfc02;" horiz-adv-x="1872" arabic-form="isolated" 
d="M1313 0h-15q-90 0 -165.5 41.5t-110.5 112.5q-49 -77 -134 -115.5t-181 -38.5q-146 0 -211 55q-25 -29 -92 -50q-52 -16 -72 -34.5t-29.5 -54.5t-9.5 -88v-371h-174v385q0 160 41.5 230.5t142.5 109.5q72 28 86 86q59 245 148 356t225 111q100 0 187 -75t118 -193
q72 -272 231 -272h15v-195zM561 229q83 -34 156 -34q83 0 135.5 48.5t52.5 127.5q0 73 -41 121.5t-102 48.5q-65 0 -119 -84.5t-82 -227.5zM1710 395q0 -215 -82 -305t-252 -90h-65v195h74q151 0 151 204v183h174v-187zM1724 896l-272 -49v72l59 10q-78 33 -78 109
q0 58 37 92.5t98 34.5q122 0 146 -109l-72 -6q-13 37 -72 37q-65 0 -65 -49q0 -37 38.5 -60.5t96.5 -23.5l84 14v-72zM1596 720z" />
    <glyph glyph-name="uniFC03" unicode="&#xfc03;" horiz-adv-x="2185" arabic-form="isolated" 
d="M1626 0h-6q-43 0 -127 34q-71 29 -102 29q-23 0 -37.5 -12t-14.5 -28q0 -18 49 -87q70 -101 70 -139q0 -125 -215.5 -237.5t-531.5 -112.5q-294 0 -467.5 105.5t-173.5 304.5q0 99 47 235l159 -41q-32 -107 -32 -192q0 -110 106 -163.5t363 -53.5q247 0 409 56t162 124
q0 18 -45 85q-74 109 -74 156q0 77 66 136t160 59q40 0 132 -35q71 -28 97 -28h6v-195zM2023 395q0 -215 -82 -305t-252 -90h-65v195h74q151 0 151 204v183h174v-187zM2037 896l-272 -49v72l59 10q-78 33 -78 109q0 58 37 92.5t98 34.5q122 0 146 -109l-72 -6q-13 37 -72 37
q-65 0 -65 -49q0 -37 38.5 -60.5t96.5 -23.5l84 14v-72zM1909 720z" />
    <glyph glyph-name="uniFC04" unicode="&#xfc04;" horiz-adv-x="2206" arabic-form="isolated" 
d="M1647 0h-7q-49 0 -152 61q-73 43 -97 43q-22 0 -37 -12t-15 -29t49 -60q70 -61 70 -99q0 -125 -216 -229.5t-531 -104.5q-294 0 -467.5 105t-173.5 305q0 99 47 235l159 -41q-32 -107 -32 -192q0 -110 106 -164t363 -54q250 0 410.5 50.5t160.5 113.5q0 18 -45 61
q-74 68 -74 115q0 77 66.5 136t159.5 59q60 0 158 -63q65 -41 91 -41h7v-195zM1554 -543h-127v127h127v-127zM1307 -543h-127v127h127v-127zM2044 395q0 -215 -82 -305t-252 -90h-65v195h74q151 0 151 204v183h174v-187zM2058 896l-272 -49v72l59 10q-78 33 -78 109
q0 58 37 92.5t98 34.5q122 0 146 -109l-72 -6q-13 37 -72 37q-65 0 -65 -49q0 -37 38.5 -60.5t96.5 -23.5l84 14v-72zM1930 720z" />
    <glyph glyph-name="uniFC05" unicode="&#xfc05;" horiz-adv-x="1915" arabic-form="isolated" 
d="M1350 0h-76q-123 0 -245 81t-333 351q-411 -144 -411 -475q0 -137 119 -227t309 -90q174 0 415 61l31 -186q-222 -70 -444 -70q-269 0 -436.5 145.5t-167.5 368.5q0 244 200.5 423.5t513.5 231.5q-158 75 -263.5 97t-254.5 22q-65 0 -151 -20l-33 190q78 25 164 25
q147 0 279 -54t407 -225v-147q-81 -15 -131 -27q165 -185 254.5 -232.5t173.5 -47.5h80v-195zM735 -76h-178v178h178v-178zM1747 395q0 -215 -82 -305t-252 -90h-65v195h74q151 0 151 204v183h174v-187zM1688 -287h-178v178h178v-178z" />
    <glyph glyph-name="uniFC06" unicode="&#xfc06;" horiz-adv-x="1915" arabic-form="isolated" 
d="M1350 0h-76q-123 0 -245 81t-333 351q-411 -144 -411 -475q0 -137 119 -227t309 -90q174 0 415 61l31 -186q-222 -70 -444 -70q-269 0 -436.5 145.5t-167.5 368.5q0 244 200.5 423.5t513.5 231.5q-158 75 -263.5 97t-254.5 22q-65 0 -151 -20l-33 190q78 25 164 25
q147 0 279 -54t407 -225v-147q-81 -15 -131 -27q165 -185 254.5 -232.5t173.5 -47.5h80v-195zM1747 395q0 -215 -82 -305t-252 -90h-65v195h74q151 0 151 204v183h174v-187zM1688 -287h-178v178h178v-178z" />
    <glyph glyph-name="uniFC07" unicode="&#xfc07;" horiz-adv-x="1915" arabic-form="isolated" 
d="M1350 0h-76q-123 0 -245 81t-333 351q-411 -144 -411 -475q0 -137 119 -227t309 -90q174 0 415 61l31 -186q-222 -70 -444 -70q-269 0 -436.5 145.5t-167.5 368.5q0 244 200.5 423.5t513.5 231.5q-158 75 -263.5 97t-254.5 22q-65 0 -151 -20l-33 190q78 25 164 25
q147 0 279 -54t407 -225v-147q-81 -15 -131 -27q165 -185 254.5 -232.5t173.5 -47.5h80v-195zM723 1094h-178v178h178v-178zM1747 395q0 -215 -82 -305t-252 -90h-65v195h74q151 0 151 204v183h174v-187zM1688 -287h-178v178h178v-178z" />
    <glyph glyph-name="uniFC08" unicode="&#xfc08;" horiz-adv-x="1878" arabic-form="isolated" 
d="M1313 0h-15q-90 0 -165.5 41.5t-110.5 112.5q-49 -77 -134 -115.5t-181 -38.5q-146 0 -211 55q-25 -29 -92 -50q-52 -16 -72 -34.5t-29.5 -54.5t-9.5 -88v-371h-174v385q0 160 41.5 230.5t142.5 109.5q72 28 86 86q59 245 148 356t225 111q100 0 187 -75t118 -193
q72 -272 231 -272h15v-195zM561 229q83 -34 156 -34q83 0 135.5 48.5t52.5 127.5q0 73 -41 121.5t-102 48.5q-65 0 -119 -84.5t-82 -227.5zM1708 395q0 -215 -82 -305t-252 -90h-65v195h74q151 0 151 204v183h174v-187zM1649 -287h-178v178h178v-178z" />
    <glyph glyph-name="uniFC09" unicode="&#xfc09;" horiz-adv-x="2191" arabic-form="isolated" 
d="M1626 0h-6q-43 0 -127 34q-71 29 -102 29q-23 0 -37.5 -12t-14.5 -28q0 -18 49 -87q70 -101 70 -139q0 -125 -215.5 -237.5t-531.5 -112.5q-294 0 -467.5 105.5t-173.5 304.5q0 99 47 235l159 -41q-32 -107 -32 -192q0 -110 106 -163.5t363 -53.5q247 0 409 56t162 124
q0 18 -45 85q-74 109 -74 156q0 77 66 136t160 59q40 0 132 -35q71 -28 97 -28h6v-195zM2023 395q0 -215 -82 -305t-252 -90h-65v195h74q151 0 151 204v183h174v-187zM1964 -287h-178v178h178v-178z" />
    <glyph glyph-name="uniFC0A" unicode="&#xfc0a;" horiz-adv-x="2212" arabic-form="isolated" 
d="M1647 0h-7q-49 0 -152 61q-73 43 -97 43q-22 0 -37 -12t-15 -29t49 -60q70 -61 70 -99q0 -125 -216 -229.5t-531 -104.5q-294 0 -467.5 105t-173.5 305q0 99 47 235l159 -41q-32 -107 -32 -192q0 -110 106 -164t363 -54q250 0 410.5 50.5t160.5 113.5q0 18 -45 61
q-74 68 -74 115q0 77 66.5 136t159.5 59q60 0 158 -63q65 -41 91 -41h7v-195zM1554 -543h-127v127h127v-127zM1307 -543h-127v127h127v-127zM2044 395q0 -215 -82 -305t-252 -90h-65v195h74q151 0 151 204v183h174v-187zM1985 -287h-178v178h178v-178z" />
    <glyph glyph-name="uniFC0B" unicode="&#xfc0b;" horiz-adv-x="1909" arabic-form="isolated" 
d="M1350 0h-76q-123 0 -245 81t-333 351q-411 -144 -411 -475q0 -137 119 -227t309 -90q174 0 415 61l31 -186q-222 -70 -444 -70q-269 0 -436.5 145.5t-167.5 368.5q0 244 200.5 423.5t513.5 231.5q-158 75 -263.5 97t-254.5 22q-65 0 -151 -20l-33 190q78 25 164 25
q147 0 279 -54t407 -225v-147q-81 -15 -131 -27q165 -185 254.5 -232.5t173.5 -47.5h80v-195zM735 -76h-178v178h178v-178zM1747 395q0 -215 -82 -305t-252 -90h-65v195h74q151 0 151 204v183h174v-187zM1795 848h-147v147h147v-147zM1527 848h-148v147h148v-147z" />
    <glyph glyph-name="uniFC0C" unicode="&#xfc0c;" horiz-adv-x="1909" arabic-form="isolated" 
d="M1350 0h-76q-123 0 -245 81t-333 351q-411 -144 -411 -475q0 -137 119 -227t309 -90q174 0 415 61l31 -186q-222 -70 -444 -70q-269 0 -436.5 145.5t-167.5 368.5q0 244 200.5 423.5t513.5 231.5q-158 75 -263.5 97t-254.5 22q-65 0 -151 -20l-33 190q78 25 164 25
q147 0 279 -54t407 -225v-147q-81 -15 -131 -27q165 -185 254.5 -232.5t173.5 -47.5h80v-195zM1747 395q0 -215 -82 -305t-252 -90h-65v195h74q151 0 151 204v183h174v-187zM1795 848h-147v147h147v-147zM1527 848h-148v147h148v-147z" />
    <glyph glyph-name="uniFC0D" unicode="&#xfc0d;" horiz-adv-x="1909" arabic-form="isolated" 
d="M1350 0h-76q-123 0 -245 81t-333 351q-411 -144 -411 -475q0 -137 119 -227t309 -90q174 0 415 61l31 -186q-222 -70 -444 -70q-269 0 -436.5 145.5t-167.5 368.5q0 244 200.5 423.5t513.5 231.5q-158 75 -263.5 97t-254.5 22q-65 0 -151 -20l-33 190q78 25 164 25
q147 0 279 -54t407 -225v-147q-81 -15 -131 -27q165 -185 254.5 -232.5t173.5 -47.5h80v-195zM723 1094h-178v178h178v-178zM1747 395q0 -215 -82 -305t-252 -90h-65v195h74q151 0 151 204v183h174v-187zM1795 848h-147v147h147v-147zM1527 848h-148v147h148v-147z" />
    <glyph glyph-name="uniFC0E" unicode="&#xfc0e;" horiz-adv-x="1872" arabic-form="isolated" 
d="M1313 0h-15q-90 0 -165.5 41.5t-110.5 112.5q-49 -77 -134 -115.5t-181 -38.5q-146 0 -211 55q-25 -29 -92 -50q-52 -16 -72 -34.5t-29.5 -54.5t-9.5 -88v-371h-174v385q0 160 41.5 230.5t142.5 109.5q72 28 86 86q59 245 148 356t225 111q100 0 187 -75t118 -193
q72 -272 231 -272h15v-195zM561 229q83 -34 156 -34q83 0 135.5 48.5t52.5 127.5q0 73 -41 121.5t-102 48.5q-65 0 -119 -84.5t-82 -227.5zM1710 395q0 -215 -82 -305t-252 -90h-65v195h74q151 0 151 204v183h174v-187zM1758 848h-147v147h147v-147zM1490 848h-148v147h148
v-147z" />
    <glyph glyph-name="uniFC0F" unicode="&#xfc0f;" horiz-adv-x="2185" arabic-form="isolated" 
d="M1626 0h-6q-43 0 -127 34q-71 29 -102 29q-23 0 -37.5 -12t-14.5 -28q0 -18 49 -87q70 -101 70 -139q0 -125 -215.5 -237.5t-531.5 -112.5q-294 0 -467.5 105.5t-173.5 304.5q0 99 47 235l159 -41q-32 -107 -32 -192q0 -110 106 -163.5t363 -53.5q247 0 409 56t162 124
q0 18 -45 85q-74 109 -74 156q0 77 66 136t160 59q40 0 132 -35q71 -28 97 -28h6v-195zM2023 395q0 -215 -82 -305t-252 -90h-65v195h74q151 0 151 204v183h174v-187zM2071 848h-147v147h147v-147zM1803 848h-148v147h148v-147z" />
    <glyph glyph-name="uniFC10" unicode="&#xfc10;" horiz-adv-x="2206" arabic-form="isolated" 
d="M1647 0h-7q-49 0 -152 61q-73 43 -97 43q-22 0 -37 -12t-15 -29t49 -60q70 -61 70 -99q0 -125 -216 -229.5t-531 -104.5q-294 0 -467.5 105t-173.5 305q0 99 47 235l159 -41q-32 -107 -32 -192q0 -110 106 -164t363 -54q250 0 410.5 50.5t160.5 113.5q0 18 -45 61
q-74 68 -74 115q0 77 66.5 136t159.5 59q60 0 158 -63q65 -41 91 -41h7v-195zM1554 -543h-127v127h127v-127zM1307 -543h-127v127h127v-127zM2044 395q0 -215 -82 -305t-252 -90h-65v195h74q151 0 151 204v183h174v-187zM2092 848h-147v147h147v-147zM1824 848h-148v147h148
v-147z" />
    <glyph glyph-name="uniFC11" unicode="&#xfc11;" horiz-adv-x="1909" arabic-form="isolated" 
d="M1350 0h-76q-123 0 -245 81t-333 351q-411 -144 -411 -475q0 -137 119 -227t309 -90q174 0 415 61l31 -186q-222 -70 -444 -70q-269 0 -436.5 145.5t-167.5 368.5q0 244 200.5 423.5t513.5 231.5q-158 75 -263.5 97t-254.5 22q-65 0 -151 -20l-33 190q78 25 164 25
q147 0 279 -54t407 -225v-147q-81 -15 -131 -27q165 -185 254.5 -232.5t173.5 -47.5h80v-195zM735 -76h-178v178h178v-178zM1747 395q0 -215 -82 -305t-252 -90h-65v195h74q151 0 151 204v183h174v-187zM1660 1057h-148v147h148v-147zM1795 848h-147v147h147v-147zM1527 848
h-148v147h148v-147z" />
    <glyph glyph-name="uniFC12" unicode="&#xfc12;" horiz-adv-x="1872" arabic-form="isolated" 
d="M1313 0h-15q-90 0 -165.5 41.5t-110.5 112.5q-49 -77 -134 -115.5t-181 -38.5q-146 0 -211 55q-25 -29 -92 -50q-52 -16 -72 -34.5t-29.5 -54.5t-9.5 -88v-371h-174v385q0 160 41.5 230.5t142.5 109.5q72 28 86 86q59 245 148 356t225 111q100 0 187 -75t118 -193
q72 -272 231 -272h15v-195zM561 229q83 -34 156 -34q83 0 135.5 48.5t52.5 127.5q0 73 -41 121.5t-102 48.5q-65 0 -119 -84.5t-82 -227.5zM1710 395q0 -215 -82 -305t-252 -90h-65v195h74q151 0 151 204v183h174v-187zM1623 1057h-148v147h148v-147zM1758 848h-147v147h147
v-147zM1490 848h-148v147h148v-147z" />
    <glyph glyph-name="uniFC13" unicode="&#xfc13;" horiz-adv-x="2185" arabic-form="isolated" 
d="M1626 0h-6q-43 0 -127 34q-71 29 -102 29q-23 0 -37.5 -12t-14.5 -28q0 -18 49 -87q70 -101 70 -139q0 -125 -215.5 -237.5t-531.5 -112.5q-294 0 -467.5 105.5t-173.5 304.5q0 99 47 235l159 -41q-32 -107 -32 -192q0 -110 106 -163.5t363 -53.5q247 0 409 56t162 124
q0 18 -45 85q-74 109 -74 156q0 77 66 136t160 59q40 0 132 -35q71 -28 97 -28h6v-195zM2023 395q0 -215 -82 -305t-252 -90h-65v195h74q151 0 151 204v183h174v-187zM1936 1057h-148v147h148v-147zM2071 848h-147v147h147v-147zM1803 848h-148v147h148v-147z" />
    <glyph glyph-name="uniFC14" unicode="&#xfc14;" horiz-adv-x="2206" arabic-form="isolated" 
d="M1647 0h-7q-49 0 -152 61q-73 43 -97 43q-22 0 -37 -12t-15 -29t49 -60q70 -61 70 -99q0 -125 -216 -229.5t-531 -104.5q-294 0 -467.5 105t-173.5 305q0 99 47 235l159 -41q-32 -107 -32 -192q0 -110 106 -164t363 -54q250 0 410.5 50.5t160.5 113.5q0 18 -45 61
q-74 68 -74 115q0 77 66.5 136t159.5 59q60 0 158 -63q65 -41 91 -41h7v-195zM1554 -543h-127v127h127v-127zM1307 -543h-127v127h127v-127zM2044 395q0 -215 -82 -305t-252 -90h-65v195h74q151 0 151 204v183h174v-187zM1957 1057h-148v147h148v-147zM2092 848h-147v147
h147v-147zM1824 848h-148v147h148v-147z" />
    <glyph glyph-name="uniFC15" unicode="&#xfc15;" horiz-adv-x="2673" arabic-form="isolated" 
d="M1350 0h-76q-123 0 -245 81t-333 351q-411 -144 -411 -475q0 -137 119 -227t309 -90q174 0 415 61l31 -186q-222 -70 -444 -70q-269 0 -436.5 145.5t-167.5 368.5q0 244 200.5 423.5t513.5 231.5q-158 75 -263.5 97t-254.5 22q-65 0 -151 -20l-33 190q78 25 164 25
q147 0 279 -54t407 -225v-147q-81 -15 -131 -27q165 -185 254.5 -232.5t173.5 -47.5h80v-195zM2511 387q-84 0 -198 -34.5t-366 -165.5q-237 -123 -339 -155t-176 -32h-84v195h90q62 0 155.5 29t318.5 140q302 150 403 158q-413 211 -684 211q-65 0 -152 -20l-33 190
q78 25 164 25q109 0 250.5 -45.5t440.5 -214.5q197 -111 204 -111h6v-170zM2192 -164h-178v178h178v-178z" />
    <glyph glyph-name="uniFC16" unicode="&#xfc16;" horiz-adv-x="2636" arabic-form="isolated" 
d="M1313 0h-15q-90 0 -165.5 41.5t-110.5 112.5q-49 -77 -134 -115.5t-181 -38.5q-146 0 -211 55q-25 -29 -92 -50q-52 -16 -72 -34.5t-29.5 -54.5t-9.5 -88v-371h-174v385q0 160 41.5 230.5t142.5 109.5q72 28 86 86q59 245 148 356t225 111q100 0 187 -75t118 -193
q72 -272 231 -272h15v-195zM561 229q83 -34 156 -34q83 0 135.5 48.5t52.5 127.5q0 73 -41 121.5t-102 48.5q-65 0 -119 -84.5t-82 -227.5zM2474 387q-84 0 -198 -34.5t-366 -165.5q-237 -123 -339 -155t-176 -32h-84v195h90q62 0 155.5 29t318.5 140q302 150 403 158
q-413 211 -684 211q-65 0 -152 -20l-33 190q78 25 164 25q109 0 250.5 -45.5t440.5 -214.5q197 -111 204 -111h6v-170zM2155 -164h-178v178h178v-178z" />
    <glyph glyph-name="uniFC17" unicode="&#xfc17;" horiz-adv-x="2673" arabic-form="isolated" 
d="M1350 0h-76q-123 0 -245 81t-333 351q-411 -144 -411 -475q0 -137 119 -227t309 -90q174 0 415 61l31 -186q-222 -70 -444 -70q-269 0 -436.5 145.5t-167.5 368.5q0 244 200.5 423.5t513.5 231.5q-158 75 -263.5 97t-254.5 22q-65 0 -151 -20l-33 190q78 25 164 25
q147 0 279 -54t407 -225v-147q-81 -15 -131 -27q165 -185 254.5 -232.5t173.5 -47.5h80v-195zM735 -76h-178v178h178v-178zM2511 387q-84 0 -198 -34.5t-366 -165.5q-237 -123 -339 -155t-176 -32h-84v195h90q62 0 155.5 29t318.5 140q302 150 403 158q-413 211 -684 211
q-65 0 -152 -20l-33 190q78 25 164 25q109 0 250.5 -45.5t440.5 -214.5q197 -111 204 -111h6v-170z" />
    <glyph glyph-name="uniFC18" unicode="&#xfc18;" horiz-adv-x="2636" arabic-form="isolated" 
d="M1313 0h-15q-90 0 -165.5 41.5t-110.5 112.5q-49 -77 -134 -115.5t-181 -38.5q-146 0 -211 55q-25 -29 -92 -50q-52 -16 -72 -34.5t-29.5 -54.5t-9.5 -88v-371h-174v385q0 160 41.5 230.5t142.5 109.5q72 28 86 86q59 245 148 356t225 111q100 0 187 -75t118 -193
q72 -272 231 -272h15v-195zM561 229q83 -34 156 -34q83 0 135.5 48.5t52.5 127.5q0 73 -41 121.5t-102 48.5q-65 0 -119 -84.5t-82 -227.5zM2474 387q-84 0 -198 -34.5t-366 -165.5q-237 -123 -339 -155t-176 -32h-84v195h90q62 0 155.5 29t318.5 140q302 150 403 158
q-413 211 -684 211q-65 0 -152 -20l-33 190q78 25 164 25q109 0 250.5 -45.5t440.5 -214.5q197 -111 204 -111h6v-170z" />
    <glyph glyph-name="uniFC19" unicode="&#xfc19;" horiz-adv-x="2673" arabic-form="isolated" 
d="M1350 0h-76q-123 0 -245 81t-333 351q-411 -144 -411 -475q0 -137 119 -227t309 -90q174 0 415 61l31 -186q-222 -70 -444 -70q-269 0 -436.5 145.5t-167.5 368.5q0 244 200.5 423.5t513.5 231.5q-158 75 -263.5 97t-254.5 22q-65 0 -151 -20l-33 190q78 25 164 25
q147 0 279 -54t407 -225v-147q-81 -15 -131 -27q165 -185 254.5 -232.5t173.5 -47.5h80v-195zM735 -76h-178v178h178v-178zM2511 387q-84 0 -198 -34.5t-366 -165.5q-237 -123 -339 -155t-176 -32h-84v195h90q62 0 155.5 29t318.5 140q302 150 403 158q-413 211 -684 211
q-65 0 -152 -20l-33 190q78 25 164 25q109 0 250.5 -45.5t440.5 -214.5q197 -111 204 -111h6v-170zM2177 1071h-178v178h178v-178z" />
    <glyph glyph-name="uniFC1A" unicode="&#xfc1a;" horiz-adv-x="2673" arabic-form="isolated" 
d="M1350 0h-76q-123 0 -245 81t-333 351q-411 -144 -411 -475q0 -137 119 -227t309 -90q174 0 415 61l31 -186q-222 -70 -444 -70q-269 0 -436.5 145.5t-167.5 368.5q0 244 200.5 423.5t513.5 231.5q-158 75 -263.5 97t-254.5 22q-65 0 -151 -20l-33 190q78 25 164 25
q147 0 279 -54t407 -225v-147q-81 -15 -131 -27q165 -185 254.5 -232.5t173.5 -47.5h80v-195zM2511 387q-84 0 -198 -34.5t-366 -165.5q-237 -123 -339 -155t-176 -32h-84v195h90q62 0 155.5 29t318.5 140q302 150 403 158q-413 211 -684 211q-65 0 -152 -20l-33 190
q78 25 164 25q109 0 250.5 -45.5t440.5 -214.5q197 -111 204 -111h6v-170zM2177 1071h-178v178h178v-178z" />
    <glyph glyph-name="uniFC1B" unicode="&#xfc1b;" horiz-adv-x="2636" arabic-form="isolated" 
d="M1313 0h-15q-90 0 -165.5 41.5t-110.5 112.5q-49 -77 -134 -115.5t-181 -38.5q-146 0 -211 55q-25 -29 -92 -50q-52 -16 -72 -34.5t-29.5 -54.5t-9.5 -88v-371h-174v385q0 160 41.5 230.5t142.5 109.5q72 28 86 86q59 245 148 356t225 111q100 0 187 -75t118 -193
q72 -272 231 -272h15v-195zM561 229q83 -34 156 -34q83 0 135.5 48.5t52.5 127.5q0 73 -41 121.5t-102 48.5q-65 0 -119 -84.5t-82 -227.5zM2474 387q-84 0 -198 -34.5t-366 -165.5q-237 -123 -339 -155t-176 -32h-84v195h90q62 0 155.5 29t318.5 140q302 150 403 158
q-413 211 -684 211q-65 0 -152 -20l-33 190q78 25 164 25q109 0 250.5 -45.5t440.5 -214.5q197 -111 204 -111h6v-170zM2140 1071h-178v178h178v-178z" />
    <glyph glyph-name="uniFC1C" unicode="&#xfc1c;" horiz-adv-x="2927" arabic-form="isolated" 
d="M1350 0h-76q-123 0 -245 81t-333 351q-411 -144 -411 -475q0 -137 119 -227t309 -90q174 0 415 61l31 -186q-222 -70 -444 -70q-269 0 -436.5 145.5t-167.5 368.5q0 244 200.5 423.5t513.5 231.5q-158 75 -263.5 97t-254.5 22q-65 0 -151 -20l-33 190q78 25 164 25
q147 0 279 -54t407 -225v-147q-81 -15 -131 -27q165 -185 254.5 -232.5t173.5 -47.5h80v-195zM735 -76h-178v178h178v-178zM2765 422q0 -205 -86 -313.5t-246 -108.5h-16q-174 0 -254 92q-34 -42 -104 -67t-113 -25q-148 0 -217 92q-83 -92 -242 -92h-139v195h135
q152 0 152 204v183h174v-164q0 -117 29.5 -170t103.5 -53q72 0 103.5 51.5t31.5 175.5v160h174v-156q0 -231 166 -231h16q158 0 158 231v283h174v-287z" />
    <glyph glyph-name="uniFC1D" unicode="&#xfc1d;" horiz-adv-x="2927" arabic-form="isolated" 
d="M1350 0h-76q-123 0 -245 81t-333 351q-411 -144 -411 -475q0 -137 119 -227t309 -90q174 0 415 61l31 -186q-222 -70 -444 -70q-269 0 -436.5 145.5t-167.5 368.5q0 244 200.5 423.5t513.5 231.5q-158 75 -263.5 97t-254.5 22q-65 0 -151 -20l-33 190q78 25 164 25
q147 0 279 -54t407 -225v-147q-81 -15 -131 -27q165 -185 254.5 -232.5t173.5 -47.5h80v-195zM2765 422q0 -205 -86 -313.5t-246 -108.5h-16q-174 0 -254 92q-34 -42 -104 -67t-113 -25q-148 0 -217 92q-83 -92 -242 -92h-139v195h135q152 0 152 204v183h174v-164
q0 -117 29.5 -170t103.5 -53q72 0 103.5 51.5t31.5 175.5v160h174v-156q0 -231 166 -231h16q158 0 158 231v283h174v-287z" />
    <glyph glyph-name="uniFC1E" unicode="&#xfc1e;" horiz-adv-x="2927" arabic-form="isolated" 
d="M1350 0h-76q-123 0 -245 81t-333 351q-411 -144 -411 -475q0 -137 119 -227t309 -90q174 0 415 61l31 -186q-222 -70 -444 -70q-269 0 -436.5 145.5t-167.5 368.5q0 244 200.5 423.5t513.5 231.5q-158 75 -263.5 97t-254.5 22q-65 0 -151 -20l-33 190q78 25 164 25
q147 0 279 -54t407 -225v-147q-81 -15 -131 -27q165 -185 254.5 -232.5t173.5 -47.5h80v-195zM723 1094h-178v178h178v-178zM2765 422q0 -205 -86 -313.5t-246 -108.5h-16q-174 0 -254 92q-34 -42 -104 -67t-113 -25q-148 0 -217 92q-83 -92 -242 -92h-139v195h135
q152 0 152 204v183h174v-164q0 -117 29.5 -170t103.5 -53q72 0 103.5 51.5t31.5 175.5v160h174v-156q0 -231 166 -231h16q158 0 158 231v283h174v-287z" />
    <glyph glyph-name="uniFC1F" unicode="&#xfc1f;" horiz-adv-x="2890" arabic-form="isolated" 
d="M1313 0h-15q-90 0 -165.5 41.5t-110.5 112.5q-49 -77 -134 -115.5t-181 -38.5q-146 0 -211 55q-25 -29 -92 -50q-52 -16 -72 -34.5t-29.5 -54.5t-9.5 -88v-371h-174v385q0 160 41.5 230.5t142.5 109.5q72 28 86 86q59 245 148 356t225 111q100 0 187 -75t118 -193
q72 -272 231 -272h15v-195zM561 229q83 -34 156 -34q83 0 135.5 48.5t52.5 127.5q0 73 -41 121.5t-102 48.5q-65 0 -119 -84.5t-82 -227.5zM2728 422q0 -205 -86 -313.5t-246 -108.5h-16q-174 0 -254 92q-34 -42 -104 -67t-113 -25q-148 0 -217 92q-83 -92 -242 -92h-139
v195h135q152 0 152 204v183h174v-164q0 -117 29.5 -170t103.5 -53q72 0 103.5 51.5t31.5 175.5v160h174v-156q0 -231 166 -231h16q158 0 158 231v283h174v-287z" />
    <glyph glyph-name="uniFC20" unicode="&#xfc20;" horiz-adv-x="3023" arabic-form="isolated" 
d="M1350 0h-76q-123 0 -245 81t-333 351q-411 -144 -411 -475q0 -137 119 -227t309 -90q174 0 415 61l31 -186q-222 -70 -444 -70q-269 0 -436.5 145.5t-167.5 368.5q0 244 200.5 423.5t513.5 231.5q-158 75 -263.5 97t-254.5 22q-65 0 -151 -20l-33 190q78 25 164 25
q147 0 279 -54t407 -225v-147q-81 -15 -131 -27q165 -185 254.5 -232.5t173.5 -47.5h80v-195zM1774 205q267 406 435 547t296 141q168 0 280.5 -118.5t112.5 -299.5q0 -219 -194 -347t-529 -128h-331q-168 0 -246 84q-78 -84 -246 -84h-4v195h12q152 0 152 204v101h174v-101
q0 -159 88 -194zM1946 195h229q252 0 400.5 73.5t148.5 202.5q0 92 -66 160.5t-153 68.5q-201 0 -559 -505z" />
    <glyph glyph-name="uniFC21" unicode="&#xfc21;" horiz-adv-x="2986" arabic-form="isolated" 
d="M1313 0h-15q-90 0 -165.5 41.5t-110.5 112.5q-49 -77 -134 -115.5t-181 -38.5q-146 0 -211 55q-25 -29 -92 -50q-52 -16 -72 -34.5t-29.5 -54.5t-9.5 -88v-371h-174v385q0 160 41.5 230.5t142.5 109.5q72 28 86 86q59 245 148 356t225 111q100 0 187 -75t118 -193
q72 -272 231 -272h15v-195zM561 229q83 -34 156 -34q83 0 135.5 48.5t52.5 127.5q0 73 -41 121.5t-102 48.5q-65 0 -119 -84.5t-82 -227.5zM1737 205q267 406 435 547t296 141q168 0 280.5 -118.5t112.5 -299.5q0 -219 -194 -347t-529 -128h-331q-168 0 -246 84
q-78 -84 -246 -84h-4v195h12q152 0 152 204v101h174v-101q0 -159 88 -194zM1909 195h229q252 0 400.5 73.5t148.5 202.5q0 92 -66 160.5t-153 68.5q-201 0 -559 -505z" />
    <glyph glyph-name="uniFC22" unicode="&#xfc22;" horiz-adv-x="3023" arabic-form="isolated" 
d="M1350 0h-76q-123 0 -245 81t-333 351q-411 -144 -411 -475q0 -137 119 -227t309 -90q174 0 415 61l31 -186q-222 -70 -444 -70q-269 0 -436.5 145.5t-167.5 368.5q0 244 200.5 423.5t513.5 231.5q-158 75 -263.5 97t-254.5 22q-65 0 -151 -20l-33 190q78 25 164 25
q147 0 279 -54t407 -225v-147q-81 -15 -131 -27q165 -185 254.5 -232.5t173.5 -47.5h80v-195zM735 -76h-178v178h178v-178zM1774 205q267 406 435 547t296 141q168 0 280.5 -118.5t112.5 -299.5q0 -219 -194 -347t-529 -128h-331q-168 0 -246 84q-78 -84 -246 -84h-4v195h12
q152 0 152 204v101h174v-101q0 -159 88 -194zM1946 195h229q252 0 400.5 73.5t148.5 202.5q0 92 -66 160.5t-153 68.5q-201 0 -559 -505zM1925 891h-178v178h178v-178z" />
    <glyph glyph-name="uniFC23" unicode="&#xfc23;" horiz-adv-x="3023" arabic-form="isolated" 
d="M1350 0h-76q-123 0 -245 81t-333 351q-411 -144 -411 -475q0 -137 119 -227t309 -90q174 0 415 61l31 -186q-222 -70 -444 -70q-269 0 -436.5 145.5t-167.5 368.5q0 244 200.5 423.5t513.5 231.5q-158 75 -263.5 97t-254.5 22q-65 0 -151 -20l-33 190q78 25 164 25
q147 0 279 -54t407 -225v-147q-81 -15 -131 -27q165 -185 254.5 -232.5t173.5 -47.5h80v-195zM1774 205q267 406 435 547t296 141q168 0 280.5 -118.5t112.5 -299.5q0 -219 -194 -347t-529 -128h-331q-168 0 -246 84q-78 -84 -246 -84h-4v195h12q152 0 152 204v101h174v-101
q0 -159 88 -194zM1946 195h229q252 0 400.5 73.5t148.5 202.5q0 92 -66 160.5t-153 68.5q-201 0 -559 -505zM1925 891h-178v178h178v-178z" />
    <glyph glyph-name="uniFC24" unicode="&#xfc24;" horiz-adv-x="3023" arabic-form="isolated" 
d="M1350 0h-76q-123 0 -245 81t-333 351q-411 -144 -411 -475q0 -137 119 -227t309 -90q174 0 415 61l31 -186q-222 -70 -444 -70q-269 0 -436.5 145.5t-167.5 368.5q0 244 200.5 423.5t513.5 231.5q-158 75 -263.5 97t-254.5 22q-65 0 -151 -20l-33 190q78 25 164 25
q147 0 279 -54t407 -225v-147q-81 -15 -131 -27q165 -185 254.5 -232.5t173.5 -47.5h80v-195zM723 1094h-178v178h178v-178zM1774 205q267 406 435 547t296 141q168 0 280.5 -118.5t112.5 -299.5q0 -219 -194 -347t-529 -128h-331q-168 0 -246 84q-78 -84 -246 -84h-4v195
h12q152 0 152 204v101h174v-101q0 -159 88 -194zM1946 195h229q252 0 400.5 73.5t148.5 202.5q0 92 -66 160.5t-153 68.5q-201 0 -559 -505zM1925 891h-178v178h178v-178z" />
    <glyph glyph-name="uniFC25" unicode="&#xfc25;" horiz-adv-x="2986" arabic-form="isolated" 
d="M1313 0h-15q-90 0 -165.5 41.5t-110.5 112.5q-49 -77 -134 -115.5t-181 -38.5q-146 0 -211 55q-25 -29 -92 -50q-52 -16 -72 -34.5t-29.5 -54.5t-9.5 -88v-371h-174v385q0 160 41.5 230.5t142.5 109.5q72 28 86 86q59 245 148 356t225 111q100 0 187 -75t118 -193
q72 -272 231 -272h15v-195zM561 229q83 -34 156 -34q83 0 135.5 48.5t52.5 127.5q0 73 -41 121.5t-102 48.5q-65 0 -119 -84.5t-82 -227.5zM1737 205q267 406 435 547t296 141q168 0 280.5 -118.5t112.5 -299.5q0 -219 -194 -347t-529 -128h-331q-168 0 -246 84
q-78 -84 -246 -84h-4v195h12q152 0 152 204v101h174v-101q0 -159 88 -194zM1909 195h229q252 0 400.5 73.5t148.5 202.5q0 92 -66 160.5t-153 68.5q-201 0 -559 -505zM1888 891h-178v178h178v-178z" />
    <glyph glyph-name="uniFC26" unicode="&#xfc26;" horiz-adv-x="2851" arabic-form="isolated" 
d="M1350 0h-76q-123 0 -245 81t-333 351q-411 -144 -411 -475q0 -137 119 -227t309 -90q174 0 415 61l31 -186q-222 -70 -444 -70q-269 0 -436.5 145.5t-167.5 368.5q0 244 200.5 423.5t513.5 231.5q-158 75 -263.5 97t-254.5 22q-65 0 -151 -20l-33 190q78 25 164 25
q147 0 279 -54t407 -225v-147q-81 -15 -131 -27q165 -185 254.5 -232.5t173.5 -47.5h80v-195zM1686 330q376 563 647 563q168 0 280.5 -118.5t112.5 -299.5q0 -219 -194 -347t-529 -128h-655v195h164v1210h174v-1075zM1774 195h229q252 0 400.5 73.5t148.5 202.5
q0 92 -65.5 160.5t-153.5 68.5q-201 0 -559 -505z" />
    <glyph glyph-name="uniFC27" unicode="&#xfc27;" horiz-adv-x="2814" arabic-form="isolated" 
d="M1313 0h-15q-90 0 -165.5 41.5t-110.5 112.5q-49 -77 -134 -115.5t-181 -38.5q-146 0 -211 55q-25 -29 -92 -50q-52 -16 -72 -34.5t-29.5 -54.5t-9.5 -88v-371h-174v385q0 160 41.5 230.5t142.5 109.5q72 28 86 86q59 245 148 356t225 111q100 0 187 -75t118 -193
q72 -272 231 -272h15v-195zM561 229q83 -34 156 -34q83 0 135.5 48.5t52.5 127.5q0 73 -41 121.5t-102 48.5q-65 0 -119 -84.5t-82 -227.5zM1649 330q376 563 647 563q168 0 280.5 -118.5t112.5 -299.5q0 -219 -194 -347t-529 -128h-655v195h164v1210h174v-1075zM1737 195
h229q252 0 400.5 73.5t148.5 202.5q0 92 -65.5 160.5t-153.5 68.5q-201 0 -559 -505z" />
    <glyph glyph-name="uniFC28" unicode="&#xfc28;" horiz-adv-x="2814" arabic-form="isolated" 
d="M1313 0h-15q-90 0 -165.5 41.5t-110.5 112.5q-49 -77 -134 -115.5t-181 -38.5q-146 0 -211 55q-25 -29 -92 -50q-52 -16 -72 -34.5t-29.5 -54.5t-9.5 -88v-371h-174v385q0 160 41.5 230.5t142.5 109.5q72 28 86 86q59 245 148 356t225 111q100 0 187 -75t118 -193
q72 -272 231 -272h15v-195zM561 229q83 -34 156 -34q83 0 135.5 48.5t52.5 127.5q0 73 -41 121.5t-102 48.5q-65 0 -119 -84.5t-82 -227.5zM1649 330q376 563 647 563q168 0 280.5 -118.5t112.5 -299.5q0 -219 -194 -347t-529 -128h-655v195h164v1210h174v-1075zM1737 195
h229q252 0 400.5 73.5t148.5 202.5q0 92 -65.5 160.5t-153.5 68.5q-201 0 -559 -505zM2054 1016h-178v178h178v-178z" />
    <glyph glyph-name="uniFC29" unicode="&#xfc29;" horiz-adv-x="2550" arabic-form="isolated" 
d="M1350 0h-76q-123 0 -245 81t-333 351q-411 -144 -411 -475q0 -137 119 -227t309 -90q174 0 415 61l31 -186q-222 -70 -444 -70q-269 0 -436.5 145.5t-167.5 368.5q0 244 200.5 423.5t513.5 231.5q-158 75 -263.5 97t-254.5 22q-65 0 -151 -20l-33 190q78 25 164 25
q147 0 279 -54t407 -225v-147q-81 -15 -131 -27q165 -185 254.5 -232.5t173.5 -47.5h80v-195zM735 -76h-178v178h178v-178zM2423 205q-276 -91 -577 -148t-498 -57v195q135 0 346 28q-93 55 -150 154.5t-57 204.5q0 191 122.5 308.5t322.5 117.5q377 0 444 -328l-180 -23
q-36 156 -264 156q-120 0 -195.5 -63.5t-75.5 -167.5q0 -102 66 -189.5t178 -132.5q212 44 518 139v-194z" />
    <glyph glyph-name="uniFC2A" unicode="&#xfc2a;" horiz-adv-x="2513" arabic-form="isolated" 
d="M1313 0h-15q-90 0 -165.5 41.5t-110.5 112.5q-49 -77 -134 -115.5t-181 -38.5q-146 0 -211 55q-25 -29 -92 -50q-52 -16 -72 -34.5t-29.5 -54.5t-9.5 -88v-371h-174v385q0 160 41.5 230.5t142.5 109.5q72 28 86 86q59 245 148 356t225 111q100 0 187 -75t118 -193
q72 -272 231 -272h15v-195zM561 229q83 -34 156 -34q83 0 135.5 48.5t52.5 127.5q0 73 -41 121.5t-102 48.5q-65 0 -119 -84.5t-82 -227.5zM2386 205q-276 -91 -577 -148t-498 -57v195q135 0 346 28q-93 55 -150 154.5t-57 204.5q0 191 122.5 308.5t322.5 117.5
q377 0 444 -328l-180 -23q-36 156 -264 156q-120 0 -195.5 -63.5t-75.5 -167.5q0 -102 66 -189.5t178 -132.5q212 44 518 139v-194z" />
    <glyph glyph-name="uniFC2B" unicode="&#xfc2b;" horiz-adv-x="2550" arabic-form="isolated" 
d="M1350 0h-76q-123 0 -245 81t-333 351q-411 -144 -411 -475q0 -137 119 -227t309 -90q174 0 415 61l31 -186q-222 -70 -444 -70q-269 0 -436.5 145.5t-167.5 368.5q0 244 200.5 423.5t513.5 231.5q-158 75 -263.5 97t-254.5 22q-65 0 -151 -20l-33 190q78 25 164 25
q147 0 279 -54t407 -225v-147q-81 -15 -131 -27q165 -185 254.5 -232.5t173.5 -47.5h80v-195zM735 -76h-178v178h178v-178zM2423 205q-276 -91 -577 -148t-498 -57v195q135 0 346 28q-93 55 -150 154.5t-57 204.5q0 191 122.5 308.5t322.5 117.5q377 0 444 -328l-180 -23
q-36 156 -264 156q-120 0 -195.5 -63.5t-75.5 -167.5q0 -102 66 -189.5t178 -132.5q212 44 518 139v-194zM1974 1288h-178v178h178v-178z" />
    <glyph glyph-name="uniFC2C" unicode="&#xfc2c;" horiz-adv-x="2513" arabic-form="isolated" 
d="M1313 0h-15q-90 0 -165.5 41.5t-110.5 112.5q-49 -77 -134 -115.5t-181 -38.5q-146 0 -211 55q-25 -29 -92 -50q-52 -16 -72 -34.5t-29.5 -54.5t-9.5 -88v-371h-174v385q0 160 41.5 230.5t142.5 109.5q72 28 86 86q59 245 148 356t225 111q100 0 187 -75t118 -193
q72 -272 231 -272h15v-195zM561 229q83 -34 156 -34q83 0 135.5 48.5t52.5 127.5q0 73 -41 121.5t-102 48.5q-65 0 -119 -84.5t-82 -227.5zM2386 205q-276 -91 -577 -148t-498 -57v195q135 0 346 28q-93 55 -150 154.5t-57 204.5q0 191 122.5 308.5t322.5 117.5
q377 0 444 -328l-180 -23q-36 156 -264 156q-120 0 -195.5 -63.5t-75.5 -167.5q0 -102 66 -189.5t178 -132.5q212 44 518 139v-194zM1937 1288h-178v178h178v-178z" />
    <glyph glyph-name="uniFC2D" unicode="&#xfc2d;" horiz-adv-x="2304" arabic-form="isolated" 
d="M1350 0h-76q-123 0 -245 81t-333 351q-411 -144 -411 -475q0 -137 119 -227t309 -90q174 0 415 61l31 -186q-222 -70 -444 -70q-269 0 -436.5 145.5t-167.5 368.5q0 244 200.5 423.5t513.5 231.5q-158 75 -263.5 97t-254.5 22q-65 0 -151 -20l-33 190q78 25 164 25
q147 0 279 -54t407 -225v-147q-81 -15 -131 -27q165 -185 254.5 -232.5t173.5 -47.5h80v-195zM735 -76h-178v178h178v-178zM1973 426q-75 -23 -111 -23q-159 0 -266 95.5t-107 275.5q0 149 98.5 257t219.5 108q141 0 255.5 -158.5t114.5 -392.5q0 -277 -219.5 -432.5
t-609.5 -155.5v195q268 0 412.5 54t212.5 177zM1999 621q0 119 -59 221t-133 102q-61 0 -102.5 -48t-41.5 -122q0 -80 53 -128t136 -48q66 0 147 23zM1852 1405h-178v178h178v-178z" />
    <glyph glyph-name="uniFC2E" unicode="&#xfc2e;" horiz-adv-x="2304" arabic-form="isolated" 
d="M1350 0h-76q-123 0 -245 81t-333 351q-411 -144 -411 -475q0 -137 119 -227t309 -90q174 0 415 61l31 -186q-222 -70 -444 -70q-269 0 -436.5 145.5t-167.5 368.5q0 244 200.5 423.5t513.5 231.5q-158 75 -263.5 97t-254.5 22q-65 0 -151 -20l-33 190q78 25 164 25
q147 0 279 -54t407 -225v-147q-81 -15 -131 -27q165 -185 254.5 -232.5t173.5 -47.5h80v-195zM1973 426q-75 -23 -111 -23q-159 0 -266 95.5t-107 275.5q0 149 98.5 257t219.5 108q141 0 255.5 -158.5t114.5 -392.5q0 -277 -219.5 -432.5t-609.5 -155.5v195q268 0 412.5 54
t212.5 177zM1999 621q0 119 -59 221t-133 102q-61 0 -102.5 -48t-41.5 -122q0 -80 53 -128t136 -48q66 0 147 23zM1852 1405h-178v178h178v-178z" />
    <glyph glyph-name="uniFC2F" unicode="&#xfc2f;" horiz-adv-x="2304" arabic-form="isolated" 
d="M1350 0h-76q-123 0 -245 81t-333 351q-411 -144 -411 -475q0 -137 119 -227t309 -90q174 0 415 61l31 -186q-222 -70 -444 -70q-269 0 -436.5 145.5t-167.5 368.5q0 244 200.5 423.5t513.5 231.5q-158 75 -263.5 97t-254.5 22q-65 0 -151 -20l-33 190q78 25 164 25
q147 0 279 -54t407 -225v-147q-81 -15 -131 -27q165 -185 254.5 -232.5t173.5 -47.5h80v-195zM723 1094h-178v178h178v-178zM1973 426q-75 -23 -111 -23q-159 0 -266 95.5t-107 275.5q0 149 98.5 257t219.5 108q141 0 255.5 -158.5t114.5 -392.5q0 -277 -219.5 -432.5
t-609.5 -155.5v195q268 0 412.5 54t212.5 177zM1999 621q0 119 -59 221t-133 102q-61 0 -102.5 -48t-41.5 -122q0 -80 53 -128t136 -48q66 0 147 23zM1852 1405h-178v178h178v-178z" />
    <glyph glyph-name="uniFC30" unicode="&#xfc30;" horiz-adv-x="2267" arabic-form="isolated" 
d="M1313 0h-15q-90 0 -165.5 41.5t-110.5 112.5q-49 -77 -134 -115.5t-181 -38.5q-146 0 -211 55q-25 -29 -92 -50q-52 -16 -72 -34.5t-29.5 -54.5t-9.5 -88v-371h-174v385q0 160 41.5 230.5t142.5 109.5q72 28 86 86q59 245 148 356t225 111q100 0 187 -75t118 -193
q72 -272 231 -272h15v-195zM561 229q83 -34 156 -34q83 0 135.5 48.5t52.5 127.5q0 73 -41 121.5t-102 48.5q-65 0 -119 -84.5t-82 -227.5zM1936 426q-75 -23 -111 -23q-159 0 -266 95.5t-107 275.5q0 149 98.5 257t219.5 108q141 0 255.5 -158.5t114.5 -392.5
q0 -277 -219.5 -432.5t-609.5 -155.5v195q268 0 412.5 54t212.5 177zM1962 621q0 119 -59 221t-133 102q-61 0 -102.5 -48t-41.5 -122q0 -80 53 -128t136 -48q66 0 147 23zM1815 1405h-178v178h178v-178z" />
    <glyph glyph-name="uniFC31" unicode="&#xfc31;" horiz-adv-x="2580" arabic-form="isolated" 
d="M1626 0h-6q-43 0 -127 34q-71 29 -102 29q-23 0 -37.5 -12t-14.5 -28q0 -18 49 -87q70 -101 70 -139q0 -125 -215.5 -237.5t-531.5 -112.5q-294 0 -467.5 105.5t-173.5 304.5q0 99 47 235l159 -41q-32 -107 -32 -192q0 -110 106 -163.5t363 -53.5q247 0 409 56t162 124
q0 18 -45 85q-74 109 -74 156q0 77 66 136t160 59q40 0 132 -35q71 -28 97 -28h6v-195zM2249 426q-75 -23 -111 -23q-159 0 -266 95.5t-107 275.5q0 149 98.5 257t219.5 108q141 0 255.5 -158.5t114.5 -392.5q0 -277 -219.5 -432.5t-609.5 -155.5v195q268 0 412.5 54
t212.5 177zM2275 621q0 119 -59 221t-133 102q-61 0 -102.5 -48t-41.5 -122q0 -80 53 -128t136 -48q66 0 147 23zM2128 1405h-178v178h178v-178z" />
    <glyph glyph-name="uniFC32" unicode="&#xfc32;" horiz-adv-x="2601" arabic-form="isolated" 
d="M1647 0h-7q-49 0 -152 61q-73 43 -97 43q-22 0 -37 -12t-15 -29t49 -60q70 -61 70 -99q0 -125 -216 -229.5t-531 -104.5q-294 0 -467.5 105t-173.5 305q0 99 47 235l159 -41q-32 -107 -32 -192q0 -110 106 -164t363 -54q250 0 410.5 50.5t160.5 113.5q0 18 -45 61
q-74 68 -74 115q0 77 66.5 136t159.5 59q60 0 158 -63q65 -41 91 -41h7v-195zM1554 -543h-127v127h127v-127zM1307 -543h-127v127h127v-127zM2270 426q-75 -23 -111 -23q-159 0 -266 95.5t-107 275.5q0 149 98.5 257t219.5 108q141 0 255.5 -158.5t114.5 -392.5
q0 -277 -219.5 -432.5t-609.5 -155.5v195q268 0 412.5 54t212.5 177zM2296 621q0 119 -59 221t-133 102q-61 0 -102.5 -48t-41.5 -122q0 -80 53 -128t136 -48q66 0 147 23zM2149 1405h-178v178h178v-178z" />
    <glyph glyph-name="uniFC33" unicode="&#xfc33;" horiz-adv-x="2304" arabic-form="isolated" 
d="M1350 0h-76q-123 0 -245 81t-333 351q-411 -144 -411 -475q0 -137 119 -227t309 -90q174 0 415 61l31 -186q-222 -70 -444 -70q-269 0 -436.5 145.5t-167.5 368.5q0 244 200.5 423.5t513.5 231.5q-158 75 -263.5 97t-254.5 22q-65 0 -151 -20l-33 190q78 25 164 25
q147 0 279 -54t407 -225v-147q-81 -15 -131 -27q165 -185 254.5 -232.5t173.5 -47.5h80v-195zM1973 426q-75 -23 -111 -23q-159 0 -266 95.5t-107 275.5q0 149 98.5 257t219.5 108q141 0 255.5 -158.5t114.5 -392.5q0 -277 -219.5 -432.5t-609.5 -155.5v195q268 0 412.5 54
t212.5 177zM1999 621q0 119 -59 221t-133 102q-61 0 -102.5 -48t-41.5 -122q0 -80 53 -128t136 -48q66 0 147 23zM1971 1405h-147v147h147v-147zM1703 1405h-148v147h148v-147z" />
    <glyph glyph-name="uniFC34" unicode="&#xfc34;" horiz-adv-x="2267" arabic-form="isolated" 
d="M1313 0h-15q-90 0 -165.5 41.5t-110.5 112.5q-49 -77 -134 -115.5t-181 -38.5q-146 0 -211 55q-25 -29 -92 -50q-52 -16 -72 -34.5t-29.5 -54.5t-9.5 -88v-371h-174v385q0 160 41.5 230.5t142.5 109.5q72 28 86 86q59 245 148 356t225 111q100 0 187 -75t118 -193
q72 -272 231 -272h15v-195zM561 229q83 -34 156 -34q83 0 135.5 48.5t52.5 127.5q0 73 -41 121.5t-102 48.5q-65 0 -119 -84.5t-82 -227.5zM1936 426q-75 -23 -111 -23q-159 0 -266 95.5t-107 275.5q0 149 98.5 257t219.5 108q141 0 255.5 -158.5t114.5 -392.5
q0 -277 -219.5 -432.5t-609.5 -155.5v195q268 0 412.5 54t212.5 177zM1962 621q0 119 -59 221t-133 102q-61 0 -102.5 -48t-41.5 -122q0 -80 53 -128t136 -48q66 0 147 23zM1934 1405h-147v147h147v-147zM1666 1405h-148v147h148v-147z" />
    <glyph glyph-name="uniFC35" unicode="&#xfc35;" horiz-adv-x="2580" arabic-form="isolated" 
d="M1626 0h-6q-43 0 -127 34q-71 29 -102 29q-23 0 -37.5 -12t-14.5 -28q0 -18 49 -87q70 -101 70 -139q0 -125 -215.5 -237.5t-531.5 -112.5q-294 0 -467.5 105.5t-173.5 304.5q0 99 47 235l159 -41q-32 -107 -32 -192q0 -110 106 -163.5t363 -53.5q247 0 409 56t162 124
q0 18 -45 85q-74 109 -74 156q0 77 66 136t160 59q40 0 132 -35q71 -28 97 -28h6v-195zM2249 426q-75 -23 -111 -23q-159 0 -266 95.5t-107 275.5q0 149 98.5 257t219.5 108q141 0 255.5 -158.5t114.5 -392.5q0 -277 -219.5 -432.5t-609.5 -155.5v195q268 0 412.5 54
t212.5 177zM2275 621q0 119 -59 221t-133 102q-61 0 -102.5 -48t-41.5 -122q0 -80 53 -128t136 -48q66 0 147 23zM2247 1405h-147v147h147v-147zM1979 1405h-148v147h148v-147z" />
    <glyph glyph-name="uniFC36" unicode="&#xfc36;" horiz-adv-x="2601" arabic-form="isolated" 
d="M1647 0h-7q-49 0 -152 61q-73 43 -97 43q-22 0 -37 -12t-15 -29t49 -60q70 -61 70 -99q0 -125 -216 -229.5t-531 -104.5q-294 0 -467.5 105t-173.5 305q0 99 47 235l159 -41q-32 -107 -32 -192q0 -110 106 -164t363 -54q250 0 410.5 50.5t160.5 113.5q0 18 -45 61
q-74 68 -74 115q0 77 66.5 136t159.5 59q60 0 158 -63q65 -41 91 -41h7v-195zM1554 -543h-127v127h127v-127zM1307 -543h-127v127h127v-127zM2270 426q-75 -23 -111 -23q-159 0 -266 95.5t-107 275.5q0 149 98.5 257t219.5 108q141 0 255.5 -158.5t114.5 -392.5
q0 -277 -219.5 -432.5t-609.5 -155.5v195q268 0 412.5 54t212.5 177zM2296 621q0 119 -59 221t-133 102q-61 0 -102.5 -48t-41.5 -122q0 -80 53 -128t136 -48q66 0 147 23zM2268 1405h-147v147h147v-147zM2000 1405h-148v147h148v-147z" />
    <glyph glyph-name="uniFC37" unicode="&#xfc37;" horiz-adv-x="1446" arabic-form="isolated" 
d="M561 0h-65q-179 0 -256.5 95t-77.5 300v1071h174v-1067q0 -204 151 -204h74v-195zM1446 1278l-366 -149q-169 -68 -207 -87t-57 -36.5t-19 -34.5q0 -45 83 -148l181 -216q57 -68 83.5 -131.5t26.5 -127.5q0 -166 -116.5 -257t-315.5 -91h-180v195h182q118 0 187 43.5
t69 115.5q0 79 -90 189l-184 220q-54 65 -77.5 113.5t-23.5 100.5q0 81 66 141t196 115l562 235v-190z" />
    <glyph glyph-name="uniFC38" unicode="&#xfc38;" horiz-adv-x="2235" arabic-form="isolated" 
d="M1350 0h-76q-123 0 -245 81t-333 351q-411 -144 -411 -475q0 -137 119 -227t309 -90q174 0 415 61l31 -186q-222 -70 -444 -70q-269 0 -436.5 145.5t-167.5 368.5q0 244 200.5 423.5t513.5 231.5q-158 75 -263.5 97t-254.5 22q-65 0 -151 -20l-33 190q78 25 164 25
q147 0 279 -54t407 -225v-147q-81 -15 -131 -27q165 -185 254.5 -232.5t173.5 -47.5h80v-195zM735 -76h-178v178h178v-178zM2235 1278l-366 -149q-169 -68 -207 -87t-57 -36.5t-19 -34.5q0 -45 83 -148l181 -216q57 -68 83.5 -131.5t26.5 -127.5q0 -166 -116.5 -257
t-315.5 -91h-180v195h182q118 0 187 43.5t69 115.5q0 79 -90 189l-184 220q-54 65 -77.5 113.5t-23.5 100.5q0 81 66 141t196 115l562 235v-190z" />
    <glyph glyph-name="uniFC39" unicode="&#xfc39;" horiz-adv-x="2235" arabic-form="isolated" 
d="M1350 0h-76q-123 0 -245 81t-333 351q-411 -144 -411 -475q0 -137 119 -227t309 -90q174 0 415 61l31 -186q-222 -70 -444 -70q-269 0 -436.5 145.5t-167.5 368.5q0 244 200.5 423.5t513.5 231.5q-158 75 -263.5 97t-254.5 22q-65 0 -151 -20l-33 190q78 25 164 25
q147 0 279 -54t407 -225v-147q-81 -15 -131 -27q165 -185 254.5 -232.5t173.5 -47.5h80v-195zM2235 1278l-366 -149q-169 -68 -207 -87t-57 -36.5t-19 -34.5q0 -45 83 -148l181 -216q57 -68 83.5 -131.5t26.5 -127.5q0 -166 -116.5 -257t-315.5 -91h-180v195h182
q118 0 187 43.5t69 115.5q0 79 -90 189l-184 220q-54 65 -77.5 113.5t-23.5 100.5q0 81 66 141t196 115l562 235v-190z" />
    <glyph glyph-name="uniFC3A" unicode="&#xfc3a;" horiz-adv-x="2235" arabic-form="isolated" 
d="M1350 0h-76q-123 0 -245 81t-333 351q-411 -144 -411 -475q0 -137 119 -227t309 -90q174 0 415 61l31 -186q-222 -70 -444 -70q-269 0 -436.5 145.5t-167.5 368.5q0 244 200.5 423.5t513.5 231.5q-158 75 -263.5 97t-254.5 22q-65 0 -151 -20l-33 190q78 25 164 25
q147 0 279 -54t407 -225v-147q-81 -15 -131 -27q165 -185 254.5 -232.5t173.5 -47.5h80v-195zM723 1094h-178v178h178v-178zM2235 1278l-366 -149q-169 -68 -207 -87t-57 -36.5t-19 -34.5q0 -45 83 -148l181 -216q57 -68 83.5 -131.5t26.5 -127.5q0 -166 -116.5 -257
t-315.5 -91h-180v195h182q118 0 187 43.5t69 115.5q0 79 -90 189l-184 220q-54 65 -77.5 113.5t-23.5 100.5q0 81 66 141t196 115l562 235v-190z" />
    <glyph glyph-name="uniFC3B" unicode="&#xfc3b;" horiz-adv-x="2265" arabic-form="isolated" 
d="M1380 0h-4q-102 0 -168 29q-27 -257 -187 -376.5t-470 -119.5q-481 0 -481 406q0 89 22 202l164 -41q-12 -72 -12 -159q0 -110 70.5 -161.5t238.5 -51.5q254 0 371.5 95t117.5 353v1290h175v-1067q0 -204 151 -204h12v-195zM2265 1278l-366 -149q-169 -68 -207 -87
t-57 -36.5t-19 -34.5q0 -45 83 -148l181 -216q57 -68 83.5 -131.5t26.5 -127.5q0 -166 -116.5 -257t-315.5 -91h-180v195h182q118 0 187 43.5t69 115.5q0 79 -90 189l-184 220q-54 65 -77.5 113.5t-23.5 100.5q0 81 66 141t196 115l562 235v-190z" />
    <glyph glyph-name="uniFC3C" unicode="&#xfc3c;" horiz-adv-x="2198" arabic-form="isolated" 
d="M1313 0h-15q-90 0 -165.5 41.5t-110.5 112.5q-49 -77 -134 -115.5t-181 -38.5q-146 0 -211 55q-25 -29 -92 -50q-52 -16 -72 -34.5t-29.5 -54.5t-9.5 -88v-371h-174v385q0 160 41.5 230.5t142.5 109.5q72 28 86 86q59 245 148 356t225 111q100 0 187 -75t118 -193
q72 -272 231 -272h15v-195zM561 229q83 -34 156 -34q83 0 135.5 48.5t52.5 127.5q0 73 -41 121.5t-102 48.5q-65 0 -119 -84.5t-82 -227.5zM2198 1278l-366 -149q-169 -68 -207 -87t-57 -36.5t-19 -34.5q0 -45 83 -148l181 -216q57 -68 83.5 -131.5t26.5 -127.5
q0 -166 -116.5 -257t-315.5 -91h-180v195h182q118 0 187 43.5t69 115.5q0 79 -90 189l-184 220q-54 65 -77.5 113.5t-23.5 100.5q0 81 66 141t196 115l562 235v-190z" />
    <glyph glyph-name="uniFC3D" unicode="&#xfc3d;" horiz-adv-x="2511" arabic-form="isolated" 
d="M1626 0h-6q-43 0 -127 34q-71 29 -102 29q-23 0 -37.5 -12t-14.5 -28q0 -18 49 -87q70 -101 70 -139q0 -125 -215.5 -237.5t-531.5 -112.5q-294 0 -467.5 105.5t-173.5 304.5q0 99 47 235l159 -41q-32 -107 -32 -192q0 -110 106 -163.5t363 -53.5q247 0 409 56t162 124
q0 18 -45 85q-74 109 -74 156q0 77 66 136t160 59q40 0 132 -35q71 -28 97 -28h6v-195zM2511 1278l-366 -149q-169 -68 -207 -87t-57 -36.5t-19 -34.5q0 -45 83 -148l181 -216q57 -68 83.5 -131.5t26.5 -127.5q0 -166 -116.5 -257t-315.5 -91h-180v195h182q118 0 187 43.5
t69 115.5q0 79 -90 189l-184 220q-54 65 -77.5 113.5t-23.5 100.5q0 81 66 141t196 115l562 235v-190z" />
    <glyph glyph-name="uniFC3E" unicode="&#xfc3e;" horiz-adv-x="2532" arabic-form="isolated" 
d="M1647 0h-7q-49 0 -152 61q-73 43 -97 43q-22 0 -37 -12t-15 -29t49 -60q70 -61 70 -99q0 -125 -216 -229.5t-531 -104.5q-294 0 -467.5 105t-173.5 305q0 99 47 235l159 -41q-32 -107 -32 -192q0 -110 106 -164t363 -54q250 0 410.5 50.5t160.5 113.5q0 18 -45 61
q-74 68 -74 115q0 77 66.5 136t159.5 59q60 0 158 -63q65 -41 91 -41h7v-195zM1554 -543h-127v127h127v-127zM1307 -543h-127v127h127v-127zM2532 1278l-366 -149q-169 -68 -207 -87t-57 -36.5t-19 -34.5q0 -45 83 -148l181 -216q57 -68 83.5 -131.5t26.5 -127.5
q0 -166 -116.5 -257t-315.5 -91h-180v195h182q118 0 187 43.5t69 115.5q0 79 -90 189l-184 220q-54 65 -77.5 113.5t-23.5 100.5q0 81 66 141t196 115l562 235v-190z" />
    <glyph glyph-name="uniFC3F" unicode="&#xfc3f;" horiz-adv-x="1909" arabic-form="isolated" 
d="M1350 0h-76q-123 0 -245 81t-333 351q-411 -144 -411 -475q0 -137 119 -227t309 -90q174 0 415 61l31 -186q-222 -70 -444 -70q-269 0 -436.5 145.5t-167.5 368.5q0 244 200.5 423.5t513.5 231.5q-158 75 -263.5 97t-254.5 22q-65 0 -151 -20l-33 190q78 25 164 25
q147 0 279 -54t407 -225v-147q-81 -15 -131 -27q165 -185 254.5 -232.5t173.5 -47.5h80v-195zM735 -76h-178v178h178v-178zM1747 395q0 -195 -101.5 -295t-293.5 -100h-4v195h74q151 0 151 204v1067h174v-1071z" />
    <glyph glyph-name="uniFC40" unicode="&#xfc40;" horiz-adv-x="1909" arabic-form="isolated" 
d="M1350 0h-76q-123 0 -245 81t-333 351q-411 -144 -411 -475q0 -137 119 -227t309 -90q174 0 415 61l31 -186q-222 -70 -444 -70q-269 0 -436.5 145.5t-167.5 368.5q0 244 200.5 423.5t513.5 231.5q-158 75 -263.5 97t-254.5 22q-65 0 -151 -20l-33 190q78 25 164 25
q147 0 279 -54t407 -225v-147q-81 -15 -131 -27q165 -185 254.5 -232.5t173.5 -47.5h80v-195zM1747 395q0 -195 -101.5 -295t-293.5 -100h-4v195h74q151 0 151 204v1067h174v-1071z" />
    <glyph glyph-name="uniFC41" unicode="&#xfc41;" horiz-adv-x="1909" arabic-form="isolated" 
d="M1350 0h-76q-123 0 -245 81t-333 351q-411 -144 -411 -475q0 -137 119 -227t309 -90q174 0 415 61l31 -186q-222 -70 -444 -70q-269 0 -436.5 145.5t-167.5 368.5q0 244 200.5 423.5t513.5 231.5q-158 75 -263.5 97t-254.5 22q-65 0 -151 -20l-33 190q78 25 164 25
q147 0 279 -54t407 -225v-147q-81 -15 -131 -27q165 -185 254.5 -232.5t173.5 -47.5h80v-195zM723 1094h-178v178h178v-178zM1747 395q0 -195 -101.5 -295t-293.5 -100h-4v195h74q151 0 151 204v1067h174v-1071z" />
    <glyph glyph-name="uniFC42" unicode="&#xfc42;" horiz-adv-x="1872" arabic-form="isolated" 
d="M1313 0h-15q-90 0 -165.5 41.5t-110.5 112.5q-49 -77 -134 -115.5t-181 -38.5q-146 0 -211 55q-25 -29 -92 -50q-52 -16 -72 -34.5t-29.5 -54.5t-9.5 -88v-371h-174v385q0 160 41.5 230.5t142.5 109.5q72 28 86 86q59 245 148 356t225 111q100 0 187 -75t118 -193
q72 -272 231 -272h15v-195zM561 229q83 -34 156 -34q83 0 135.5 48.5t52.5 127.5q0 73 -41 121.5t-102 48.5q-65 0 -119 -84.5t-82 -227.5zM1710 395q0 -195 -101.5 -295t-293.5 -100h-4v195h74q151 0 151 204v1067h174v-1071z" />
    <glyph glyph-name="uniFC43" unicode="&#xfc43;" horiz-adv-x="2185" arabic-form="isolated" 
d="M1626 0h-6q-43 0 -127 34q-71 29 -102 29q-23 0 -37.5 -12t-14.5 -28q0 -18 49 -87q70 -101 70 -139q0 -125 -215.5 -237.5t-531.5 -112.5q-294 0 -467.5 105.5t-173.5 304.5q0 99 47 235l159 -41q-32 -107 -32 -192q0 -110 106 -163.5t363 -53.5q247 0 409 56t162 124
q0 18 -45 85q-74 109 -74 156q0 77 66 136t160 59q40 0 132 -35q71 -28 97 -28h6v-195zM2023 395q0 -195 -101.5 -295t-293.5 -100h-4v195h74q151 0 151 204v1067h174v-1071z" />
    <glyph glyph-name="uniFC44" unicode="&#xfc44;" horiz-adv-x="2206" arabic-form="isolated" 
d="M1647 0h-7q-49 0 -152 61q-73 43 -97 43q-22 0 -37 -12t-15 -29t49 -60q70 -61 70 -99q0 -125 -216 -229.5t-531 -104.5q-294 0 -467.5 105t-173.5 305q0 99 47 235l159 -41q-32 -107 -32 -192q0 -110 106 -164t363 -54q250 0 410.5 50.5t160.5 113.5q0 18 -45 61
q-74 68 -74 115q0 77 66.5 136t159.5 59q60 0 158 -63q65 -41 91 -41h7v-195zM1554 -543h-127v127h127v-127zM1307 -543h-127v127h127v-127zM2044 395q0 -195 -101.5 -295t-293.5 -100h-4v195h74q151 0 151 204v1067h174v-1071z" />
    <glyph glyph-name="uniFC45" unicode="&#xfc45;" horiz-adv-x="2335" arabic-form="isolated" 
d="M1350 0h-76q-123 0 -245 81t-333 351q-411 -144 -411 -475q0 -137 119 -227t309 -90q174 0 415 61l31 -186q-222 -70 -444 -70q-269 0 -436.5 145.5t-167.5 368.5q0 244 200.5 423.5t513.5 231.5q-158 75 -263.5 97t-254.5 22q-65 0 -151 -20l-33 190q78 25 164 25
q147 0 279 -54t407 -225v-147q-81 -15 -131 -27q165 -185 254.5 -232.5t173.5 -47.5h80v-195zM735 -76h-178v178h178v-178zM1348 195h43q56 0 90 31.5t55 107.5q61 214 144.5 307.5t210.5 93.5q131 0 224 -105.5t93 -258.5q0 -180 -107 -275.5t-266 -95.5q-135 0 -215 82
q-61 -82 -219 -82h-53v195zM1692 252q77 -57 154 -57q83 0 135.5 48.5t52.5 127.5q0 73 -41.5 121.5t-101.5 48.5q-126 0 -199 -289z" />
    <glyph glyph-name="uniFC46" unicode="&#xfc46;" horiz-adv-x="2335" arabic-form="isolated" 
d="M1350 0h-76q-123 0 -245 81t-333 351q-411 -144 -411 -475q0 -137 119 -227t309 -90q174 0 415 61l31 -186q-222 -70 -444 -70q-269 0 -436.5 145.5t-167.5 368.5q0 244 200.5 423.5t513.5 231.5q-158 75 -263.5 97t-254.5 22q-65 0 -151 -20l-33 190q78 25 164 25
q147 0 279 -54t407 -225v-147q-81 -15 -131 -27q165 -185 254.5 -232.5t173.5 -47.5h80v-195zM1348 195h43q56 0 90 31.5t55 107.5q61 214 144.5 307.5t210.5 93.5q131 0 224 -105.5t93 -258.5q0 -180 -107 -275.5t-266 -95.5q-135 0 -215 82q-61 -82 -219 -82h-53v195z
M1692 252q77 -57 154 -57q83 0 135.5 48.5t52.5 127.5q0 73 -41.5 121.5t-101.5 48.5q-126 0 -199 -289z" />
    <glyph glyph-name="uniFC47" unicode="&#xfc47;" horiz-adv-x="2335" arabic-form="isolated" 
d="M1350 0h-76q-123 0 -245 81t-333 351q-411 -144 -411 -475q0 -137 119 -227t309 -90q174 0 415 61l31 -186q-222 -70 -444 -70q-269 0 -436.5 145.5t-167.5 368.5q0 244 200.5 423.5t513.5 231.5q-158 75 -263.5 97t-254.5 22q-65 0 -151 -20l-33 190q78 25 164 25
q147 0 279 -54t407 -225v-147q-81 -15 -131 -27q165 -185 254.5 -232.5t173.5 -47.5h80v-195zM723 1094h-178v178h178v-178zM1348 195h43q56 0 90 31.5t55 107.5q61 214 144.5 307.5t210.5 93.5q131 0 224 -105.5t93 -258.5q0 -180 -107 -275.5t-266 -95.5q-135 0 -215 82
q-61 -82 -219 -82h-53v195zM1692 252q77 -57 154 -57q83 0 135.5 48.5t52.5 127.5q0 73 -41.5 121.5t-101.5 48.5q-126 0 -199 -289z" />
    <glyph glyph-name="uniFC48" unicode="&#xfc48;" horiz-adv-x="2298" arabic-form="isolated" 
d="M1313 0h-15q-90 0 -165.5 41.5t-110.5 112.5q-49 -77 -134 -115.5t-181 -38.5q-146 0 -211 55q-25 -29 -92 -50q-52 -16 -72 -34.5t-29.5 -54.5t-9.5 -88v-371h-174v385q0 160 41.5 230.5t142.5 109.5q72 28 86 86q59 245 148 356t225 111q100 0 187 -75t118 -193
q72 -272 231 -272h15v-195zM561 229q83 -34 156 -34q83 0 135.5 48.5t52.5 127.5q0 73 -41 121.5t-102 48.5q-65 0 -119 -84.5t-82 -227.5zM1311 195h43q56 0 90 31.5t55 107.5q61 214 144.5 307.5t210.5 93.5q131 0 224 -105.5t93 -258.5q0 -180 -107 -275.5t-266 -95.5
q-135 0 -215 82q-61 -82 -219 -82h-53v195zM1655 252q77 -57 154 -57q83 0 135.5 48.5t52.5 127.5q0 73 -41.5 121.5t-101.5 48.5q-126 0 -199 -289z" />
    <glyph glyph-name="uniFC49" unicode="&#xfc49;" horiz-adv-x="2611" arabic-form="isolated" 
d="M1626 0h-6q-43 0 -127 34q-71 29 -102 29q-23 0 -37.5 -12t-14.5 -28q0 -18 49 -87q70 -101 70 -139q0 -125 -215.5 -237.5t-531.5 -112.5q-294 0 -467.5 105.5t-173.5 304.5q0 99 47 235l159 -41q-32 -107 -32 -192q0 -110 106 -163.5t363 -53.5q247 0 409 56t162 124
q0 18 -45 85q-74 109 -74 156q0 77 66 136t160 59q40 0 132 -35q71 -28 97 -28h6v-195zM1624 195h43q56 0 90 31.5t55 107.5q61 214 144.5 307.5t210.5 93.5q131 0 224 -105.5t93 -258.5q0 -180 -107 -275.5t-266 -95.5q-135 0 -215 82q-61 -82 -219 -82h-53v195zM1968 252
q77 -57 154 -57q83 0 135.5 48.5t52.5 127.5q0 73 -41.5 121.5t-101.5 48.5q-126 0 -199 -289z" />
    <glyph glyph-name="uniFC4A" unicode="&#xfc4a;" horiz-adv-x="2632" arabic-form="isolated" 
d="M1647 0h-7q-49 0 -152 61q-73 43 -97 43q-22 0 -37 -12t-15 -29t49 -60q70 -61 70 -99q0 -125 -216 -229.5t-531 -104.5q-294 0 -467.5 105t-173.5 305q0 99 47 235l159 -41q-32 -107 -32 -192q0 -110 106 -164t363 -54q250 0 410.5 50.5t160.5 113.5q0 18 -45 61
q-74 68 -74 115q0 77 66.5 136t159.5 59q60 0 158 -63q65 -41 91 -41h7v-195zM1554 -543h-127v127h127v-127zM1307 -543h-127v127h127v-127zM1645 195h43q56 0 90 31.5t55 107.5q61 214 144.5 307.5t210.5 93.5q131 0 224 -105.5t93 -258.5q0 -180 -107 -275.5t-266 -95.5
q-135 0 -215 82q-61 -82 -219 -82h-53v195zM1989 252q77 -57 154 -57q83 0 135.5 48.5t52.5 127.5q0 73 -41.5 121.5t-101.5 48.5q-126 0 -199 -289z" />
    <glyph glyph-name="uniFC4B" unicode="&#xfc4b;" horiz-adv-x="1909" arabic-form="isolated" 
d="M1350 0h-76q-123 0 -245 81t-333 351q-411 -144 -411 -475q0 -137 119 -227t309 -90q174 0 415 61l31 -186q-222 -70 -444 -70q-269 0 -436.5 145.5t-167.5 368.5q0 244 200.5 423.5t513.5 231.5q-158 75 -263.5 97t-254.5 22q-65 0 -151 -20l-33 190q78 25 164 25
q147 0 279 -54t407 -225v-147q-81 -15 -131 -27q165 -185 254.5 -232.5t173.5 -47.5h80v-195zM735 -76h-178v178h178v-178zM1747 395q0 -215 -82 -305t-252 -90h-65v195h74q151 0 151 204v183h174v-187zM1688 848h-178v178h178v-178z" />
    <glyph glyph-name="uniFC4C" unicode="&#xfc4c;" horiz-adv-x="1909" arabic-form="isolated" 
d="M1350 0h-76q-123 0 -245 81t-333 351q-411 -144 -411 -475q0 -137 119 -227t309 -90q174 0 415 61l31 -186q-222 -70 -444 -70q-269 0 -436.5 145.5t-167.5 368.5q0 244 200.5 423.5t513.5 231.5q-158 75 -263.5 97t-254.5 22q-65 0 -151 -20l-33 190q78 25 164 25
q147 0 279 -54t407 -225v-147q-81 -15 -131 -27q165 -185 254.5 -232.5t173.5 -47.5h80v-195zM1747 395q0 -215 -82 -305t-252 -90h-65v195h74q151 0 151 204v183h174v-187zM1688 848h-178v178h178v-178z" />
    <glyph glyph-name="uniFC4D" unicode="&#xfc4d;" horiz-adv-x="1909" arabic-form="isolated" 
d="M1350 0h-76q-123 0 -245 81t-333 351q-411 -144 -411 -475q0 -137 119 -227t309 -90q174 0 415 61l31 -186q-222 -70 -444 -70q-269 0 -436.5 145.5t-167.5 368.5q0 244 200.5 423.5t513.5 231.5q-158 75 -263.5 97t-254.5 22q-65 0 -151 -20l-33 190q78 25 164 25
q147 0 279 -54t407 -225v-147q-81 -15 -131 -27q165 -185 254.5 -232.5t173.5 -47.5h80v-195zM723 1094h-178v178h178v-178zM1747 395q0 -215 -82 -305t-252 -90h-65v195h74q151 0 151 204v183h174v-187zM1688 848h-178v178h178v-178z" />
    <glyph glyph-name="uniFC4E" unicode="&#xfc4e;" horiz-adv-x="1872" arabic-form="isolated" 
d="M1313 0h-15q-90 0 -165.5 41.5t-110.5 112.5q-49 -77 -134 -115.5t-181 -38.5q-146 0 -211 55q-25 -29 -92 -50q-52 -16 -72 -34.5t-29.5 -54.5t-9.5 -88v-371h-174v385q0 160 41.5 230.5t142.5 109.5q72 28 86 86q59 245 148 356t225 111q100 0 187 -75t118 -193
q72 -272 231 -272h15v-195zM561 229q83 -34 156 -34q83 0 135.5 48.5t52.5 127.5q0 73 -41 121.5t-102 48.5q-65 0 -119 -84.5t-82 -227.5zM1710 395q0 -215 -82 -305t-252 -90h-65v195h74q151 0 151 204v183h174v-187zM1651 848h-178v178h178v-178z" />
    <glyph glyph-name="uniFC4F" unicode="&#xfc4f;" horiz-adv-x="2185" arabic-form="isolated" 
d="M1626 0h-6q-43 0 -127 34q-71 29 -102 29q-23 0 -37.5 -12t-14.5 -28q0 -18 49 -87q70 -101 70 -139q0 -125 -215.5 -237.5t-531.5 -112.5q-294 0 -467.5 105.5t-173.5 304.5q0 99 47 235l159 -41q-32 -107 -32 -192q0 -110 106 -163.5t363 -53.5q247 0 409 56t162 124
q0 18 -45 85q-74 109 -74 156q0 77 66 136t160 59q40 0 132 -35q71 -28 97 -28h6v-195zM2023 395q0 -215 -82 -305t-252 -90h-65v195h74q151 0 151 204v183h174v-187zM1964 848h-178v178h178v-178z" />
    <glyph glyph-name="uniFC50" unicode="&#xfc50;" horiz-adv-x="2206" arabic-form="isolated" 
d="M1647 0h-7q-49 0 -152 61q-73 43 -97 43q-22 0 -37 -12t-15 -29t49 -60q70 -61 70 -99q0 -125 -216 -229.5t-531 -104.5q-294 0 -467.5 105t-173.5 305q0 99 47 235l159 -41q-32 -107 -32 -192q0 -110 106 -164t363 -54q250 0 410.5 50.5t160.5 113.5q0 18 -45 61
q-74 68 -74 115q0 77 66.5 136t159.5 59q60 0 158 -63q65 -41 91 -41h7v-195zM1554 -543h-127v127h127v-127zM1307 -543h-127v127h127v-127zM2044 395q0 -215 -82 -305t-252 -90h-65v195h74q151 0 151 204v183h174v-187zM1985 848h-178v178h178v-178z" />
    <glyph glyph-name="uniFC51" unicode="&#xfc51;" horiz-adv-x="2755" arabic-form="isolated" 
d="M1350 0h-76q-123 0 -245 81t-333 351q-411 -144 -411 -475q0 -137 119 -227t309 -90q174 0 415 61l31 -186q-222 -70 -444 -70q-269 0 -436.5 145.5t-167.5 368.5q0 244 200.5 423.5t513.5 231.5q-158 75 -263.5 97t-254.5 22q-65 0 -151 -20l-33 190q78 25 164 25
q147 0 279 -54t407 -225v-147q-81 -15 -131 -27q165 -185 254.5 -232.5t173.5 -47.5h80v-195zM735 -76h-178v178h178v-178zM1549 1188q133 26 307 26q334 0 553 -173t219 -441q0 -218 -160 -364t-395 -146q-102 0 -199 23q-246 -113 -514 -113h-12v195h16q151 0 277 22
q-144 109 -144 262q0 132 96.5 229t248.5 97q151 0 247.5 -95.5t96.5 -236.5q0 -112 -91 -209q170 6 264.5 97t94.5 235q0 190 -164 307t-434 117q-102 0 -252 -27zM1868 289q144 77 144 184q0 58 -48.5 97.5t-121.5 39.5q-78 0 -124 -38.5t-46 -92.5q0 -131 196 -190z" />
    <glyph glyph-name="uniFC52" unicode="&#xfc52;" horiz-adv-x="2718" arabic-form="isolated" 
d="M1313 0h-15q-90 0 -165.5 41.5t-110.5 112.5q-49 -77 -134 -115.5t-181 -38.5q-146 0 -211 55q-25 -29 -92 -50q-52 -16 -72 -34.5t-29.5 -54.5t-9.5 -88v-371h-174v385q0 160 41.5 230.5t142.5 109.5q72 28 86 86q59 245 148 356t225 111q100 0 187 -75t118 -193
q72 -272 231 -272h15v-195zM561 229q83 -34 156 -34q83 0 135.5 48.5t52.5 127.5q0 73 -41 121.5t-102 48.5q-65 0 -119 -84.5t-82 -227.5zM1512 1188q133 26 307 26q334 0 553 -173t219 -441q0 -218 -160 -364t-395 -146q-102 0 -199 23q-246 -113 -514 -113h-12v195h16
q151 0 277 22q-144 109 -144 262q0 132 96.5 229t248.5 97q151 0 247.5 -95.5t96.5 -236.5q0 -112 -91 -209q170 6 264.5 97t94.5 235q0 190 -164 307t-434 117q-102 0 -252 -27zM1831 289q144 77 144 184q0 58 -48.5 97.5t-121.5 39.5q-78 0 -124 -38.5t-46 -92.5
q0 -131 196 -190z" />
    <glyph glyph-name="uniFC53" unicode="&#xfc53;" horiz-adv-x="3031" arabic-form="isolated" 
d="M1626 0h-6q-43 0 -127 34q-71 29 -102 29q-23 0 -37.5 -12t-14.5 -28q0 -18 49 -87q70 -101 70 -139q0 -125 -215.5 -237.5t-531.5 -112.5q-294 0 -467.5 105.5t-173.5 304.5q0 99 47 235l159 -41q-32 -107 -32 -192q0 -110 106 -163.5t363 -53.5q247 0 409 56t162 124
q0 18 -45 85q-74 109 -74 156q0 77 66 136t160 59q40 0 132 -35q71 -28 97 -28h6v-195zM1825 1188q133 26 307 26q334 0 553 -173t219 -441q0 -218 -160 -364t-395 -146q-102 0 -199 23q-246 -113 -514 -113h-12v195h16q151 0 277 22q-144 109 -144 262q0 132 96.5 229
t248.5 97q151 0 247.5 -95.5t96.5 -236.5q0 -112 -91 -209q170 6 264.5 97t94.5 235q0 190 -164 307t-434 117q-102 0 -252 -27zM2144 289q144 77 144 184q0 58 -48.5 97.5t-121.5 39.5q-78 0 -124 -38.5t-46 -92.5q0 -131 196 -190z" />
    <glyph glyph-name="uniFC54" unicode="&#xfc54;" horiz-adv-x="3052" arabic-form="isolated" 
d="M1647 0h-7q-49 0 -152 61q-73 43 -97 43q-22 0 -37 -12t-15 -29t49 -60q70 -61 70 -99q0 -125 -216 -229.5t-531 -104.5q-294 0 -467.5 105t-173.5 305q0 99 47 235l159 -41q-32 -107 -32 -192q0 -110 106 -164t363 -54q250 0 410.5 50.5t160.5 113.5q0 18 -45 61
q-74 68 -74 115q0 77 66.5 136t159.5 59q60 0 158 -63q65 -41 91 -41h7v-195zM1554 -543h-127v127h127v-127zM1307 -543h-127v127h127v-127zM1846 1188q133 26 307 26q334 0 553 -173t219 -441q0 -218 -160 -364t-395 -146q-102 0 -199 23q-246 -113 -514 -113h-12v195h16
q151 0 277 22q-144 109 -144 262q0 132 96.5 229t248.5 97q151 0 247.5 -95.5t96.5 -236.5q0 -112 -91 -209q170 6 264.5 97t94.5 235q0 190 -164 307t-434 117q-102 0 -252 -27zM2165 289q144 77 144 184q0 58 -48.5 97.5t-121.5 39.5q-78 0 -124 -38.5t-46 -92.5
q0 -131 196 -190z" />
    <glyph glyph-name="uniFC55" unicode="&#xfc55;" horiz-adv-x="1909" arabic-form="isolated" 
d="M1350 0h-76q-123 0 -245 81t-333 351q-411 -144 -411 -475q0 -137 119 -227t309 -90q174 0 415 61l31 -186q-222 -70 -444 -70q-269 0 -436.5 145.5t-167.5 368.5q0 244 200.5 423.5t513.5 231.5q-158 75 -263.5 97t-254.5 22q-65 0 -151 -20l-33 190q78 25 164 25
q147 0 279 -54t407 -225v-147q-81 -15 -131 -27q165 -185 254.5 -232.5t173.5 -47.5h80v-195zM735 -76h-178v178h178v-178zM1747 395q0 -215 -82 -305t-252 -90h-65v195h74q151 0 151 204v183h174v-187zM1795 -287h-147v147h147v-147zM1527 -287h-148v147h148v-147z" />
    <glyph glyph-name="uniFC56" unicode="&#xfc56;" horiz-adv-x="1909" arabic-form="isolated" 
d="M1350 0h-76q-123 0 -245 81t-333 351q-411 -144 -411 -475q0 -137 119 -227t309 -90q174 0 415 61l31 -186q-222 -70 -444 -70q-269 0 -436.5 145.5t-167.5 368.5q0 244 200.5 423.5t513.5 231.5q-158 75 -263.5 97t-254.5 22q-65 0 -151 -20l-33 190q78 25 164 25
q147 0 279 -54t407 -225v-147q-81 -15 -131 -27q165 -185 254.5 -232.5t173.5 -47.5h80v-195zM1747 395q0 -215 -82 -305t-252 -90h-65v195h74q151 0 151 204v183h174v-187zM1795 -287h-147v147h147v-147zM1527 -287h-148v147h148v-147z" />
    <glyph glyph-name="uniFC57" unicode="&#xfc57;" horiz-adv-x="1909" arabic-form="isolated" 
d="M1350 0h-76q-123 0 -245 81t-333 351q-411 -144 -411 -475q0 -137 119 -227t309 -90q174 0 415 61l31 -186q-222 -70 -444 -70q-269 0 -436.5 145.5t-167.5 368.5q0 244 200.5 423.5t513.5 231.5q-158 75 -263.5 97t-254.5 22q-65 0 -151 -20l-33 190q78 25 164 25
q147 0 279 -54t407 -225v-147q-81 -15 -131 -27q165 -185 254.5 -232.5t173.5 -47.5h80v-195zM723 1094h-178v178h178v-178zM1747 395q0 -215 -82 -305t-252 -90h-65v195h74q151 0 151 204v183h174v-187zM1795 -287h-147v147h147v-147zM1527 -287h-148v147h148v-147z" />
    <glyph glyph-name="uniFC58" unicode="&#xfc58;" horiz-adv-x="1872" arabic-form="isolated" 
d="M1313 0h-15q-90 0 -165.5 41.5t-110.5 112.5q-49 -77 -134 -115.5t-181 -38.5q-146 0 -211 55q-25 -29 -92 -50q-52 -16 -72 -34.5t-29.5 -54.5t-9.5 -88v-371h-174v385q0 160 41.5 230.5t142.5 109.5q72 28 86 86q59 245 148 356t225 111q100 0 187 -75t118 -193
q72 -272 231 -272h15v-195zM561 229q83 -34 156 -34q83 0 135.5 48.5t52.5 127.5q0 73 -41 121.5t-102 48.5q-65 0 -119 -84.5t-82 -227.5zM1710 395q0 -215 -82 -305t-252 -90h-65v195h74q151 0 151 204v183h174v-187zM1758 -287h-147v147h147v-147zM1490 -287h-148v147
h148v-147z" />
    <glyph glyph-name="uniFC59" unicode="&#xfc59;" horiz-adv-x="2185" arabic-form="isolated" 
d="M1626 0h-6q-43 0 -127 34q-71 29 -102 29q-23 0 -37.5 -12t-14.5 -28q0 -18 49 -87q70 -101 70 -139q0 -125 -215.5 -237.5t-531.5 -112.5q-294 0 -467.5 105.5t-173.5 304.5q0 99 47 235l159 -41q-32 -107 -32 -192q0 -110 106 -163.5t363 -53.5q247 0 409 56t162 124
q0 18 -45 85q-74 109 -74 156q0 77 66 136t160 59q40 0 132 -35q71 -28 97 -28h6v-195zM2023 395q0 -215 -82 -305t-252 -90h-65v195h74q151 0 151 204v183h174v-187zM2071 -287h-147v147h147v-147zM1803 -287h-148v147h148v-147z" />
    <glyph glyph-name="uniFC5A" unicode="&#xfc5a;" horiz-adv-x="2206" arabic-form="isolated" 
d="M1647 0h-7q-49 0 -152 61q-73 43 -97 43q-22 0 -37 -12t-15 -29t49 -60q70 -61 70 -99q0 -125 -216 -229.5t-531 -104.5q-294 0 -467.5 105t-173.5 305q0 99 47 235l159 -41q-32 -107 -32 -192q0 -110 106 -164t363 -54q250 0 410.5 50.5t160.5 113.5q0 18 -45 61
q-74 68 -74 115q0 77 66.5 136t159.5 59q60 0 158 -63q65 -41 91 -41h7v-195zM1554 -543h-127v127h127v-127zM1307 -543h-127v127h127v-127zM2044 395q0 -215 -82 -305t-252 -90h-65v195h74q151 0 151 204v183h174v-187zM2092 -287h-147v147h147v-147zM1824 -287h-148v147
h148v-147z" />
    <glyph glyph-name="uniFC5B" unicode="&#xfc5b;" horiz-adv-x="881" arabic-form="isolated" 
d="M461 895q293 -364 293 -502q0 -185 -158.5 -289t-456.5 -104h-61v195h57q445 0 445 198q0 128 -330 502h211zM416 1110h-178v178h178v-178zM374 1382h-94v438h94v-438zM327 1270z" />
    <glyph glyph-name="uniFC5C" unicode="&#xfc5c;" horiz-adv-x="862" arabic-form="isolated" 
d="M666 594q65 -177 65 -375q0 -310 -184.5 -479.5t-501.5 -169.5q-71 0 -197 14l37 176q90 -16 162 -16q510 0 510 475q0 168 -102 375h211zM604 809h-94v438h94v-438zM557 697z" />
    <glyph glyph-name="uniFC5D" unicode="&#xfc5d;" horiz-adv-x="1497" arabic-form="isolated" 
d="M1391 649l-174 -18q-34 102 -203 102q-77 0 -131 -33.5t-54 -87.5q0 -31 34.5 -65t174.5 -103q211 -105 271.5 -178t60.5 -151q0 -153 -163.5 -258t-499.5 -105q-294 0 -467.5 105.5t-173.5 304.5q0 99 47 235l159 -41q-32 -106 -32 -192q0 -110 106 -163.5t363 -53.5
q241 0 364 48.5t123 123.5q0 38 -38 77t-190 115q-201 100 -257 166t-56 135q0 118 101.5 217t257.5 99q313 0 377 -279zM454 597h-94v438h94v-438zM407 485z" />
    <glyph glyph-name="uniFC5E" unicode="&#xfc5e;" horiz-adv-x="606" arabic-form="isolated" 
d="M598 1665q-83 12 -160 31q-185 -103 -430 -117v319h78v-239q144 10 274 65q-141 42 -141 152q0 64 46 108t112 44q67 0 114.5 -44t47.5 -110q0 -64 -50 -123q39 -10 109 -18v-68zM418 1769q43 41 43 105q0 32 -23.5 54t-56.5 22q-37 0 -60.5 -22t-23.5 -54
q0 -73 121 -105zM336 1466zM606 1517q6 -38 6 -94q0 -91 -47 -144t-125 -53q-84 0 -118 78q-39 -125 -150 -125q-74 0 -116 42.5t-42 117.5q0 35 6 92h78q-6 -57 -6 -90q0 -38 21 -61t59 -23q102 0 102 160v61h78v-51q0 -59 24 -91t64 -32q41 0 68 36.5t27 84.5q0 39 -7 92
h78zM336 1066z" />
    <glyph glyph-name="uniFC5F" unicode="&#xfc5f;" horiz-adv-x="614" arabic-form="isolated" 
d="M590 1540l-574 -100v88l574 100v-88zM590 1366l-574 -100v88l574 100v-88zM307 1628zM606 2028q6 -38 6 -94q0 -91 -47 -144t-125 -53q-84 0 -118 78q-39 -125 -150 -125q-74 0 -116 42.5t-42 117.5q0 35 6 92h78q-6 -57 -6 -90q0 -38 21 -61t59 -23q102 0 102 160v61h78
v-51q0 -59 24 -91t64 -32q41 0 68 36.5t27 84.5q0 39 -7 92h78zM336 1577z" />
    <glyph glyph-name="uniFC60" unicode="&#xfc60;" horiz-adv-x="614" arabic-form="isolated" 
d="M594 1940l-574 -100v88l574 100v-88zM307 1735zM606 1778q6 -38 6 -94q0 -91 -47 -144t-125 -53q-84 0 -118 78q-39 -125 -150 -125q-74 0 -116 42.5t-42 117.5q0 35 6 92h78q-6 -57 -6 -90q0 -38 21 -61t59 -23q102 0 102 160v61h78v-51q0 -59 24 -91t64 -32
q41 0 68 36.5t27 84.5q0 39 -7 92h78zM336 1327z" />
    <glyph glyph-name="uniFC61" unicode="&#xfc61;" horiz-adv-x="614" arabic-form="isolated" 
d="M598 1665q-56 7 -164 33q-152 -98 -426 -119v72q209 12 352 73q-141 41 -141 150q0 63 47.5 108.5t110.5 45.5q69 0 117.5 -44t48.5 -110t-58 -123q60 -13 113 -18v-68zM414 1769q51 49 51 105q0 31 -25.5 53.5t-58.5 22.5q-36 0 -60 -22.5t-24 -53.5q0 -75 117 -105z
M336 1466zM606 1517q6 -38 6 -94q0 -91 -47 -144t-125 -53q-84 0 -118 78q-39 -125 -150 -125q-74 0 -116 42.5t-42 117.5q0 35 6 92h78q-6 -57 -6 -90q0 -38 21 -61t59 -23q102 0 102 160v61h78v-51q0 -59 24 -91t64 -32q41 0 68 36.5t27 84.5q0 39 -7 92h78zM336 1066z
" />
    <glyph glyph-name="uniFC62" unicode="&#xfc62;" horiz-adv-x="614" arabic-form="isolated" 
d="M590 1714l-574 -100v88l574 100v-88zM307 1802zM606 2028q6 -38 6 -94q0 -91 -47 -144t-125 -53q-84 0 -118 78q-39 -125 -150 -125q-74 0 -116 42.5t-42 117.5q0 35 6 92h78q-6 -57 -6 -90q0 -38 21 -61t59 -23q102 0 102 160v61h78v-51q0 -59 24 -91t64 -32
q41 0 68 36.5t27 84.5q0 39 -7 92h78zM336 1577z" />
    <glyph glyph-name="uniFC63" unicode="&#xfc63;" horiz-adv-x="614" arabic-form="isolated" 
d="M354 1718h-94v438h94v-438zM307 1606zM606 1656q6 -38 6 -94q0 -91 -47 -144t-125 -53q-84 0 -118 78q-39 -125 -150 -125q-74 0 -116 42.5t-42 117.5q0 35 6 92h78q-6 -57 -6 -90q0 -38 21 -61t59 -23q102 0 102 160v61h78v-51q0 -59 24 -91t64 -32q41 0 68 36.5
t27 84.5q0 39 -7 92h78zM336 1205z" />
    <glyph glyph-name="uniFC64" unicode="&#xfc64;" horiz-adv-x="1393" arabic-form="final" 
d="M895 0h-4q-121 0 -178 49q-44 -230 -222.5 -354.5t-445.5 -124.5q-71 0 -197 14l37 176q90 -16 162 -16q510 0 510 475q0 118 -53 270h192q23 -93 31 -172q12 -122 156 -122h12v-195zM1395 0h-4q-170 0 -248 84q-78 -84 -246 -84h-4v195h12q152 0 152 204v183h174v-183
q0 -204 151 -204h13v-195zM1276 897l-272 -49v72l59 10q-78 33 -78 109q0 58 37 92.5t98 34.5q122 0 146 -109l-72 -6q-13 37 -72 37q-65 0 -65 -49q0 -37 38.5 -60.5t96.5 -23.5l84 14v-72zM1148 721z" />
    <glyph glyph-name="uniFC65" unicode="&#xfc65;" horiz-adv-x="1393" arabic-form="final" 
d="M895 0h-4q-121 0 -178 49q-44 -230 -222.5 -354.5t-445.5 -124.5q-71 0 -197 14l37 176q90 -16 162 -16q510 0 510 475q0 118 -53 270h192q23 -93 31 -172q12 -122 156 -122h12v-195zM665 760h-178v178h178v-178zM1395 0h-4q-170 0 -248 84q-78 -84 -246 -84h-4v195h12
q152 0 152 204v183h174v-183q0 -204 151 -204h13v-195zM1276 897l-272 -49v72l59 10q-78 33 -78 109q0 58 37 92.5t98 34.5q122 0 146 -109l-72 -6q-13 37 -72 37q-65 0 -65 -49q0 -37 38.5 -60.5t96.5 -23.5l84 14v-72zM1148 721z" />
    <glyph glyph-name="uniFC66" unicode="&#xfc66;" horiz-adv-x="1811" arabic-form="final" 
d="M1313 0h-15q-90 0 -165.5 41.5t-110.5 112.5q-49 -77 -134 -115.5t-181 -38.5q-146 0 -211 55q-25 -29 -92 -50q-52 -16 -72 -34.5t-29.5 -54.5t-9.5 -88v-371h-174v385q0 160 41.5 230.5t142.5 109.5q72 28 86 86q59 245 148 356t225 111q100 0 187 -75t118 -193
q72 -272 231 -272h15v-195zM561 229q83 -34 156 -34q83 0 135.5 48.5t52.5 127.5q0 73 -41 121.5t-102 48.5q-65 0 -119 -84.5t-82 -227.5zM1813 0h-4q-170 0 -248 84q-78 -84 -246 -84h-4v195h12q152 0 152 204v183h174v-183q0 -204 151 -204h13v-195zM1694 897l-272 -49
v72l59 10q-78 33 -78 109q0 58 37 92.5t98 34.5q122 0 146 -109l-72 -6q-13 37 -72 37q-65 0 -65 -49q0 -37 38.5 -60.5t96.5 -23.5l84 14v-72zM1566 721z" />
    <glyph glyph-name="uniFC67" unicode="&#xfc67;" horiz-adv-x="1981" arabic-form="final" 
d="M1483 0h-15q-85 0 -141 47q-8 -237 -171 -375.5t-464 -138.5q-285 0 -448.5 128.5t-163.5 356.5q0 147 43 357l164 -41q-33 -184 -33 -314t111.5 -211t326.5 -81q461 0 461 422q0 36 -8 182l170 43q25 -180 153 -180h15v-195zM803 551h-178v178h178v-178zM1983 0h-4
q-170 0 -248 84q-78 -84 -246 -84h-4v195h12q152 0 152 204v183h174v-183q0 -204 151 -204h13v-195zM1864 897l-272 -49v72l59 10q-78 33 -78 109q0 58 37 92.5t98 34.5q122 0 146 -109l-72 -6q-13 37 -72 37q-65 0 -65 -49q0 -37 38.5 -60.5t96.5 -23.5l84 14v-72z
M1736 721z" />
    <glyph glyph-name="uniFC68" unicode="&#xfc68;" horiz-adv-x="2124" arabic-form="final" 
d="M1626 0h-6q-43 0 -127 34q-71 29 -102 29q-23 0 -37.5 -12t-14.5 -28q0 -18 49 -87q70 -101 70 -139q0 -125 -215.5 -237.5t-531.5 -112.5q-294 0 -467.5 105.5t-173.5 304.5q0 99 47 235l159 -41q-32 -107 -32 -192q0 -110 106 -163.5t363 -53.5q247 0 409 56t162 124
q0 18 -45 85q-74 109 -74 156q0 77 66 136t160 59q40 0 132 -35q71 -28 97 -28h6v-195zM2126 0h-4q-170 0 -248 84q-78 -84 -246 -84h-4v195h12q152 0 152 204v183h174v-183q0 -204 151 -204h13v-195zM2007 897l-272 -49v72l59 10q-78 33 -78 109q0 58 37 92.5t98 34.5
q122 0 146 -109l-72 -6q-13 37 -72 37q-65 0 -65 -49q0 -37 38.5 -60.5t96.5 -23.5l84 14v-72zM1879 721z" />
    <glyph glyph-name="uniFC69" unicode="&#xfc69;" horiz-adv-x="2145" arabic-form="final" 
d="M1647 0h-7q-49 0 -152 61q-73 43 -97 43q-22 0 -37 -12t-15 -29t49 -60q70 -61 70 -99q0 -125 -216 -229.5t-531 -104.5q-294 0 -467.5 105t-173.5 305q0 99 47 235l159 -41q-32 -107 -32 -192q0 -110 106 -164t363 -54q250 0 410.5 50.5t160.5 113.5q0 18 -45 61
q-74 68 -74 115q0 77 66.5 136t159.5 59q60 0 158 -63q65 -41 91 -41h7v-195zM1554 -543h-127v127h127v-127zM1307 -543h-127v127h127v-127zM2147 0h-4q-170 0 -248 84q-78 -84 -246 -84h-4v195h12q152 0 152 204v183h174v-183q0 -204 151 -204h13v-195zM2028 897l-272 -49
v72l59 10q-78 33 -78 109q0 58 37 92.5t98 34.5q122 0 146 -109l-72 -6q-13 37 -72 37q-65 0 -65 -49q0 -37 38.5 -60.5t96.5 -23.5l84 14v-72zM1900 721z" />
    <glyph glyph-name="uniFC6A" unicode="&#xfc6a;" horiz-adv-x="1393" arabic-form="final" 
d="M895 0h-4q-121 0 -178 49q-44 -230 -222.5 -354.5t-445.5 -124.5q-71 0 -197 14l37 176q90 -16 162 -16q510 0 510 475q0 118 -53 270h192q23 -93 31 -172q12 -122 156 -122h12v-195zM1395 0h-4q-170 0 -248 84q-78 -84 -246 -84h-4v195h12q152 0 152 204v183h174v-183
q0 -204 151 -204h13v-195zM1233 -287h-178v178h178v-178z" />
    <glyph glyph-name="uniFC6B" unicode="&#xfc6b;" horiz-adv-x="1393" arabic-form="final" 
d="M895 0h-4q-121 0 -178 49q-44 -230 -222.5 -354.5t-445.5 -124.5q-71 0 -197 14l37 176q90 -16 162 -16q510 0 510 475q0 118 -53 270h192q23 -93 31 -172q12 -122 156 -122h12v-195zM665 760h-178v178h178v-178zM1395 0h-4q-170 0 -248 84q-78 -84 -246 -84h-4v195h12
q152 0 152 204v183h174v-183q0 -204 151 -204h13v-195zM1233 -287h-178v178h178v-178z" />
    <glyph glyph-name="uniFC6C" unicode="&#xfc6c;" horiz-adv-x="1811" arabic-form="final" 
d="M1313 0h-15q-90 0 -165.5 41.5t-110.5 112.5q-49 -77 -134 -115.5t-181 -38.5q-146 0 -211 55q-25 -29 -92 -50q-52 -16 -72 -34.5t-29.5 -54.5t-9.5 -88v-371h-174v385q0 160 41.5 230.5t142.5 109.5q72 28 86 86q59 245 148 356t225 111q100 0 187 -75t118 -193
q72 -272 231 -272h15v-195zM561 229q83 -34 156 -34q83 0 135.5 48.5t52.5 127.5q0 73 -41 121.5t-102 48.5q-65 0 -119 -84.5t-82 -227.5zM1813 0h-4q-170 0 -248 84q-78 -84 -246 -84h-4v195h12q152 0 152 204v183h174v-183q0 -204 151 -204h13v-195zM1651 -287h-178v178
h178v-178z" />
    <glyph glyph-name="uniFC6D" unicode="&#xfc6d;" horiz-adv-x="1981" arabic-form="final" 
d="M1483 0h-15q-85 0 -141 47q-8 -237 -171 -375.5t-464 -138.5q-285 0 -448.5 128.5t-163.5 356.5q0 147 43 357l164 -41q-33 -184 -33 -314t111.5 -211t326.5 -81q461 0 461 422q0 36 -8 182l170 43q25 -180 153 -180h15v-195zM803 551h-178v178h178v-178zM1983 0h-4
q-170 0 -248 84q-78 -84 -246 -84h-4v195h12q152 0 152 204v183h174v-183q0 -204 151 -204h13v-195zM1821 -287h-178v178h178v-178z" />
    <glyph glyph-name="uniFC6E" unicode="&#xfc6e;" horiz-adv-x="2124" arabic-form="final" 
d="M1626 0h-6q-43 0 -127 34q-71 29 -102 29q-23 0 -37.5 -12t-14.5 -28q0 -18 49 -87q70 -101 70 -139q0 -125 -215.5 -237.5t-531.5 -112.5q-294 0 -467.5 105.5t-173.5 304.5q0 99 47 235l159 -41q-32 -107 -32 -192q0 -110 106 -163.5t363 -53.5q247 0 409 56t162 124
q0 18 -45 85q-74 109 -74 156q0 77 66 136t160 59q40 0 132 -35q71 -28 97 -28h6v-195zM2126 0h-4q-170 0 -248 84q-78 -84 -246 -84h-4v195h12q152 0 152 204v183h174v-183q0 -204 151 -204h13v-195zM1964 -287h-178v178h178v-178z" />
    <glyph glyph-name="uniFC6F" unicode="&#xfc6f;" horiz-adv-x="2145" arabic-form="final" 
d="M1647 0h-7q-49 0 -152 61q-73 43 -97 43q-22 0 -37 -12t-15 -29t49 -60q70 -61 70 -99q0 -125 -216 -229.5t-531 -104.5q-294 0 -467.5 105t-173.5 305q0 99 47 235l159 -41q-32 -107 -32 -192q0 -110 106 -164t363 -54q250 0 410.5 50.5t160.5 113.5q0 18 -45 61
q-74 68 -74 115q0 77 66.5 136t159.5 59q60 0 158 -63q65 -41 91 -41h7v-195zM1554 -543h-127v127h127v-127zM1307 -543h-127v127h127v-127zM2147 0h-4q-170 0 -248 84q-78 -84 -246 -84h-4v195h12q152 0 152 204v183h174v-183q0 -204 151 -204h13v-195zM1985 -287h-178v178
h178v-178z" />
    <glyph glyph-name="uniFC70" unicode="&#xfc70;" horiz-adv-x="1393" arabic-form="final" 
d="M895 0h-4q-121 0 -178 49q-44 -230 -222.5 -354.5t-445.5 -124.5q-71 0 -197 14l37 176q90 -16 162 -16q510 0 510 475q0 118 -53 270h192q23 -93 31 -172q12 -122 156 -122h12v-195zM1395 0h-4q-170 0 -248 84q-78 -84 -246 -84h-4v195h12q152 0 152 204v183h174v-183
q0 -204 151 -204h13v-195zM1352 848h-147v147h147v-147zM1084 848h-148v147h148v-147z" />
    <glyph glyph-name="uniFC71" unicode="&#xfc71;" horiz-adv-x="1393" arabic-form="final" 
d="M895 0h-4q-121 0 -178 49q-44 -230 -222.5 -354.5t-445.5 -124.5q-71 0 -197 14l37 176q90 -16 162 -16q510 0 510 475q0 118 -53 270h192q23 -93 31 -172q12 -122 156 -122h12v-195zM665 760h-178v178h178v-178zM1395 0h-4q-170 0 -248 84q-78 -84 -246 -84h-4v195h12
q152 0 152 204v183h174v-183q0 -204 151 -204h13v-195zM1352 848h-147v147h147v-147zM1084 848h-148v147h148v-147z" />
    <glyph glyph-name="uniFC72" unicode="&#xfc72;" horiz-adv-x="1811" arabic-form="final" 
d="M1313 0h-15q-90 0 -165.5 41.5t-110.5 112.5q-49 -77 -134 -115.5t-181 -38.5q-146 0 -211 55q-25 -29 -92 -50q-52 -16 -72 -34.5t-29.5 -54.5t-9.5 -88v-371h-174v385q0 160 41.5 230.5t142.5 109.5q72 28 86 86q59 245 148 356t225 111q100 0 187 -75t118 -193
q72 -272 231 -272h15v-195zM561 229q83 -34 156 -34q83 0 135.5 48.5t52.5 127.5q0 73 -41 121.5t-102 48.5q-65 0 -119 -84.5t-82 -227.5zM1813 0h-4q-170 0 -248 84q-78 -84 -246 -84h-4v195h12q152 0 152 204v183h174v-183q0 -204 151 -204h13v-195zM1770 848h-147v147
h147v-147zM1502 848h-148v147h148v-147z" />
    <glyph glyph-name="uniFC73" unicode="&#xfc73;" horiz-adv-x="1981" arabic-form="final" 
d="M1483 0h-15q-85 0 -141 47q-8 -237 -171 -375.5t-464 -138.5q-285 0 -448.5 128.5t-163.5 356.5q0 147 43 357l164 -41q-33 -184 -33 -314t111.5 -211t326.5 -81q461 0 461 422q0 36 -8 182l170 43q25 -180 153 -180h15v-195zM803 551h-178v178h178v-178zM1983 0h-4
q-170 0 -248 84q-78 -84 -246 -84h-4v195h12q152 0 152 204v183h174v-183q0 -204 151 -204h13v-195zM1940 848h-147v147h147v-147zM1672 848h-148v147h148v-147z" />
    <glyph glyph-name="uniFC74" unicode="&#xfc74;" horiz-adv-x="2124" arabic-form="final" 
d="M1626 0h-6q-43 0 -127 34q-71 29 -102 29q-23 0 -37.5 -12t-14.5 -28q0 -18 49 -87q70 -101 70 -139q0 -125 -215.5 -237.5t-531.5 -112.5q-294 0 -467.5 105.5t-173.5 304.5q0 99 47 235l159 -41q-32 -107 -32 -192q0 -110 106 -163.5t363 -53.5q247 0 409 56t162 124
q0 18 -45 85q-74 109 -74 156q0 77 66 136t160 59q40 0 132 -35q71 -28 97 -28h6v-195zM2126 0h-4q-170 0 -248 84q-78 -84 -246 -84h-4v195h12q152 0 152 204v183h174v-183q0 -204 151 -204h13v-195zM2083 848h-147v147h147v-147zM1815 848h-148v147h148v-147z" />
    <glyph glyph-name="uniFC75" unicode="&#xfc75;" horiz-adv-x="2145" arabic-form="final" 
d="M1647 0h-7q-49 0 -152 61q-73 43 -97 43q-22 0 -37 -12t-15 -29t49 -60q70 -61 70 -99q0 -125 -216 -229.5t-531 -104.5q-294 0 -467.5 105t-173.5 305q0 99 47 235l159 -41q-32 -107 -32 -192q0 -110 106 -164t363 -54q250 0 410.5 50.5t160.5 113.5q0 18 -45 61
q-74 68 -74 115q0 77 66.5 136t159.5 59q60 0 158 -63q65 -41 91 -41h7v-195zM1554 -543h-127v127h127v-127zM1307 -543h-127v127h127v-127zM2147 0h-4q-170 0 -248 84q-78 -84 -246 -84h-4v195h12q152 0 152 204v183h174v-183q0 -204 151 -204h13v-195zM2104 848h-147v147
h147v-147zM1836 848h-148v147h148v-147z" />
    <glyph glyph-name="uniFC76" unicode="&#xfc76;" horiz-adv-x="1393" arabic-form="final" 
d="M895 0h-4q-121 0 -178 49q-44 -230 -222.5 -354.5t-445.5 -124.5q-71 0 -197 14l37 176q90 -16 162 -16q510 0 510 475q0 118 -53 270h192q23 -93 31 -172q12 -122 156 -122h12v-195zM1395 0h-4q-170 0 -248 84q-78 -84 -246 -84h-4v195h12q152 0 152 204v183h174v-183
q0 -204 151 -204h13v-195zM1217 1057h-148v147h148v-147zM1352 848h-147v147h147v-147zM1084 848h-148v147h148v-147z" />
    <glyph glyph-name="uniFC77" unicode="&#xfc77;" horiz-adv-x="1393" arabic-form="final" 
d="M895 0h-4q-121 0 -178 49q-44 -230 -222.5 -354.5t-445.5 -124.5q-71 0 -197 14l37 176q90 -16 162 -16q510 0 510 475q0 118 -53 270h192q23 -93 31 -172q12 -122 156 -122h12v-195zM665 760h-178v178h178v-178zM1395 0h-4q-170 0 -248 84q-78 -84 -246 -84h-4v195h12
q152 0 152 204v183h174v-183q0 -204 151 -204h13v-195zM1217 1057h-148v147h148v-147zM1352 848h-147v147h147v-147zM1084 848h-148v147h148v-147z" />
    <glyph glyph-name="uniFC78" unicode="&#xfc78;" horiz-adv-x="1811" arabic-form="final" 
d="M1313 0h-15q-90 0 -165.5 41.5t-110.5 112.5q-49 -77 -134 -115.5t-181 -38.5q-146 0 -211 55q-25 -29 -92 -50q-52 -16 -72 -34.5t-29.5 -54.5t-9.5 -88v-371h-174v385q0 160 41.5 230.5t142.5 109.5q72 28 86 86q59 245 148 356t225 111q100 0 187 -75t118 -193
q72 -272 231 -272h15v-195zM561 229q83 -34 156 -34q83 0 135.5 48.5t52.5 127.5q0 73 -41 121.5t-102 48.5q-65 0 -119 -84.5t-82 -227.5zM1813 0h-4q-170 0 -248 84q-78 -84 -246 -84h-4v195h12q152 0 152 204v183h174v-183q0 -204 151 -204h13v-195zM1635 1057h-148v147
h148v-147zM1770 848h-147v147h147v-147zM1502 848h-148v147h148v-147z" />
    <glyph glyph-name="uniFC79" unicode="&#xfc79;" horiz-adv-x="1981" arabic-form="final" 
d="M1483 0h-15q-85 0 -141 47q-8 -237 -171 -375.5t-464 -138.5q-285 0 -448.5 128.5t-163.5 356.5q0 147 43 357l164 -41q-33 -184 -33 -314t111.5 -211t326.5 -81q461 0 461 422q0 36 -8 182l170 43q25 -180 153 -180h15v-195zM799 551h-178v178h178v-178zM1983 0h-4
q-170 0 -248 84q-78 -84 -246 -84h-4v195h12q152 0 152 204v183h174v-183q0 -204 151 -204h13v-195zM1805 1057h-148v147h148v-147zM1940 848h-147v147h147v-147zM1672 848h-148v147h148v-147z" />
    <glyph glyph-name="uniFC7A" unicode="&#xfc7a;" horiz-adv-x="2124" arabic-form="final" 
d="M1626 0h-6q-43 0 -127 34q-71 29 -102 29q-23 0 -37.5 -12t-14.5 -28q0 -18 49 -87q70 -101 70 -139q0 -125 -215.5 -237.5t-531.5 -112.5q-294 0 -467.5 105.5t-173.5 304.5q0 99 47 235l159 -41q-32 -107 -32 -192q0 -110 106 -163.5t363 -53.5q247 0 409 56t162 124
q0 18 -45 85q-74 109 -74 156q0 77 66 136t160 59q40 0 132 -35q71 -28 97 -28h6v-195zM2126 0h-4q-170 0 -248 84q-78 -84 -246 -84h-4v195h12q152 0 152 204v183h174v-183q0 -204 151 -204h13v-195zM1948 1057h-148v147h148v-147zM2083 848h-147v147h147v-147zM1815 848
h-148v147h148v-147z" />
    <glyph glyph-name="uniFC7B" unicode="&#xfc7b;" horiz-adv-x="2145" arabic-form="final" 
d="M1647 0h-7q-49 0 -152 61q-73 43 -97 43q-22 0 -37 -12t-15 -29t49 -60q70 -61 70 -99q0 -125 -216 -229.5t-531 -104.5q-294 0 -467.5 105t-173.5 305q0 99 47 235l159 -41q-32 -107 -32 -192q0 -110 106 -164t363 -54q250 0 410.5 50.5t160.5 113.5q0 18 -45 61
q-74 68 -74 115q0 77 66.5 136t159.5 59q60 0 158 -63q65 -41 91 -41h7v-195zM1554 -543h-127v127h127v-127zM1307 -543h-127v127h127v-127zM2147 0h-4q-170 0 -248 84q-78 -84 -246 -84h-4v195h12q152 0 152 204v183h174v-183q0 -204 151 -204h13v-195zM1969 1057h-148v147
h148v-147zM2104 848h-147v147h147v-147zM1836 848h-148v147h148v-147z" />
    <glyph glyph-name="uniFC7C" unicode="&#xfc7c;" horiz-adv-x="2609" arabic-form="final" 
d="M1626 0h-6q-43 0 -127 34q-71 29 -102 29q-23 0 -37.5 -12t-14.5 -28q0 -18 49 -87q70 -101 70 -139q0 -125 -215.5 -237.5t-531.5 -112.5q-294 0 -467.5 105.5t-173.5 304.5q0 99 47 235l159 -41q-32 -107 -32 -192q0 -110 106 -163.5t363 -53.5q247 0 409 56t162 124
q0 18 -45 85q-74 109 -74 156q0 77 66 136t160 59q40 0 132 -35q71 -28 97 -28h6v-195zM2611 0h-12q-116 0 -253.5 29.5t-227.5 76.5q-91 -47 -228.5 -76.5t-253.5 -29.5h-12v195h16q122 0 285 30q-68 37 -110 103.5t-42 138.5q0 140 96 239t249 99q150 0 247 -98t97 -240
q0 -72 -41.5 -137.5t-110.5 -104.5q134 -30 285 -30h16v-195zM2118 283q170 70 170 184q0 59 -49 101t-121 42q-80 0 -125 -40t-45 -103q0 -108 170 -184zM2205 1071h-178v178h178v-178z" />
    <glyph glyph-name="uniFC7D" unicode="&#xfc7d;" horiz-adv-x="2630" arabic-form="final" 
d="M1647 0h-7q-49 0 -152 61q-73 43 -97 43q-22 0 -37 -12t-15 -29t49 -60q70 -61 70 -99q0 -125 -216 -229.5t-531 -104.5q-294 0 -467.5 105t-173.5 305q0 99 47 235l159 -41q-32 -107 -32 -192q0 -110 106 -164t363 -54q250 0 410.5 50.5t160.5 113.5q0 18 -45 61
q-74 68 -74 115q0 77 66.5 136t159.5 59q60 0 158 -63q65 -41 91 -41h7v-195zM1554 -543h-127v127h127v-127zM1307 -543h-127v127h127v-127zM2632 0h-12q-116 0 -253.5 29.5t-227.5 76.5q-91 -47 -228.5 -76.5t-253.5 -29.5h-12v195h16q122 0 285 30q-68 37 -110 103.5
t-42 138.5q0 140 96 239t249 99q150 0 247 -98t97 -240q0 -72 -41.5 -137.5t-110.5 -104.5q134 -30 285 -30h16v-195zM2139 283q170 70 170 184q0 59 -49 101t-121 42q-80 0 -125 -40t-45 -103q0 -108 170 -184zM2226 1071h-178v178h178v-178z" />
    <glyph glyph-name="uniFC7E" unicode="&#xfc7e;" horiz-adv-x="2609" arabic-form="final" 
d="M1626 0h-6q-43 0 -127 34q-71 29 -102 29q-23 0 -37.5 -12t-14.5 -28q0 -18 49 -87q70 -101 70 -139q0 -125 -215.5 -237.5t-531.5 -112.5q-294 0 -467.5 105.5t-173.5 304.5q0 99 47 235l159 -41q-32 -107 -32 -192q0 -110 106 -163.5t363 -53.5q247 0 409 56t162 124
q0 18 -45 85q-74 109 -74 156q0 77 66 136t160 59q40 0 132 -35q71 -28 97 -28h6v-195zM2611 0h-12q-116 0 -253.5 29.5t-227.5 76.5q-91 -47 -228.5 -76.5t-253.5 -29.5h-12v195h16q122 0 285 30q-68 37 -110 103.5t-42 138.5q0 140 96 239t249 99q150 0 247 -98t97 -240
q0 -72 -41.5 -137.5t-110.5 -104.5q134 -30 285 -30h16v-195zM2118 283q170 70 170 184q0 59 -49 101t-121 42q-80 0 -125 -40t-45 -103q0 -108 170 -184zM2325 1071h-147v147h147v-147zM2057 1071h-148v147h148v-147z" />
    <glyph glyph-name="uniFC7F" unicode="&#xfc7f;" horiz-adv-x="2630" arabic-form="final" 
d="M1647 0h-7q-49 0 -152 61q-73 43 -97 43q-22 0 -37 -12t-15 -29t49 -60q70 -61 70 -99q0 -125 -216 -229.5t-531 -104.5q-294 0 -467.5 105t-173.5 305q0 99 47 235l159 -41q-32 -107 -32 -192q0 -110 106 -164t363 -54q250 0 410.5 50.5t160.5 113.5q0 18 -45 61
q-74 68 -74 115q0 77 66.5 136t159.5 59q60 0 158 -63q65 -41 91 -41h7v-195zM1554 -543h-127v127h127v-127zM1307 -543h-127v127h127v-127zM2632 0h-12q-116 0 -253.5 29.5t-227.5 76.5q-91 -47 -228.5 -76.5t-253.5 -29.5h-12v195h16q122 0 285 30q-68 37 -110 103.5
t-42 138.5q0 140 96 239t249 99q150 0 247 -98t97 -240q0 -72 -41.5 -137.5t-110.5 -104.5q134 -30 285 -30h16v-195zM2139 283q170 70 170 184q0 59 -49 101t-121 42q-80 0 -125 -40t-45 -103q0 -108 170 -184zM2346 1071h-147v147h147v-147zM2078 1071h-148v147h148v-147z
" />
    <glyph glyph-name="uniFC80" unicode="&#xfc80;" horiz-adv-x="1681" arabic-form="final" 
d="M561 0h-65q-179 0 -256.5 95t-77.5 300v1071h174v-1067q0 -204 151 -204h74v-195zM1683 0h-65q-100 0 -221 63.5t-240 180.5q-34 -119 -145 -181.5t-273 -62.5h-180v195h182q118 0 187 43.5t69 115.5q0 79 -90 189l-184 220q-54 65 -77.5 113.5t-23.5 100.5q0 81 66 141
t196 115l562 235v-190l-366 -149q-169 -68 -207 -87t-57 -36.5t-19 -34.5q0 -44 55 -113l240 -287q183 -218 302 -297t220 -79h69v-195z" />
    <glyph glyph-name="uniFC81" unicode="&#xfc81;" horiz-adv-x="2500" arabic-form="final" 
d="M1380 0h-4q-102 0 -168 29q-27 -257 -187 -376.5t-470 -119.5q-481 0 -481 406q0 89 22 202l164 -41q-12 -72 -12 -159q0 -110 70.5 -161.5t238.5 -51.5q254 0 371.5 95t117.5 353v1290h175v-1067q0 -204 151 -204h12v-195zM2502 0h-65q-100 0 -221 63.5t-240 180.5
q-34 -119 -145 -181.5t-273 -62.5h-180v195h182q118 0 187 43.5t69 115.5q0 79 -90 189l-184 220q-54 65 -77.5 113.5t-23.5 100.5q0 81 66 141t196 115l562 235v-190l-366 -149q-169 -68 -207 -87t-57 -36.5t-19 -34.5q0 -44 55 -113l240 -287q183 -218 302 -297t220 -79
h69v-195z" />
    <glyph glyph-name="uniFC82" unicode="&#xfc82;" horiz-adv-x="2433" arabic-form="final" 
d="M1313 0h-15q-90 0 -165.5 41.5t-110.5 112.5q-49 -77 -134 -115.5t-181 -38.5q-146 0 -211 55q-25 -29 -92 -50q-52 -16 -72 -34.5t-29.5 -54.5t-9.5 -88v-371h-174v385q0 160 41.5 230.5t142.5 109.5q72 28 86 86q59 245 148 356t225 111q100 0 187 -75t118 -193
q72 -272 231 -272h15v-195zM561 229q83 -34 156 -34q83 0 135.5 48.5t52.5 127.5q0 73 -41 121.5t-102 48.5q-65 0 -119 -84.5t-82 -227.5zM2435 0h-65q-100 0 -221 63.5t-240 180.5q-34 -119 -145 -181.5t-273 -62.5h-180v195h182q118 0 187 43.5t69 115.5q0 79 -90 189
l-184 220q-54 65 -77.5 113.5t-23.5 100.5q0 81 66 141t196 115l562 235v-190l-366 -149q-169 -68 -207 -87t-57 -36.5t-19 -34.5q0 -44 55 -113l240 -287q183 -218 302 -297t220 -79h69v-195z" />
    <glyph glyph-name="uniFC83" unicode="&#xfc83;" horiz-adv-x="2746" arabic-form="final" 
d="M1626 0h-6q-43 0 -127 34q-71 29 -102 29q-23 0 -37.5 -12t-14.5 -28q0 -18 49 -87q70 -101 70 -139q0 -125 -215.5 -237.5t-531.5 -112.5q-294 0 -467.5 105.5t-173.5 304.5q0 99 47 235l159 -41q-32 -107 -32 -192q0 -110 106 -163.5t363 -53.5q247 0 409 56t162 124
q0 18 -45 85q-74 109 -74 156q0 77 66 136t160 59q40 0 132 -35q71 -28 97 -28h6v-195zM2748 0h-65q-100 0 -221 63.5t-240 180.5q-34 -119 -145 -181.5t-273 -62.5h-180v195h182q118 0 187 43.5t69 115.5q0 79 -90 189l-184 220q-54 65 -77.5 113.5t-23.5 100.5
q0 81 66 141t196 115l562 235v-190l-366 -149q-169 -68 -207 -87t-57 -36.5t-19 -34.5q0 -44 55 -113l240 -287q183 -218 302 -297t220 -79h69v-195z" />
    <glyph glyph-name="uniFC84" unicode="&#xfc84;" horiz-adv-x="2767" arabic-form="final" 
d="M1647 0h-7q-49 0 -152 61q-73 43 -97 43q-22 0 -37 -12t-15 -29t49 -60q70 -61 70 -99q0 -125 -216 -229.5t-531 -104.5q-294 0 -467.5 105t-173.5 305q0 99 47 235l159 -41q-32 -107 -32 -192q0 -110 106 -164t363 -54q250 0 410.5 50.5t160.5 113.5q0 18 -45 61
q-74 68 -74 115q0 77 66.5 136t159.5 59q60 0 158 -63q65 -41 91 -41h7v-195zM1554 -543h-127v127h127v-127zM1307 -543h-127v127h127v-127zM2769 0h-65q-100 0 -221 63.5t-240 180.5q-34 -119 -145 -181.5t-273 -62.5h-180v195h182q118 0 187 43.5t69 115.5q0 79 -90 189
l-184 220q-54 65 -77.5 113.5t-23.5 100.5q0 81 66 141t196 115l562 235v-190l-366 -149q-169 -68 -207 -87t-57 -36.5t-19 -34.5q0 -44 55 -113l240 -287q183 -218 302 -297t220 -79h69v-195z" />
    <glyph glyph-name="uniFC85" unicode="&#xfc85;" horiz-adv-x="1811" arabic-form="final" 
d="M1313 0h-15q-90 0 -165.5 41.5t-110.5 112.5q-49 -77 -134 -115.5t-181 -38.5q-146 0 -211 55q-25 -29 -92 -50q-52 -16 -72 -34.5t-29.5 -54.5t-9.5 -88v-371h-174v385q0 160 41.5 230.5t142.5 109.5q72 28 86 86q59 245 148 356t225 111q100 0 187 -75t118 -193
q72 -272 231 -272h15v-195zM561 229q83 -34 156 -34q83 0 135.5 48.5t52.5 127.5q0 73 -41 121.5t-102 48.5q-65 0 -119 -84.5t-82 -227.5zM1813 0h-4q-170 0 -248 84q-78 -84 -246 -84h-4v195h12q152 0 152 204v1067h174v-1067q0 -204 151 -204h13v-195z" />
    <glyph glyph-name="uniFC86" unicode="&#xfc86;" horiz-adv-x="2124" arabic-form="final" 
d="M1626 0h-6q-43 0 -127 34q-71 29 -102 29q-23 0 -37.5 -12t-14.5 -28q0 -18 49 -87q70 -101 70 -139q0 -125 -215.5 -237.5t-531.5 -112.5q-294 0 -467.5 105.5t-173.5 304.5q0 99 47 235l159 -41q-32 -107 -32 -192q0 -110 106 -163.5t363 -53.5q247 0 409 56t162 124
q0 18 -45 85q-74 109 -74 156q0 77 66 136t160 59q40 0 132 -35q71 -28 97 -28h6v-195zM2126 0h-4q-170 0 -248 84q-78 -84 -246 -84h-4v195h12q152 0 152 204v1067h174v-1067q0 -204 151 -204h13v-195z" />
    <glyph glyph-name="uniFC87" unicode="&#xfc87;" horiz-adv-x="2145" arabic-form="final" 
d="M1647 0h-7q-49 0 -152 61q-73 43 -97 43q-22 0 -37 -12t-15 -29t49 -60q70 -61 70 -99q0 -125 -216 -229.5t-531 -104.5q-294 0 -467.5 105t-173.5 305q0 99 47 235l159 -41q-32 -107 -32 -192q0 -110 106 -164t363 -54q250 0 410.5 50.5t160.5 113.5q0 18 -45 61
q-74 68 -74 115q0 77 66.5 136t159.5 59q60 0 158 -63q65 -41 91 -41h7v-195zM1554 -543h-127v127h127v-127zM1307 -543h-127v127h127v-127zM2147 0h-4q-170 0 -248 84q-78 -84 -246 -84h-4v195h12q152 0 152 204v1067h174v-1067q0 -204 151 -204h13v-195z" />
    <glyph glyph-name="uniFC88" unicode="&#xfc88;" horiz-adv-x="1651" arabic-form="final" 
d="M561 0h-65q-179 0 -256.5 95t-77.5 300v1071h174v-1067q0 -204 151 -204h74v-195zM1653 0h-15q-91 0 -166 41.5t-110 112.5q-49 -77 -134 -115.5t-182 -38.5q-132 0 -215 82q-61 -82 -225 -82h-47v195h43q56 0 90 31.5t55 107.5q61 214 144.5 307.5t210.5 93.5
q110 0 191 -72t114 -196q72 -272 231 -272h15v-195zM903 252q77 -57 154 -57q83 0 135.5 48.5t52.5 127.5q0 73 -41.5 121.5t-101.5 48.5q-124 0 -199 -289z" />
    <glyph glyph-name="uniFC89" unicode="&#xfc89;" horiz-adv-x="2403" arabic-form="final" 
d="M1313 0h-15q-90 0 -165.5 41.5t-110.5 112.5q-49 -77 -134 -115.5t-181 -38.5q-146 0 -211 55q-25 -29 -92 -50q-52 -16 -72 -34.5t-29.5 -54.5t-9.5 -88v-371h-174v385q0 160 41.5 230.5t142.5 109.5q72 28 86 86q59 245 148 356t225 111q100 0 187 -75t118 -193
q72 -272 231 -272h15v-195zM561 229q83 -34 156 -34q83 0 135.5 48.5t52.5 127.5q0 73 -41 121.5t-102 48.5q-65 0 -119 -84.5t-82 -227.5zM2405 0h-15q-91 0 -166 41.5t-110 112.5q-49 -77 -134 -115.5t-182 -38.5q-132 0 -215 82q-61 -82 -225 -82h-47v195h43
q56 0 90 31.5t55 107.5q61 214 144.5 307.5t210.5 93.5q110 0 191 -72t114 -196q72 -272 231 -272h15v-195zM1655 252q77 -57 154 -57q83 0 135.5 48.5t52.5 127.5q0 73 -41.5 121.5t-101.5 48.5q-124 0 -199 -289z" />
    <glyph glyph-name="uniFC8A" unicode="&#xfc8a;" horiz-adv-x="1393" arabic-form="final" 
d="M895 0h-4q-121 0 -178 49q-44 -230 -222.5 -354.5t-445.5 -124.5q-71 0 -197 14l37 176q90 -16 162 -16q510 0 510 475q0 118 -53 270h192q23 -93 31 -172q12 -122 156 -122h12v-195zM1395 0h-4q-170 0 -248 84q-78 -84 -246 -84h-4v195h12q152 0 152 204v183h174v-183
q0 -204 151 -204h13v-195zM1233 848h-178v178h178v-178z" />
    <glyph glyph-name="uniFC8B" unicode="&#xfc8b;" horiz-adv-x="1393" arabic-form="final" 
d="M895 0h-4q-121 0 -178 49q-44 -230 -222.5 -354.5t-445.5 -124.5q-71 0 -197 14l37 176q90 -16 162 -16q510 0 510 475q0 118 -53 270h192q23 -93 31 -172q12 -122 156 -122h12v-195zM665 760h-178v178h178v-178zM1395 0h-4q-170 0 -248 84q-78 -84 -246 -84h-4v195h12
q152 0 152 204v183h174v-183q0 -204 151 -204h13v-195zM1233 848h-178v178h178v-178z" />
    <glyph glyph-name="uniFC8C" unicode="&#xfc8c;" horiz-adv-x="1811" arabic-form="final" 
d="M1313 0h-15q-90 0 -165.5 41.5t-110.5 112.5q-49 -77 -134 -115.5t-181 -38.5q-146 0 -211 55q-25 -29 -92 -50q-52 -16 -72 -34.5t-29.5 -54.5t-9.5 -88v-371h-174v385q0 160 41.5 230.5t142.5 109.5q72 28 86 86q59 245 148 356t225 111q100 0 187 -75t118 -193
q72 -272 231 -272h15v-195zM561 229q83 -34 156 -34q83 0 135.5 48.5t52.5 127.5q0 73 -41 121.5t-102 48.5q-65 0 -119 -84.5t-82 -227.5zM1813 0h-4q-170 0 -248 84q-78 -84 -246 -84h-4v195h12q152 0 152 204v183h174v-183q0 -204 151 -204h13v-195zM1651 848h-178v178
h178v-178z" />
    <glyph glyph-name="uniFC8D" unicode="&#xfc8d;" horiz-adv-x="1981" arabic-form="final" 
d="M1483 0h-15q-85 0 -141 47q-8 -237 -171 -375.5t-464 -138.5q-285 0 -448.5 128.5t-163.5 356.5q0 147 43 357l164 -41q-33 -184 -33 -314t111.5 -211t326.5 -81q461 0 461 422q0 36 -8 182l170 43q25 -180 153 -180h15v-195zM799 551h-178v178h178v-178zM1983 0h-4
q-170 0 -248 84q-78 -84 -246 -84h-4v195h12q152 0 152 204v183h174v-183q0 -204 151 -204h13v-195zM1821 848h-178v178h178v-178z" />
    <glyph glyph-name="uniFC8E" unicode="&#xfc8e;" horiz-adv-x="2124" arabic-form="final" 
d="M1626 0h-6q-43 0 -127 34q-71 29 -102 29q-23 0 -37.5 -12t-14.5 -28q0 -18 49 -87q70 -101 70 -139q0 -125 -215.5 -237.5t-531.5 -112.5q-294 0 -467.5 105.5t-173.5 304.5q0 99 47 235l159 -41q-32 -107 -32 -192q0 -110 106 -163.5t363 -53.5q247 0 409 56t162 124
q0 18 -45 85q-74 109 -74 156q0 77 66 136t160 59q40 0 132 -35q71 -28 97 -28h6v-195zM2126 0h-4q-170 0 -248 84q-78 -84 -246 -84h-4v195h12q152 0 152 204v183h174v-183q0 -204 151 -204h13v-195zM1964 848h-178v178h178v-178z" />
    <glyph glyph-name="uniFC8F" unicode="&#xfc8f;" horiz-adv-x="2145" arabic-form="final" 
d="M1647 0h-7q-49 0 -152 61q-73 43 -97 43q-22 0 -37 -12t-15 -29t49 -60q70 -61 70 -99q0 -125 -216 -229.5t-531 -104.5q-294 0 -467.5 105t-173.5 305q0 99 47 235l159 -41q-32 -107 -32 -192q0 -110 106 -164t363 -54q250 0 410.5 50.5t160.5 113.5q0 18 -45 61
q-74 68 -74 115q0 77 66.5 136t159.5 59q60 0 158 -63q65 -41 91 -41h7v-195zM1554 -543h-127v127h127v-127zM1307 -543h-127v127h127v-127zM2147 0h-4q-170 0 -248 84q-78 -84 -246 -84h-4v195h12q152 0 152 204v183h174v-183q0 -204 151 -204h13v-195zM1985 848h-178v178
h178v-178z" />
    <glyph glyph-name="uniFC90" unicode="&#xfc90;" horiz-adv-x="1624" arabic-form="final" 
d="M1626 0h-6q-43 0 -127 34q-71 29 -102 29q-23 0 -37.5 -12t-14.5 -28q0 -18 49 -87q70 -101 70 -139q0 -125 -215.5 -237.5t-531.5 -112.5q-294 0 -467.5 105.5t-173.5 304.5q0 99 47 235l159 -41q-32 -107 -32 -192q0 -110 106 -163.5t363 -53.5q247 0 409 56t162 124
q0 18 -45 85q-74 109 -74 156q0 77 66 136t160 59q40 0 132 -35q71 -28 97 -28h6v-195zM754 178h-94v438h94v-438zM707 66z" />
    <glyph glyph-name="uniFC91" unicode="&#xfc91;" horiz-adv-x="1393" arabic-form="final" 
d="M895 0h-4q-121 0 -178 49q-44 -230 -222.5 -354.5t-445.5 -124.5q-71 0 -197 14l37 176q90 -16 162 -16q510 0 510 475q0 118 -53 270h192q23 -93 31 -172q12 -122 156 -122h12v-195zM1395 0h-4q-170 0 -248 84q-78 -84 -246 -84h-4v195h12q152 0 152 204v183h174v-183
q0 -204 151 -204h13v-195zM1352 -287h-147v147h147v-147zM1084 -287h-148v147h148v-147z" />
    <glyph glyph-name="uniFC92" unicode="&#xfc92;" horiz-adv-x="1393" arabic-form="final" 
d="M895 0h-4q-121 0 -178 49q-44 -230 -222.5 -354.5t-445.5 -124.5q-71 0 -197 14l37 176q90 -16 162 -16q510 0 510 475q0 118 -53 270h192q23 -93 31 -172q12 -122 156 -122h12v-195zM665 760h-178v178h178v-178zM1395 0h-4q-170 0 -248 84q-78 -84 -246 -84h-4v195h12
q152 0 152 204v183h174v-183q0 -204 151 -204h13v-195zM1352 -287h-147v147h147v-147zM1084 -287h-148v147h148v-147z" />
    <glyph glyph-name="uniFC93" unicode="&#xfc93;" horiz-adv-x="1811" arabic-form="final" 
d="M1313 0h-15q-90 0 -165.5 41.5t-110.5 112.5q-49 -77 -134 -115.5t-181 -38.5q-146 0 -211 55q-25 -29 -92 -50q-52 -16 -72 -34.5t-29.5 -54.5t-9.5 -88v-371h-174v385q0 160 41.5 230.5t142.5 109.5q72 28 86 86q59 245 148 356t225 111q100 0 187 -75t118 -193
q72 -272 231 -272h15v-195zM561 229q83 -34 156 -34q83 0 135.5 48.5t52.5 127.5q0 73 -41 121.5t-102 48.5q-65 0 -119 -84.5t-82 -227.5zM1813 0h-4q-170 0 -248 84q-78 -84 -246 -84h-4v195h12q152 0 152 204v183h174v-183q0 -204 151 -204h13v-195zM1770 -287h-147v147
h147v-147zM1502 -287h-148v147h148v-147z" />
    <glyph glyph-name="uniFC94" unicode="&#xfc94;" horiz-adv-x="1981" arabic-form="final" 
d="M1483 0h-15q-85 0 -141 47q-8 -237 -171 -375.5t-464 -138.5q-285 0 -448.5 128.5t-163.5 356.5q0 147 43 357l164 -41q-33 -184 -33 -314t111.5 -211t326.5 -81q461 0 461 422q0 36 -8 182l170 43q25 -180 153 -180h15v-195zM799 551h-178v178h178v-178zM1983 0h-4
q-170 0 -248 84q-78 -84 -246 -84h-4v195h12q152 0 152 204v183h174v-183q0 -204 151 -204h13v-195zM1940 -287h-147v147h147v-147zM1672 -287h-148v147h148v-147z" />
    <glyph glyph-name="uniFC95" unicode="&#xfc95;" horiz-adv-x="2124" arabic-form="final" 
d="M1626 0h-6q-43 0 -127 34q-71 29 -102 29q-23 0 -37.5 -12t-14.5 -28q0 -18 49 -87q70 -101 70 -139q0 -125 -215.5 -237.5t-531.5 -112.5q-294 0 -467.5 105.5t-173.5 304.5q0 99 47 235l159 -41q-32 -107 -32 -192q0 -110 106 -163.5t363 -53.5q247 0 409 56t162 124
q0 18 -45 85q-74 109 -74 156q0 77 66 136t160 59q40 0 132 -35q71 -28 97 -28h6v-195zM2126 0h-4q-170 0 -248 84q-78 -84 -246 -84h-4v195h12q152 0 152 204v183h174v-183q0 -204 151 -204h13v-195zM2083 -287h-147v147h147v-147zM1815 -287h-148v147h148v-147z" />
    <glyph glyph-name="uniFC96" unicode="&#xfc96;" horiz-adv-x="2145" arabic-form="final" 
d="M1647 0h-7q-49 0 -152 61q-73 43 -97 43q-22 0 -37 -12t-15 -29t49 -60q70 -61 70 -99q0 -125 -216 -229.5t-531 -104.5q-294 0 -467.5 105t-173.5 305q0 99 47 235l159 -41q-32 -107 -32 -192q0 -110 106 -164t363 -54q250 0 410.5 50.5t160.5 113.5q0 18 -45 61
q-74 68 -74 115q0 77 66.5 136t159.5 59q60 0 158 -63q65 -41 91 -41h7v-195zM1554 -543h-127v127h127v-127zM1307 -543h-127v127h127v-127zM2147 0h-4q-170 0 -248 84q-78 -84 -246 -84h-4v195h12q152 0 152 204v183h174v-183q0 -204 151 -204h13v-195zM2104 -287h-147v147
h147v-147zM1836 -287h-148v147h148v-147z" />
    <glyph glyph-name="uniFC97" unicode="&#xfc97;" horiz-adv-x="1866" arabic-form="initial" 
d="M1307 0h-76q-160 0 -461 274q-177 -87 -247 -126t-203.5 -93.5t-237.5 -54.5h-84v195h90q62 0 155.5 29t318.5 140q302 150 403 158q-413 211 -684 211q-65 0 -152 -20l-33 190q78 25 164 25q109 0 250.5 -45.5t440.5 -214.5q197 -111 204 -111h6v-170q-104 0 -243 -49
q184 -143 309 -143h80v-195zM780 -287h-178v178h178v-178zM1704 395q0 -215 -82 -305t-252 -90h-65v195h74q151 0 151 204v183h174v-187zM1718 896l-272 -49v72l59 10q-78 33 -78 109q0 58 37 92.5t98 34.5q122 0 146 -109l-72 -6q-13 37 -72 37q-65 0 -65 -49
q0 -37 38.5 -60.5t96.5 -23.5l84 14v-72zM1590 720z" />
    <glyph glyph-name="uniFC98" unicode="&#xfc98;" horiz-adv-x="1866" arabic-form="initial" 
d="M1307 0h-76q-160 0 -461 274q-177 -87 -247 -126t-203.5 -93.5t-237.5 -54.5h-84v195h90q62 0 155.5 29t318.5 140q302 150 403 158q-413 211 -684 211q-65 0 -152 -20l-33 190q78 25 164 25q109 0 250.5 -45.5t440.5 -214.5q197 -111 204 -111h6v-170q-104 0 -243 -49
q184 -143 309 -143h80v-195zM1704 395q0 -215 -82 -305t-252 -90h-65v195h74q151 0 151 204v183h174v-187zM1718 896l-272 -49v72l59 10q-78 33 -78 109q0 58 37 92.5t98 34.5q122 0 146 -109l-72 -6q-13 37 -72 37q-65 0 -65 -49q0 -37 38.5 -60.5t96.5 -23.5l84 14v-72z
M1590 720z" />
    <glyph glyph-name="uniFC99" unicode="&#xfc99;" horiz-adv-x="1866" arabic-form="initial" 
d="M1307 0h-76q-160 0 -461 274q-177 -87 -247 -126t-203.5 -93.5t-237.5 -54.5h-84v195h90q62 0 155.5 29t318.5 140q302 150 403 158q-413 211 -684 211q-65 0 -152 -20l-33 190q78 25 164 25q109 0 250.5 -45.5t440.5 -214.5q197 -111 204 -111h6v-170q-104 0 -243 -49
q184 -143 309 -143h80v-195zM825 1075h-178v178h178v-178zM1704 395q0 -215 -82 -305t-252 -90h-65v195h74q151 0 151 204v183h174v-187zM1718 896l-272 -49v72l59 10q-78 33 -78 109q0 58 37 92.5t98 34.5q122 0 146 -109l-72 -6q-13 37 -72 37q-65 0 -65 -49
q0 -37 38.5 -60.5t96.5 -23.5l84 14v-72zM1590 720z" />
    <glyph glyph-name="uniFC9A" unicode="&#xfc9a;" horiz-adv-x="1651" arabic-form="initial" 
d="M1092 0h-15q-91 0 -166 41.5t-110 112.5q-49 -77 -134 -115.5t-182 -38.5q-132 0 -215 82q-61 -82 -225 -82h-47v195h43q56 0 90 31.5t55 107.5q61 214 144.5 307.5t210.5 93.5q110 0 191 -72t114 -196q72 -272 231 -272h15v-195zM342 252q77 -57 154 -57
q83 0 135.5 48.5t52.5 127.5q0 73 -41.5 121.5t-101.5 48.5q-124 0 -199 -289zM1489 395q0 -215 -82 -305t-252 -90h-65v195h74q151 0 151 204v183h174v-187zM1503 896l-272 -49v72l59 10q-78 33 -78 109q0 58 37 92.5t98 34.5q122 0 146 -109l-72 -6q-13 37 -72 37
q-65 0 -65 -49q0 -37 38.5 -60.5t96.5 -23.5l84 14v-72zM1375 720z" />
    <glyph glyph-name="uniFC9B" unicode="&#xfc9b;" horiz-adv-x="1390" arabic-form="initial" 
d="M831 0h-333q107 -31 177 -115t70 -159q0 -126 -67 -201.5t-176 -75.5q-128 0 -260.5 173t-132.5 382q-45 -4 -72 -4h-39v195h33q34 0 92 2q47 266 171.5 419.5t213.5 153.5q92 0 175 -98.5t83 -222.5q0 -82 -72.5 -155.5t-191.5 -98.5h329v-195zM301 205q125 24 215 96.5
t90 147.5q0 50 -34 88t-64 38q-44 0 -111 -102t-96 -268zM586 -274q0 71 -87 158.5t-216 119.5v-14q0 -112 73.5 -229t145.5 -117q84 0 84 82zM1228 395q0 -215 -82 -305t-252 -90h-65v195h74q151 0 151 204v183h174v-187zM1242 896l-272 -49v72l59 10q-78 33 -78 109
q0 58 37 92.5t98 34.5q122 0 146 -109l-72 -6q-13 37 -72 37q-65 0 -65 -49q0 -37 38.5 -60.5t96.5 -23.5l84 14v-72zM1114 720z" />
    <glyph glyph-name="uniFC9C" unicode="&#xfc9c;" horiz-adv-x="1866" arabic-form="initial" 
d="M1307 0h-76q-160 0 -461 274q-177 -87 -247 -126t-203.5 -93.5t-237.5 -54.5h-84v195h90q62 0 155.5 29t318.5 140q302 150 403 158q-413 211 -684 211q-65 0 -152 -20l-33 190q78 25 164 25q109 0 250.5 -45.5t440.5 -214.5q197 -111 204 -111h6v-170q-104 0 -243 -49
q184 -143 309 -143h80v-195zM780 -287h-178v178h178v-178zM1704 395q0 -215 -82 -305t-252 -90h-65v195h74q151 0 151 204v183h174v-187zM1645 -287h-178v178h178v-178z" />
    <glyph glyph-name="uniFC9D" unicode="&#xfc9d;" horiz-adv-x="1866" arabic-form="initial" 
d="M1307 0h-76q-160 0 -461 274q-177 -87 -247 -126t-203.5 -93.5t-237.5 -54.5h-84v195h90q62 0 155.5 29t318.5 140q302 150 403 158q-413 211 -684 211q-65 0 -152 -20l-33 190q78 25 164 25q109 0 250.5 -45.5t440.5 -214.5q197 -111 204 -111h6v-170q-104 0 -243 -49
q184 -143 309 -143h80v-195zM1704 395q0 -215 -82 -305t-252 -90h-65v195h74q151 0 151 204v183h174v-187zM1645 -287h-178v178h178v-178z" />
    <glyph glyph-name="uniFC9E" unicode="&#xfc9e;" horiz-adv-x="1866" arabic-form="initial" 
d="M1307 0h-76q-160 0 -461 274q-177 -87 -247 -126t-203.5 -93.5t-237.5 -54.5h-84v195h90q62 0 155.5 29t318.5 140q302 150 403 158q-413 211 -684 211q-65 0 -152 -20l-33 190q78 25 164 25q109 0 250.5 -45.5t440.5 -214.5q197 -111 204 -111h6v-170q-104 0 -243 -49
q184 -143 309 -143h80v-195zM825 1075h-178v178h178v-178zM1704 395q0 -215 -82 -305t-252 -90h-65v195h74q151 0 151 204v183h174v-187zM1645 -287h-178v178h178v-178z" />
    <glyph glyph-name="uniFC9F" unicode="&#xfc9f;" horiz-adv-x="1651" arabic-form="initial" 
d="M1092 0h-15q-91 0 -166 41.5t-110 112.5q-49 -77 -134 -115.5t-182 -38.5q-132 0 -215 82q-61 -82 -225 -82h-47v195h43q56 0 90 31.5t55 107.5q61 214 144.5 307.5t210.5 93.5q110 0 191 -72t114 -196q72 -272 231 -272h15v-195zM342 252q77 -57 154 -57
q83 0 135.5 48.5t52.5 127.5q0 73 -41.5 121.5t-101.5 48.5q-124 0 -199 -289zM1489 395q0 -215 -82 -305t-252 -90h-65v195h74q151 0 151 204v183h174v-187zM1430 -287h-178v178h178v-178z" />
    <glyph glyph-name="uniFCA0" unicode="&#xfca0;" horiz-adv-x="1390" arabic-form="initial" 
d="M831 0h-333q107 -31 177 -115t70 -159q0 -126 -67 -201.5t-176 -75.5q-128 0 -260.5 173t-132.5 382q-45 -4 -72 -4h-39v195h33q34 0 92 2q47 266 171.5 419.5t213.5 153.5q92 0 175 -98.5t83 -222.5q0 -82 -72.5 -155.5t-191.5 -98.5h329v-195zM301 205q125 24 215 96.5
t90 147.5q0 50 -34 88t-64 38q-44 0 -111 -102t-96 -268zM586 -274q0 71 -87 158.5t-216 119.5v-14q0 -112 73.5 -229t145.5 -117q84 0 84 82zM1228 395q0 -215 -82 -305t-252 -90h-65v195h74q151 0 151 204v183h174v-187zM1169 -287h-178v178h178v-178z" />
    <glyph glyph-name="uniFCA1" unicode="&#xfca1;" horiz-adv-x="1866" arabic-form="initial" 
d="M1307 0h-76q-160 0 -461 274q-177 -87 -247 -126t-203.5 -93.5t-237.5 -54.5h-84v195h90q62 0 155.5 29t318.5 140q302 150 403 158q-413 211 -684 211q-65 0 -152 -20l-33 190q78 25 164 25q109 0 250.5 -45.5t440.5 -214.5q197 -111 204 -111h6v-170q-104 0 -243 -49
q184 -143 309 -143h80v-195zM780 -287h-178v178h178v-178zM1704 395q0 -215 -82 -305t-252 -90h-65v195h74q151 0 151 204v183h174v-187zM1752 848h-147v147h147v-147zM1484 848h-148v147h148v-147z" />
    <glyph glyph-name="uniFCA2" unicode="&#xfca2;" horiz-adv-x="1866" arabic-form="initial" 
d="M1307 0h-76q-160 0 -461 274q-177 -87 -247 -126t-203.5 -93.5t-237.5 -54.5h-84v195h90q62 0 155.5 29t318.5 140q302 150 403 158q-413 211 -684 211q-65 0 -152 -20l-33 190q78 25 164 25q109 0 250.5 -45.5t440.5 -214.5q197 -111 204 -111h6v-170q-104 0 -243 -49
q184 -143 309 -143h80v-195zM1704 395q0 -215 -82 -305t-252 -90h-65v195h74q151 0 151 204v183h174v-187zM1752 848h-147v147h147v-147zM1484 848h-148v147h148v-147z" />
    <glyph glyph-name="uniFCA3" unicode="&#xfca3;" horiz-adv-x="1866" arabic-form="initial" 
d="M1307 0h-76q-160 0 -461 274q-177 -87 -247 -126t-203.5 -93.5t-237.5 -54.5h-84v195h90q62 0 155.5 29t318.5 140q302 150 403 158q-413 211 -684 211q-65 0 -152 -20l-33 190q78 25 164 25q109 0 250.5 -45.5t440.5 -214.5q197 -111 204 -111h6v-170q-104 0 -243 -49
q184 -143 309 -143h80v-195zM825 1075h-178v178h178v-178zM1704 395q0 -215 -82 -305t-252 -90h-65v195h74q151 0 151 204v183h174v-187zM1752 848h-147v147h147v-147zM1484 848h-148v147h148v-147z" />
    <glyph glyph-name="uniFCA4" unicode="&#xfca4;" horiz-adv-x="1651" arabic-form="initial" 
d="M1092 0h-15q-91 0 -166 41.5t-110 112.5q-49 -77 -134 -115.5t-182 -38.5q-132 0 -215 82q-61 -82 -225 -82h-47v195h43q56 0 90 31.5t55 107.5q61 214 144.5 307.5t210.5 93.5q110 0 191 -72t114 -196q72 -272 231 -272h15v-195zM342 252q77 -57 154 -57
q83 0 135.5 48.5t52.5 127.5q0 73 -41.5 121.5t-101.5 48.5q-124 0 -199 -289zM1489 395q0 -215 -82 -305t-252 -90h-65v195h74q151 0 151 204v183h174v-187zM1537 848h-147v147h147v-147zM1269 848h-148v147h148v-147z" />
    <glyph glyph-name="uniFCA5" unicode="&#xfca5;" horiz-adv-x="1390" arabic-form="initial" 
d="M831 0h-333q107 -31 177 -115t70 -159q0 -126 -67 -201.5t-176 -75.5q-128 0 -260.5 173t-132.5 382q-45 -4 -72 -4h-39v195h33q34 0 92 2q47 266 171.5 419.5t213.5 153.5q92 0 175 -98.5t83 -222.5q0 -82 -72.5 -155.5t-191.5 -98.5h329v-195zM301 205q125 24 215 96.5
t90 147.5q0 50 -34 88t-64 38q-44 0 -111 -102t-96 -268zM586 -274q0 71 -87 158.5t-216 119.5v-14q0 -112 73.5 -229t145.5 -117q84 0 84 82zM1228 395q0 -215 -82 -305t-252 -90h-65v195h74q151 0 151 204v183h174v-187zM1276 848h-147v147h147v-147zM1008 848h-148v147
h148v-147z" />
    <glyph glyph-name="uniFCA6" unicode="&#xfca6;" horiz-adv-x="1651" arabic-form="initial" 
d="M1092 0h-15q-91 0 -166 41.5t-110 112.5q-49 -77 -134 -115.5t-182 -38.5q-132 0 -215 82q-61 -82 -225 -82h-47v195h43q56 0 90 31.5t55 107.5q61 214 144.5 307.5t210.5 93.5q110 0 191 -72t114 -196q72 -272 231 -272h15v-195zM342 252q77 -57 154 -57
q83 0 135.5 48.5t52.5 127.5q0 73 -41.5 121.5t-101.5 48.5q-124 0 -199 -289zM1489 395q0 -215 -82 -305t-252 -90h-65v195h74q151 0 151 204v183h174v-187zM1402 1057h-148v147h148v-147zM1537 848h-147v147h147v-147zM1269 848h-148v147h148v-147z" />
    <glyph glyph-name="uniFCA7" unicode="&#xfca7;" horiz-adv-x="2630" arabic-form="initial" 
d="M1307 0h-76q-160 0 -461 274q-177 -87 -247 -126t-203.5 -93.5t-237.5 -54.5h-84v195h90q62 0 155.5 29t318.5 140q302 150 403 158q-413 211 -684 211q-65 0 -152 -20l-33 190q78 25 164 25q109 0 250.5 -45.5t440.5 -214.5q197 -111 204 -111h6v-170q-104 0 -243 -49
q184 -143 309 -143h80v-195zM2468 387q-84 0 -198 -34.5t-366 -165.5q-237 -123 -339 -155t-176 -32h-84v195h90q62 0 155.5 29t318.5 140q302 150 403 158q-413 211 -684 211q-65 0 -152 -20l-33 190q78 25 164 25q109 0 250.5 -45.5t440.5 -214.5q197 -111 204 -111h6
v-170zM2149 -164h-178v178h178v-178z" />
    <glyph glyph-name="uniFCA8" unicode="&#xfca8;" horiz-adv-x="2415" arabic-form="initial" 
d="M1092 0h-15q-91 0 -166 41.5t-110 112.5q-49 -77 -134 -115.5t-182 -38.5q-132 0 -215 82q-61 -82 -225 -82h-47v195h43q56 0 90 31.5t55 107.5q61 214 144.5 307.5t210.5 93.5q110 0 191 -72t114 -196q72 -272 231 -272h15v-195zM342 252q77 -57 154 -57
q83 0 135.5 48.5t52.5 127.5q0 73 -41.5 121.5t-101.5 48.5q-124 0 -199 -289zM2253 387q-84 0 -198 -34.5t-366 -165.5q-237 -123 -339 -155t-176 -32h-84v195h90q62 0 155.5 29t318.5 140q302 150 403 158q-413 211 -684 211q-65 0 -152 -20l-33 190q78 25 164 25
q109 0 250.5 -45.5t440.5 -214.5q197 -111 204 -111h6v-170zM1934 -164h-178v178h178v-178z" />
    <glyph glyph-name="uniFCA9" unicode="&#xfca9;" horiz-adv-x="2630" arabic-form="initial" 
d="M1307 0h-76q-160 0 -461 274q-177 -87 -247 -126t-203.5 -93.5t-237.5 -54.5h-84v195h90q62 0 155.5 29t318.5 140q302 150 403 158q-413 211 -684 211q-65 0 -152 -20l-33 190q78 25 164 25q109 0 250.5 -45.5t440.5 -214.5q197 -111 204 -111h6v-170q-104 0 -243 -49
q184 -143 309 -143h80v-195zM780 -287h-178v178h178v-178zM2468 387q-84 0 -198 -34.5t-366 -165.5q-237 -123 -339 -155t-176 -32h-84v195h90q62 0 155.5 29t318.5 140q302 150 403 158q-413 211 -684 211q-65 0 -152 -20l-33 190q78 25 164 25q109 0 250.5 -45.5
t440.5 -214.5q197 -111 204 -111h6v-170z" />
    <glyph glyph-name="uniFCAA" unicode="&#xfcaa;" horiz-adv-x="2415" arabic-form="initial" 
d="M1092 0h-15q-91 0 -166 41.5t-110 112.5q-49 -77 -134 -115.5t-182 -38.5q-132 0 -215 82q-61 -82 -225 -82h-47v195h43q56 0 90 31.5t55 107.5q61 214 144.5 307.5t210.5 93.5q110 0 191 -72t114 -196q72 -272 231 -272h15v-195zM342 252q77 -57 154 -57
q83 0 135.5 48.5t52.5 127.5q0 73 -41.5 121.5t-101.5 48.5q-124 0 -199 -289zM2253 387q-84 0 -198 -34.5t-366 -165.5q-237 -123 -339 -155t-176 -32h-84v195h90q62 0 155.5 29t318.5 140q302 150 403 158q-413 211 -684 211q-65 0 -152 -20l-33 190q78 25 164 25
q109 0 250.5 -45.5t440.5 -214.5q197 -111 204 -111h6v-170z" />
    <glyph glyph-name="uniFCAB" unicode="&#xfcab;" horiz-adv-x="2630" arabic-form="initial" 
d="M1307 0h-76q-160 0 -461 274q-177 -87 -247 -126t-203.5 -93.5t-237.5 -54.5h-84v195h90q62 0 155.5 29t318.5 140q302 150 403 158q-413 211 -684 211q-65 0 -152 -20l-33 190q78 25 164 25q109 0 250.5 -45.5t440.5 -214.5q197 -111 204 -111h6v-170q-104 0 -243 -49
q184 -143 309 -143h80v-195zM780 -287h-178v178h178v-178zM2468 387q-84 0 -198 -34.5t-366 -165.5q-237 -123 -339 -155t-176 -32h-84v195h90q62 0 155.5 29t318.5 140q302 150 403 158q-413 211 -684 211q-65 0 -152 -20l-33 190q78 25 164 25q109 0 250.5 -45.5
t440.5 -214.5q197 -111 204 -111h6v-170zM2134 1071h-178v178h178v-178z" />
    <glyph glyph-name="uniFCAC" unicode="&#xfcac;" horiz-adv-x="2415" arabic-form="initial" 
d="M1092 0h-15q-91 0 -166 41.5t-110 112.5q-49 -77 -134 -115.5t-182 -38.5q-132 0 -215 82q-61 -82 -225 -82h-47v195h43q56 0 90 31.5t55 107.5q61 214 144.5 307.5t210.5 93.5q110 0 191 -72t114 -196q72 -272 231 -272h15v-195zM342 252q77 -57 154 -57
q83 0 135.5 48.5t52.5 127.5q0 73 -41.5 121.5t-101.5 48.5q-124 0 -199 -289zM2253 387q-84 0 -198 -34.5t-366 -165.5q-237 -123 -339 -155t-176 -32h-84v195h90q62 0 155.5 29t318.5 140q302 150 403 158q-413 211 -684 211q-65 0 -152 -20l-33 190q78 25 164 25
q109 0 250.5 -45.5t440.5 -214.5q197 -111 204 -111h6v-170zM1919 1071h-178v178h178v-178z" />
    <glyph glyph-name="uniFCAD" unicode="&#xfcad;" horiz-adv-x="2884" arabic-form="initial" 
d="M1307 0h-76q-160 0 -461 274q-177 -87 -247 -126t-203.5 -93.5t-237.5 -54.5h-84v195h90q62 0 155.5 29t318.5 140q302 150 403 158q-413 211 -684 211q-65 0 -152 -20l-33 190q78 25 164 25q109 0 250.5 -45.5t440.5 -214.5q197 -111 204 -111h6v-170q-104 0 -243 -49
q184 -143 309 -143h80v-195zM780 -287h-178v178h178v-178zM2722 422q0 -205 -86 -313.5t-246 -108.5h-16q-174 0 -254 92q-34 -42 -104 -67t-113 -25q-148 0 -217 92q-83 -92 -242 -92h-139v195h135q152 0 152 204v183h174v-164q0 -117 29.5 -170t103.5 -53q72 0 103.5 51.5
t31.5 175.5v160h174v-156q0 -231 166 -231h16q158 0 158 231v283h174v-287z" />
    <glyph glyph-name="uniFCAE" unicode="&#xfcae;" horiz-adv-x="2884" arabic-form="initial" 
d="M1307 0h-76q-160 0 -461 274q-177 -87 -247 -126t-203.5 -93.5t-237.5 -54.5h-84v195h90q62 0 155.5 29t318.5 140q302 150 403 158q-413 211 -684 211q-65 0 -152 -20l-33 190q78 25 164 25q109 0 250.5 -45.5t440.5 -214.5q197 -111 204 -111h6v-170q-104 0 -243 -49
q184 -143 309 -143h80v-195zM2722 422q0 -205 -86 -313.5t-246 -108.5h-16q-174 0 -254 92q-34 -42 -104 -67t-113 -25q-148 0 -217 92q-83 -92 -242 -92h-139v195h135q152 0 152 204v183h174v-164q0 -117 29.5 -170t103.5 -53q72 0 103.5 51.5t31.5 175.5v160h174v-156
q0 -231 166 -231h16q158 0 158 231v283h174v-287z" />
    <glyph glyph-name="uniFCAF" unicode="&#xfcaf;" horiz-adv-x="2884" arabic-form="initial" 
d="M1307 0h-76q-160 0 -461 274q-177 -87 -247 -126t-203.5 -93.5t-237.5 -54.5h-84v195h90q62 0 155.5 29t318.5 140q302 150 403 158q-413 211 -684 211q-65 0 -152 -20l-33 190q78 25 164 25q109 0 250.5 -45.5t440.5 -214.5q197 -111 204 -111h6v-170q-104 0 -243 -49
q184 -143 309 -143h80v-195zM825 1075h-178v178h178v-178zM2722 422q0 -205 -86 -313.5t-246 -108.5h-16q-174 0 -254 92q-34 -42 -104 -67t-113 -25q-148 0 -217 92q-83 -92 -242 -92h-139v195h135q152 0 152 204v183h174v-164q0 -117 29.5 -170t103.5 -53q72 0 103.5 51.5
t31.5 175.5v160h174v-156q0 -231 166 -231h16q158 0 158 231v283h174v-287z" />
    <glyph glyph-name="uniFCB0" unicode="&#xfcb0;" horiz-adv-x="2669" arabic-form="initial" 
d="M1092 0h-15q-91 0 -166 41.5t-110 112.5q-49 -77 -134 -115.5t-182 -38.5q-132 0 -215 82q-61 -82 -225 -82h-47v195h43q56 0 90 31.5t55 107.5q61 214 144.5 307.5t210.5 93.5q110 0 191 -72t114 -196q72 -272 231 -272h15v-195zM342 252q77 -57 154 -57
q83 0 135.5 48.5t52.5 127.5q0 73 -41.5 121.5t-101.5 48.5q-124 0 -199 -289zM2507 422q0 -205 -86 -313.5t-246 -108.5h-16q-174 0 -254 92q-34 -42 -104 -67t-113 -25q-148 0 -217 92q-83 -92 -242 -92h-139v195h135q152 0 152 204v183h174v-164q0 -117 29.5 -170
t103.5 -53q72 0 103.5 51.5t31.5 175.5v160h174v-156q0 -231 166 -231h16q158 0 158 231v283h174v-287z" />
    <glyph glyph-name="uniFCB1" unicode="&#xfcb1;" horiz-adv-x="2980" arabic-form="initial" 
d="M1307 0h-76q-160 0 -461 274q-177 -87 -247 -126t-203.5 -93.5t-237.5 -54.5h-84v195h90q62 0 155.5 29t318.5 140q302 150 403 158q-413 211 -684 211q-65 0 -152 -20l-33 190q78 25 164 25q109 0 250.5 -45.5t440.5 -214.5q197 -111 204 -111h6v-170q-104 0 -243 -49
q184 -143 309 -143h80v-195zM1731 205q267 406 435 547t296 141q168 0 280.5 -118.5t112.5 -299.5q0 -219 -194 -347t-529 -128h-331q-168 0 -246 84q-78 -84 -246 -84h-4v195h12q152 0 152 204v101h174v-101q0 -159 88 -194zM1903 195h229q252 0 400.5 73.5t148.5 202.5
q0 92 -66 160.5t-153 68.5q-201 0 -559 -505z" />
    <glyph glyph-name="uniFCB2" unicode="&#xfcb2;" horiz-adv-x="2980" arabic-form="initial" 
d="M1307 0h-76q-160 0 -461 274q-177 -87 -247 -126t-203.5 -93.5t-237.5 -54.5h-84v195h90q62 0 155.5 29t318.5 140q302 150 403 158q-413 211 -684 211q-65 0 -152 -20l-33 190q78 25 164 25q109 0 250.5 -45.5t440.5 -214.5q197 -111 204 -111h6v-170q-104 0 -243 -49
q184 -143 309 -143h80v-195zM825 1075h-178v178h178v-178zM1731 205q267 406 435 547t296 141q168 0 280.5 -118.5t112.5 -299.5q0 -219 -194 -347t-529 -128h-331q-168 0 -246 84q-78 -84 -246 -84h-4v195h12q152 0 152 204v101h174v-101q0 -159 88 -194zM1903 195h229
q252 0 400.5 73.5t148.5 202.5q0 92 -66 160.5t-153 68.5q-201 0 -559 -505z" />
    <glyph glyph-name="uniFCB3" unicode="&#xfcb3;" horiz-adv-x="2765" arabic-form="initial" 
d="M1092 0h-15q-91 0 -166 41.5t-110 112.5q-49 -77 -134 -115.5t-182 -38.5q-132 0 -215 82q-61 -82 -225 -82h-47v195h43q56 0 90 31.5t55 107.5q61 214 144.5 307.5t210.5 93.5q110 0 191 -72t114 -196q72 -272 231 -272h15v-195zM342 252q77 -57 154 -57
q83 0 135.5 48.5t52.5 127.5q0 73 -41.5 121.5t-101.5 48.5q-124 0 -199 -289zM1516 205q267 406 435 547t296 141q168 0 280.5 -118.5t112.5 -299.5q0 -219 -194 -347t-529 -128h-331q-168 0 -246 84q-78 -84 -246 -84h-4v195h12q152 0 152 204v101h174v-101
q0 -159 88 -194zM1688 195h229q252 0 400.5 73.5t148.5 202.5q0 92 -66 160.5t-153 68.5q-201 0 -559 -505z" />
    <glyph glyph-name="uniFCB4" unicode="&#xfcb4;" horiz-adv-x="2980" arabic-form="initial" 
d="M1307 0h-76q-160 0 -461 274q-177 -87 -247 -126t-203.5 -93.5t-237.5 -54.5h-84v195h90q62 0 155.5 29t318.5 140q302 150 403 158q-413 211 -684 211q-65 0 -152 -20l-33 190q78 25 164 25q109 0 250.5 -45.5t440.5 -214.5q197 -111 204 -111h6v-170q-104 0 -243 -49
q184 -143 309 -143h80v-195zM780 -287h-178v178h178v-178zM1731 205q267 406 435 547t296 141q168 0 280.5 -118.5t112.5 -299.5q0 -219 -194 -347t-529 -128h-331q-168 0 -246 84q-78 -84 -246 -84h-4v195h12q152 0 152 204v101h174v-101q0 -159 88 -194zM1903 195h229
q252 0 400.5 73.5t148.5 202.5q0 92 -66 160.5t-153 68.5q-201 0 -559 -505zM1882 891h-178v178h178v-178z" />
    <glyph glyph-name="uniFCB5" unicode="&#xfcb5;" horiz-adv-x="2980" arabic-form="initial" 
d="M1307 0h-76q-160 0 -461 274q-177 -87 -247 -126t-203.5 -93.5t-237.5 -54.5h-84v195h90q62 0 155.5 29t318.5 140q302 150 403 158q-413 211 -684 211q-65 0 -152 -20l-33 190q78 25 164 25q109 0 250.5 -45.5t440.5 -214.5q197 -111 204 -111h6v-170q-104 0 -243 -49
q184 -143 309 -143h80v-195zM1731 205q267 406 435 547t296 141q168 0 280.5 -118.5t112.5 -299.5q0 -219 -194 -347t-529 -128h-331q-168 0 -246 84q-78 -84 -246 -84h-4v195h12q152 0 152 204v101h174v-101q0 -159 88 -194zM1903 195h229q252 0 400.5 73.5t148.5 202.5
q0 92 -66 160.5t-153 68.5q-201 0 -559 -505zM1882 891h-178v178h178v-178z" />
    <glyph glyph-name="uniFCB6" unicode="&#xfcb6;" horiz-adv-x="2980" arabic-form="initial" 
d="M1307 0h-76q-160 0 -461 274q-177 -87 -247 -126t-203.5 -93.5t-237.5 -54.5h-84v195h90q62 0 155.5 29t318.5 140q302 150 403 158q-413 211 -684 211q-65 0 -152 -20l-33 190q78 25 164 25q109 0 250.5 -45.5t440.5 -214.5q197 -111 204 -111h6v-170q-104 0 -243 -49
q184 -143 309 -143h80v-195zM825 1075h-178v178h178v-178zM1731 205q267 406 435 547t296 141q168 0 280.5 -118.5t112.5 -299.5q0 -219 -194 -347t-529 -128h-331q-168 0 -246 84q-78 -84 -246 -84h-4v195h12q152 0 152 204v101h174v-101q0 -159 88 -194zM1903 195h229
q252 0 400.5 73.5t148.5 202.5q0 92 -66 160.5t-153 68.5q-201 0 -559 -505zM1882 891h-178v178h178v-178z" />
    <glyph glyph-name="uniFCB7" unicode="&#xfcb7;" horiz-adv-x="2765" arabic-form="initial" 
d="M1092 0h-15q-91 0 -166 41.5t-110 112.5q-49 -77 -134 -115.5t-182 -38.5q-132 0 -215 82q-61 -82 -225 -82h-47v195h43q56 0 90 31.5t55 107.5q61 214 144.5 307.5t210.5 93.5q110 0 191 -72t114 -196q72 -272 231 -272h15v-195zM342 252q77 -57 154 -57
q83 0 135.5 48.5t52.5 127.5q0 73 -41.5 121.5t-101.5 48.5q-124 0 -199 -289zM1516 205q267 406 435 547t296 141q168 0 280.5 -118.5t112.5 -299.5q0 -219 -194 -347t-529 -128h-331q-168 0 -246 84q-78 -84 -246 -84h-4v195h12q152 0 152 204v101h174v-101
q0 -159 88 -194zM1688 195h229q252 0 400.5 73.5t148.5 202.5q0 92 -66 160.5t-153 68.5q-201 0 -559 -505zM1667 891h-178v178h178v-178z" />
    <glyph glyph-name="uniFCB8" unicode="&#xfcb8;" horiz-adv-x="2808" arabic-form="initial" 
d="M1307 0h-76q-160 0 -461 274q-177 -87 -247 -126t-203.5 -93.5t-237.5 -54.5h-84v195h90q62 0 155.5 29t318.5 140q302 150 403 158q-413 211 -684 211q-65 0 -152 -20l-33 190q78 25 164 25q109 0 250.5 -45.5t440.5 -214.5q197 -111 204 -111h6v-170q-104 0 -243 -49
q184 -143 309 -143h80v-195zM1643 330q376 563 647 563q168 0 280.5 -118.5t112.5 -299.5q0 -219 -194 -347t-529 -128h-655v195h164v1210h174v-1075zM1731 195h229q252 0 400.5 73.5t148.5 202.5q0 92 -65.5 160.5t-153.5 68.5q-201 0 -559 -505z" />
    <glyph glyph-name="uniFCB9" unicode="&#xfcb9;" horiz-adv-x="2593" arabic-form="initial" 
d="M1092 0h-15q-91 0 -166 41.5t-110 112.5q-49 -77 -134 -115.5t-182 -38.5q-132 0 -215 82q-61 -82 -225 -82h-47v195h43q56 0 90 31.5t55 107.5q61 214 144.5 307.5t210.5 93.5q110 0 191 -72t114 -196q72 -272 231 -272h15v-195zM342 252q77 -57 154 -57
q83 0 135.5 48.5t52.5 127.5q0 73 -41.5 121.5t-101.5 48.5q-124 0 -199 -289zM1428 330q376 563 647 563q168 0 280.5 -118.5t112.5 -299.5q0 -219 -194 -347t-529 -128h-655v195h164v1210h174v-1075zM1516 195h229q252 0 400.5 73.5t148.5 202.5q0 92 -65.5 160.5
t-153.5 68.5q-201 0 -559 -505zM1833 1016h-178v178h178v-178z" />
    <glyph glyph-name="uniFCBA" unicode="&#xfcba;" horiz-adv-x="2507" arabic-form="initial" 
d="M1307 0h-76q-160 0 -461 274q-177 -87 -247 -126t-203.5 -93.5t-237.5 -54.5h-84v195h90q62 0 155.5 29t318.5 140q302 150 403 158q-413 211 -684 211q-65 0 -152 -20l-33 190q78 25 164 25q109 0 250.5 -45.5t440.5 -214.5q197 -111 204 -111h6v-170q-104 0 -243 -49
q184 -143 309 -143h80v-195zM780 -287h-178v178h178v-178zM2380 205q-276 -91 -577 -148t-498 -57v195q135 0 346 28q-93 55 -150 154.5t-57 204.5q0 191 122.5 308.5t322.5 117.5q377 0 444 -328l-180 -23q-36 156 -264 156q-120 0 -195.5 -63.5t-75.5 -167.5
q0 -102 66 -189.5t178 -132.5q212 44 518 139v-194z" />
    <glyph glyph-name="uniFCBB" unicode="&#xfcbb;" horiz-adv-x="2292" arabic-form="initial" 
d="M1092 0h-15q-91 0 -166 41.5t-110 112.5q-49 -77 -134 -115.5t-182 -38.5q-132 0 -215 82q-61 -82 -225 -82h-47v195h43q56 0 90 31.5t55 107.5q61 214 144.5 307.5t210.5 93.5q110 0 191 -72t114 -196q72 -272 231 -272h15v-195zM342 252q77 -57 154 -57
q83 0 135.5 48.5t52.5 127.5q0 73 -41.5 121.5t-101.5 48.5q-124 0 -199 -289zM2165 205q-276 -91 -577 -148t-498 -57v195q135 0 346 28q-93 55 -150 154.5t-57 204.5q0 191 122.5 308.5t322.5 117.5q377 0 444 -328l-180 -23q-36 156 -264 156q-120 0 -195.5 -63.5
t-75.5 -167.5q0 -102 66 -189.5t178 -132.5q212 44 518 139v-194z" />
    <glyph glyph-name="uniFCBC" unicode="&#xfcbc;" horiz-adv-x="2507" arabic-form="initial" 
d="M1307 0h-76q-160 0 -461 274q-177 -87 -247 -126t-203.5 -93.5t-237.5 -54.5h-84v195h90q62 0 155.5 29t318.5 140q302 150 403 158q-413 211 -684 211q-65 0 -152 -20l-33 190q78 25 164 25q109 0 250.5 -45.5t440.5 -214.5q197 -111 204 -111h6v-170q-104 0 -243 -49
q184 -143 309 -143h80v-195zM780 -287h-178v178h178v-178zM2380 205q-276 -91 -577 -148t-498 -57v195q135 0 346 28q-93 55 -150 154.5t-57 204.5q0 191 122.5 308.5t322.5 117.5q377 0 444 -328l-180 -23q-36 156 -264 156q-120 0 -195.5 -63.5t-75.5 -167.5
q0 -102 66 -189.5t178 -132.5q212 44 518 139v-194zM1931 1288h-178v178h178v-178z" />
    <glyph glyph-name="uniFCBD" unicode="&#xfcbd;" horiz-adv-x="2292" arabic-form="initial" 
d="M1092 0h-15q-91 0 -166 41.5t-110 112.5q-49 -77 -134 -115.5t-182 -38.5q-132 0 -215 82q-61 -82 -225 -82h-47v195h43q56 0 90 31.5t55 107.5q61 214 144.5 307.5t210.5 93.5q110 0 191 -72t114 -196q72 -272 231 -272h15v-195zM342 252q77 -57 154 -57
q83 0 135.5 48.5t52.5 127.5q0 73 -41.5 121.5t-101.5 48.5q-124 0 -199 -289zM2165 205q-276 -91 -577 -148t-498 -57v195q135 0 346 28q-93 55 -150 154.5t-57 204.5q0 191 122.5 308.5t322.5 117.5q377 0 444 -328l-180 -23q-36 156 -264 156q-120 0 -195.5 -63.5
t-75.5 -167.5q0 -102 66 -189.5t178 -132.5q212 44 518 139v-194zM1716 1288h-178v178h178v-178z" />
    <glyph glyph-name="uniFCBE" unicode="&#xfcbe;" horiz-adv-x="2261" arabic-form="initial" 
d="M1307 0h-76q-160 0 -461 274q-177 -87 -247 -126t-203.5 -93.5t-237.5 -54.5h-84v195h90q62 0 155.5 29t318.5 140q302 150 403 158q-413 211 -684 211q-65 0 -152 -20l-33 190q78 25 164 25q109 0 250.5 -45.5t440.5 -214.5q197 -111 204 -111h6v-170q-104 0 -243 -49
q184 -143 309 -143h80v-195zM780 -287h-178v178h178v-178zM1930 426q-75 -23 -111 -23q-159 0 -266 95.5t-107 275.5q0 149 98.5 257t219.5 108q141 0 255.5 -158.5t114.5 -392.5q0 -277 -219.5 -432.5t-609.5 -155.5v195q268 0 412.5 54t212.5 177zM1956 621q0 119 -59 221
t-133 102q-61 0 -102.5 -48t-41.5 -122q0 -80 53 -128t136 -48q66 0 147 23zM1809 1405h-178v178h178v-178z" />
    <glyph glyph-name="uniFCBF" unicode="&#xfcbf;" horiz-adv-x="2261" arabic-form="initial" 
d="M1307 0h-76q-160 0 -461 274q-177 -87 -247 -126t-203.5 -93.5t-237.5 -54.5h-84v195h90q62 0 155.5 29t318.5 140q302 150 403 158q-413 211 -684 211q-65 0 -152 -20l-33 190q78 25 164 25q109 0 250.5 -45.5t440.5 -214.5q197 -111 204 -111h6v-170q-104 0 -243 -49
q184 -143 309 -143h80v-195zM1930 426q-75 -23 -111 -23q-159 0 -266 95.5t-107 275.5q0 149 98.5 257t219.5 108q141 0 255.5 -158.5t114.5 -392.5q0 -277 -219.5 -432.5t-609.5 -155.5v195q268 0 412.5 54t212.5 177zM1956 621q0 119 -59 221t-133 102q-61 0 -102.5 -48
t-41.5 -122q0 -80 53 -128t136 -48q66 0 147 23zM1809 1405h-178v178h178v-178z" />
    <glyph glyph-name="uniFCC0" unicode="&#xfcc0;" horiz-adv-x="2261" arabic-form="initial" 
d="M1307 0h-76q-160 0 -461 274q-177 -87 -247 -126t-203.5 -93.5t-237.5 -54.5h-84v195h90q62 0 155.5 29t318.5 140q302 150 403 158q-413 211 -684 211q-65 0 -152 -20l-33 190q78 25 164 25q109 0 250.5 -45.5t440.5 -214.5q197 -111 204 -111h6v-170q-104 0 -243 -49
q184 -143 309 -143h80v-195zM825 1075h-178v178h178v-178zM1930 426q-75 -23 -111 -23q-159 0 -266 95.5t-107 275.5q0 149 98.5 257t219.5 108q141 0 255.5 -158.5t114.5 -392.5q0 -277 -219.5 -432.5t-609.5 -155.5v195q268 0 412.5 54t212.5 177zM1956 621q0 119 -59 221
t-133 102q-61 0 -102.5 -48t-41.5 -122q0 -80 53 -128t136 -48q66 0 147 23zM1809 1405h-178v178h178v-178z" />
    <glyph glyph-name="uniFCC1" unicode="&#xfcc1;" horiz-adv-x="2046" arabic-form="initial" 
d="M1092 0h-15q-91 0 -166 41.5t-110 112.5q-49 -77 -134 -115.5t-182 -38.5q-132 0 -215 82q-61 -82 -225 -82h-47v195h43q56 0 90 31.5t55 107.5q61 214 144.5 307.5t210.5 93.5q110 0 191 -72t114 -196q72 -272 231 -272h15v-195zM342 252q77 -57 154 -57
q83 0 135.5 48.5t52.5 127.5q0 73 -41.5 121.5t-101.5 48.5q-124 0 -199 -289zM1715 426q-75 -23 -111 -23q-159 0 -266 95.5t-107 275.5q0 149 98.5 257t219.5 108q141 0 255.5 -158.5t114.5 -392.5q0 -277 -219.5 -432.5t-609.5 -155.5v195q268 0 412.5 54t212.5 177z
M1741 621q0 119 -59 221t-133 102q-61 0 -102.5 -48t-41.5 -122q0 -80 53 -128t136 -48q66 0 147 23zM1594 1405h-178v178h178v-178z" />
    <glyph glyph-name="uniFCC2" unicode="&#xfcc2;" horiz-adv-x="2261" arabic-form="initial" 
d="M1307 0h-76q-160 0 -461 274q-177 -87 -247 -126t-203.5 -93.5t-237.5 -54.5h-84v195h90q62 0 155.5 29t318.5 140q302 150 403 158q-413 211 -684 211q-65 0 -152 -20l-33 190q78 25 164 25q109 0 250.5 -45.5t440.5 -214.5q197 -111 204 -111h6v-170q-104 0 -243 -49
q184 -143 309 -143h80v-195zM1930 426q-75 -23 -111 -23q-159 0 -266 95.5t-107 275.5q0 149 98.5 257t219.5 108q141 0 255.5 -158.5t114.5 -392.5q0 -277 -219.5 -432.5t-609.5 -155.5v195q268 0 412.5 54t212.5 177zM1956 621q0 119 -59 221t-133 102q-61 0 -102.5 -48
t-41.5 -122q0 -80 53 -128t136 -48q66 0 147 23zM1928 1405h-147v147h147v-147zM1660 1405h-148v147h148v-147z" />
    <glyph glyph-name="uniFCC3" unicode="&#xfcc3;" horiz-adv-x="2046" arabic-form="initial" 
d="M1092 0h-15q-91 0 -166 41.5t-110 112.5q-49 -77 -134 -115.5t-182 -38.5q-132 0 -215 82q-61 -82 -225 -82h-47v195h43q56 0 90 31.5t55 107.5q61 214 144.5 307.5t210.5 93.5q110 0 191 -72t114 -196q72 -272 231 -272h15v-195zM342 252q77 -57 154 -57
q83 0 135.5 48.5t52.5 127.5q0 73 -41.5 121.5t-101.5 48.5q-124 0 -199 -289zM1715 426q-75 -23 -111 -23q-159 0 -266 95.5t-107 275.5q0 149 98.5 257t219.5 108q141 0 255.5 -158.5t114.5 -392.5q0 -277 -219.5 -432.5t-609.5 -155.5v195q268 0 412.5 54t212.5 177z
M1741 621q0 119 -59 221t-133 102q-61 0 -102.5 -48t-41.5 -122q0 -80 53 -128t136 -48q66 0 147 23zM1713 1405h-147v147h147v-147zM1445 1405h-148v147h148v-147z" />
    <glyph glyph-name="uniFCC4" unicode="&#xfcc4;" horiz-adv-x="2192" arabic-form="initial" 
d="M1307 0h-76q-160 0 -461 274q-177 -87 -247 -126t-203.5 -93.5t-237.5 -54.5h-84v195h90q62 0 155.5 29t318.5 140q302 150 403 158q-413 211 -684 211q-65 0 -152 -20l-33 190q78 25 164 25q109 0 250.5 -45.5t440.5 -214.5q197 -111 204 -111h6v-170q-104 0 -243 -49
q184 -143 309 -143h80v-195zM780 -287h-178v178h178v-178zM2192 1278l-366 -149q-169 -68 -207 -87t-57 -36.5t-19 -34.5q0 -45 83 -148l181 -216q57 -68 83.5 -131.5t26.5 -127.5q0 -166 -116.5 -257t-315.5 -91h-180v195h182q118 0 187 43.5t69 115.5q0 79 -90 189
l-184 220q-54 65 -77.5 113.5t-23.5 100.5q0 81 66 141t196 115l562 235v-190z" />
    </font>
</defs>
</svg>
