<?xml version="1.0" standalone="no"?>
<!DOCTYPE svg PUBLIC "-//W3C//DTD SVG 1.1//EN" "http://www.w3.org/Graphics/SVG/1.1/DTD/svg11.dtd" >
<svg>
<metadata>
Created by FontForge 20090622 at Thu Apr 19 09:31:27 2018
 By deploy user
Copyright 1990-2001 Bitstream Inc. All rights reserved.
</metadata>
<defs>
<font id="BodoniBT-Bold" horiz-adv-x="1024" >
  <font-face 
    font-family="Bodoni Bd BT"
    font-weight="400"
    font-stretch="normal"
    units-per-em="2048"
    panose-1="2 7 8 3 8 7 6 2 3 3"
    ascent="1556"
    descent="-492"
    x-height="799"
    cap-height="1331"
    bbox="-342 -483 2654 1939"
    underline-thickness="172"
    underline-position="-137"
    unicode-range="U+0020-U+F002"
  />
<missing-glyph horiz-adv-x="1229" 
d="M102 -362v1806h1024v-1806h-1024zM217 -248h795v1577h-795v-1577z" />
    <glyph glyph-name=".notdef" horiz-adv-x="1229" 
d="M102 -362v1806h1024v-1806h-1024zM217 -248h795v1577h-795v-1577z" />
    <glyph glyph-name=".null" horiz-adv-x="0" 
 />
    <glyph glyph-name="nonmarkingreturn" horiz-adv-x="618" 
 />
    <glyph glyph-name="space" unicode=" " horiz-adv-x="618" 
 />
    <glyph glyph-name="exclam" unicode="!" horiz-adv-x="674" 
d="M498 139q0 -66 -47.5 -112.5t-114.5 -46.5q-66 0 -113 46.5t-47 112.5q0 67 47 114.5t113 47.5q67 0 114.5 -47.5t47.5 -114.5zM309 440v33q0 109 -10.5 200.5t-32.5 178.5q-8 35 -48 143.5t-40 175.5q0 88 42.5 137.5t117.5 49.5q74 0 116 -48t42 -132q0 -71 -52 -219
q-24 -70 -34 -107q-24 -78 -34.5 -176.5t-10.5 -235.5h-56z" />
    <glyph glyph-name="quotedbl" unicode="&#x22;" horiz-adv-x="707" 
d="M543 852h-41l-80 461q-2 12 -3 21t-1 16q0 53 28 83.5t76 30.5q49 0 77 -29.5t28 -80.5q0 -6 -1 -15l-3 -26zM203 852h-41l-80 461q-1 7 -1.5 14.5t-0.5 22.5q0 52 28 83t74 31q48 0 75.5 -29t27.5 -81q0 -16 -0.5 -24.5t-1.5 -16.5z" />
    <glyph glyph-name="numbersign" unicode="#" horiz-adv-x="1575" 
d="M705 852l-91 -252h265l88 252h-262zM711 1464h215l-148 -415h254l150 415h213l-148 -415h283l-74 -199h-278l-88 -248h292l-71 -196h-291l-148 -416h-215l148 416h-254l-150 -416h-215l148 416h-289l74 196h287l88 248h-304l74 199h299z" />
    <glyph glyph-name="dollar" unicode="$" horiz-adv-x="1237" 
d="M467 877v389q-90 -25 -139 -80.5t-49 -132.5q0 -65 45 -107.5t143 -68.5zM530 858l168 -37v465q-22 2 -36.5 3t-26.5 1q-26 0 -52 -2.5t-52 -7.5zM467 55v516q-149 34 -229 130t-80 241q0 135 83 238.5t226 144.5v115h63v-100q31 5 56.5 7.5t48.5 2.5q11 0 25.5 -1
t37.5 -3v94h64v-101q138 -29 216.5 -104.5t78.5 -175.5q0 -59 -32.5 -94t-86.5 -35q-57 0 -89 29.5t-32 82.5q0 64 45 102t45 48q0 25 -39 48.5t-106 37.5v-471q176 -46 264 -140t88 -237q0 -166 -89.5 -273t-262.5 -147v-200h-64v190q-51 -5 -80 -6.5t-57 -1.5h-31v-182
h-63v184q-177 15 -263.5 88t-86.5 207q0 79 41 124.5t112 45.5q60 0 92.5 -35.5t32.5 -101.5q0 -42 -14.5 -68t-52.5 -51q-8 -5 -25 -14q-33 -16 -33 -33q0 -31 56.5 -61t140.5 -40zM762 68q109 27 164 85.5t55 147.5q0 74 -53 122.5t-166 76.5v-432zM530 49q54 0 95 2t73 6
v459l-168 39v-506z" />
    <glyph glyph-name="percent" unicode="%" horiz-adv-x="1942" 
d="M1348 182q0 -61 29 -93t85 -32q57 0 114 41.5t110 120.5q44 67 69 149.5t25 163.5q0 75 -29.5 116.5t-81.5 41.5q-41 0 -80 -32t-86 -105q-69 -108 -112 -214.5t-43 -156.5zM1401 -10q-131 0 -207 73.5t-76 200.5q0 72 30 151t87 154q73 97 166 151t186 54
q114 0 180 -68.5t66 -187.5q0 -94 -37.5 -194t-103.5 -183q-64 -77 -135 -114t-156 -37zM768 1159q-36 14 -66.5 36t-56.5 52q-47 -7 -86 -43.5t-92 -128.5q-62 -108 -95.5 -198t-33.5 -146q0 -47 31.5 -76.5t81.5 -29.5q60 0 120 42.5t115 125.5q43 66 65.5 139t22.5 147
q0 21 -1.5 40.5t-4.5 39.5zM510 -63l719 1265q-59 -44 -126.5 -65t-148.5 -21q-29 0 -62 4.5t-71 13.5q1 -9 1.5 -20.5t0.5 -34.5q0 -90 -26 -172t-78 -157q-65 -94 -148 -143.5t-174 -49.5q-128 0 -208 74t-80 194q0 97 40.5 190t120.5 179q66 72 145.5 109.5t164.5 37.5
q82 0 136 -32.5t85 -100.5q45 -19 83 -28t74 -9q124 0 217 53t168 165h99l-830 -1452h-102z" />
    <glyph glyph-name="ampersand" unicode="&#x26;" horiz-adv-x="1567" 
d="M1001 0l-71 109q-96 -72 -209 -108t-242 -36q-190 0 -299.5 96.5t-109.5 262.5q0 148 104.5 259t310.5 183q-47 70 -72.5 143t-25.5 140q0 131 108.5 219t274.5 88q177 0 281 -69t104 -185q0 -96 -80 -166t-239 -115l288 -418q62 84 97.5 162t35.5 127q0 37 -20.5 50.5
t-83.5 13.5h-92v61h469v-61h-64q-58 0 -87 -20t-56 -91q-40 -106 -77 -172.5t-85 -122.5l199 -287h166v-63h-525zM799 870q68 31 97.5 86.5t29.5 157.5q0 91 -37.5 134.5t-114.5 43.5q-71 0 -109 -27t-38 -77q0 -46 24.5 -99t87.5 -139zM518 717q-76 -31 -112.5 -76.5
t-36.5 -108.5q0 -52 30.5 -128.5t92.5 -176.5q41 -66 95.5 -103.5t108.5 -37.5q46 0 97.5 21.5t97.5 60.5z" />
    <glyph glyph-name="quotesingle" unicode="'" horiz-adv-x="365" 
d="M203 852h-41l-80 461q-2 12 -3 21t-1 16q0 53 28 83.5t76 30.5t75.5 -29t27.5 -81q0 -16 -0.5 -24.5t-1.5 -16.5z" />
    <glyph glyph-name="parenleft" unicode="(" horiz-adv-x="758" 
d="M653 -471q-265 224 -393.5 449t-128.5 466t128 465t394 449v-45q-134 -129 -199 -301t-65 -400v-338q0 -227 65 -398t199 -300v-47z" />
    <glyph glyph-name="parenright" unicode=")" horiz-adv-x="758" 
d="M102 -471v47q134 128 198.5 298.5t64.5 399.5v338q0 230 -64.5 401.5t-198.5 299.5v45q267 -225 395 -449t128 -465t-128.5 -466t-394.5 -449z" />
    <glyph glyph-name="asterisk" unicode="*" 
d="M496 954q0 87 -46.5 185.5t-46.5 120.5q0 45 29 71.5t80 26.5q49 0 79 -28t30 -73q0 -21 -45.5 -117t-48.5 -183q38 18 74.5 53.5t68.5 85.5l12 18q56 86 117 86q39 0 71.5 -36.5t32.5 -80.5q0 -40 -30.5 -70t-71.5 -30q-78 0 -143 -14t-113 -41q43 -27 96.5 -40.5
t114.5 -13.5q71 0 109 -26.5t38 -77.5q0 -45 -33 -81t-75 -36q-55 0 -116 93q-6 9 -9 13q-33 51 -67.5 85t-74.5 55q0 -86 46.5 -183.5t46.5 -119.5q0 -47 -28.5 -72.5t-80.5 -25.5q-50 0 -79.5 27t-29.5 73q0 22 45.5 117t49.5 182q-40 -19 -76.5 -53.5t-67.5 -83.5
l-13 -21q-56 -86 -116 -86q-39 0 -71.5 36.5t-32.5 80.5q0 41 30.5 70.5t71.5 29.5q78 0 143 14t113 42q-45 27 -98.5 41t-112.5 14q-72 0 -109.5 26t-37.5 76q0 46 33 81.5t75 35.5q56 0 118 -93l7 -11q34 -52 68.5 -86.5t73.5 -55.5z" />
    <glyph glyph-name="plus" unicode="+" horiz-adv-x="1706" 
d="M752 1221h202v-510h498v-199h-498v-512h-202v512h-498v199h498v510z" />
    <glyph glyph-name="comma" unicode="," horiz-adv-x="618" 
d="M221 -324q103 76 156 153t53 151q0 48 -7.5 69t-25.5 21l-38.5 -49.5t-96.5 -49.5q-65 0 -101 39t-36 109q0 79 49.5 129.5t128.5 50.5q99 0 163 -71.5t64 -182.5q0 -116 -68 -218t-206 -194z" />
    <glyph glyph-name="hyphen" unicode="-" horiz-adv-x="770" 
d="M121 279v247h526v-247h-526z" />
    <glyph glyph-name="period" unicode="." horiz-adv-x="618" 
d="M145 141q0 68 48.5 116t115.5 48t114.5 -48t47.5 -116q0 -66 -47.5 -113.5t-114.5 -47.5t-115.5 47.5t-48.5 113.5z" />
    <glyph glyph-name="slash" unicode="/" horiz-adv-x="559" 
d="M59 -190h-112l499 1548h113z" />
    <glyph glyph-name="zero" unicode="0" horiz-adv-x="1237" 
d="M82 670q0 146 38 271.5t109 217.5q80 102 177.5 153.5t211.5 51.5q113 0 211 -53t177 -156q74 -96 112.5 -222t38.5 -271q0 -142 -39.5 -260.5t-120.5 -221.5q-79 -100 -176 -153.5t-203 -53.5q-103 0 -201 51.5t-173 145.5q-77 97 -119.5 228t-42.5 272zM618 1303
q-64 0 -103 -25.5t-54 -77.5q-17 -55 -24 -171.5t-7 -420.5v-49q0 -359 39 -441.5t149 -82.5q112 0 151.5 85t39.5 466v26q0 217 -3 345.5t-9 168.5q-16 95 -57.5 136t-121.5 41z" />
    <glyph glyph-name="one" unicode="1" horiz-adv-x="1237" 
d="M217 0v61h256v1160q0 37 -21 48t-118 11h-111l1 51q106 2 224 10t254 23h70v-1303h240v-61h-795z" />
    <glyph glyph-name="two" unicode="2" horiz-adv-x="1237" 
d="M78 0v184l368 287q151 117 220 235t69 259q0 150 -72 233.5t-202 83.5q-87 0 -159.5 -49.5t-72.5 -91.5q0 -13 9.5 -19t29.5 -6h13q80 0 126 -38.5t46 -106.5q0 -66 -40 -106t-106 -40q-82 0 -132 56t-50 147q0 145 134.5 240.5t344.5 95.5q221 0 348 -94.5t127 -257.5
q0 -130 -95 -249t-308 -253l-371 -231v-15h588q56 0 78 15.5t26 56.5l13 117h65l-20 -453h-977z" />
    <glyph glyph-name="three" unicode="3" horiz-adv-x="1237" 
d="M647 727q229 -31 338 -115t109 -229q0 -182 -161.5 -295t-428.5 -113q-179 0 -292.5 75t-113.5 188q0 76 41 120.5t109 44.5q69 0 113.5 -40t44.5 -101q0 -70 -55.5 -115t-55.5 -51q0 -24 53 -41.5t133 -17.5q131 0 195.5 80t64.5 241q0 171 -77.5 251.5t-241.5 80.5
q-20 0 -49.5 -2t-38.5 -2q-21 0 -32 9.5t-11 27.5q0 17 12 27t33 10q5 0 27 -2t38 -2q154 0 221.5 71.5t67.5 235.5q0 130 -43 183.5t-145 53.5q-59 0 -98 -14.5t-39 -34.5q0 -6 20 -21q70 -53 70 -120q0 -66 -39 -104.5t-105 -38.5q-59 0 -95 38.5t-36 100.5
q0 113 105.5 184.5t275.5 71.5q205 0 330 -84t125 -219q0 -115 -95 -196.5t-274 -119.5v-16z" />
    <glyph glyph-name="four" unicode="4" horiz-adv-x="1237" 
d="M590 436l8 684h-8q-154 -195 -278 -370t-206 -314h484zM401 0v61h179v312h-533v86q189 291 357.5 519.5t310.5 385.5h174v-928h219v152h45v-361h-45v146h-219v-312h158v-61h-646z" />
    <glyph glyph-name="five" unicode="5" horiz-adv-x="1237" 
d="M262 745q77 31 152.5 46.5t150.5 15.5q242 0 387.5 -110.5t145.5 -293.5q0 -202 -161.5 -317t-447.5 -115q-171 0 -279 75t-108 192q0 69 42 113t108 44q67 0 109 -40.5t42 -104.5q0 -63 -50 -107.5t-50 -50.5q0 -26 47.5 -45.5t118.5 -19.5q143 0 207.5 81.5t64.5 262.5
q0 174 -77 259t-236 85q-59 0 -123 -16.5t-69 -16.5q-13 0 -20 10.5t-7 28.5l14 501q2 53 25.5 82t64.5 29h443q122 0 151.5 18t34.5 70h47q-3 -200 -44.5 -262.5t-174.5 -62.5h-496z" />
    <glyph glyph-name="six" unicode="6" horiz-adv-x="1237" 
d="M449 654q-8 -49 -11.5 -112t-3.5 -143q0 -221 42.5 -293.5t154.5 -72.5q111 0 149.5 75t38.5 334q0 224 -35.5 284t-132.5 60q-58 0 -111 -34.5t-91 -97.5zM457 743q43 58 107 86.5t149 28.5q188 0 314 -119.5t126 -296.5q0 -93 -36 -172.5t-109 -148.5
q-77 -72 -175 -110t-208 -38q-230 0 -381.5 163.5t-151.5 412.5q0 152 57 287.5t166 242.5q134 133 306 204t376 79v-57q-243 -19 -383 -164.5t-157 -397.5z" />
    <glyph glyph-name="seven" unicode="7" horiz-adv-x="1237" 
d="M199 889h-62l148 448h841v-88l-217 -364q-99 -166 -138.5 -270.5t-39.5 -194.5q0 -63 38 -153t38 -130q0 -78 -51 -123t-140 -45q-88 0 -135 46t-47 132q0 111 191 411q43 67 65 104l258 415h-594q-48 0 -74 -17t-40 -59z" />
    <glyph glyph-name="eight" unicode="8" horiz-adv-x="1237" 
d="M616 662q-109 0 -153.5 -79.5t-44.5 -295.5q0 -152 42 -203t163 -51q114 0 152 54t38 286q0 158 -45.5 223.5t-151.5 65.5zM625 1305q-102 0 -135 -48t-33 -260q0 -145 36 -204.5t121 -59.5q96 0 132 62.5t36 296.5q0 130 -32 171.5t-125 41.5zM481 698v15
q-173 36 -259.5 115.5t-86.5 201.5q0 148 132 241t345 93q220 0 356 -93.5t136 -240.5q0 -127 -86 -205t-268 -116v-13q197 -33 301 -120.5t104 -219.5q0 -179 -143 -281t-396 -102t-396.5 97.5t-143.5 267.5q0 146 106.5 241t298.5 119z" />
    <glyph glyph-name="nine" unicode="9" horiz-adv-x="1237" 
d="M780 594q-43 -57 -107 -86t-149 -29q-188 0 -314 119.5t-126 296.5q0 93 35.5 171.5t109.5 147.5q78 73 176 111.5t207 38.5q230 0 380.5 -163t150.5 -413q0 -153 -56.5 -288t-164.5 -242q-134 -132 -306 -203.5t-376 -79.5v56q242 18 382.5 164.5t157.5 398.5zM786 684
q9 54 13 117.5t4 134.5q0 222 -42.5 295.5t-154.5 73.5q-111 0 -149.5 -75.5t-38.5 -334.5q0 -224 36 -285t132 -61q57 0 109 35t91 100z" />
    <glyph glyph-name="colon" unicode=":" horiz-adv-x="674" 
d="M174 659q0 68 48 116t116 48q66 0 114 -48t48 -116q0 -67 -47.5 -115t-114.5 -48t-115.5 48.5t-48.5 114.5zM174 141q0 68 48 116t116 48q66 0 114 -48t48 -116q0 -66 -47.5 -113.5t-114.5 -47.5t-115.5 47.5t-48.5 113.5z" />
    <glyph glyph-name="semicolon" unicode=";" horiz-adv-x="674" 
d="M258 -324q103 76 156 153t53 151q0 50 -7 70t-24 20q-1 0 -40 -49.5t-97 -49.5q-65 0 -100 38.5t-35 109.5q0 79 49.5 129.5t128.5 50.5q99 0 162 -71t63 -183q0 -116 -67.5 -218.5t-204.5 -193.5zM174 659q0 68 48 116t116 48q66 0 112 -48t46 -116q0 -67 -47 -115
t-113 -48t-114 48t-48 115z" />
    <glyph glyph-name="less" unicode="&#x3c;" horiz-adv-x="1706" 
d="M1442 1194v-219l-893 -365l893 -364v-219l-1178 485v199z" />
    <glyph glyph-name="equal" unicode="=" horiz-adv-x="1706" 
d="M254 496h1198v-199h-1198v199zM254 926h1198v-199h-1198v199z" />
    <glyph glyph-name="greater" unicode="&#x3e;" horiz-adv-x="1706" 
d="M264 1194l1178 -483v-199l-1178 -485v219l895 364l-895 365v219z" />
    <glyph glyph-name="question" unicode="?" horiz-adv-x="901" 
d="M231 139q0 68 47 115t113 47t114 -48t48 -114q0 -65 -47.5 -112t-114.5 -47t-113.5 46t-46.5 113zM344 418q-20 60 -30.5 116t-10.5 103q0 67 32.5 140t88.5 130q24 25 69 67q125 117 125 189q0 63 -56 103.5t-144 40.5q-69 0 -119.5 -26t-50.5 -54q0 -9 27 -19
q20 -7 30 -12q29 -15 45.5 -44.5t16.5 -68.5q0 -57 -38 -93t-100 -36q-61 0 -97 39.5t-36 106.5q0 110 97.5 185t244.5 75q169 0 272 -91.5t103 -242.5q0 -112 -60.5 -195t-273.5 -213q-60 -35 -78 -60t-18 -62q0 -16 2 -32t6 -34z" />
    <glyph glyph-name="at" unicode="@" horiz-adv-x="2019" 
d="M1176 319q-62 -100 -134.5 -148t-160.5 -48q-142 0 -222.5 91t-80.5 251q0 114 50 221.5t144 196.5q69 64 148 97.5t161 33.5q96 0 150.5 -45t71.5 -138l49 164h190l-174 -618l-2 -7q-14 -58 -14 -87q0 -47 20.5 -74t54.5 -27q33 0 85 25t98 63q103 88 158 217t55 285
q0 275 -188.5 446t-489.5 171q-138 0 -262 -38t-228 -112q-173 -121 -266.5 -308.5t-93.5 -416.5q0 -335 210.5 -532t565.5 -197q166 0 319.5 50.5t307.5 156.5l39 -51q-151 -113 -318 -169.5t-348 -56.5q-187 0 -347.5 46t-277.5 133q-151 112 -232 277.5t-81 363.5
q0 155 52 298.5t153 264.5q145 174 346.5 267t435.5 93q349 0 558.5 -189t209.5 -503q0 -161 -59 -299.5t-170 -239.5q-59 -53 -126.5 -80.5t-137.5 -27.5q-98 0 -155 52t-64 148zM1118 948q-62 0 -112.5 -44.5t-100.5 -143.5q-57 -114 -87 -215t-30 -183q0 -79 34.5 -125.5
t92.5 -46.5q64 0 124.5 62t115.5 182q40 92 63 185.5t23 162.5q0 80 -32 123t-91 43z" />
    <glyph glyph-name="A" unicode="A" horiz-adv-x="1350" 
d="M358 442h361l-176 467zM4 0v66h82q33 0 55 22t45 80l457 1190h80l500 -1292h118v-66h-645v66h162l-117 311h-405l-88 -227q-3 -6 -4.5 -18.5t-1.5 -29.5t15.5 -26.5t43.5 -9.5h119v-66h-416z" />
    <glyph glyph-name="B" unicode="B" horiz-adv-x="1460" 
d="M557 66h178q139 0 181 54.5t42 250.5q0 183 -50 243t-201 60h-150v-608zM557 731h127q146 0 192 50t46 220q0 185 -40.5 227t-209.5 42h-115v-539zM82 66h143v1204h-143v61h743q208 0 328.5 -85.5t120.5 -231.5q0 -121 -96 -196.5t-285 -102.5v-17q216 -18 325 -101.5
t109 -229.5q0 -169 -139 -268t-377 -99h-729v66z" />
    <glyph glyph-name="C" unicode="C" horiz-adv-x="1348" 
d="M1229 399v-399h-66l-90 74q-59 -53 -139.5 -80t-179.5 -27q-137 0 -251 53t-212 162q-97 106 -145 226.5t-48 257.5q0 135 48.5 254.5t146.5 226.5t214 160t253 53q84 0 159 -24t144 -72l72 69h67l8 -368h-71q-66 177 -156 255t-227 78q-154 0 -209 -101t-55 -507
q0 -214 5 -320t17 -153q25 -100 82 -144t160 -44q141 0 252.5 103.5t144.5 266.5h76z" />
    <glyph glyph-name="D" unicode="D" horiz-adv-x="1569" 
d="M78 66h162v1204h-162v61h682q146 0 250 -28t190 -91q123 -88 192.5 -233t69.5 -313q0 -169 -71 -315t-197 -236q-83 -59 -191 -87t-251 -28h-674v66zM575 66h170q115 0 167 17t87 60q45 55 63.5 152t18.5 293v94q0 220 -12.5 315t-42.5 152q-36 67 -93.5 94t-187.5 27
h-170v-1204z" />
    <glyph glyph-name="E" unicode="E" horiz-adv-x="1350" 
d="M63 0v66h162v1204h-139v61h1110l4 -350h-67q-68 170 -138 229.5t-204 59.5h-230v-547q8 -1 18.5 -1.5t28.5 -0.5q109 0 165 57.5t73 186.5h67v-568h-67q-11 138 -68 198t-178 60h-39v-589h223q165 0 258 87t146 291h63l-14 -444h-1174z" />
    <glyph glyph-name="F" unicode="F" horiz-adv-x="1241" 
d="M72 0v66h159v1204h-163v61h1132l12 -387h-69q-49 180 -131 253t-238 73h-205l1 -547q7 -1 17.5 -1.5t28.5 -0.5q107 0 163 58t73 186h68v-568h-68q-11 138 -68 198t-176 60h-39v-589h195v-66h-692z" />
    <glyph glyph-name="G" unicode="G" horiz-adv-x="1462" 
d="M1421 449h-123v-17q0 -217 -142 -340t-392 -123q-101 0 -187 25t-159 76q-149 103 -228 255.5t-79 338.5q0 144 55.5 272.5t165.5 234.5q94 92 205.5 139.5t232.5 47.5q100 0 180 -26t140 -79l75 80h60l10 -385h-74q-52 171 -146 259.5t-224 88.5q-96 0 -155 -32.5
t-89 -102.5q-23 -52 -32 -149.5t-9 -388.5q0 -410 50 -501t192 -91q97 0 149.5 43t52.5 123v252h-174v63h645v-63z" />
    <glyph glyph-name="H" unicode="H" horiz-adv-x="1573" 
d="M63 0v66h162v1204h-162v59h660v-59h-160v-547h447v547h-160v59h657v-59h-161v-1204h161v-66h-657v66h160v581h-447v-581h160v-66h-660z" />
    <glyph glyph-name="I" unicode="I" horiz-adv-x="784" 
d="M55 0v66h164v1204h-164v61h672v-61h-164v-1204h164v-66h-672z" />
    <glyph glyph-name="J" unicode="J" horiz-adv-x="901" 
d="M348 -35v1305h-149v61h653v-61h-158v-989q0 -235 -131 -377t-346 -142q-113 0 -184.5 61.5t-71.5 156.5q0 66 41 110.5t100 44.5q64 0 102 -40t38 -107q0 -33 -18.5 -71.5t-18.5 -49.5q0 -14 13 -23.5t34 -9.5q43 0 69.5 36t26.5 95z" />
    <glyph glyph-name="K" unicode="K" horiz-adv-x="1571" 
d="M598 729l475 479q13 14 18 22t5 17t-9 16t-22 7h-137v59h491v-59h-82q-60 0 -102 -19t-107 -84l-280 -284l551 -817h160v-66h-711v66h162l-412 614v49zM76 66h162v1204h-162v59h665v-59h-163v-1204h163v-66h-665v66z" />
    <glyph glyph-name="L" unicode="L" horiz-adv-x="1239" 
d="M86 0v66h137v1204h-137v61h664v-61h-185v-1204h195q164 0 257 87t146 291h64l-15 -444h-1126z" />
    <glyph glyph-name="M" unicode="M" horiz-adv-x="1686" 
d="M43 0v66h98q39 0 59.5 25t20.5 73v1106h-178v61h575l234 -768l248 768h545v-61h-172v-1204h167v-66h-675v66h180v1187h-4l-393 -1253h-70l-387 1266v-1096q0 -58 21 -81t75 -23h88v-66h-432z" />
    <glyph glyph-name="N" unicode="N" horiz-adv-x="1464" 
d="M55 0v66h103q40 0 55.5 17.5t15.5 68.5v1048q0 43 -17 56.5t-71 13.5h-82v61h539l561 -766v606q0 61 -18.5 80t-79.5 19h-86v61h426v-61h-78q-50 0 -69 -20.5t-19 -78.5v-1202h-55l-871 1198v-1028q0 -35 19.5 -54t56.5 -19h119v-66h-449z" />
    <glyph glyph-name="O" unicode="O" horiz-adv-x="1575" 
d="M496 664q0 -256 8.5 -352.5t30.5 -143.5q32 -73 91 -105t160 -32q102 0 161 32t91 105q23 51 32 153t9 343q0 240 -9 342t-32 153q-32 73 -91 105t-161 32q-101 0 -160 -32t-91 -105q-22 -47 -30.5 -143.5t-8.5 -351.5zM98 664q0 134 52 257t151 226q106 107 225 159
t260 52q142 0 261 -52t225 -159q100 -103 152.5 -226.5t52.5 -256.5q0 -136 -52.5 -260t-152.5 -226q-103 -106 -223 -157.5t-263 -51.5q-142 0 -261 51.5t-224 157.5q-99 102 -151 226.5t-52 259.5z" />
    <glyph glyph-name="P" unicode="P" horiz-adv-x="1346" 
d="M63 66h162v1204h-162v61h689q281 0 418 -83.5t137 -256.5q0 -181 -141.5 -271.5t-424.5 -90.5h-180v-563h189v-66h-687v66zM561 1270v-588h187q113 0 149.5 48t36.5 257q0 189 -36.5 236t-158.5 47h-178z" />
    <glyph glyph-name="Q" unicode="Q" horiz-adv-x="1575" 
d="M496 664q0 -256 8.5 -352.5t30.5 -143.5q32 -73 91 -105t160 -32q102 0 161 32t91 105q23 51 32 153t9 343q0 240 -9 342t-32 153q-32 73 -91 105t-161 32q-101 0 -160 -32t-91 -105q-22 -47 -30.5 -143.5t-8.5 -351.5zM1358 -362v-68q-62 -6 -120 -9t-108 -3
q-286 0 -410 86.5t-124 283.5q0 15 0.5 31.5t1.5 34.5q-227 79 -363.5 262t-136.5 408q0 134 52 257t151 226q106 107 225 159t260 52q142 0 261 -52t225 -159q100 -103 152.5 -226.5t52.5 -256.5q0 -226 -138 -411t-362 -259q-3 -29 -4.5 -55.5t-1.5 -51.5q0 -140 60 -199
t200 -59q41 0 121 8z" />
    <glyph glyph-name="R" unicode="R" horiz-adv-x="1460" 
d="M63 66h158v1204h-158v61h744q230 0 352.5 -75t122.5 -216q0 -143 -115 -227t-327 -94v-17q217 -29 307 -135.5t90 -339.5q0 -96 19 -126.5t67 -30.5q19 0 41.5 4.5t48.5 13.5l21 -55q-66 -30 -126.5 -46t-105.5 -16q-83 0 -150.5 25t-107.5 70q-78 87 -86 324
q-1 32 -2 48q-6 138 -65 192t-199 54h-35v-618h174v-66h-668v66zM557 750h168q114 0 154.5 47.5t40.5 201.5q0 194 -33.5 232.5t-161.5 38.5h-168v-520z" />
    <glyph glyph-name="S" unicode="S" horiz-adv-x="1122" 
d="M102 -16v391h78q51 -170 151.5 -257t246.5 -87q131 0 217 70t86 178q0 58 -20.5 95.5t-69.5 69.5q-56 37 -221 75q-61 14 -93 22q-193 49 -280.5 144t-87.5 255q0 187 116.5 302.5t304.5 115.5q77 0 143.5 -21.5t125.5 -64.5l73 59h64l8 -352h-67q-39 155 -130 236
t-227 81q-113 0 -185.5 -55t-72.5 -139q0 -126 267 -185l55 -12q249 -58 349.5 -164.5t100.5 -302.5q0 -202 -128.5 -335.5t-323.5 -133.5q-99 0 -174 22.5t-140 71.5l-92 -79h-74z" />
    <glyph glyph-name="T" unicode="T" horiz-adv-x="1350" 
d="M340 0v66h164v1204h-72q-131 0 -206.5 -81t-133.5 -288h-53l16 430h1241l17 -430h-53q-55 201 -132 285t-204 84h-76v-1204h164v-66h-672z" />
    <glyph glyph-name="U" unicode="U" horiz-adv-x="1454" 
d="M217 360v910h-156v61h666v-61h-174v-903q0 -169 65.5 -246.5t206.5 -77.5q75 0 136 21t106 63q50 46 71 111t21 229v20v678q0 68 -17 86.5t-83 18.5h-66v61h422v-61h-65q-71 0 -93 -21t-22 -86v-696q0 -150 -14.5 -216t-49.5 -114q-60 -85 -164 -126.5t-262 -41.5
q-259 0 -393.5 100t-134.5 291z" />
    <glyph glyph-name="V" unicode="V" horiz-adv-x="1350" 
d="M664 -31l-535 1301h-113v61h627v-61h-154l340 -824l244 691q12 31 17.5 52t5.5 34q0 27 -19.5 37t-83.5 10h-82v61h424v-61h-57q-51 0 -80 -27.5t-61 -120.5l-412 -1153h-61z" />
    <glyph glyph-name="W" unicode="W" horiz-adv-x="1911" 
d="M1108 989l125 285h-246zM664 -31l-535 1301h-113v61h1399v-61h-59q-30 0 -47.5 -13.5t-34.5 -52.5l-131 -291l221 -514l268 739q9 24 14 45.5t5 35.5q0 28 -14.5 39.5t-53.5 11.5h-82v61h389v-61h-63q-45 0 -72.5 -26t-58.5 -111l-422 -1164h-55l-240 574l-260 -574h-55z
M831 373l113 252l-274 649h-209z" />
    <glyph glyph-name="X" unicode="X" horiz-adv-x="1346" 
d="M2 0v66h98q42 0 65 12t60 67l307 451l-411 674h-119v61h647v-61h-137l229 -389l226 336q1 2 3 5q9 13 9 23q0 13 -10 19t-31 6h-127v61h453v-61h-88q-65 0 -89.5 -12.5t-54.5 -55.5l-256 -371l461 -765h109v-66h-641v66h145l-283 469l-252 -383q-8 -12 -13 -27t-5 -25
q0 -16 13 -25t38 -9h115v-66h-461z" />
    <glyph glyph-name="Y" unicode="Y" horiz-adv-x="1350" 
d="M358 0v66h164v567l-389 637h-131v61h670v-61h-164l326 -541l229 430q16 31 22.5 46.5t6.5 25.5q0 20 -17 29.5t-51 9.5h-115v61h430v-61h-55q-53 0 -86.5 -27t-81.5 -117l-250 -467v-593h164v-66h-672z" />
    <glyph glyph-name="Z" unicode="Z" horiz-adv-x="1120" 
d="M23 0v76l675 1194h-213q-134 0 -216.5 -74.5t-114.5 -224.5h-66l25 360h956v-59l-680 -1206h209q173 0 265 86.5t149 304.5h57l-12 -457h-1034z" />
    <glyph glyph-name="bracketleft" unicode="[" horiz-adv-x="758" 
d="M193 -424v1753h499v-65h-270v-1622h270v-66h-499z" />
    <glyph glyph-name="backslash" unicode="\" horiz-adv-x="559" 
d="M500 -190l-498 1548h115l497 -1548h-114z" />
    <glyph glyph-name="bracketright" unicode="]" horiz-adv-x="758" 
d="M567 -424h-501v66h270v1622h-270v65h501v-1753z" />
    <glyph glyph-name="asciicircum" unicode="^" horiz-adv-x="2048" 
d="M905 1462h236l491 -565h-112l-498 373l-498 -373h-112z" />
    <glyph glyph-name="underscore" unicode="_" 
d="M0 -279h1024v-204h-1024v204z" />
    <glyph glyph-name="grave" unicode="`" 
d="M725 934h-94l-348 180q-53 27 -74 52t-21 59q0 42 28 70t71 28q33 0 65.5 -18.5t79.5 -67.5z" />
    <glyph glyph-name="a" unicode="a" horiz-adv-x="1008" 
d="M610 119q-61 -73 -133.5 -106t-173.5 -33q-103 0 -159 52t-56 148q0 130 139 207.5t377 77.5v194q0 67 -28.5 89t-108.5 22q-52 0 -78.5 -12t-26.5 -35q0 -6 18.5 -39.5t18.5 -67.5q0 -58 -35.5 -89t-101.5 -31q-58 0 -89.5 32t-31.5 93q0 96 99 149t280 53
q80 0 145 -11.5t107 -33.5q47 -24 65.5 -59t18.5 -127v-414q0 -36 15.5 -52.5t48.5 -16.5q14 0 29.5 9t21.5 9q8 0 14 -6t6 -15q0 -38 -58.5 -82t-133.5 -44q-67 0 -117 37t-72 102zM604 410h-24q-124 0 -174 -35.5t-50 -120.5q0 -87 26.5 -124.5t86.5 -37.5t97.5 40
t37.5 106v172z" />
    <glyph glyph-name="b" unicode="b" horiz-adv-x="1133" 
d="M422 322q0 -129 60 -208t155 -79q63 0 88 27t25 100v469q0 73 -22.5 103t-76.5 30q-104 0 -166.5 -78.5t-62.5 -210.5v-153zM33 0v61h110v1209h-110v61q95 3 192 9t197 15v-685q46 77 111.5 115t150.5 38q163 0 270 -120.5t107 -305.5q0 -179 -108.5 -300.5
t-268.5 -121.5q-86 0 -151 37.5t-111 114.5v-127h-389z" />
    <glyph glyph-name="c" unicode="c" horiz-adv-x="1010" 
d="M860 270l47 -16q-47 -137 -139 -205.5t-225 -68.5q-193 0 -323 122t-130 301q0 175 136.5 297.5t334.5 122.5q138 0 224.5 -63t86.5 -162q0 -57 -37 -94t-94 -37q-64 0 -101.5 37t-37.5 100q0 46 32 83.5t32 41.5q0 24 -25.5 35.5t-79.5 11.5q-90 0 -124 -42t-34 -208
v-245q0 -153 35 -198.5t127 -45.5q106 0 180.5 59t114.5 174z" />
    <glyph glyph-name="d" unicode="d" horiz-adv-x="1133" 
d="M723 322v153q0 132 -62.5 210.5t-164.5 78.5q-57 0 -79 -30t-22 -120v-426q0 -91 22.5 -123t78.5 -32q102 0 164.5 78.5t62.5 210.5zM723 0v127q-46 -76 -111.5 -114t-152.5 -38q-160 0 -268.5 121.5t-108.5 300.5q0 185 107 305.5t270 120.5q86 0 152 -38.5t112 -114.5
v600h-158l1 61q127 3 236 9.5t197 15.5v-1295h111v-61h-387z" />
    <glyph glyph-name="e" unicode="e" horiz-adv-x="1008" 
d="M397 496h271v155q0 65 -32.5 94t-103.5 29q-68 0 -101.5 -30.5t-33.5 -92.5v-155zM897 270l47 -16q-51 -141 -149.5 -209t-253.5 -68q-213 0 -340 113t-127 301q0 186 131.5 309t331.5 123q184 0 290.5 -101.5t106.5 -277.5v-10h-537v-201q0 -117 36.5 -160.5
t127.5 -43.5q123 0 207 60.5t129 180.5z" />
    <glyph glyph-name="f" unicode="f" horiz-adv-x="672" 
d="M152 61v676h-129v62h129v43q0 223 122 369.5t304 146.5q108 0 173.5 -49t65.5 -127q0 -63 -33.5 -97t-95.5 -34q-54 0 -88.5 32t-34.5 82q0 36 26.5 68t26.5 39q0 12 -16.5 20t-42.5 8q-63 0 -97 -49.5t-34 -142.5q0 -50 3 -127.5t3 -103.5v-78h176v-62h-176v-676h144
v-61h-545v61h119z" />
    <glyph glyph-name="g" unicode="g" horiz-adv-x="1006" 
d="M217 -76q-22 -28 -32.5 -57.5t-10.5 -61.5q0 -99 75.5 -151.5t217.5 -52.5q174 0 280.5 67.5t106.5 173.5q0 47 -31.5 64.5t-132.5 17.5h-473zM365 477q0 -79 24.5 -109t85.5 -30q62 0 86.5 30t24.5 109v160q0 79 -24.5 108t-86.5 29t-86 -29t-24 -108v-160zM152 -57
q-61 30 -92 78.5t-31 113.5q0 83 50.5 138.5t139.5 72.5v10q-63 26 -97 75t-34 114q0 118 107.5 198t273.5 80q90 0 163.5 -23.5t131.5 -70.5q37 62 68.5 88.5t68.5 26.5q45 0 71.5 -27.5t26.5 -73.5q0 -38 -22 -63t-57 -25q-38 0 -66 25t-33 25t-9 -2.5t-9 -10.5
q29 -34 42 -66.5t13 -72.5q0 -123 -103 -192.5t-286 -69.5q-48 0 -115.5 5t-87.5 5q-68 0 -104.5 -18.5t-36.5 -53.5q0 -32 31 -43.5t170 -11.5h348q147 0 207.5 -52t60.5 -175q0 -186 -131 -291t-367 -105q-202 0 -308.5 56.5t-106.5 163.5q0 51 29.5 89.5t93.5 69.5v13z
" />
    <glyph glyph-name="h" unicode="h" horiz-adv-x="1124" 
d="M18 61h123v1215h-135v61q109 0 214 5t204 13v-741q59 107 136.5 156t189.5 49q129 0 182 -54.5t53 -201.5v-502h119v-61h-502v61h107v564q0 56 -20 81t-64 25q-76 0 -138.5 -87.5t-62.5 -201.5v-381h104v-61h-510v61z" />
    <glyph glyph-name="i" unicode="i" horiz-adv-x="563" 
d="M139 1145q0 59 42.5 101t101.5 42q58 0 98.5 -41.5t40.5 -101.5q0 -59 -41 -101.5t-100 -42.5t-100.5 42.5t-41.5 101.5zM25 0v61h120v676h-133l1 62q111 3 214.5 9t200.5 15v-762h127v-61h-530z" />
    <glyph glyph-name="j" unicode="j" horiz-adv-x="588" 
d="M162 1145q0 59 42 101t101 42q58 0 98.5 -41.5t40.5 -101.5t-40 -102t-99 -42t-101 42.5t-42 101.5zM449 139q0 -270 -112.5 -429t-299.5 -159q-82 0 -133 43t-51 111q0 50 31.5 80.5t82.5 30.5q49 0 81 -30t32 -75q0 -14 -7 -35t-7 -28q0 -12 11 -19.5t29 -7.5
q35 0 48.5 37t13.5 164v915h-143v62q117 3 222.5 9t200.5 15z" />
    <glyph glyph-name="k" unicode="k" horiz-adv-x="1120" 
d="M426 440l356 299h-192v62h428v-62h-152l-211 -174l394 -504h84v-61h-519v61h103zM37 61h100v1209h-100v61q81 3 175 9t204 15v-1294h129v-61h-508v61z" />
    <glyph glyph-name="l" unicode="l" horiz-adv-x="563" 
d="M14 61h119v1209h-131v61q110 3 214 9.5t200 14.5v-1294h129v-61h-531v61z" />
    <glyph glyph-name="m" unicode="m" horiz-adv-x="1686" 
d="M51 61h111v678h-127v62q94 0 193.5 4.5t207.5 13.5v-205q57 107 134 156t186 49q112 0 171 -50t62 -148q57 103 134.5 150.5t187.5 47.5q69 0 118.5 -18.5t81.5 -57.5q19 -22 27 -54t8 -91v-59v-478h125v-61h-508v61h107v564q0 56 -20 81t-64 25q-76 0 -137.5 -87
t-61.5 -202v-381h100v-61h-475v61h105v564q0 56 -20 81t-64 25q-74 0 -134.5 -87.5t-60.5 -201.5v-381h101v-61h-488v61z" />
    <glyph glyph-name="n" unicode="n" horiz-adv-x="1124" 
d="M33 61h123v680h-136v64q108 0 211 3.5t205 10.5v-203q59 106 136.5 154.5t189.5 48.5q132 0 183.5 -55t51.5 -234v-469h119v-61h-500v61h105v566q0 56 -20 81t-64 25q-75 0 -137 -88t-62 -201v-383h103v-61h-508v61z" />
    <glyph glyph-name="o" unicode="o" horiz-adv-x="1120" 
d="M78 399q0 187 133 305.5t344 118.5q212 0 345.5 -118t133.5 -304t-134 -305t-345 -119t-344 118t-133 304zM557 774q-95 0 -128.5 -60.5t-33.5 -312.5v-82q0 -191 34 -241.5t128 -50.5t127 57t33 287v118q0 183 -34 234t-126 51z" />
    <glyph glyph-name="p" unicode="p" horiz-adv-x="1133" 
d="M750 186v422q0 97 -22.5 126.5t-80.5 29.5q-101 0 -163 -79t-62 -210v-153q0 -133 61.5 -211t163.5 -78q57 0 80 31t23 122zM25 -449v62h114v1124h-133v61q112 4 215.5 10t200.5 15v-153q46 77 111.5 115t150.5 38q163 0 270 -120.5t107 -305.5q0 -179 -108.5 -300.5
t-268.5 -121.5q-86 0 -151 37.5t-111 114.5v-514h147v-62h-544z" />
    <glyph glyph-name="q" unicode="q" horiz-adv-x="1133" 
d="M383 195q0 -101 23.5 -130.5t89.5 -29.5q94 0 154.5 79t60.5 208v153q0 132 -63 210.5t-167 78.5q-56 0 -77 -30.5t-21 -133.5v-405zM1108 -449h-545v62h148v514q-46 -77 -111 -114.5t-151 -37.5q-161 0 -270 121.5t-109 300.5q0 184 108 305t271 121q85 0 150 -38
t112 -115v153q97 -9 200.5 -15t214.5 -9v-62h-133v-1124h115v-62z" />
    <glyph glyph-name="r" unicode="r" horiz-adv-x="897" 
d="M53 0v61h109v676h-111v61q97 4 193.5 10t193.5 15v-219q41 103 107.5 161t142.5 58t127 -49t51 -121q0 -64 -41 -105.5t-104 -41.5q-55 0 -93 40t-38 97q0 22 12 45t12 31q0 5 -4.5 8.5t-11.5 3.5q-44 0 -99 -99t-55 -208v-363h148v-61h-539z" />
    <glyph glyph-name="s" unicode="s" horiz-adv-x="784" 
d="M86 0v297h51q35 -132 109.5 -199t183.5 -67q86 0 140.5 41.5t54.5 103.5q0 78 -179 100q-51 6 -79 11q-158 23 -221.5 80t-63.5 170q0 131 78 208.5t211 77.5q50 0 100 -12t94 -35l43 37h41l6 -227h-51q-32 93 -90 140.5t-141 47.5q-81 0 -134 -32t-53 -78q0 -66 207 -92
q33 -4 52 -7q161 -20 225.5 -83.5t64.5 -196.5q0 -144 -83 -226t-228 -82q-70 0 -128.5 17.5t-102.5 50.5l-58 -45h-49z" />
    <glyph glyph-name="t" unicode="t" horiz-adv-x="676" 
d="M156 182v557h-117v62h117v252q20 -5 44.5 -7t73.5 -2q44 0 82 2.5t74 6.5v-252h164v-62h-164v-557q0 -52 14 -71t52 -19t62.5 31.5t29.5 85.5h55q-6 -104 -84 -166.5t-201 -62.5q-116 0 -159 38.5t-43 163.5z" />
    <glyph glyph-name="u" unicode="u" horiz-adv-x="1124" 
d="M981 823v-760h131v-61q-96 0 -197 -4t-215 -12v202q-60 -109 -138 -158.5t-187 -49.5q-69 0 -120.5 19.5t-82.5 57.5q-18 24 -25.5 58t-7.5 98v86v442h-133v61q119 2 221 7.5t189 13.5v-645q0 -56 20 -82t64 -26q75 0 136.5 89.5t61.5 202.5v379h-145v62q95 0 199 5
t229 15z" />
    <glyph glyph-name="v" unicode="v" horiz-adv-x="1010" 
d="M465 -29l-371 766h-86v62h492v-62h-103l199 -448l162 371q7 14 9.5 24t2.5 21q0 15 -14 23.5t-41 8.5h-88v62h329v-62h-55q-26 0 -41.5 -12.5t-30.5 -44.5l-309 -709h-55z" />
    <glyph glyph-name="w" unicode="w" horiz-adv-x="1352" 
d="M424 -29l-307 766h-105v62h494v-62h-103l152 -405l201 467h59l209 -459l125 338q0 1 1 4q3 12 3 18q0 21 -12 29t-45 8h-70v62h309v-62h-51q-27 0 -44 -14.5t-34 -56.5l-258 -695h-43l-231 498l-209 -498h-41z" />
    <glyph glyph-name="x" unicode="x" horiz-adv-x="1124" 
d="M37 0v61h59q49 0 81 13t59 43l208 227l-313 393h-94v62h530v-62h-102l160 -198l147 157q9 9 12.5 15t3.5 12q0 8 -7.5 11t-24.5 3h-80v62h336v-62h-49q-42 0 -73.5 -13.5t-58.5 -43.5l-172 -186l340 -433h82v-61h-522v61h111l-191 240l-166 -185l-3 -3q-15 -18 -15 -27
q0 -11 12 -18t31 -7h65v-61h-366z" />
    <glyph glyph-name="y" unicode="y" horiz-adv-x="1010" 
d="M449 -236q-47 -109 -101.5 -161t-122.5 -52q-63 0 -97 32.5t-34 92.5q0 52 34.5 86.5t86.5 34.5q51 0 85.5 -34.5t43.5 -34.5q16 0 27 12t26 47l90 211l-376 739h-86v62h489v-62h-100l200 -428l152 350q7 15 9.5 24.5t2.5 21.5q0 15 -14 23.5t-41 8.5h-78v62h320v-62h-56
q-27 0 -43 -13t-28 -44z" />
    <glyph glyph-name="z" unicode="z" horiz-adv-x="901" 
d="M57 0v43l451 694h-139q-71 0 -117.5 -51.5t-101.5 -200.5h-56l10 314h717v-49l-448 -689h139q86 0 142 59t118 222h55l-14 -342h-756z" />
    <glyph glyph-name="braceleft" unicode="{" 
d="M852 1516v-61q-121 -3 -165 -55t-44 -210v-133q0 -225 -53.5 -307t-196.5 -115q143 -32 196.5 -113t53.5 -307v-135q0 -158 44 -210t165 -55v-59q-235 0 -320.5 72.5t-85.5 273.5v193q0 165 -56 226.5t-212 76.5v76q156 15 212 76.5t56 226.5v192q0 201 85.5 274
t320.5 73z" />
    <glyph glyph-name="bar" unicode="|" 
d="M410 1565h206v-2048h-206v2048z" />
    <glyph glyph-name="braceright" unicode="}" 
d="M172 1516q236 0 322 -73t86 -274v-192q0 -165 56 -226.5t212 -76.5v-76q-156 -15 -212 -76.5t-56 -226.5v-193q0 -198 -85 -272t-311 -74h-12v59q119 2 164 55t45 210v135q0 226 53.5 307t196.5 113q-143 33 -196.5 115t-53.5 307v133q0 156 -45 209.5t-164 55.5v61z" />
    <glyph glyph-name="asciitilde" unicode="~" horiz-adv-x="1706" 
d="M1530 803v-221q-104 -71 -196.5 -104.5t-182.5 -33.5q-46 0 -92 8t-92 23q-24 8 -71 25q-219 75 -333 75q-85 0 -177.5 -37.5t-207.5 -119.5v221q107 72 204 107.5t183 35.5q117 0 291 -58l4 -1l55 -19q155 -55 240 -55t175 37t200 117z" />
    <glyph glyph-name="Adieresis" unicode="&#xc4;" horiz-adv-x="1350" 
d="M358 442h361l-176 467zM4 0v66h82q33 0 55 22t45 80l457 1190h80l500 -1292h118v-66h-645v66h162l-117 311h-405l-88 -227q-3 -6 -4.5 -18.5t-1.5 -29.5t15.5 -26.5t43.5 -9.5h119v-66h-416zM729 1657q0 51 39.5 90t91.5 39q54 0 92.5 -37.5t38.5 -91.5q0 -58 -37 -95.5
t-94 -37.5q-55 0 -93 39t-38 94zM365 1657q0 51 39.5 90t91.5 39q53 0 91 -37.5t38 -91.5q0 -58 -36.5 -95.5t-92.5 -37.5q-55 0 -93 39t-38 94z" />
    <glyph glyph-name="Aring" unicode="&#xc5;" horiz-adv-x="1350" 
d="M545 1681q0 -53 37.5 -90t91.5 -37t90.5 37t36.5 90q0 54 -37 91.5t-90 37.5q-54 0 -91.5 -37.5t-37.5 -91.5zM416 1683q0 108 74 182t182 74t183 -74t75 -182q0 -109 -74.5 -183.5t-183.5 -74.5t-182.5 74.5t-73.5 183.5zM358 442h361l-176 467zM4 0v66h82q33 0 55 22
t45 80l457 1190h80l500 -1292h118v-66h-645v66h162l-117 311h-405l-88 -227q-3 -6 -4.5 -18.5t-1.5 -29.5t15.5 -26.5t43.5 -9.5h119v-66h-416z" />
    <glyph glyph-name="Ccedilla" unicode="&#xc7;" horiz-adv-x="1348" 
d="M1229 399v-399h-66l-90 74q-59 -53 -139.5 -80t-179.5 -27q-137 0 -251 53t-212 162q-97 106 -145 226.5t-48 257.5q0 135 48.5 254.5t146.5 226.5t214 160t253 53q84 0 159 -24t144 -72l72 69h67l8 -368h-71q-66 177 -156 255t-227 78q-154 0 -209 -101t-55 -507
q0 -214 5 -320t17 -153q25 -100 82 -144t160 -44q141 0 252.5 103.5t144.5 266.5h76zM467 -381l45 98q73 -40 132.5 -59.5t109.5 -19.5q37 0 62.5 23.5t25.5 59.5q0 40 -23 60t-69 20q-14 0 -29.5 -1.5l-34.5 -3.5v204h78v-116q17 2 32.5 3.5t31.5 1.5q85 0 136.5 -46.5
t51.5 -125.5q0 -86 -61 -135t-170 -49q-64 0 -143 21.5t-175 64.5z" />
    <glyph glyph-name="Eacute" unicode="&#xc9;" horiz-adv-x="1350" 
d="M63 0v66h162v1204h-139v61h1110l4 -350h-67q-68 170 -138 229.5t-204 59.5h-230v-547q8 -1 18.5 -1.5t28.5 -0.5q109 0 165 57.5t73 186.5h67v-568h-67q-11 138 -68 198t-178 60h-39v-589h223q165 0 258 87t146 291h63l-14 -444h-1174zM463 1471l293 303q49 51 81 69.5
t64 18.5q43 0 71 -28t28 -70q0 -34 -21 -59t-74 -52l-348 -182h-94z" />
    <glyph glyph-name="Ntilde" unicode="&#xd1;" horiz-adv-x="1464" 
d="M55 0v66h103q40 0 55.5 17.5t15.5 68.5v1048q0 43 -17 56.5t-71 13.5h-82v61h539l561 -766v606q0 61 -18.5 80t-79.5 19h-86v61h426v-61h-78q-50 0 -69 -20.5t-19 -78.5v-1202h-55l-871 1198v-1028q0 -35 19.5 -54t56.5 -19h119v-66h-449zM512 1504h-75q23 132 77 195
t144 63q16 0 34 -2.5t42 -8.5l116 -30q16 -4 25 -5t16 -1q37 0 60.5 23t36.5 71h75q-21 -126 -77 -192t-142 -66q-18 0 -34 2t-31 6l-113 29l-7 1q-37 9 -48 9q-39 0 -63.5 -23.5t-35.5 -70.5z" />
    <glyph glyph-name="Odieresis" unicode="&#xd6;" horiz-adv-x="1575" 
d="M496 664q0 -256 8.5 -352.5t30.5 -143.5q32 -73 91 -105t160 -32q102 0 161 32t91 105q23 51 32 153t9 343q0 240 -9 342t-32 153q-32 73 -91 105t-161 32q-101 0 -160 -32t-91 -105q-22 -47 -30.5 -143.5t-8.5 -351.5zM98 664q0 134 52 257t151 226q106 107 225 159
t260 52q142 0 261 -52t225 -159q100 -103 152.5 -226.5t52.5 -256.5q0 -136 -52.5 -260t-152.5 -226q-103 -106 -223 -157.5t-263 -51.5q-142 0 -261 51.5t-224 157.5q-99 102 -151 226.5t-52 259.5zM839 1657q0 51 39.5 90t91.5 39q54 0 92.5 -37.5t38.5 -91.5
q0 -58 -37 -95.5t-94 -37.5q-55 0 -93 39t-38 94zM475 1657q0 51 39.5 90t91.5 39q53 0 91 -37.5t38 -91.5q0 -58 -36.5 -95.5t-92.5 -37.5q-55 0 -93 39t-38 94z" />
    <glyph glyph-name="Udieresis" unicode="&#xdc;" horiz-adv-x="1454" 
d="M217 360v910h-156v61h666v-61h-174v-903q0 -169 65.5 -246.5t206.5 -77.5q75 0 136 21t106 63q50 46 71 111t21 229v20v678q0 68 -17 86.5t-83 18.5h-66v61h422v-61h-65q-71 0 -93 -21t-22 -86v-696q0 -150 -14.5 -216t-49.5 -114q-60 -85 -164 -126.5t-262 -41.5
q-259 0 -393.5 100t-134.5 291zM854 1657q0 51 39.5 90t91.5 39q54 0 92.5 -37.5t38.5 -91.5q0 -58 -37 -95.5t-94 -37.5q-55 0 -93 39t-38 94zM490 1657q0 51 39.5 90t91.5 39q53 0 91 -37.5t38 -91.5q0 -58 -36.5 -95.5t-92.5 -37.5q-55 0 -93 39t-38 94z" />
    <glyph glyph-name="aacute" unicode="&#xe1;" horiz-adv-x="1008" 
d="M610 119q-61 -73 -133.5 -106t-173.5 -33q-103 0 -159 52t-56 148q0 130 139 207.5t377 77.5v194q0 67 -28.5 89t-108.5 22q-52 0 -78.5 -12t-26.5 -35q0 -6 18.5 -39.5t18.5 -67.5q0 -58 -35.5 -89t-101.5 -31q-58 0 -89.5 32t-31.5 93q0 96 99 149t280 53
q80 0 145 -11.5t107 -33.5q47 -24 65.5 -59t18.5 -127v-414q0 -36 15.5 -52.5t48.5 -16.5q14 0 29.5 9t21.5 9q8 0 14 -6t6 -15q0 -38 -58.5 -82t-133.5 -44q-67 0 -117 37t-72 102zM604 410h-24q-124 0 -174 -35.5t-50 -120.5q0 -87 26.5 -124.5t86.5 -37.5t97.5 40
t37.5 106v172zM305 934l293 303q49 51 81 69.5t64 18.5q43 0 71 -28t28 -70q0 -34 -21 -59t-74 -52l-348 -182h-94z" />
    <glyph glyph-name="agrave" unicode="&#xe0;" horiz-adv-x="1008" 
d="M610 119q-61 -73 -133.5 -106t-173.5 -33q-103 0 -159 52t-56 148q0 130 139 207.5t377 77.5v194q0 67 -28.5 89t-108.5 22q-52 0 -78.5 -12t-26.5 -35q0 -6 18.5 -39.5t18.5 -67.5q0 -58 -35.5 -89t-101.5 -31q-58 0 -89.5 32t-31.5 93q0 96 99 149t280 53
q80 0 145 -11.5t107 -33.5q47 -24 65.5 -59t18.5 -127v-414q0 -36 15.5 -52.5t48.5 -16.5q14 0 29.5 9t21.5 9q8 0 14 -6t6 -15q0 -38 -58.5 -82t-133.5 -44q-67 0 -117 37t-72 102zM604 410h-24q-124 0 -174 -35.5t-50 -120.5q0 -87 26.5 -124.5t86.5 -37.5t97.5 40
t37.5 106v172zM731 934h-94l-348 180q-53 27 -74 52t-21 59q0 42 28 70t71 28q33 0 65.5 -18.5t79.5 -67.5z" />
    <glyph glyph-name="acircumflex" unicode="&#xe2;" horiz-adv-x="1008" 
d="M610 119q-61 -73 -133.5 -106t-173.5 -33q-103 0 -159 52t-56 148q0 130 139 207.5t377 77.5v194q0 67 -28.5 89t-108.5 22q-52 0 -78.5 -12t-26.5 -35q0 -6 18.5 -39.5t18.5 -67.5q0 -58 -35.5 -89t-101.5 -31q-58 0 -89.5 32t-31.5 93q0 96 99 149t280 53
q80 0 145 -11.5t107 -33.5q47 -24 65.5 -59t18.5 -127v-414q0 -36 15.5 -52.5t48.5 -16.5q14 0 29.5 9t21.5 9q8 0 14 -6t6 -15q0 -38 -58.5 -82t-133.5 -44q-67 0 -117 37t-72 102zM604 410h-24q-124 0 -174 -35.5t-50 -120.5q0 -87 26.5 -124.5t86.5 -37.5t97.5 40
t37.5 106v172zM201 934l233 371h168l231 -371h-88l-227 186l-227 -186h-90z" />
    <glyph glyph-name="adieresis" unicode="&#xe4;" horiz-adv-x="1008" 
d="M610 119q-61 -73 -133.5 -106t-173.5 -33q-103 0 -159 52t-56 148q0 130 139 207.5t377 77.5v194q0 67 -28.5 89t-108.5 22q-52 0 -78.5 -12t-26.5 -35q0 -6 18.5 -39.5t18.5 -67.5q0 -58 -35.5 -89t-101.5 -31q-58 0 -89.5 32t-31.5 93q0 96 99 149t280 53
q80 0 145 -11.5t107 -33.5q47 -24 65.5 -59t18.5 -127v-414q0 -36 15.5 -52.5t48.5 -16.5q14 0 29.5 9t21.5 9q8 0 14 -6t6 -15q0 -38 -58.5 -82t-133.5 -44q-67 0 -117 37t-72 102zM604 410h-24q-124 0 -174 -35.5t-50 -120.5q0 -87 26.5 -124.5t86.5 -37.5t97.5 40
t37.5 106v172zM569 1120q0 51 39.5 90t91.5 39q54 0 92.5 -37.5t38.5 -91.5q0 -58 -37 -95.5t-94 -37.5q-55 0 -93 39t-38 94zM205 1120q0 51 39.5 90t91.5 39q53 0 91 -37.5t38 -91.5q0 -58 -36.5 -95.5t-92.5 -37.5q-55 0 -93 39t-38 94z" />
    <glyph glyph-name="atilde" unicode="&#xe3;" horiz-adv-x="1008" 
d="M610 119q-61 -73 -133.5 -106t-173.5 -33q-103 0 -159 52t-56 148q0 130 139 207.5t377 77.5v194q0 67 -28.5 89t-108.5 22q-52 0 -78.5 -12t-26.5 -35q0 -6 18.5 -39.5t18.5 -67.5q0 -58 -35.5 -89t-101.5 -31q-58 0 -89.5 32t-31.5 93q0 96 99 149t280 53
q80 0 145 -11.5t107 -33.5q47 -24 65.5 -59t18.5 -127v-414q0 -36 15.5 -52.5t48.5 -16.5q14 0 29.5 9t21.5 9q8 0 14 -6t6 -15q0 -38 -58.5 -82t-133.5 -44q-67 0 -117 37t-72 102zM604 410h-24q-124 0 -174 -35.5t-50 -120.5q0 -87 26.5 -124.5t86.5 -37.5t97.5 40
t37.5 106v172zM280 967h-75q23 132 77 195t144 63q16 0 34 -2.5t42 -8.5l116 -30q16 -4 25 -5t16 -1q37 0 60.5 23t36.5 71h75q-21 -126 -77 -192t-142 -66q-18 0 -34 2t-31 6l-113 29l-7 1q-37 9 -48 9q-39 0 -63.5 -23.5t-35.5 -70.5z" />
    <glyph glyph-name="aring" unicode="&#xe5;" horiz-adv-x="1008" 
d="M379 1171q0 -53 37.5 -90t91.5 -37t90.5 37t36.5 90q0 55 -37 92t-90 37q-54 0 -91.5 -37.5t-37.5 -91.5zM250 1174q0 107 75 181.5t183 74.5q107 0 181.5 -74.5t74.5 -181.5q0 -110 -73.5 -184.5t-182.5 -74.5t-183.5 74.5t-74.5 184.5zM604 410h-24q-124 0 -174 -35.5
t-50 -120.5q0 -87 26.5 -124.5t86.5 -37.5t97.5 40t37.5 106v172zM610 119q-61 -73 -133.5 -106t-173.5 -33q-103 0 -159 52t-56 148q0 130 139 207.5t377 77.5v194q0 67 -28.5 89t-108.5 22q-52 0 -78.5 -12t-26.5 -35q0 -6 18.5 -39.5t18.5 -67.5q0 -58 -35.5 -89
t-101.5 -31q-58 0 -89.5 32t-31.5 93q0 96 99 149t280 53q80 0 145 -11.5t107 -33.5q47 -24 65.5 -59t18.5 -127v-414q0 -36 15.5 -52.5t48.5 -16.5q14 0 29.5 9t21.5 9q8 0 14 -6t6 -15q0 -38 -58.5 -82t-133.5 -44q-67 0 -117 37t-72 102z" />
    <glyph glyph-name="ccedilla" unicode="&#xe7;" horiz-adv-x="1010" 
d="M860 270l47 -16q-47 -137 -139 -205.5t-225 -68.5q-193 0 -323 122t-130 301q0 175 136.5 297.5t334.5 122.5q138 0 224.5 -63t86.5 -162q0 -57 -37 -94t-94 -37q-64 0 -101.5 37t-37.5 100q0 46 32 83.5t32 41.5q0 24 -25.5 35.5t-79.5 11.5q-90 0 -124 -42t-34 -208
v-245q0 -153 35 -198.5t127 -45.5q106 0 180.5 59t114.5 174zM211 -381l45 98q73 -40 132.5 -59.5t109.5 -19.5q37 0 62.5 23.5t25.5 59.5q0 40 -23 60t-69 20q-14 0 -29.5 -1.5l-34.5 -3.5v204h78v-116q17 2 32.5 3.5t31.5 1.5q85 0 136.5 -46.5t51.5 -125.5
q0 -86 -61 -135t-170 -49q-64 0 -143 21.5t-175 64.5z" />
    <glyph glyph-name="eacute" unicode="&#xe9;" horiz-adv-x="1008" 
d="M397 496h271v155q0 65 -32.5 94t-103.5 29q-68 0 -101.5 -30.5t-33.5 -92.5v-155zM897 270l47 -16q-51 -141 -149.5 -209t-253.5 -68q-213 0 -340 113t-127 301q0 186 131.5 309t331.5 123q184 0 290.5 -101.5t106.5 -277.5v-10h-537v-201q0 -117 36.5 -160.5
t127.5 -43.5q123 0 207 60.5t129 180.5zM309 934l293 303q49 51 81 69.5t64 18.5q43 0 71 -28t28 -70q0 -34 -21 -59t-74 -52l-348 -182h-94z" />
    <glyph glyph-name="egrave" unicode="&#xe8;" horiz-adv-x="1008" 
d="M397 496h271v155q0 65 -32.5 94t-103.5 29q-68 0 -101.5 -30.5t-33.5 -92.5v-155zM897 270l47 -16q-51 -141 -149.5 -209t-253.5 -68q-213 0 -340 113t-127 301q0 186 131.5 309t331.5 123q184 0 290.5 -101.5t106.5 -277.5v-10h-537v-201q0 -117 36.5 -160.5
t127.5 -43.5q123 0 207 60.5t129 180.5zM735 934h-94l-348 180q-53 27 -74 52t-21 59q0 42 28 70t71 28q33 0 65.5 -18.5t79.5 -67.5z" />
    <glyph glyph-name="ecircumflex" unicode="&#xea;" horiz-adv-x="1008" 
d="M397 496h271v155q0 65 -32.5 94t-103.5 29q-68 0 -101.5 -30.5t-33.5 -92.5v-155zM897 270l47 -16q-51 -141 -149.5 -209t-253.5 -68q-213 0 -340 113t-127 301q0 186 131.5 309t331.5 123q184 0 290.5 -101.5t106.5 -277.5v-10h-537v-201q0 -117 36.5 -160.5
t127.5 -43.5q123 0 207 60.5t129 180.5zM205 934l233 371h168l231 -371h-88l-227 186l-227 -186h-90z" />
    <glyph glyph-name="edieresis" unicode="&#xeb;" horiz-adv-x="1008" 
d="M397 496h271v155q0 65 -32.5 94t-103.5 29q-68 0 -101.5 -30.5t-33.5 -92.5v-155zM897 270l47 -16q-51 -141 -149.5 -209t-253.5 -68q-213 0 -340 113t-127 301q0 186 131.5 309t331.5 123q184 0 290.5 -101.5t106.5 -277.5v-10h-537v-201q0 -117 36.5 -160.5
t127.5 -43.5q123 0 207 60.5t129 180.5zM573 1120q0 51 39.5 90t91.5 39q54 0 92.5 -37.5t38.5 -91.5q0 -58 -37 -95.5t-94 -37.5q-55 0 -93 39t-38 94zM209 1120q0 51 39.5 90t91.5 39q53 0 91 -37.5t38 -91.5q0 -58 -36.5 -95.5t-92.5 -37.5q-55 0 -93 39t-38 94z" />
    <glyph glyph-name="iacute" unicode="&#xed;" horiz-adv-x="563" 
d="M25 0v61h120v676h-133l1 62q111 3 214.5 9t200.5 15v-762h127v-61h-530zM41 934l293 303q49 51 81 69.5t64 18.5q43 0 71 -28t28 -70q0 -34 -21 -59t-74 -52l-348 -182h-94z" />
    <glyph glyph-name="igrave" unicode="&#xec;" horiz-adv-x="563" 
d="M25 0v61h120v676h-133l1 62q111 3 214.5 9t200.5 15v-762h127v-61h-530zM467 934h-94l-348 180q-53 27 -74 52t-21 59q0 42 28 70t71 28q33 0 65.5 -18.5t79.5 -67.5z" />
    <glyph glyph-name="icircumflex" unicode="&#xee;" horiz-adv-x="563" 
d="M25 0v61h120v676h-133l1 62q111 3 214.5 9t200.5 15v-762h127v-61h-530zM-63 934l233 371h168l231 -371h-88l-227 186l-227 -186h-90z" />
    <glyph glyph-name="idieresis" unicode="&#xef;" horiz-adv-x="563" 
d="M25 0v61h120v676h-133l1 62q111 3 214.5 9t200.5 15v-762h127v-61h-530zM305 1120q0 51 39.5 90t91.5 39q54 0 92.5 -37.5t38.5 -91.5q0 -58 -37 -95.5t-94 -37.5q-55 0 -93 39t-38 94zM-59 1120q0 51 39.5 90t91.5 39q53 0 91 -37.5t38 -91.5q0 -58 -36.5 -95.5
t-92.5 -37.5q-55 0 -93 39t-38 94z" />
    <glyph glyph-name="ntilde" unicode="&#xf1;" horiz-adv-x="1124" 
d="M33 61h123v680h-136v64q108 0 211 3.5t205 10.5v-203q59 106 136.5 154.5t189.5 48.5q132 0 183.5 -55t51.5 -234v-469h119v-61h-500v61h105v566q0 56 -20 81t-64 25q-75 0 -137 -88t-62 -201v-383h103v-61h-508v61zM325 967h-75q23 132 77 195t144 63q16 0 34 -2.5
t42 -8.5l116 -30q16 -4 25 -5t16 -1q37 0 60.5 23t36.5 71h75q-21 -126 -77 -192t-142 -66q-18 0 -34 2t-31 6l-113 29l-7 1q-37 9 -48 9q-39 0 -63.5 -23.5t-35.5 -70.5z" />
    <glyph glyph-name="oacute" unicode="&#xf3;" horiz-adv-x="1120" 
d="M78 399q0 187 133 305.5t344 118.5q212 0 345.5 -118t133.5 -304t-134 -305t-345 -119t-344 118t-133 304zM557 774q-95 0 -128.5 -60.5t-33.5 -312.5v-82q0 -191 34 -241.5t128 -50.5t127 57t33 287v118q0 183 -34 234t-126 51zM348 934l293 303q49 51 81 69.5t64 18.5
q43 0 71 -28t28 -70q0 -34 -21 -59t-74 -52l-348 -182h-94z" />
    <glyph glyph-name="ograve" unicode="&#xf2;" horiz-adv-x="1120" 
d="M78 399q0 187 133 305.5t344 118.5q212 0 345.5 -118t133.5 -304t-134 -305t-345 -119t-344 118t-133 304zM557 774q-95 0 -128.5 -60.5t-33.5 -312.5v-82q0 -191 34 -241.5t128 -50.5t127 57t33 287v118q0 183 -34 234t-126 51zM774 934h-94l-348 180q-53 27 -74 52
t-21 59q0 42 28 70t71 28q33 0 65.5 -18.5t79.5 -67.5z" />
    <glyph glyph-name="ocircumflex" unicode="&#xf4;" horiz-adv-x="1120" 
d="M78 399q0 187 133 305.5t344 118.5q212 0 345.5 -118t133.5 -304t-134 -305t-345 -119t-344 118t-133 304zM557 774q-95 0 -128.5 -60.5t-33.5 -312.5v-82q0 -191 34 -241.5t128 -50.5t127 57t33 287v118q0 183 -34 234t-126 51zM244 934l233 371h168l231 -371h-88
l-227 186l-227 -186h-90z" />
    <glyph glyph-name="odieresis" unicode="&#xf6;" horiz-adv-x="1120" 
d="M78 399q0 187 133 305.5t344 118.5q212 0 345.5 -118t133.5 -304t-134 -305t-345 -119t-344 118t-133 304zM557 774q-95 0 -128.5 -60.5t-33.5 -312.5v-82q0 -191 34 -241.5t128 -50.5t127 57t33 287v118q0 183 -34 234t-126 51zM612 1120q0 51 39.5 90t91.5 39
q54 0 92.5 -37.5t38.5 -91.5q0 -58 -37 -95.5t-94 -37.5q-55 0 -93 39t-38 94zM248 1120q0 51 39.5 90t91.5 39q53 0 91 -37.5t38 -91.5q0 -58 -36.5 -95.5t-92.5 -37.5q-55 0 -93 39t-38 94z" />
    <glyph glyph-name="otilde" unicode="&#xf5;" horiz-adv-x="1120" 
d="M78 399q0 187 133 305.5t344 118.5q212 0 345.5 -118t133.5 -304t-134 -305t-345 -119t-344 118t-133 304zM557 774q-95 0 -128.5 -60.5t-33.5 -312.5v-82q0 -191 34 -241.5t128 -50.5t127 57t33 287v118q0 183 -34 234t-126 51zM323 967h-75q23 132 77 195t144 63
q16 0 34 -2.5t42 -8.5l116 -30q16 -4 25 -5t16 -1q37 0 60.5 23t36.5 71h75q-21 -126 -77 -192t-142 -66q-18 0 -34 2t-31 6l-113 29l-7 1q-37 9 -48 9q-39 0 -63.5 -23.5t-35.5 -70.5z" />
    <glyph glyph-name="uacute" unicode="&#xfa;" horiz-adv-x="1124" 
d="M981 823v-760h131v-61q-96 0 -197 -4t-215 -12v202q-60 -109 -138 -158.5t-187 -49.5q-69 0 -120.5 19.5t-82.5 57.5q-18 24 -25.5 58t-7.5 98v86v442h-133v61q119 2 221 7.5t189 13.5v-645q0 -56 20 -82t64 -26q75 0 136.5 89.5t61.5 202.5v379h-145v62q95 0 199 5
t229 15zM315 934l293 303q49 51 81 69.5t64 18.5q43 0 71 -28t28 -70q0 -34 -21 -59t-74 -52l-348 -182h-94z" />
    <glyph glyph-name="ugrave" unicode="&#xf9;" horiz-adv-x="1124" 
d="M981 823v-760h131v-61q-96 0 -197 -4t-215 -12v202q-60 -109 -138 -158.5t-187 -49.5q-69 0 -120.5 19.5t-82.5 57.5q-18 24 -25.5 58t-7.5 98v86v442h-133v61q119 2 221 7.5t189 13.5v-645q0 -56 20 -82t64 -26q75 0 136.5 89.5t61.5 202.5v379h-145v62q95 0 199 5
t229 15zM741 934h-94l-348 180q-53 27 -74 52t-21 59q0 42 28 70t71 28q33 0 65.5 -18.5t79.5 -67.5z" />
    <glyph glyph-name="ucircumflex" unicode="&#xfb;" horiz-adv-x="1124" 
d="M981 823v-760h131v-61q-96 0 -197 -4t-215 -12v202q-60 -109 -138 -158.5t-187 -49.5q-69 0 -120.5 19.5t-82.5 57.5q-18 24 -25.5 58t-7.5 98v86v442h-133v61q119 2 221 7.5t189 13.5v-645q0 -56 20 -82t64 -26q75 0 136.5 89.5t61.5 202.5v379h-145v62q95 0 199 5
t229 15zM211 934l233 371h168l231 -371h-88l-227 186l-227 -186h-90z" />
    <glyph glyph-name="udieresis" unicode="&#xfc;" horiz-adv-x="1124" 
d="M981 823v-760h131v-61q-96 0 -197 -4t-215 -12v202q-60 -109 -138 -158.5t-187 -49.5q-69 0 -120.5 19.5t-82.5 57.5q-18 24 -25.5 58t-7.5 98v86v442h-133v61q119 2 221 7.5t189 13.5v-645q0 -56 20 -82t64 -26q75 0 136.5 89.5t61.5 202.5v379h-145v62q95 0 199 5
t229 15zM579 1120q0 51 39.5 90t91.5 39q54 0 92.5 -37.5t38.5 -91.5q0 -58 -37 -95.5t-94 -37.5q-55 0 -93 39t-38 94zM215 1120q0 51 39.5 90t91.5 39q53 0 91 -37.5t38 -91.5q0 -58 -36.5 -95.5t-92.5 -37.5q-55 0 -93 39t-38 94z" />
    <glyph glyph-name="dagger" unicode="&#x2020;" 
d="M486 -377q-4 240 -29 451t-74 405q51 83 76.5 170t25.5 174v21q-67 -2 -158.5 -45t-129.5 -43q-53 0 -84 29t-31 79t33.5 81.5t85.5 31.5q41 0 133 -40.5t151 -41.5v23q0 95 -44 202t-44 127q0 49 32 80t83 31q53 0 85 -30t32 -79q0 -9 -44 -121t-44 -221v-12h4
q65 0 154 41t126 41q55 0 85 -29t30 -82t-29.5 -81.5t-85.5 -28.5q-40 0 -129.5 40t-156.5 46q6 -119 32 -208.5t72 -154.5q-48 -165 -72 -380.5t-24 -475.5h-61z" />
    <glyph glyph-name="degree" unicode="&#xb0;" horiz-adv-x="674" 
d="M338 1335q-73 0 -124.5 -51t-51.5 -123q0 -74 51 -125t125 -51q72 0 123 52t51 124t-51 123t-123 51zM338 1464q126 0 214.5 -89.5t88.5 -215.5q0 -125 -89 -214t-216 -89q-126 0 -213.5 88t-87.5 215t88.5 216t214.5 89z" />
    <glyph glyph-name="cent" unicode="&#xa2;" horiz-adv-x="1237" 
d="M971 268l45 -12q-34 -139 -130.5 -210t-250.5 -71q-25 0 -37.5 0.5t-24.5 1.5l-104 -274h-90l115 301q-135 51 -214 155.5t-79 229.5q0 183 133 309.5t332 126.5q33 0 67 -6t68 -18l100 250h88l-110 -283q50 -27 76 -69t26 -95q0 -67 -36.5 -104t-102.5 -37
q-24 0 -41 6.5t-31 19.5l-168 -442q21 -4 41.5 -6t42.5 -2h4q98 0 168.5 57.5t112.5 171.5zM535 111l178 454q-1 2 -1 5q-3 19 -3 28q0 48 31.5 88t31.5 45q0 19 -28.5 30t-79.5 11q-74 0 -112 -41.5t-38 -122.5v-360q0 -46 5 -78.5t16 -58.5z" />
    <glyph glyph-name="sterling" unicode="&#xa3;" horiz-adv-x="1237" 
d="M145 678v94h174q-8 40 -13 78.5t-5 71.5q0 198 132.5 320t350.5 122q154 0 258.5 -84.5t104.5 -208.5q0 -73 -41 -115.5t-111 -42.5q-61 0 -99 38.5t-38 101.5q0 54 40 108t40 76q0 26 -42 46t-103 20q-98 0 -150.5 -43t-52.5 -123q0 -52 40 -174t56 -191h225v-94h-211
q2 -21 3.5 -41.5t1.5 -48.5q0 -71 -20.5 -150t-61.5 -170q47 -12 90 -18t82 -6q143 0 219 68.5t86 207.5h59v-31q0 -249 -94.5 -381.5t-271.5 -132.5q-72 0 -134.5 27t-128.5 86q-56 -58 -117 -85.5t-134 -27.5q-93 0 -151 50.5t-58 130.5q0 85 60 136.5t159 51.5
q42 0 90.5 -12t109.5 -39q-1 67 -77 227q-47 99 -70 158h-197zM477 162q-43 57 -89 85.5t-93 28.5q-59 0 -93 -33.5t-34 -90.5q0 -51 35.5 -82t93.5 -31q55 0 102.5 32.5t77.5 90.5z" />
    <glyph glyph-name="section" unicode="&#xa7;" 
d="M260 621q0 -49 32.5 -99.5t100.5 -109.5q110 -95 156 -123.5t80 -28.5q57 0 96 37t39 92q0 45 -28.5 92t-100.5 115q-85 81 -142 116.5t-102 35.5q-55 0 -93 -37.5t-38 -89.5zM646 202q96 -80 142 -152.5t46 -143.5q0 -115 -99 -185.5t-262 -70.5q-137 0 -224 60.5
t-87 154.5q0 62 37 99.5t98 37.5q49 0 82 -33t33 -82q0 -40 -32 -74.5t-32 -43.5q0 -28 35 -46t92 -18q81 0 127.5 38.5t46.5 104.5q0 86 -198 254l-2 2l-181 156q-89 77 -132.5 147t-43.5 138q0 108 78 178t209 78q-104 90 -146.5 156.5t-42.5 136.5q0 121 91.5 192.5
t246.5 71.5q132 0 215.5 -61t83.5 -154q0 -61 -34.5 -97t-92.5 -36q-52 0 -87 30.5t-35 75.5q0 33 31.5 70.5t31.5 50.5q0 26 -34 47t-81 21q-69 0 -110 -37t-41 -99q0 -54 40 -110.5t165 -163.5l178 -150q89 -75 131.5 -145.5t42.5 -144.5q0 -106 -77.5 -174.5
t-208.5 -78.5z" />
    <glyph glyph-name="bullet" unicode="&#x2022;" horiz-adv-x="1208" 
d="M307 762q0 123 87 209t210 86q122 0 208.5 -86.5t86.5 -208.5t-87.5 -209.5t-209.5 -87.5q-123 0 -209 87t-86 210z" />
    <glyph glyph-name="paragraph" unicode="&#xb6;" 
d="M983 1479v-111h-113v-1368h-151v1368h-158v-1368h-153v784q-167 6 -267 101t-100 245q0 158 107 253.5t284 95.5h551z" />
    <glyph glyph-name="germandbls" unicode="&#xdf;" horiz-adv-x="1122" 
d="M23 57h114v924q0 178 114.5 276.5t321.5 98.5q191 0 306.5 -86.5t115.5 -227.5q0 -118 -76.5 -189.5t-244.5 -109.5q202 -35 298.5 -129t96.5 -256q0 -170 -98 -274t-258 -104q-112 0 -175 48t-63 134q0 51 29 82.5t76 31.5q40 0 68 -28t28 -68q0 -43 -31 -77t-31 -42
q0 -10 19 -19t45 -9q49 0 68.5 41.5t19.5 154.5v232q0 112 -19.5 162t-67.5 74q-16 7 -49.5 11.5t-85.5 6.5q-29 2 -36.5 8t-7.5 20t10.5 20.5t32.5 6.5h16q97 0 126.5 30.5t29.5 133.5v203q0 99 -32.5 136.5t-113.5 37.5q-88 0 -123.5 -55.5t-35.5 -206.5v-1049h-387v57z
" />
    <glyph glyph-name="registered" unicode="&#xae;" horiz-adv-x="1683" 
d="M760 723q7 -1 16 -1.5t27 -0.5q96 0 144 45t48 135q0 60 -43 103t-106 43q-44 0 -65 -16.5t-21 -49.5v-258zM465 1098h403q146 0 234 -55.5t88 -143.5q0 -86 -64.5 -134.5t-214.5 -74.5q95 -22 149 -69.5t70 -124.5q6 -25 10 -74q5 -84 46 -84q28 0 42.5 29.5t14.5 87.5
v12h51v-23q0 -88 -44 -134t-128 -46q-47 0 -82.5 14t-56.5 41q-28 40 -33 134q-2 45 -6 67q-14 79 -54 116.5t-112 37.5h-18v-246q0 -46 20 -65t78 -27v-51h-393v50q61 4 83.5 24t22.5 69v522q0 49 -22.5 69.5t-83.5 25.5v53zM844 1309q-126 0 -241.5 -48.5t-203.5 -138.5
q-89 -90 -135.5 -204t-46.5 -240q0 -128 46.5 -242t135.5 -203q90 -89 202 -135.5t241 -46.5q127 0 240 47t200 135q89 91 136.5 206t47.5 239q0 125 -48.5 243t-135.5 203q-88 88 -202.5 136.5t-235.5 48.5zM844 1413q145 0 284 -59.5t242 -165.5q98 -101 150.5 -236.5
t52.5 -285.5q0 -139 -61 -277t-171 -244q-99 -96 -227.5 -147t-271.5 -51q-110 0 -211.5 30.5t-190.5 90.5q-157 104 -243 263.5t-86 346.5q0 146 55 280t158 238q102 104 237.5 160.5t282.5 56.5z" />
    <glyph glyph-name="copyright" unicode="&#xa9;" horiz-adv-x="1683" 
d="M1126 1102h45v-326h-47q-31 131 -100 202t-164 71q-118 0 -175.5 -90.5t-57.5 -274.5q0 -185 62.5 -281t182.5 -96q80 0 148.5 44t124.5 130l45 -28q-63 -107 -150.5 -161t-197.5 -54q-185 0 -308.5 122.5t-123.5 303.5q0 191 121 316.5t305 125.5q79 0 153 -33t80 -33
q24 0 37.5 15t19.5 47zM844 1309q-127 0 -241.5 -48t-203.5 -139q-89 -90 -135.5 -204t-46.5 -240q0 -128 46.5 -242t135.5 -203q90 -89 202 -135.5t241 -46.5q127 0 240 47t200 135q89 91 136.5 206t47.5 239q0 127 -47.5 244t-134.5 202q-87 88 -203 136.5t-237 48.5z
M844 1413q141 0 275.5 -56t238.5 -159q102 -102 159.5 -239.5t57.5 -280.5t-56.5 -277.5t-160.5 -240.5q-102 -104 -235 -158.5t-281 -54.5t-279 54t-237 159q-105 104 -160 237t-55 281t54.5 281.5t158.5 236.5q103 104 239 160.5t281 56.5z" />
    <glyph glyph-name="trademark" unicode="&#x2122;" horiz-adv-x="1683" 
d="M758 1454h211l131 -369l129 369h198v-27l-27 -4q-19 -3 -27.5 -15t-8.5 -36v-379q0 -24 9 -36t28 -15l26 -4v-33h-253v33l30 4q18 3 27.5 16t9.5 35v365l-156 -455h-36l-166 463v-373q0 -22 9 -35t28 -16l34 -4v-33h-196v33l34 4q19 3 28 16t9 35v373q0 23 -9 35.5
t-27 15.5l-35 4v33zM238 1454h450l12 -192h-32q-8 79 -39.5 115t-91.5 36h-7v-420q1 -23 9.5 -35.5t25.5 -15.5l31 -4v-33h-266v33l30 4q17 3 26 16t9 35v420h-10q-59 0 -89 -36t-38 -115h-33z" />
    <glyph glyph-name="acute" unicode="&#xb4;" 
d="M299 934l293 303q49 51 81 69.5t64 18.5q43 0 71 -28t28 -70q0 -34 -21 -59t-74 -52l-348 -182h-94z" />
    <glyph glyph-name="dieresis" unicode="&#xa8;" 
d="M563 1120q0 51 39.5 90t91.5 39q54 0 92.5 -37.5t38.5 -91.5q0 -58 -37 -95.5t-94 -37.5q-55 0 -93 39t-38 94zM199 1120q0 51 39.5 90t91.5 39q53 0 91 -37.5t38 -91.5q0 -58 -36.5 -95.5t-92.5 -37.5q-55 0 -93 39t-38 94z" />
    <glyph glyph-name="notequal" unicode="&#x2260;" horiz-adv-x="1706" 
d="M1198 1233l148 -119l-154 -192h260v-191h-389l-191 -239h580v-193h-707l-245 -309l-148 119l154 190h-252v193h377l190 239h-567v191h696z" />
    <glyph glyph-name="AE" unicode="&#xc6;" horiz-adv-x="2017" 
d="M530 641h363v635h-39zM43 66h68q31 0 50 13.5t38 49.5l450 893q15 29 24 62t9 59q0 64 -44 94.5t-138 30.5h-29v61h1380l15 -352h-68q-56 145 -147.5 222t-206.5 77h-217v-557h26q121 0 183 58t71 179h64v-550h-64q-17 134 -71 191.5t-162 57.5q-19 0 -29 -0.5t-18 -1.5
v-587h237q180 0 266 83t125 293h62l-12 -442h-1188v66h176v507h-395l-215 -421q-5 -11 -8 -24.5t-3 -23.5q0 -18 13.5 -28t38.5 -10h92v-66h-373v66z" />
    <glyph glyph-name="Oslash" unicode="&#xd8;" horiz-adv-x="1575" 
d="M518 227q3 -98 67 -147t189 -49q172 0 237.5 91.5t65.5 350.5v191q0 152 -3.5 234.5t-10.5 155.5zM500 340l536 815q-1 74 -55.5 108.5t-169.5 34.5q-93 0 -153 -21.5t-95 -68.5q-37 -50 -52 -141t-15 -322v-81q0 -155 1 -217.5t3 -106.5zM281 -135h-95l166 254
q-129 105 -194.5 238.5t-65.5 293.5q0 134 54.5 263.5t154.5 232.5q105 107 227.5 160t268.5 53q84 0 163.5 -20.5t155.5 -61.5l127 192h94l-153 -235q146 -106 219.5 -249.5t73.5 -321.5q0 -134 -52.5 -258.5t-152.5 -227.5q-103 -106 -223 -157.5t-263 -51.5
q-108 0 -198 25t-172 78z" />
    <glyph glyph-name="infinity" unicode="&#x221e;" horiz-adv-x="1706" 
d="M942 561q45 -75 106.5 -113t139.5 -38q94 0 152.5 55.5t58.5 144.5q0 86 -54 142.5t-135 56.5q-74 0 -136 -57t-132 -191zM766 659q-46 76 -107 113t-139 37q-93 0 -152 -56.5t-59 -144.5q0 -85 54 -141.5t135 -56.5q75 0 138 58t130 191zM858 457q-69 -133 -147 -195.5
t-174 -62.5q-139 0 -235.5 117.5t-96.5 293.5q0 184 85.5 297t223.5 113q93 0 169.5 -58.5t164.5 -199.5q68 132 148 196t175 64q139 0 235.5 -118t96.5 -294q0 -183 -86 -296t-223 -113q-93 0 -168.5 56.5t-167.5 199.5z" />
    <glyph glyph-name="plusminus" unicode="&#xb1;" horiz-adv-x="1706" 
d="M254 197h1198v-199h-1198v199zM752 1223h202v-326h498v-199h-498v-325h-202v325h-498v199h498v326z" />
    <glyph glyph-name="lessequal" unicode="&#x2264;" horiz-adv-x="1706" 
d="M258 195h1192v-197h-1192v197zM1448 1241v-209l-834 -264l834 -262v-209l-1190 385v174z" />
    <glyph glyph-name="greaterequal" unicode="&#x2265;" horiz-adv-x="1706" 
d="M258 195h1192v-197h-1192v197zM260 1241l1188 -385v-174l-1188 -385v209l832 262l-832 264v209z" />
    <glyph glyph-name="yen" unicode="&#xa5;" horiz-adv-x="1241" 
d="M604 1335v-59h-166l307 -576l244 463q16 31 22.5 47t6.5 25q0 20 -17 30.5t-51 10.5h-114v59h428v-59h-54q-51 0 -85 -27.5t-83 -118.5l-124 -233h288v-61h-321l-92 -187h413v-61h-413v-522h163v-66h-628v66h164v522h-453v61h442l-112 187h-330v61h293l-230 379h-133v59
h635z" />
    <glyph glyph-name="mu" unicode="&#xb5;" horiz-adv-x="1202" 
d="M178 209q-12 -95 -29 -252q-40 -381 -155 -381q-54 0 -84.5 30.5t-30.5 84.5q0 47 68 274t106 408l109 512h256l-99 -459q-11 -53 -16.5 -89t-5.5 -58q0 -59 30.5 -92t84.5 -33q71 0 116 53t68 166l109 512h256l-115 -533q-9 -41 -13 -66.5t-4 -43.5q0 -47 17.5 -67.5
t56.5 -20.5q40 0 66 18t45 59l21 50q27 69 55 69q15 0 23.5 -10t8.5 -29q0 -34 -16.5 -88.5t-42.5 -101.5q-41 -74 -99 -110t-137 -36q-85 0 -129.5 48t-54.5 151q-40 -106 -98.5 -152.5t-149.5 -46.5q-93 0 -149.5 61t-67.5 173z" />
    <glyph glyph-name="partialdiff" unicode="&#x2202;" horiz-adv-x="1094" 
d="M762 662q19 99 29 188.5t10 155.5q0 100 -26 157.5t-70 57.5t-146 -73t-160 -73q-42 0 -71 30t-29 73q0 64 86.5 118t210.5 54q192 0 309 -161.5t117 -432.5q0 -339 -156.5 -560t-396.5 -221q-171 0 -282 114.5t-111 291.5q0 198 116 329.5t287 131.5q102 0 170 -43.5
t113 -136.5zM700 518q0 116 -38.5 178t-110.5 62q-101 0 -167.5 -134t-66.5 -341q0 -117 38.5 -177.5t111.5 -60.5q101 0 167 133.5t66 339.5z" />
    <glyph glyph-name="summation" unicode="&#x2211;" horiz-adv-x="1542" 
d="M25 1473h1235l139 -429h-88l-92 250q-19 52 -60.5 73.5t-167.5 21.5h-557l666 -783v-41l-735 -680h886q48 0 65 13t27 51l72 229h88l-174 -571h-1309v71l822 756l-817 973v66z" />
    <glyph glyph-name="product" unicode="&#x220f;" horiz-adv-x="1724" 
d="M47 1473h1624v-84h-190v-1698h190v-84h-698v84h178v1698h-582v-1698h176v-84h-698v84h191v1698h-191v84z" />
    <glyph glyph-name="pi" unicode="&#x3c0;" horiz-adv-x="1477" 
d="M1444 885l-60 -275h-348q-4 -64 -6 -117t-2 -81q0 -47 4 -123.5t4 -106.5q0 -116 -38.5 -170.5t-120.5 -54.5q-52 0 -81.5 32.5t-29.5 88.5q0 73 73 245t101 287h-375q-4 -68 -6 -121t-2 -77q0 -48 3 -124t3 -106q0 -116 -38.5 -170.5t-121.5 -54.5q-50 0 -79 32t-29 89
q0 74 72 246t100 286h-156q-118 0 -167 -32t-66 -117h-64q45 238 138 331t284 93h1008z" />
    <glyph glyph-name="integral" unicode="&#x222b;" horiz-adv-x="1186" 
d="M342 -252q102 0 121 639q3 136 6 211q16 508 123 732t328 224q98 0 157.5 -49t59.5 -129q0 -60 -38 -96.5t-100 -36.5q-46 0 -77 24t-41 68q-5 20 -7 54q-3 46 -30 47q-99 0 -119 -633l-6 -178q-11 -296 -31 -444.5t-59 -250.5q-56 -148 -148.5 -225.5t-214.5 -77.5
q-96 0 -156.5 49t-60.5 127q0 62 39 99t105 37q50 0 85 -31.5t35 -71.5q0 -58 6 -73t23 -15z" />
    <glyph glyph-name="ordfeminine" unicode="&#xaa;" horiz-adv-x="756" 
d="M459 854q-46 -52 -101 -75t-131 -23q-77 0 -119 36.5t-42 104.5q0 90 104.5 144.5t282.5 54.5v135q0 47 -21.5 62.5t-81.5 15.5q-39 0 -58.5 -8.5t-19.5 -24.5q0 -4 13.5 -27.5t13.5 -46.5q0 -41 -26.5 -63.5t-75.5 -22.5q-43 0 -67 23t-24 65q0 68 74 105t211 37
q60 0 108.5 -8t79.5 -23q37 -18 50.5 -42.5t13.5 -88.5v-289q0 -26 11 -37.5t36 -11.5q11 0 22.5 6t16.5 6q6 0 10 -4t4 -10q0 -26 -43.5 -57t-99.5 -31q-51 0 -88.5 26t-52.5 72zM453 1057h-19q-92 0 -129 -24.5t-37 -84.5q0 -61 19.5 -86.5t64.5 -25.5t73 27t28 73v121z
" />
    <glyph glyph-name="ordmasculine" unicode="&#xba;" horiz-adv-x="840" 
d="M59 1051q0 130 99 212.5t258 82.5q160 0 260 -82.5t100 -212.5t-101 -213.5t-259 -83.5q-159 0 -258 82.5t-99 214.5zM418 1313q-71 0 -96 -42.5t-25 -219.5v-58q0 -132 25.5 -168.5t95.5 -36.5q71 0 96 40.5t25 201.5v82q0 128 -26 164.5t-95 36.5z" />
    <glyph glyph-name="Omega" unicode="&#x3a9;" horiz-adv-x="1569" 
d="M1133 258v-14h290l43 145h78l-117 -389h-530q98 217 147.5 431.5t49.5 422.5q0 279 -76.5 417t-231.5 138t-232 -138.5t-77 -416.5q0 -208 50 -422t149 -432h-533l-116 389h75l45 -145h289v14q-164 88 -253 239t-89 343q0 285 196.5 471t495.5 186q300 0 495.5 -186
t195.5 -471q0 -191 -89 -341t-255 -241z" />
    <glyph glyph-name="ae" unicode="&#xe6;" horiz-adv-x="1462" 
d="M846 502h266v106q0 105 -27 134.5t-100 29.5q-78 0 -108.5 -33.5t-30.5 -126.5v-110zM1346 274l47 -14q-38 -135 -136.5 -210t-238.5 -75q-133 0 -228.5 41.5t-166.5 128.5q-62 -81 -143.5 -124.5t-172.5 -43.5q-108 0 -169.5 53.5t-61.5 147.5q0 130 132.5 206.5
t379.5 86.5v211q0 48 -30.5 69t-100.5 21q-45 0 -73 -11.5t-28 -29.5q0 -6 16.5 -38t16.5 -64q0 -63 -35 -97t-100 -34q-57 0 -92 34t-35 91q0 90 89 144t241 54q103 0 178.5 -22.5t126.5 -69.5q51 47 111.5 69.5t134.5 22.5q162 0 270 -106.5t110 -270.5h-546v-223
q0 -107 39.5 -149.5t134.5 -42.5q121 0 207.5 64.5t122.5 180.5zM588 418h-23q-123 0 -177 -38.5t-54 -125.5q0 -68 34.5 -110t90.5 -42q66 0 97.5 37.5t31.5 114.5v164z" />
    <glyph glyph-name="oslash" unicode="&#xf8;" horiz-adv-x="1120" 
d="M426 94q13 -28 44.5 -41.5t84.5 -13.5q90 0 126 51t36 184v144q0 42 -1 82t-3 80zM401 201l295 499q-1 35 -37 55.5t-98 20.5q-92 0 -128 -50.5t-36 -195.5v-223q0 -46 1 -67t3 -39zM244 -213h-86l145 252q-115 61 -170 149.5t-55 212.5q0 184 135 303t344 119
q49 0 97 -7.5t96 -22.5l114 190h86l-129 -223q108 -60 160.5 -145.5t52.5 -198.5q0 -196 -132.5 -317.5t-346.5 -121.5q-49 0 -94 8.5t-88 24.5z" />
    <glyph glyph-name="questiondown" unicode="&#xbf;" horiz-adv-x="901" 
d="M676 1196q0 -67 -46.5 -113.5t-113.5 -46.5q-66 0 -114 47t-48 113t48 114t114 48t113 -47.5t47 -114.5zM563 918q20 -61 30.5 -116t10.5 -102q0 -67 -32.5 -141t-88.5 -131q-24 -25 -71 -68q-123 -115 -123 -186q0 -63 56 -103t144 -40q69 0 119.5 25.5t50.5 54.5
q0 9 -28 19q-18 6 -28 11q-30 16 -46 45.5t-16 67.5q0 57 37.5 92t99.5 35q61 0 97 -38.5t36 -104.5q0 -110 -97.5 -185.5t-244.5 -75.5q-169 0 -271 92t-102 242q0 114 60.5 196.5t271.5 211.5q60 35 78 60t18 63q0 15 -2 31t-6 34z" />
    <glyph glyph-name="exclamdown" unicode="&#xa1;" horiz-adv-x="674" 
d="M176 1196q0 67 47.5 114.5t114.5 47.5q66 0 113 -48t47 -114t-48 -113t-114 -47q-67 0 -113.5 46.5t-46.5 113.5zM362 897v-29q0 -105 11.5 -198.5t34.5 -184.5q8 -34 48 -142.5t40 -176.5q0 -88 -42.5 -137t-117.5 -49q-74 0 -116 47.5t-42 132.5q0 71 51 218
q24 70 35 107q24 79 34.5 177t10.5 235h53z" />
    <glyph glyph-name="logicalnot" unicode="&#xac;" horiz-adv-x="1706" 
d="M254 864h1198v-502h-199v306h-999v196z" />
    <glyph glyph-name="radical" unicode="&#x221a;" horiz-adv-x="1346" 
d="M1141 1694h207v-129h-103l-592 -1606h-100l-311 858l-140 -51l-30 113l331 116l236 -661z" />
    <glyph glyph-name="florin" unicode="&#x192;" horiz-adv-x="1237" 
d="M991 727h-235v-156q0 -543 -109 -780t-352 -237q-92 0 -152.5 51t-60.5 127q0 55 35 90t92 35q53 0 85 -31.5t32 -83.5q0 -46 -26 -71t-26 -29q0 -12 11.5 -19.5t29.5 -7.5q89 0 123.5 112.5t34.5 548.5v68q0 122 3.5 215.5t10.5 167.5h-231v59h236q25 275 140 426.5
t296 151.5q100 0 160.5 -45t60.5 -119q0 -60 -35 -95.5t-96 -35.5q-50 0 -81.5 30t-31.5 79q0 42 25.5 70.5t25.5 31.5q0 11 -9 16.5t-27 6.5q-82 0 -122 -85.5t-40 -259.5v-172h233v-59z" />
    <glyph glyph-name="approxequal" unicode="&#x2248;" horiz-adv-x="1706" 
d="M1530 596v-219q-106 -72 -198 -105.5t-181 -33.5q-95 0 -286.5 66.5t-301.5 66.5q-84 0 -174.5 -37t-210.5 -121v219q111 73 206.5 108t180.5 35q124 0 315.5 -65.5t274.5 -65.5q86 0 174 35.5t201 116.5zM1530 1008v-220q-106 -71 -196.5 -104t-180.5 -33
q-94 0 -286 65.5t-304 65.5q-82 0 -170 -35t-215 -122v219q107 71 204 107t183 36q125 0 316.5 -65.5t273.5 -65.5q84 0 171 35t204 117z" />
    <glyph glyph-name="Delta" unicode="&#x2206;" horiz-adv-x="1350" 
d="M547 1116l-381 -827h764zM647 1497h68l692 -1497h-1460z" />
    <glyph glyph-name="guillemotleft" unicode="&#xab;" horiz-adv-x="999" 
d="M459 408q131 96 249 204.5t126 108.5t15 -7t7 -16q0 -17 -45.5 -85.5t-146.5 -204.5q98 -132 145 -203.5t47 -89.5q0 -9 -7 -16t-15 -7q-7 0 -125.5 109t-249.5 207zM139 408q131 96 249.5 204.5t125.5 108.5q8 0 14.5 -7t6.5 -16q0 -18 -47 -89.5t-144 -200.5
q94 -126 142.5 -200.5t48.5 -92.5q0 -9 -6.5 -16t-14.5 -7q-7 0 -125 109t-250 207z" />
    <glyph glyph-name="guillemotright" unicode="&#xbb;" horiz-adv-x="999" 
d="M541 408q-132 -98 -250 -207t-125 -109q-8 0 -15.5 7t-7.5 16q0 18 47.5 89.5t145.5 203.5q-102 136 -147.5 204.5t-45.5 85.5q0 9 7.5 16t15.5 7q7 0 125 -108.5t250 -204.5zM860 408q-132 -98 -250 -207t-125 -109q-8 0 -14 7t-6 16q0 18 48.5 92.5t141.5 200.5
q-96 129 -143 200.5t-47 89.5q0 9 6 16t14 7q7 0 125.5 -108.5t249.5 -204.5z" />
    <glyph glyph-name="ellipsis" unicode="&#x2026;" horiz-adv-x="2048" 
d="M178 141q0 68 48.5 116t115.5 48t114.5 -48t47.5 -116q0 -66 -47.5 -113.5t-114.5 -47.5t-115.5 47.5t-48.5 113.5zM860 141q0 68 48.5 116t115.5 48t114.5 -48t47.5 -116q0 -66 -47.5 -113.5t-114.5 -47.5t-115.5 47.5t-48.5 113.5zM1544 141q0 68 48.5 116t115.5 48
t114.5 -48t47.5 -116q0 -66 -47.5 -113.5t-114.5 -47.5t-115.5 47.5t-48.5 113.5z" />
    <glyph glyph-name="nonbreakingspace" unicode="&#xa0;" horiz-adv-x="1237" 
 />
    <glyph glyph-name="Agrave" unicode="&#xc0;" horiz-adv-x="1350" 
d="M358 442h361l-176 467zM4 0v66h82q33 0 55 22t45 80l457 1190h80l500 -1292h118v-66h-645v66h162l-117 311h-405l-88 -227q-3 -6 -4.5 -18.5t-1.5 -29.5t15.5 -26.5t43.5 -9.5h119v-66h-416zM891 1471h-94l-348 180q-53 27 -74 52t-21 59q0 42 28 70t71 28
q33 0 65.5 -18.5t79.5 -67.5z" />
    <glyph glyph-name="Atilde" unicode="&#xc3;" horiz-adv-x="1350" 
d="M358 442h361l-176 467zM4 0v66h82q33 0 55 22t45 80l457 1190h80l500 -1292h118v-66h-645v66h162l-117 311h-405l-88 -227q-3 -6 -4.5 -18.5t-1.5 -29.5t15.5 -26.5t43.5 -9.5h119v-66h-416zM440 1504h-75q23 132 77 195t144 63q16 0 34 -2.5t42 -8.5l116 -30
q16 -4 25 -5t16 -1q37 0 60.5 23t36.5 71h75q-21 -126 -77 -192t-142 -66q-18 0 -34 2t-31 6l-113 29l-7 1q-37 9 -48 9q-39 0 -63.5 -23.5t-35.5 -70.5z" />
    <glyph glyph-name="Otilde" unicode="&#xd5;" horiz-adv-x="1575" 
d="M496 664q0 -256 8.5 -352.5t30.5 -143.5q32 -73 91 -105t160 -32q102 0 161 32t91 105q23 51 32 153t9 343q0 240 -9 342t-32 153q-32 73 -91 105t-161 32q-101 0 -160 -32t-91 -105q-22 -47 -30.5 -143.5t-8.5 -351.5zM98 664q0 134 52 257t151 226q106 107 225 159
t260 52q142 0 261 -52t225 -159q100 -103 152.5 -226.5t52.5 -256.5q0 -136 -52.5 -260t-152.5 -226q-103 -106 -223 -157.5t-263 -51.5q-142 0 -261 51.5t-224 157.5q-99 102 -151 226.5t-52 259.5zM550 1504h-75q23 132 77 195t144 63q16 0 34 -2.5t42 -8.5l116 -30
q16 -4 25 -5t16 -1q37 0 60.5 23t36.5 71h75q-21 -126 -77 -192t-142 -66q-18 0 -34 2t-31 6l-113 29l-7 1q-37 9 -48 9q-39 0 -63.5 -23.5t-35.5 -70.5z" />
    <glyph glyph-name="OE" unicode="&#x152;" horiz-adv-x="2013" 
d="M1987 442l-11 -442h-1276q-134 0 -241.5 39.5t-204.5 124.5q-106 93 -161.5 220.5t-55.5 277.5q0 156 65 289.5t187 226.5q101 78 206.5 115.5t223.5 37.5h1216l11 -358h-70q-51 163 -142 232t-255 69h-154v-553h31q112 0 172 57.5t74 177.5h67v-553h-67q-19 138 -75 195
t-169 57h-33v-587h219q173 0 257.5 82.5t127.5 291.5h58zM983 436v553q0 167 -51 224t-187 57q-110 0 -179 -36.5t-95 -109.5q-22 -59 -31.5 -167t-9.5 -351v-98q0 -149 7.5 -217.5t25.5 -114.5q21 -58 85.5 -86.5t174.5 -28.5q153 0 206.5 64.5t53.5 310.5z" />
    <glyph glyph-name="oe" unicode="&#x153;" horiz-adv-x="1577" 
d="M387 559v-285q0 -142 36 -192.5t128 -50.5t129 47.5t37 169.5v287q0 140 -36.5 190.5t-129.5 50.5q-91 0 -127.5 -47t-36.5 -170zM965 506h266v145q0 61 -31.5 90t-97.5 29q-64 0 -100.5 -31.5t-36.5 -87.5v-145zM825 96q-33 -54 -111.5 -86.5t-176.5 -32.5
q-209 0 -345.5 121.5t-136.5 304.5q0 179 137 299.5t343 120.5q95 0 162.5 -26t127.5 -84q67 56 137.5 83t149.5 27q177 0 284 -97t107 -257v-25h-538v-184q0 -123 41 -173t139 -50q108 0 192.5 62.5t128.5 176.5l50 -20q-51 -134 -151 -206.5t-237 -72.5q-94 0 -169 29.5
t-134 89.5z" />
    <glyph glyph-name="endash" unicode="&#x2013;" 
d="M0 319v173h1024v-173h-1024z" />
    <glyph glyph-name="emdash" unicode="&#x2014;" horiz-adv-x="2048" 
d="M0 319v173h2048v-173h-2048z" />
    <glyph glyph-name="quotedblleft" unicode="&#x201c;" horiz-adv-x="1151" 
d="M967 1315q-103 -76 -156 -153t-53 -150q0 -49 7.5 -69.5t25.5 -20.5l38.5 49t96.5 49q65 0 101 -38.5t36 -109.5q0 -79 -49.5 -129.5t-128.5 -50.5q-99 0 -163.5 71.5t-64.5 182.5q0 116 68.5 218t206.5 194zM434 1315q-103 -76 -156 -153t-53 -150q0 -51 7 -70.5
t24 -19.5q1 0 40.5 49t96.5 49q65 0 101 -38.5t36 -109.5q0 -79 -49.5 -129.5t-128.5 -50.5q-99 0 -163 71.5t-64 182.5q0 116 68 218t206 194z" />
    <glyph glyph-name="quotedblright" unicode="&#x201d;" horiz-adv-x="1151" 
d="M221 735q103 76 156 153t53 150q0 50 -7.5 71t-25.5 21l-38.5 -50t-96.5 -50q-65 0 -101 39t-36 109q0 79 49.5 129.5t128.5 50.5q100 0 163.5 -70.5t63.5 -181.5q0 -116 -68 -219.5t-206 -194.5zM754 735q102 76 155.5 153t53.5 150q0 52 -7.5 72t-23.5 20
q-1 0 -40.5 -50t-96.5 -50q-65 0 -101.5 39t-36.5 109q0 79 50.5 129.5t130.5 50.5q99 0 162 -70.5t63 -181.5q0 -116 -68.5 -219.5t-206.5 -194.5z" />
    <glyph glyph-name="quoteleft" unicode="&#x2018;" horiz-adv-x="618" 
d="M434 1315q-103 -76 -156 -153t-53 -150q0 -51 7 -70.5t24 -19.5q1 0 40.5 49t96.5 49q65 0 101 -38.5t36 -109.5q0 -79 -49.5 -129.5t-128.5 -50.5q-99 0 -163 71.5t-64 182.5q0 116 68 218t206 194z" />
    <glyph glyph-name="quoteright" unicode="&#x2019;" horiz-adv-x="618" 
d="M221 735q103 76 156 153t53 150q0 50 -7.5 71t-25.5 21l-38.5 -50t-96.5 -50q-64 0 -100.5 39.5t-36.5 110.5q0 79 49.5 128.5t128.5 49.5q100 0 163.5 -70.5t63.5 -181.5q0 -116 -68 -219.5t-206 -194.5z" />
    <glyph glyph-name="divide" unicode="&#xf7;" horiz-adv-x="1706" 
d="M854 369q62 0 107 -45t45 -107q0 -61 -45 -105t-107 -44q-63 0 -107.5 43t-44.5 106t44.5 107.5t107.5 44.5zM254 711h1198v-199h-1198v199zM854 1155q62 0 107 -44.5t45 -106.5q0 -63 -44.5 -107.5t-107.5 -44.5t-107.5 44.5t-44.5 107.5t44.5 107t107.5 44z" />
    <glyph glyph-name="lozenge" unicode="&#x25ca;" horiz-adv-x="1012" 
d="M506 1409l-385 -817l385 -825l385 825zM506 1653l500 -1061l-500 -1069l-500 1069z" />
    <glyph glyph-name="ydieresis" unicode="&#xff;" horiz-adv-x="1010" 
d="M449 -236q-47 -109 -101.5 -161t-122.5 -52q-63 0 -97 32.5t-34 92.5q0 52 34.5 86.5t86.5 34.5q51 0 85.5 -34.5t43.5 -34.5q16 0 27 12t26 47l90 211l-376 739h-86v62h489v-62h-100l200 -428l152 350q7 15 9.5 24.5t2.5 21.5q0 15 -14 23.5t-41 8.5h-78v62h320v-62h-56
q-27 0 -43 -13t-28 -44zM557 1120q0 51 39.5 90t91.5 39q54 0 92.5 -37.5t38.5 -91.5q0 -58 -37 -95.5t-94 -37.5q-55 0 -93 39t-38 94zM193 1120q0 51 39.5 90t91.5 39q53 0 91 -37.5t38 -91.5q0 -58 -36.5 -95.5t-92.5 -37.5q-55 0 -93 39t-38 94z" />
    <glyph glyph-name="Ydieresis" unicode="&#x178;" horiz-adv-x="1350" 
d="M358 0v66h164v567l-389 637h-131v61h670v-61h-164l326 -541l229 430q16 31 22.5 46.5t6.5 25.5q0 20 -17 29.5t-51 9.5h-115v61h430v-61h-55q-53 0 -86.5 -27t-81.5 -117l-250 -467v-593h164v-66h-672zM727 1657q0 51 39.5 90t91.5 39q54 0 92.5 -37.5t38.5 -91.5
q0 -58 -37 -95.5t-94 -37.5q-55 0 -93 39t-38 94zM363 1657q0 51 39.5 90t91.5 39q53 0 91 -37.5t38 -91.5q0 -58 -36.5 -95.5t-92.5 -37.5q-55 0 -93 39t-38 94z" />
    <glyph glyph-name="fraction" unicode="&#x2215;" horiz-adv-x="342" 
d="M-242 -27h-100l924 1391h100z" />
    <glyph glyph-name="currency" unicode="&#xa4;" horiz-adv-x="1237" 
d="M1133 0h-68l-72 70q-47 -51 -104.5 -74t-136.5 -23q-205 0 -349 155.5t-178 395.5h-153l14 62h133q-2 30 -3 49t-1 35q0 43 1 64t3 38h-147l14 62h141q38 230 181.5 380t343.5 150q79 0 136.5 -23t104.5 -73l72 69h68v-368h-72q-66 177 -139 255.5t-170 78.5
q-109 0 -147 -84.5t-42 -384.5h383l-14 -62h-369v-186h322l-15 -62h-307q3 -295 40 -392t149 -97q95 0 173 89t136 265h72v-389z" />
    <glyph glyph-name="guilsinglleft" unicode="&#x2039;" horiz-adv-x="680" 
d="M139 408q131 96 249.5 204.5t125.5 108.5q8 0 14.5 -7t6.5 -16q0 -18 -47 -89.5t-144 -200.5q94 -126 142.5 -200.5t48.5 -92.5q0 -9 -6.5 -16t-14.5 -7q-7 0 -125 109t-250 207z" />
    <glyph glyph-name="guilsinglright" unicode="&#x203a;" horiz-adv-x="680" 
d="M541 408q-132 -98 -250 -207t-125 -109q-8 0 -15.5 7t-7.5 16q0 18 47.5 89.5t145.5 203.5q-102 136 -147.5 204.5t-45.5 85.5q0 9 7.5 16t15.5 7q7 0 125 -108.5t250 -204.5z" />
    <glyph glyph-name="fi" unicode="&#xf001;" horiz-adv-x="1143" 
d="M27 61h125v676h-136v62h136v39q0 240 128 380t349 140q138 0 218.5 -51.5t80.5 -137.5q0 -54 -37 -90.5t-94 -36.5t-91 34.5t-34 90.5q0 24 11 57.5t11 43.5q0 16 -16.5 24t-48.5 8q-104 0 -150.5 -79.5t-46.5 -259.5q0 -28 1 -57.5t1 -31.5v-73h213q112 0 199 6t160 18
v-762h110v-61h-504v61h111v676h-291v-676h100v-61h-505v61z" />
    <glyph glyph-name="fl" unicode="&#xf002;" horiz-adv-x="1153" 
d="M33 61h119v676h-132v62h132v43q0 231 126 373.5t332 142.5q56 0 141.5 -11.5t114.5 -11.5q24 0 56.5 4t83.5 13v-1291h116v-61h-499v61h108v996h-4q-45 0 -71.5 25.5t-26.5 68.5t26.5 76.5t26.5 38.5q0 14 -20.5 24t-51.5 10q-94 0 -136 -87.5t-42 -290.5
q0 -49 0.5 -74.5t1.5 -48.5h174v-62h-176v-676h105v-61h-504v61z" />
    <glyph glyph-name="daggerdbl" unicode="&#x2021;" 
d="M383 479q51 83 76.5 170t25.5 174v21q-67 -2 -158.5 -45t-129.5 -43q-53 0 -84 29t-31 79t33.5 81.5t85.5 31.5q41 0 133 -40.5t151 -41.5v23q0 95 -44 202t-44 127q0 49 32 80t83 31q53 0 85 -30t32 -79q0 -9 -44 -121t-44 -221v-12h4q65 0 154 41t126 41q55 0 85 -29
t30 -82t-29.5 -81.5t-85.5 -28.5q-40 0 -129.5 40t-156.5 46q6 -119 32 -208.5t72 -154.5q-52 -76 -78 -164.5t-26 -187.5v-10q67 2 158.5 45t129.5 43q53 0 83 -29t30 -80q0 -49 -33.5 -80.5t-85.5 -31.5q-41 0 -131.5 40t-150.5 41v-22q0 -95 44 -202t44 -128
q0 -49 -32 -79.5t-83 -30.5q-53 0 -86 30t-33 78q0 9 45 121t45 221v13h-4q-65 0 -154.5 -41t-125.5 -41q-56 0 -86.5 29t-30.5 81q0 54 30.5 82.5t86.5 28.5q40 0 130 -40.5t156 -45.5q-6 115 -31 203t-71 157z" />
    <glyph glyph-name="periodcentered" unicode="&#xb7;" horiz-adv-x="618" 
d="M145 674q0 67 48.5 115.5t115.5 48.5t114.5 -48.5t47.5 -115.5t-47.5 -114.5t-114.5 -47.5t-115.5 47.5t-48.5 114.5z" />
    <glyph glyph-name="quotesinglbase" unicode="&#x201a;" horiz-adv-x="618" 
d="M221 -324q103 76 156 153t53 151q0 48 -7.5 69t-25.5 21l-38.5 -49.5t-96.5 -49.5q-65 0 -101 39t-36 109q0 79 49.5 129.5t128.5 50.5q99 0 163 -71.5t64 -182.5q0 -116 -68 -218t-206 -194z" />
    <glyph glyph-name="quotedblbase" unicode="&#x201e;" horiz-adv-x="1151" 
d="M754 -324q102 76 155.5 153t53.5 151q0 50 -7 70t-24 20q-1 0 -40.5 -49.5t-96.5 -49.5q-65 0 -101.5 39t-36.5 109q0 79 50.5 129.5t130.5 50.5q98 0 161.5 -71t63.5 -183q0 -116 -68.5 -218t-206.5 -194zM221 -324q103 76 156 153t53 151q0 48 -7.5 69t-25.5 21
l-38.5 -49.5t-96.5 -49.5q-65 0 -101 39t-36 109q0 79 49.5 129.5t128.5 50.5q99 0 163 -71.5t64 -182.5q0 -116 -68 -218t-206 -194z" />
    <glyph glyph-name="perthousand" unicode="&#x2030;" horiz-adv-x="2767" 
d="M2492 690q-48 0 -94.5 -44.5t-107.5 -153.5q-59 -105 -90 -187.5t-31 -134.5t31.5 -82.5t85.5 -30.5q56 0 113 41.5t110 120.5q44 66 68 148.5t24 164.5q0 76 -28.5 117t-80.5 41zM1939 260q0 76 30.5 154.5t88.5 156.5q72 96 165.5 149.5t186.5 53.5q114 0 179 -68
t65 -188q0 -93 -37.5 -193.5t-103.5 -183.5q-64 -77 -135 -114t-156 -37q-130 0 -206.5 73t-76.5 197zM1669 690q-49 0 -95 -44.5t-108 -153.5q-57 -102 -87.5 -185.5t-30.5 -136.5t30 -83t84 -30q57 0 114 41.5t110 120.5q44 67 69 149.5t25 163.5q0 74 -29.5 116t-81.5 42
zM1118 260q0 76 30 154.5t89 156.5q72 96 164.5 149.5t185.5 53.5q114 0 180 -68.5t66 -187.5q0 -94 -37.5 -194t-103.5 -183q-64 -77 -135 -114t-156 -37q-131 0 -207 73t-76 197zM645 1247q-46 -8 -85.5 -45t-92.5 -127q-63 -110 -97 -199.5t-34 -144.5q0 -46 32 -76
t83 -30q60 0 120 42.5t115 125.5q43 66 65.5 139.5t22.5 146.5q0 21 -1.5 40.5t-4.5 39.5q-39 16 -68.5 37.5t-54.5 50.5zM1229 1202q-59 -44 -126.5 -65t-148.5 -21q-34 0 -67.5 4.5t-65.5 13.5q1 -9 1.5 -20.5t0.5 -34.5q0 -90 -26 -172t-78 -157q-65 -94 -148 -143.5
t-174 -49.5q-131 0 -211 75t-80 199q0 91 42 184t122 179q68 72 147 109.5t163 37.5q81 0 135.5 -32.5t85.5 -100.5q48 -19 85 -28t70 -9q123 0 217.5 53.5t169.5 164.5h99l-830 -1452h-102z" />
    <glyph glyph-name="Acircumflex" unicode="&#xc2;" horiz-adv-x="1350" 
d="M358 442h361l-176 467zM4 0v66h82q33 0 55 22t45 80l457 1190h80l500 -1292h118v-66h-645v66h162l-117 311h-405l-88 -227q-3 -6 -4.5 -18.5t-1.5 -29.5t15.5 -26.5t43.5 -9.5h119v-66h-416zM361 1471l233 371h168l231 -371h-88l-227 186l-227 -186h-90z" />
    <glyph glyph-name="Ecircumflex" unicode="&#xca;" horiz-adv-x="1350" 
d="M63 0v66h162v1204h-139v61h1110l4 -350h-67q-68 170 -138 229.5t-204 59.5h-230v-547q8 -1 18.5 -1.5t28.5 -0.5q109 0 165 57.5t73 186.5h67v-568h-67q-11 138 -68 198t-178 60h-39v-589h223q165 0 258 87t146 291h63l-14 -444h-1174zM359 1471l233 371h168l231 -371
h-88l-227 186l-227 -186h-90z" />
    <glyph glyph-name="Aacute" unicode="&#xc1;" horiz-adv-x="1350" 
d="M358 442h361l-176 467zM4 0v66h82q33 0 55 22t45 80l457 1190h80l500 -1292h118v-66h-645v66h162l-117 311h-405l-88 -227q-3 -6 -4.5 -18.5t-1.5 -29.5t15.5 -26.5t43.5 -9.5h119v-66h-416zM465 1471l293 303q49 51 81 69.5t64 18.5q43 0 71 -28t28 -70q0 -34 -21 -59
t-74 -52l-348 -182h-94z" />
    <glyph glyph-name="Edieresis" unicode="&#xcb;" horiz-adv-x="1350" 
d="M63 0v66h162v1204h-139v61h1110l4 -350h-67q-68 170 -138 229.5t-204 59.5h-230v-547q8 -1 18.5 -1.5t28.5 -0.5q109 0 165 57.5t73 186.5h67v-568h-67q-11 138 -68 198t-178 60h-39v-589h223q165 0 258 87t146 291h63l-14 -444h-1174zM727 1657q0 51 39.5 90t91.5 39
q54 0 92.5 -37.5t38.5 -91.5q0 -58 -37 -95.5t-94 -37.5q-55 0 -93 39t-38 94zM363 1657q0 51 39.5 90t91.5 39q53 0 91 -37.5t38 -91.5q0 -58 -36.5 -95.5t-92.5 -37.5q-55 0 -93 39t-38 94z" />
    <glyph glyph-name="Egrave" unicode="&#xc8;" horiz-adv-x="1350" 
d="M63 0v66h162v1204h-139v61h1110l4 -350h-67q-68 170 -138 229.5t-204 59.5h-230v-547q8 -1 18.5 -1.5t28.5 -0.5q109 0 165 57.5t73 186.5h67v-568h-67q-11 138 -68 198t-178 60h-39v-589h223q165 0 258 87t146 291h63l-14 -444h-1174zM889 1471h-94l-348 180
q-53 27 -74 52t-21 59q0 42 28 70t71 28q33 0 65.5 -18.5t79.5 -67.5z" />
    <glyph glyph-name="Iacute" unicode="&#xcd;" horiz-adv-x="784" 
d="M55 0v66h164v1204h-164v61h672v-61h-164v-1204h164v-66h-672zM180 1471l293 303q49 51 81 69.5t64 18.5q43 0 71 -28t28 -70q0 -34 -21 -59t-74 -52l-348 -182h-94z" />
    <glyph glyph-name="Icircumflex" unicode="&#xce;" horiz-adv-x="784" 
d="M55 0v66h164v1204h-164v61h672v-61h-164v-1204h164v-66h-672zM76 1471l233 371h168l231 -371h-88l-227 186l-227 -186h-90z" />
    <glyph glyph-name="Idieresis" unicode="&#xcf;" horiz-adv-x="784" 
d="M55 0v66h164v1204h-164v61h672v-61h-164v-1204h164v-66h-672zM444 1657q0 51 39.5 90t91.5 39q54 0 92.5 -37.5t38.5 -91.5q0 -58 -37 -95.5t-94 -37.5q-55 0 -93 39t-38 94zM80 1657q0 51 39.5 90t91.5 39q53 0 91 -37.5t38 -91.5q0 -58 -36.5 -95.5t-92.5 -37.5
q-55 0 -93 39t-38 94z" />
    <glyph glyph-name="Igrave" unicode="&#xcc;" horiz-adv-x="784" 
d="M55 0v66h164v1204h-164v61h672v-61h-164v-1204h164v-66h-672zM606 1471h-94l-348 180q-53 27 -74 52t-21 59q0 42 28 70t71 28q33 0 65.5 -18.5t79.5 -67.5z" />
    <glyph glyph-name="Oacute" unicode="&#xd3;" horiz-adv-x="1575" 
d="M496 664q0 -256 8.5 -352.5t30.5 -143.5q32 -73 91 -105t160 -32q102 0 161 32t91 105q23 51 32 153t9 343q0 240 -9 342t-32 153q-32 73 -91 105t-161 32q-101 0 -160 -32t-91 -105q-22 -47 -30.5 -143.5t-8.5 -351.5zM98 664q0 134 52 257t151 226q106 107 225 159
t260 52q142 0 261 -52t225 -159q100 -103 152.5 -226.5t52.5 -256.5q0 -136 -52.5 -260t-152.5 -226q-103 -106 -223 -157.5t-263 -51.5q-142 0 -261 51.5t-224 157.5q-99 102 -151 226.5t-52 259.5zM575 1471l293 303q49 51 81 69.5t64 18.5q43 0 71 -28t28 -70
q0 -34 -21 -59t-74 -52l-348 -182h-94z" />
    <glyph glyph-name="Ocircumflex" unicode="&#xd4;" horiz-adv-x="1575" 
d="M496 664q0 -256 8.5 -352.5t30.5 -143.5q32 -73 91 -105t160 -32q102 0 161 32t91 105q23 51 32 153t9 343q0 240 -9 342t-32 153q-32 73 -91 105t-161 32q-101 0 -160 -32t-91 -105q-22 -47 -30.5 -143.5t-8.5 -351.5zM98 664q0 134 52 257t151 226q106 107 225 159
t260 52q142 0 261 -52t225 -159q100 -103 152.5 -226.5t52.5 -256.5q0 -136 -52.5 -260t-152.5 -226q-103 -106 -223 -157.5t-263 -51.5q-142 0 -261 51.5t-224 157.5q-99 102 -151 226.5t-52 259.5zM471 1471l233 371h168l231 -371h-88l-227 186l-227 -186h-90z" />
    <glyph glyph-name="apple" unicode="&#xf000;" horiz-adv-x="1618" 
d="M836 1216q-1 6 -1.5 14t-0.5 23q0 124 95 229.5t236 131.5q1 -10 1.5 -23t0.5 -39q0 -131 -103.5 -234.5t-203.5 -103.5h-8q-3 0 -7.5 1t-8.5 1zM1505 403q-114 -247 -205 -342.5t-204 -95.5q-50 0 -131.5 33t-122.5 33q-45 0 -131 -33t-127 -33q-64 0 -128.5 44
t-129.5 132q-102 140 -157.5 295.5t-55.5 300.5q0 219 125 356.5t323 137.5q68 0 155 -34t124 -34q34 0 121.5 35t152.5 35q110 0 198 -40t161 -124q-102 -65 -151.5 -145.5t-49.5 -182.5q0 -113 60 -200t173 -138z" />
    <glyph glyph-name="Ograve" unicode="&#xd2;" horiz-adv-x="1575" 
d="M496 664q0 -256 8.5 -352.5t30.5 -143.5q32 -73 91 -105t160 -32q102 0 161 32t91 105q23 51 32 153t9 343q0 240 -9 342t-32 153q-32 73 -91 105t-161 32q-101 0 -160 -32t-91 -105q-22 -47 -30.5 -143.5t-8.5 -351.5zM98 664q0 134 52 257t151 226q106 107 225 159
t260 52q142 0 261 -52t225 -159q100 -103 152.5 -226.5t52.5 -256.5q0 -136 -52.5 -260t-152.5 -226q-103 -106 -223 -157.5t-263 -51.5q-142 0 -261 51.5t-224 157.5q-99 102 -151 226.5t-52 259.5zM1001 1471h-94l-348 180q-53 27 -74 52t-21 59q0 42 28 70t71 28
q33 0 65.5 -18.5t79.5 -67.5z" />
    <glyph glyph-name="Uacute" unicode="&#xda;" horiz-adv-x="1454" 
d="M217 360v910h-156v61h666v-61h-174v-903q0 -169 65.5 -246.5t206.5 -77.5q75 0 136 21t106 63q50 46 71 111t21 229v20v678q0 68 -17 86.5t-83 18.5h-66v61h422v-61h-65q-71 0 -93 -21t-22 -86v-696q0 -150 -14.5 -216t-49.5 -114q-60 -85 -164 -126.5t-262 -41.5
q-259 0 -393.5 100t-134.5 291zM590 1471l293 303q49 51 81 69.5t64 18.5q43 0 71 -28t28 -70q0 -34 -21 -59t-74 -52l-348 -182h-94z" />
    <glyph glyph-name="Ucircumflex" unicode="&#xdb;" horiz-adv-x="1454" 
d="M217 360v910h-156v61h666v-61h-174v-903q0 -169 65.5 -246.5t206.5 -77.5q75 0 136 21t106 63q50 46 71 111t21 229v20v678q0 68 -17 86.5t-83 18.5h-66v61h422v-61h-65q-71 0 -93 -21t-22 -86v-696q0 -150 -14.5 -216t-49.5 -114q-60 -85 -164 -126.5t-262 -41.5
q-259 0 -393.5 100t-134.5 291zM486 1471l233 371h168l231 -371h-88l-227 186l-227 -186h-90z" />
    <glyph glyph-name="Ugrave" unicode="&#xd9;" horiz-adv-x="1454" 
d="M217 360v910h-156v61h666v-61h-174v-903q0 -169 65.5 -246.5t206.5 -77.5q75 0 136 21t106 63q50 46 71 111t21 229v20v678q0 68 -17 86.5t-83 18.5h-66v61h422v-61h-65q-71 0 -93 -21t-22 -86v-696q0 -150 -14.5 -216t-49.5 -114q-60 -85 -164 -126.5t-262 -41.5
q-259 0 -393.5 100t-134.5 291zM1016 1471h-94l-348 180q-53 27 -74 52t-21 59q0 42 28 70t71 28q33 0 65.5 -18.5t79.5 -67.5z" />
    <glyph glyph-name="dotlessi" unicode="&#x131;" horiz-adv-x="563" 
d="M25 0v61h120v676h-133l1 62q111 3 214.5 9t200.5 15v-762h127v-61h-530z" />
    <glyph glyph-name="circumflex" unicode="&#x2c6;" 
d="M195 934l233 371h168l231 -371h-88l-227 186l-227 -186h-90z" />
    <glyph glyph-name="tilde" unicode="&#x2dc;" 
d="M274 967h-75q23 132 77 195t144 63q16 0 34 -2.5t42 -8.5l116 -30q16 -4 25 -5t16 -1q37 0 60.5 23t36.5 71h75q-21 -126 -77 -192t-142 -66q-18 0 -34 2t-31 6l-113 29l-7 1q-37 9 -48 9q-39 0 -63.5 -23.5t-35.5 -70.5z" />
    <glyph glyph-name="macron" unicode="&#xaf;" 
d="M225 1040v156h574v-156h-574z" />
    <glyph glyph-name="breve" unicode="&#x2d8;" 
d="M193 1272h81q18 -70 73 -100.5t165 -30.5t164.5 30.5t71.5 100.5l81 -2q-21 -148 -102.5 -225.5t-214.5 -77.5q-134 0 -216 78t-103 227z" />
    <glyph glyph-name="dotaccent" unicode="&#x2d9;" 
d="M377 1120q0 54 40.5 94.5t94.5 40.5q57 0 97 -39t40 -96q0 -58 -39.5 -97.5t-97.5 -39.5q-55 0 -95 41t-40 96z" />
    <glyph glyph-name="ring" unicode="&#x2da;" 
d="M385 1171q0 -53 37.5 -90t91.5 -37t90.5 37t36.5 90q0 55 -37 92t-90 37q-54 0 -91.5 -37.5t-37.5 -91.5zM256 1174q0 107 74 181.5t182 74.5t183 -74.5t75 -181.5q0 -110 -74.5 -184.5t-183.5 -74.5t-182.5 74.5t-73.5 184.5z" />
    <glyph glyph-name="cedilla" unicode="&#xb8;" 
d="M217 -381l45 98q73 -40 132.5 -59.5t109.5 -19.5q37 0 62.5 23.5t25.5 59.5q0 40 -23 60t-69 20q-14 0 -29.5 -1.5l-34.5 -3.5v204h78v-116q17 2 32.5 3.5t31.5 1.5q85 0 136.5 -46.5t51.5 -125.5q0 -86 -61 -135t-170 -49q-64 0 -143 21.5t-175 64.5z" />
    <glyph glyph-name="hungarumlaut" unicode="&#x2dd;" 
d="M551 934l217 291q45 61 72.5 79.5t60.5 18.5q36 0 59 -23.5t23 -60.5q0 -26 -18 -51.5t-58 -54.5l-270 -199h-86zM295 934l147 276q36 66 64.5 90.5t64.5 24.5q35 0 57.5 -24t22.5 -60q0 -22 -14.5 -47t-44.5 -55l-211 -205h-86z" />
    <glyph glyph-name="ogonek" unicode="&#x2db;" 
d="M666 31q-87 -69 -126.5 -131.5t-39.5 -128.5q0 -54 22 -83.5t64 -29.5q34 0 63 17.5t51 52.5l33 -19q-41 -86 -99.5 -129t-133.5 -43t-120.5 42t-45.5 112q0 83 69.5 168.5t206.5 171.5h56z" />
    <glyph glyph-name="caron" unicode="&#x2c7;" 
d="M195 1305h90l227 -187l227 187h88l-231 -371h-168z" />
    <glyph glyph-name="Lslash" unicode="&#x141;" horiz-adv-x="1247" 
d="M94 0v66h137v444l-254 -178v86l254 178v674h-137v61h664v-61h-183v-529l308 215v-88l-308 -213v-589h193q165 0 259 87t147 291h61l-12 -444h-1129z" />
    <glyph glyph-name="lslash" unicode="&#x142;" horiz-adv-x="592" 
d="M29 61h118v451l-184 -131v80l184 133v676h-133l1 61q110 3 214.5 9.5t200.5 14.5v-644l178 127v-80l-178 -127v-570h127v-61h-528v61z" />
    <glyph glyph-name="Scaron" unicode="&#x160;" horiz-adv-x="1122" 
d="M102 -16v391h78q51 -170 151.5 -257t246.5 -87q131 0 217 70t86 178q0 58 -20.5 95.5t-69.5 69.5q-56 37 -221 75q-61 14 -93 22q-193 49 -280.5 144t-87.5 255q0 187 116.5 302.5t304.5 115.5q77 0 143.5 -21.5t125.5 -64.5l73 59h64l8 -352h-67q-39 155 -130 236
t-227 81q-113 0 -185.5 -55t-72.5 -139q0 -126 267 -185l55 -12q249 -58 349.5 -164.5t100.5 -302.5q0 -202 -128.5 -335.5t-323.5 -133.5q-99 0 -174 22.5t-140 71.5l-92 -79h-74zM244 1842h90l227 -187l227 187h88l-231 -371h-168z" />
    <glyph glyph-name="scaron" unicode="&#x161;" horiz-adv-x="784" 
d="M86 0v297h51q35 -132 109.5 -199t183.5 -67q86 0 140.5 41.5t54.5 103.5q0 78 -179 100q-51 6 -79 11q-158 23 -221.5 80t-63.5 170q0 131 78 208.5t211 77.5q50 0 100 -12t94 -35l43 37h41l6 -227h-51q-32 93 -90 140.5t-141 47.5q-81 0 -134 -32t-53 -78q0 -66 207 -92
q33 -4 52 -7q161 -20 225.5 -83.5t64.5 -196.5q0 -144 -83 -226t-228 -82q-70 0 -128.5 17.5t-102.5 50.5l-58 -45h-49zM76 1305h90l227 -187l227 187h88l-231 -371h-168z" />
    <glyph glyph-name="Zcaron" unicode="&#x17d;" horiz-adv-x="1120" 
d="M23 0v76l675 1194h-213q-134 0 -216.5 -74.5t-114.5 -224.5h-66l25 360h956v-59l-680 -1206h209q173 0 265 86.5t149 304.5h57l-12 -457h-1034zM244 1842h90l227 -187l227 187h88l-231 -371h-168z" />
    <glyph glyph-name="zcaron" unicode="&#x17e;" horiz-adv-x="901" 
d="M57 0v43l451 694h-139q-71 0 -117.5 -51.5t-101.5 -200.5h-56l10 314h717v-49l-448 -689h139q86 0 142 59t118 222h55l-14 -342h-756zM134 1305h90l227 -187l227 187h88l-231 -371h-168z" />
    <glyph glyph-name="brokenbar" unicode="&#xa6;" 
d="M410 408h206v-758h-206v758zM410 1432h206v-758h-206v758z" />
    <glyph glyph-name="Eth" unicode="&#xd0;" horiz-adv-x="1579" 
d="M586 66h170q114 0 166 17t88 60q44 55 63 152t19 293v94q0 220 -13 315t-43 152q-36 67 -93.5 94t-186.5 27h-170v-543h260v-76h-260v-585zM88 66h162v585h-256v76h256v543h-162v61h680q147 0 251.5 -28.5t190.5 -90.5q123 -88 193 -233t70 -313q0 -169 -71.5 -315
t-197.5 -236q-82 -59 -190.5 -87t-251.5 -28h-674v66z" />
    <glyph glyph-name="eth" unicode="&#xf0;" horiz-adv-x="1120" 
d="M698 820q-18 69 -60.5 137t-111.5 139l-297 -131l-34 79l260 115q-41 38 -105 70.5t-155 62.5l12 64q122 -22 221 -54t174 -75l250 108l33 -78l-199 -88q172 -136 260 -315.5t88 -392.5q0 -231 -125 -357.5t-354 -126.5q-211 0 -344 118t-133 304q0 196 138.5 311
t375.5 115q26 0 52.5 -1.5t53.5 -3.5zM557 774q-95 0 -128.5 -60t-33.5 -311v-84q0 -188 34 -240t128 -52t127 57.5t33 288.5v116q0 183 -34 234t-126 51z" />
    <glyph glyph-name="Yacute" unicode="&#xdd;" horiz-adv-x="1350" 
d="M358 0v66h164v567l-389 637h-131v61h670v-61h-164l326 -541l229 430q16 31 22.5 46.5t6.5 25.5q0 20 -17 29.5t-51 9.5h-115v61h430v-61h-55q-53 0 -86.5 -27t-81.5 -117l-250 -467v-593h164v-66h-672zM463 1471l293 303q49 51 81 69.5t64 18.5q43 0 71 -28t28 -70
q0 -34 -21 -59t-74 -52l-348 -182h-94z" />
    <glyph glyph-name="yacute" unicode="&#xfd;" horiz-adv-x="1010" 
d="M449 -236q-47 -109 -101.5 -161t-122.5 -52q-63 0 -97 32.5t-34 92.5q0 52 34.5 86.5t86.5 34.5q51 0 85.5 -34.5t43.5 -34.5q16 0 27 12t26 47l90 211l-376 739h-86v62h489v-62h-100l200 -428l152 350q7 15 9.5 24.5t2.5 21.5q0 15 -14 23.5t-41 8.5h-78v62h320v-62h-56
q-27 0 -43 -13t-28 -44zM293 934l293 303q49 51 81 69.5t64 18.5q43 0 71 -28t28 -70q0 -34 -21 -59t-74 -52l-348 -182h-94z" />
    <glyph glyph-name="Thorn" unicode="&#xde;" horiz-adv-x="1346" 
d="M752 1032q281 0 418 -83.5t137 -256.5q0 -181 -141.5 -271.5t-424.5 -90.5h-180v-264h189v-66h-687v66h162v1204h-162v61h660v-61h-162v-238h191zM561 971v-588h187q113 0 149.5 48t36.5 257q0 189 -36.5 236t-158.5 47h-178z" />
    <glyph glyph-name="thorn" unicode="&#xfe;" horiz-adv-x="1133" 
d="M750 186v422q0 95 -23 125.5t-82 30.5q-100 0 -161.5 -79t-61.5 -210v-153q0 -132 62 -210.5t163 -78.5q57 0 80 31t23 122zM25 -449v62h114v1657h-133v61q111 3 215.5 9.5t200.5 14.5v-685q48 79 113.5 116t156.5 37q155 0 262 -122.5t107 -303.5q0 -177 -107.5 -299.5
t-261.5 -122.5q-92 0 -157 37t-113 115v-514h147v-62h-544z" />
    <glyph glyph-name="minus" unicode="&#x2212;" horiz-adv-x="1706" 
d="M254 713h1198v-203h-1198v203z" />
    <glyph glyph-name="multiply" unicode="&#xd7;" horiz-adv-x="1706" 
d="M416 1202l450 -450l451 450l141 -139l-450 -453l450 -450l-141 -140l-451 451l-450 -451l-140 140l451 450l-451 453z" />
    <glyph glyph-name="onesuperior" unicode="&#xb9;" horiz-adv-x="817" 
d="M143 535v36h168v697q0 21 -14.5 28t-77.5 7h-72l1 30q82 2 160.5 7t154.5 14h45v-783h160v-36h-525z" />
    <glyph glyph-name="twosuperior" unicode="&#xb2;" horiz-adv-x="817" 
d="M51 535v110l244 172q100 71 145 141.5t45 155.5q0 90 -47.5 140.5t-132.5 50.5q-58 0 -105.5 -30.5t-47.5 -55.5q0 -8 6.5 -11.5t17.5 -3.5h8q54 0 84.5 -23t30.5 -65q0 -38 -26.5 -62t-69.5 -24q-55 0 -88 33.5t-33 87.5q0 87 89 145t228 58q145 0 229.5 -57.5
t84.5 -155.5q0 -78 -63 -149t-204 -152l-245 -138v-10h389q35 0 49.5 9.5t17.5 33.5l9 72h45l-15 -272h-645z" />
    <glyph glyph-name="threesuperior" unicode="&#xb3;" horiz-adv-x="817" 
d="M428 971q151 -19 222 -69t71 -138q0 -109 -106.5 -176.5t-282.5 -67.5q-117 0 -191.5 45t-74.5 113q0 45 26.5 71.5t71.5 26.5t74.5 -24t29.5 -60q0 -42 -36.5 -69t-36.5 -31q0 -14 35 -24.5t87 -10.5q87 0 129.5 48t42.5 145q0 102 -50.5 150t-159.5 48q-14 0 -33 -1
t-25 -1q-14 0 -21 5.5t-7 17.5q0 10 7.5 16t20.5 6q4 0 18.5 -2t24.5 -2q102 0 146.5 42.5t44.5 141.5q0 79 -28 111.5t-95 32.5q-39 0 -65.5 -9t-26.5 -20l30.5 -26t30.5 -60q0 -40 -26 -63t-70 -23q-38 0 -62 23.5t-24 60.5q0 68 69.5 111t182.5 43q136 0 217.5 -50.5
t81.5 -132.5q0 -68 -62.5 -116.5t-179.5 -71.5v-10z" />
    <glyph glyph-name="onequarter" unicode="&#xbc;" horiz-adv-x="1901" 
d="M1493 244l6 383h-6q-97 -109 -174 -207t-129 -176h303zM1374 0v35h113v174h-336v47q122 167 228 294.5t194 213.5h108v-520h140v86h28v-203h-28v82h-140v-174h101v-35h-408zM539 -27h-101l924 1391h100zM137 588v35h162v649q0 20 -14 26.5t-74 6.5h-70l1 28q72 2 147 6.5
t153 12.5h45v-729h150v-35h-500z" />
    <glyph glyph-name="onehalf" unicode="&#xbd;" horiz-adv-x="1901" 
d="M1171 0v102l232 162q95 65 138.5 131t43.5 146q0 84 -45 131t-127 47q-54 0 -99.5 -28.5t-45.5 -51.5q0 -7 5.5 -10.5t18.5 -3.5h6q52 0 80.5 -21.5t28.5 -60.5q0 -37 -24.5 -58.5t-65.5 -21.5q-53 0 -85 30.5t-32 81.5q0 82 85 135.5t218 53.5q139 0 219 -53t80 -144
q0 -73 -59.5 -139.5t-194.5 -142.5l-233 -129v-9h371q34 0 48 9.5t17 31.5l8 66h41l-14 -254h-615zM539 -27h-101l924 1391h100zM137 588v35h162v649q0 20 -14 26.5t-74 6.5h-70l1 28q72 2 147 6.5t153 12.5h45v-729h150v-35h-500z" />
    <glyph glyph-name="threequarters" unicode="&#xbe;" horiz-adv-x="1901" 
d="M1493 244l6 383h-6q-97 -109 -174 -207t-129 -176h303zM1374 0v35h113v174h-336v47q122 167 228 294.5t194 213.5h108v-520h140v86h28v-203h-28v82h-140v-174h101v-35h-408zM539 -27h-101l924 1391h100zM408 995q143 -17 211.5 -64t68.5 -128q0 -102 -101.5 -166
t-269.5 -64q-112 0 -184 42.5t-72 105.5q0 42 26 67t69 25q44 0 72 -22t28 -56q0 -40 -35 -65.5t-35 -28.5q0 -14 33 -23.5t84 -9.5q83 0 123.5 45t40.5 135q0 96 -49 141.5t-152 45.5q-13 0 -31 -1t-24 -1q-13 0 -21 5.5t-8 14.5t8 15t21 6q4 0 18 -1t23 -1q98 0 140 39.5
t42 132.5q0 73 -27 103t-92 30q-36 0 -61 -9t-25 -20q0 -3 13 -11q45 -30 45 -67q0 -38 -24.5 -60t-65.5 -22q-38 0 -61 22t-23 56q0 64 66.5 104t174.5 40q129 0 207 -46.5t78 -121.5q0 -66 -59.5 -111.5t-171.5 -66.5v-9z" />
    <glyph glyph-name="franc" unicode="&#x20a3;" horiz-adv-x="2138" 
d="M72 0v66h159v1204h-163v61h1132l12 -387h-69q-49 180 -131 253t-238 73h-205l1 -547q7 -1 17.5 -1.5t28.5 -0.5q107 0 163 58t73 186h68v-568h-68q-11 138 -68 198t-176 60h-39v-589h195v-66h-692zM1294 0v61h109v676h-111v61q97 4 193.5 10t193.5 15v-219
q41 103 107.5 161t142.5 58t127 -49t51 -121q0 -64 -41 -105.5t-104 -41.5q-55 0 -93 40t-38 97q0 22 12 45t12 31q0 5 -4.5 8.5t-11.5 3.5q-44 0 -99 -99t-55 -208v-363h148v-61h-539z" />
    <glyph glyph-name="Gbreve" unicode="&#x11e;" horiz-adv-x="1462" 
d="M1421 449h-123v-17q0 -217 -142 -340t-392 -123q-101 0 -187 25t-159 76q-149 103 -228 255.5t-79 338.5q0 144 55.5 272.5t165.5 234.5q94 92 205.5 139.5t232.5 47.5q100 0 180 -26t140 -79l75 80h60l10 -385h-74q-52 171 -146 259.5t-224 88.5q-96 0 -155 -32.5
t-89 -102.5q-23 -52 -32 -149.5t-9 -388.5q0 -410 50 -501t192 -91q97 0 149.5 43t52.5 123v252h-174v63h645v-63zM412 1809h81q18 -70 73 -100.5t165 -30.5t164.5 30.5t71.5 100.5l81 -2q-21 -148 -102.5 -225.5t-214.5 -77.5q-134 0 -216 78t-103 227z" />
    <glyph glyph-name="gbreve" unicode="&#x11f;" horiz-adv-x="1006" 
d="M217 -76q-22 -28 -32.5 -57.5t-10.5 -61.5q0 -99 75.5 -151.5t217.5 -52.5q174 0 280.5 67.5t106.5 173.5q0 47 -31.5 64.5t-132.5 17.5h-473zM365 477q0 -79 24.5 -109t85.5 -30q62 0 86.5 30t24.5 109v160q0 79 -24.5 108t-86.5 29t-86 -29t-24 -108v-160zM152 -57
q-61 30 -92 78.5t-31 113.5q0 83 50.5 138.5t139.5 72.5v10q-63 26 -97 75t-34 114q0 118 107.5 198t273.5 80q90 0 163.5 -23.5t131.5 -70.5q37 62 68.5 88.5t68.5 26.5q45 0 71.5 -27.5t26.5 -73.5q0 -38 -22 -63t-57 -25q-38 0 -66 25t-33 25t-9 -2.5t-9 -10.5
q29 -34 42 -66.5t13 -72.5q0 -123 -103 -192.5t-286 -69.5q-48 0 -115.5 5t-87.5 5q-68 0 -104.5 -18.5t-36.5 -53.5q0 -32 31 -43.5t170 -11.5h348q147 0 207.5 -52t60.5 -175q0 -186 -131 -291t-367 -105q-202 0 -308.5 56.5t-106.5 163.5q0 51 29.5 89.5t93.5 69.5v13z
M185 1272h81q18 -70 73 -100.5t165 -30.5t164.5 30.5t71.5 100.5l81 -2q-21 -148 -102.5 -225.5t-214.5 -77.5q-134 0 -216 78t-103 227z" />
    <glyph glyph-name="Idotaccent" unicode="&#x130;" horiz-adv-x="784" 
d="M55 0v66h164v1204h-164v61h672v-61h-164v-1204h164v-66h-672zM258 1657q0 54 40.5 94.5t94.5 40.5q57 0 97 -39t40 -96q0 -58 -39.5 -97.5t-97.5 -39.5q-55 0 -95 41t-40 96z" />
    <glyph glyph-name="Scedilla" unicode="&#x15e;" horiz-adv-x="1122" 
d="M102 -16v391h78q51 -170 151.5 -257t246.5 -87q131 0 217 70t86 178q0 58 -20.5 95.5t-69.5 69.5q-56 37 -221 75q-61 14 -93 22q-193 49 -280.5 144t-87.5 255q0 187 116.5 302.5t304.5 115.5q77 0 143.5 -21.5t125.5 -64.5l73 59h64l8 -352h-67q-39 155 -130 236
t-227 81q-113 0 -185.5 -55t-72.5 -139q0 -126 267 -185l55 -12q249 -58 349.5 -164.5t100.5 -302.5q0 -202 -128.5 -335.5t-323.5 -133.5q-99 0 -174 22.5t-140 71.5l-92 -79h-74zM266 -381l45 98q73 -40 132.5 -59.5t109.5 -19.5q37 0 62.5 23.5t25.5 59.5q0 40 -23 60
t-69 20q-14 0 -29.5 -1.5l-34.5 -3.5v204h78v-116q17 2 32.5 3.5t31.5 1.5q85 0 136.5 -46.5t51.5 -125.5q0 -86 -61 -135t-170 -49q-64 0 -143 21.5t-175 64.5z" />
    <glyph glyph-name="scedilla" unicode="&#x15f;" horiz-adv-x="784" 
d="M86 0v297h51q35 -132 109.5 -199t183.5 -67q86 0 140.5 41.5t54.5 103.5q0 78 -179 100q-51 6 -79 11q-158 23 -221.5 80t-63.5 170q0 131 78 208.5t211 77.5q50 0 100 -12t94 -35l43 37h41l6 -227h-51q-32 93 -90 140.5t-141 47.5q-81 0 -134 -32t-53 -78q0 -66 207 -92
q33 -4 52 -7q161 -20 225.5 -83.5t64.5 -196.5q0 -144 -83 -226t-228 -82q-70 0 -128.5 17.5t-102.5 50.5l-58 -45h-49zM98 -381l45 98q73 -40 132.5 -59.5t109.5 -19.5q37 0 62.5 23.5t25.5 59.5q0 40 -23 60t-69 20q-14 0 -29.5 -1.5l-34.5 -3.5v204h78v-116
q17 2 32.5 3.5t31.5 1.5q85 0 136.5 -46.5t51.5 -125.5q0 -86 -61 -135t-170 -49q-64 0 -143 21.5t-175 64.5z" />
    <glyph glyph-name="Cacute" unicode="&#x106;" horiz-adv-x="1348" 
d="M1229 399v-399h-66l-90 74q-59 -53 -139.5 -80t-179.5 -27q-137 0 -251 53t-212 162q-97 106 -145 226.5t-48 257.5q0 135 48.5 254.5t146.5 226.5t214 160t253 53q84 0 159 -24t144 -72l72 69h67l8 -368h-71q-66 177 -156 255t-227 78q-154 0 -209 -101t-55 -507
q0 -214 5 -320t17 -153q25 -100 82 -144t160 -44q141 0 252.5 103.5t144.5 266.5h76zM535 1471l293 303q49 51 81 69.5t64 18.5q43 0 71 -28t28 -70q0 -34 -21 -59t-74 -52l-348 -182h-94z" />
    <glyph glyph-name="cacute" unicode="&#x107;" horiz-adv-x="1010" 
d="M860 270l47 -16q-47 -137 -139 -205.5t-225 -68.5q-193 0 -323 122t-130 301q0 175 136.5 297.5t334.5 122.5q138 0 224.5 -63t86.5 -162q0 -57 -37 -94t-94 -37q-64 0 -101.5 37t-37.5 100q0 46 32 83.5t32 41.5q0 24 -25.5 35.5t-79.5 11.5q-90 0 -124 -42t-34 -208
v-245q0 -153 35 -198.5t127 -45.5q106 0 180.5 59t114.5 174zM295 934l293 303q49 51 81 69.5t64 18.5q43 0 71 -28t28 -70q0 -34 -21 -59t-74 -52l-348 -182h-94z" />
    <glyph glyph-name="Ccaron" unicode="&#x10c;" horiz-adv-x="1348" 
d="M1229 399v-399h-66l-90 74q-59 -53 -139.5 -80t-179.5 -27q-137 0 -251 53t-212 162q-97 106 -145 226.5t-48 257.5q0 135 48.5 254.5t146.5 226.5t214 160t253 53q84 0 159 -24t144 -72l72 69h67l8 -368h-71q-66 177 -156 255t-227 78q-154 0 -209 -101t-55 -507
q0 -214 5 -320t17 -153q25 -100 82 -144t160 -44q141 0 252.5 103.5t144.5 266.5h76zM431 1842h90l227 -187l227 187h88l-231 -371h-168z" />
    <glyph glyph-name="ccaron" unicode="&#x10d;" horiz-adv-x="1010" 
d="M860 270l47 -16q-47 -137 -139 -205.5t-225 -68.5q-193 0 -323 122t-130 301q0 175 136.5 297.5t334.5 122.5q138 0 224.5 -63t86.5 -162q0 -57 -37 -94t-94 -37q-64 0 -101.5 37t-37.5 100q0 46 32 83.5t32 41.5q0 24 -25.5 35.5t-79.5 11.5q-90 0 -124 -42t-34 -208
v-245q0 -153 35 -198.5t127 -45.5q106 0 180.5 59t114.5 174zM191 1305h90l227 -187l227 187h88l-231 -371h-168z" />
    <glyph glyph-name="dcroat" unicode="&#x111;" horiz-adv-x="1137" 
d="M723 322v153q0 131 -62.5 210t-164.5 79q-56 0 -78.5 -29t-22.5 -121v-426q0 -93 22.5 -124t78.5 -31q102 0 164.5 78.5t62.5 210.5zM723 0v127q-46 -76 -111.5 -114t-152.5 -38q-160 0 -268.5 122t-108.5 300q0 183 107.5 304.5t269.5 121.5q86 0 152 -38.5t112 -114.5
v329h-264v70h264v201h-158l1 61q124 3 232 9t201 16v-287h191v-70h-191v-938h111v-61h-387z" />
    <glyph glyph-name="sfthyphen" unicode="&#xad;" horiz-adv-x="770" 
d="M121 279v247h526v-247h-526z" />
    <glyph glyph-name="periodcentered" unicode="&#x2219;" horiz-adv-x="618" 
d="M145 674q0 67 48.5 115.5t115.5 48.5t114.5 -48.5t47.5 -115.5t-47.5 -114.5t-114.5 -47.5t-115.5 47.5t-48.5 114.5z" />
    <glyph glyph-name="Euro" horiz-adv-x="1237" 
d="M1133 0h-68l-72 70q-47 -51 -104.5 -74t-136.5 -23q-205 0 -349 155.5t-178 395.5h-153l14 62h133q-2 30 -3 49t-1 35q0 43 1 64t3 38h-147l14 62h141q38 230 181.5 380t343.5 150q79 0 136.5 -23t104.5 -73l72 69h68v-368h-72q-66 177 -139 255.5t-170 78.5
q-109 0 -147 -84.5t-42 -384.5h383l-14 -62h-369v-186h322l-15 -62h-307q3 -295 40 -392t149 -97q95 0 173 89t136 265h72v-389z" />
    <glyph glyph-name="Euro" unicode="&#x20ac;" horiz-adv-x="1237" 
d="M1133 0h-68l-72 70q-47 -51 -104.5 -74t-136.5 -23q-205 0 -349 155.5t-178 395.5h-153l14 62h133q-2 30 -3 49t-1 35q0 43 1 64t3 38h-147l14 62h141q38 230 181.5 380t343.5 150q79 0 136.5 -23t104.5 -73l72 69h68v-368h-72q-66 177 -139 255.5t-170 78.5
q-109 0 -147 -84.5t-42 -384.5h383l-14 -62h-369v-186h322l-15 -62h-307q3 -295 40 -392t149 -97q95 0 173 89t136 265h72v-389z" />
    </font>
</defs>
</svg>
