<?xml version="1.0" standalone="no"?>
<!DOCTYPE svg PUBLIC "-//W3C//DTD SVG 1.1//EN" "http://www.w3.org/Graphics/SVG/1.1/DTD/svg11.dtd" >
<svg>
<metadata>
Created by FontForge 20090622 at Thu Apr 19 09:34:48 2018
 By deploy user
Copyright 1990-2001 Bitstream Inc. All rights reserved.
</metadata>
<defs>
<font id="BodoniBT-BoldItalic" horiz-adv-x="1024" >
  <font-face 
    font-family="Bodoni Bd BT"
    font-weight="400"
    font-style="italic"
    font-stretch="normal"
    units-per-em="2048"
    panose-1="2 7 8 3 8 7 6 9 3 3"
    ascent="1556"
    descent="-492"
    x-height="821"
    cap-height="1337"
    bbox="-483 -483 2732 1946"
    underline-thickness="174"
    underline-position="-132"
    slope="-12"
    unicode-range="U+0020-U+F002"
  />
<missing-glyph horiz-adv-x="1229" 
d="M102 -362v1806h1024v-1806h-1024zM217 -248h795v1577h-795v-1577z" />
    <glyph glyph-name=".notdef" horiz-adv-x="1229" 
d="M102 -362v1806h1024v-1806h-1024zM217 -248h795v1577h-795v-1577z" />
    <glyph glyph-name=".null" horiz-adv-x="0" 
 />
    <glyph glyph-name="nonmarkingreturn" horiz-adv-x="621" 
 />
    <glyph glyph-name="space" unicode=" " horiz-adv-x="621" 
 />
    <glyph glyph-name="exclam" unicode="!" horiz-adv-x="674" 
d="M53 135q0 67 47.5 114.5t114.5 47.5q66 0 113 -47.5t47 -114.5q0 -66 -47 -114t-113 -48q-67 0 -114.5 47.5t-47.5 114.5zM238 412q23 110 35 222t12 226q0 63 -5.5 149t-5.5 109q0 121 44 183.5t128 62.5q69 0 113.5 -44t44.5 -112q0 -78 -93 -233q-46 -76 -69 -121
q-42 -83 -79 -198t-66 -255z" />
    <glyph glyph-name="quotedbl" unicode="&#x22;" horiz-adv-x="707" 
d="M543 852h-41l-80 461q-2 12 -3 21t-1 16q0 53 28 83.5t76 30.5q49 0 77 -29.5t28 -80.5q0 -6 -1 -15l-3 -26zM203 852h-41l-80 461q-1 7 -1.5 14.5t-0.5 22.5q0 52 28 83t74 31q48 0 75.5 -29t27.5 -81q0 -16 -0.5 -24.5t-1.5 -16.5z" />
    <glyph glyph-name="numbersign" unicode="#" horiz-adv-x="1575" 
d="M705 852l-91 -252h265l88 252h-262zM711 1464h215l-148 -415h254l150 415h213l-148 -415h283l-74 -199h-278l-88 -248h292l-71 -196h-291l-148 -416h-215l148 416h-254l-150 -416h-215l148 416h-289l74 196h287l88 248h-304l74 199h299z" />
    <glyph glyph-name="dollar" unicode="$" horiz-adv-x="1241" 
d="M530 879l84 395q-119 -22 -179 -75.5t-60 -139.5q0 -68 41 -116t114 -64zM588 865l55 -13t88 -23l96 449h-5q-68 4 -103 4h-41zM416 66q4 -1 12 -2q53 -7 74 -7q18 0 32.5 0.5t30.5 1.5l107 494q-41 10 -114 31q-18 5 -28 7zM629 70q119 13 192.5 85t73.5 173
q0 77 -42 130.5t-122 78.5zM356 78l115 532q-123 43 -189.5 127.5t-66.5 198.5q0 151 113 260.5t299 134.5l26 123h60l-23 -116q10 0 22.5 0.5t35.5 0.5q25 0 48 -1.5t44 -3.5l24 120h62l-27 -133q104 -23 167.5 -91t63.5 -155q0 -53 -35 -91t-83 -38q-46 0 -78.5 31.5
t-32.5 77.5q0 53 40 92t40 49q0 20 -25.5 38t-70.5 30l-97 -451q128 -43 196.5 -134t68.5 -218q0 -182 -121.5 -309t-317.5 -148l-49 -231h-59l47 227h-29h-37q-18 0 -39 1.5t-44 4.5l-52 -233h-59l51 241q-122 21 -199 96t-77 169q0 68 40 113.5t101 45.5q57 0 91 -34
t34 -91q0 -53 -31.5 -89t-64.5 -36q-5 0 -12 -9.5t-7 -18.5q0 -26 38.5 -50t98.5 -32z" />
    <glyph glyph-name="percent" unicode="%" horiz-adv-x="2025" 
d="M1348 182q0 -62 28.5 -93.5t85.5 -31.5q112 0 217 150.5t105 324.5q0 74 -31 116t-84 42q-47 0 -91 -39.5t-97 -132.5q-60 -102 -96.5 -196.5t-36.5 -139.5zM1401 -10q-131 0 -207 74t-76 200q0 79 37 168t102 166q72 84 158.5 130t171.5 46q114 0 180 -68.5t66 -187.5
q0 -92 -38 -193.5t-103 -183.5q-64 -77 -135 -114t-156 -37zM768 1159q-39 16 -68.5 37.5t-54.5 50.5q-43 -8 -78 -37.5t-80 -99.5q-69 -113 -109 -215.5t-40 -163.5q0 -47 31.5 -76.5t81.5 -29.5q114 0 218.5 143t104.5 297q0 19 -1.5 43.5t-4.5 50.5zM510 -63l719 1265
q-59 -44 -126 -65t-149 -21q-29 0 -62 4.5t-71 13.5q1 -17 1.5 -33t0.5 -32q0 -198 -130.5 -355t-295.5 -157q-128 0 -208 74t-80 194q0 97 40.5 190t120.5 179q68 72 147 109.5t163 37.5q82 0 136 -32.5t85 -100.5q44 -19 81.5 -28t75.5 -9q124 0 217 52.5t168 165.5h99
l-830 -1452h-102z" />
    <glyph glyph-name="ampersand" unicode="&#x26;" horiz-adv-x="1571" 
d="M516 725q-81 -28 -119.5 -85t-38.5 -151q0 -175 70 -292t174 -117q45 0 92 20t92 60q-82 118 -150 260.5t-120 304.5zM786 872q113 53 165.5 130t52.5 190q0 57 -35 88t-99 31q-72 0 -115.5 -41t-43.5 -109q0 -41 18.5 -111.5t56.5 -177.5zM823 115q-98 -76 -188.5 -111
t-188.5 -35q-180 0 -290.5 100.5t-110.5 264.5q0 145 115.5 256.5t339.5 183.5q-29 102 -38 150.5t-9 85.5q0 159 124.5 256.5t329.5 97.5q141 0 225.5 -56t84.5 -149q0 -100 -96.5 -177t-317.5 -153l84 -207t90 -202q32 54 83 151q140 267 277 267q75 0 120.5 -41
t45.5 -107q0 -54 -34.5 -90.5t-86.5 -36.5q-58 0 -93.5 32.5t-35.5 84.5q0 10 3.5 24t3.5 17q-1 7 -4 10.5t-9 3.5q-41 0 -116 -153q-68 -138 -121 -224q56 -132 118.5 -196t135.5 -64q50 0 102 33t109 100l36 -41q-74 -115 -166 -168t-217 -53q-105 0 -181.5 36.5
t-123.5 109.5z" />
    <glyph glyph-name="quotesingle" unicode="'" horiz-adv-x="365" 
d="M203 852h-41l-80 461q-2 12 -3 21t-1 16q0 53 28 83.5t76 30.5t75.5 -29t27.5 -81q0 -16 -0.5 -24.5t-1.5 -16.5z" />
    <glyph glyph-name="parenleft" unicode="(" horiz-adv-x="758" 
d="M434 -477q-144 210 -214 414.5t-70 416.5q0 289 168.5 542.5t502.5 467.5l23 -31q-114 -90 -192.5 -198t-131.5 -244q-30 -77 -54.5 -165.5t-55.5 -244.5q-34 -166 -49 -277.5t-15 -193.5q0 -125 31.5 -242t93.5 -223z" />
    <glyph glyph-name="parenright" unicode=")" horiz-adv-x="758" 
d="M221 1362q145 -210 215 -414.5t70 -417.5q0 -289 -169 -542.5t-503 -466.5l-24 30q112 90 190.5 197t132.5 246q32 81 58 174.5t55 234.5q31 157 46 271.5t15 199.5q0 127 -31 244.5t-92 220.5z" />
    <glyph glyph-name="asterisk" unicode="*" 
d="M578 903q0 -87 46 -183.5t46 -119.5q0 -46 -28.5 -72t-80.5 -26q-50 0 -79 27t-29 73q0 22 45 118t49 183q-77 -41 -144.5 -142.5t-128.5 -101.5q-40 0 -72 36t-32 79q0 41 31 72t71 31q81 0 146.5 13.5t109.5 39.5q-44 27 -98.5 41t-114.5 14q-71 0 -108 27t-37 78
q0 44 32 80t74 36q54 0 124 -100.5t145 -144.5q0 87 -47 183.5t-47 119.5q0 45 29 72.5t79 27.5q48 0 78.5 -28.5t30.5 -73.5q0 -22 -44.5 -118.5t-47.5 -182.5q77 41 144.5 143t127.5 102q40 0 72 -36.5t32 -79.5q0 -41 -31 -71t-71 -30q-78 0 -144.5 -14t-111.5 -41
q45 -27 98.5 -41t112.5 -14q72 0 109.5 -27t37.5 -78q0 -44 -33 -80.5t-75 -36.5q-54 0 -122.5 101t-143.5 145z" />
    <glyph glyph-name="plus" unicode="+" horiz-adv-x="1706" 
d="M752 1221h202v-510h498v-199h-498v-512h-202v512h-498v199h498v510z" />
    <glyph glyph-name="comma" unicode="," horiz-adv-x="621" 
d="M55 -369l-22 43q158 76 233.5 156.5t75.5 175.5q0 26 -5.5 41.5t-18.5 29.5q-10 -46 -43.5 -74t-81.5 -28q-66 0 -109 43t-43 111q0 77 46.5 122.5t123.5 45.5q97 0 158 -68.5t61 -177.5q0 -130 -97 -238.5t-278 -181.5z" />
    <glyph glyph-name="hyphen" unicode="-" horiz-adv-x="674" 
d="M565 526l-53 -245h-528l51 245h530z" />
    <glyph glyph-name="period" unicode="." horiz-adv-x="621" 
d="M61 135q0 67 47.5 113.5t114.5 46.5q66 0 113 -47t47 -113t-48 -114t-114 -48t-113 47.5t-47 114.5z" />
    <glyph glyph-name="slash" unicode="/" horiz-adv-x="559" 
d="M49 -190h-108l516 1554h108z" />
    <glyph glyph-name="zero" unicode="0" horiz-adv-x="1241" 
d="M739 1305q-90 0 -144 -74t-106 -281q-61 -244 -99 -462t-38 -291q0 -90 32 -128t105 -38q87 0 138.5 66t101.5 249q17 60 36.5 148.5l43.5 205.5q41 218 55.5 309t14.5 132q0 88 -32.5 126t-107.5 38zM70 473q0 151 42.5 297t123.5 270q102 157 234.5 238.5t287.5 81.5
q187 0 295 -131.5t108 -360.5q0 -146 -42 -291.5t-120 -269.5q-99 -160 -233.5 -246t-286.5 -86q-193 0 -301 132t-108 366z" />
    <glyph glyph-name="one" unicode="1" horiz-adv-x="1241" 
d="M330 1253v60q132 8 280.5 19.5t327.5 27.5l-299 -1294h266v-66h-811v66h240l254 1092q3 10 4.5 20t1.5 18q0 29 -23.5 43t-72.5 14h-168z" />
    <glyph glyph-name="two" unicode="2" horiz-adv-x="1241" 
d="M33 0v182q479 317 623.5 490.5t144.5 369.5q0 120 -53 184t-152 64q-98 0 -177 -46t-79 -97q0 -26 48 -29q37 -1 58 -8q44 -15 68.5 -47.5t24.5 -73.5q0 -63 -41 -102t-109 -39q-65 0 -113.5 55.5t-48.5 132.5q0 132 125 228t307 96q206 0 336.5 -96.5t130.5 -241.5
t-107 -263t-468 -329l-322 -188h582q8 0 18.5 1t12.5 1q34 0 54.5 14t31.5 45l37 111h57l-107 -414h-882z" />
    <glyph glyph-name="three" unicode="3" horiz-adv-x="1241" 
d="M647 731v-14q185 -15 283 -95t98 -214q0 -182 -168 -307.5t-422 -125.5q-181 0 -286 71t-105 190q0 79 42 127.5t112 48.5q61 0 101 -40t40 -102q0 -79 -65.5 -113t-65.5 -51q0 -27 51 -50t117 -23q142 0 228.5 130.5t86.5 344.5q0 85 -48.5 129.5t-141.5 44.5
q-28 0 -64 -7t-47 -7q-38 0 -53.5 11.5t-15.5 37.5q0 19 13.5 29t39.5 10q18 0 51.5 -5.5t48.5 -5.5q115 0 208 114t93 267q0 95 -41.5 140t-128.5 45q-55 0 -101 -22.5t-46 -47.5q0 -11 44 -49.5t44 -91.5q0 -57 -34.5 -90t-94.5 -33q-58 0 -94.5 37t-36.5 96
q0 105 109 178.5t274 73.5q183 0 299 -80.5t116 -204.5q0 -129 -117 -222t-323 -124z" />
    <glyph glyph-name="four" unicode="4" horiz-adv-x="1241" 
d="M96 440h486l157 678q-168 -149 -327 -316.5t-316 -361.5zM489 61l70 312h-520v104q183 218 398.5 436t473.5 447h183l-209 -918h205l34 152h56l-86 -379h-56l35 158h-205l-71 -312h178v-61h-653v61h167z" />
    <glyph glyph-name="five" unicode="5" horiz-adv-x="1241" 
d="M215 723l158 528q15 50 49 74.5t90 24.5h496q31 0 47.5 11t42.5 56h55q-58 -189 -116.5 -248t-215.5 -59h-420l-116 -371q118 38 200.5 54t153.5 16q195 0 311.5 -98.5t116.5 -261.5q0 -196 -183 -336t-454 -140q-163 0 -260.5 69t-97.5 181q0 75 42 121.5t107 46.5
t106.5 -36.5t41.5 -94.5q0 -68 -57.5 -110.5t-57.5 -59.5q0 -26 40.5 -41.5t108.5 -15.5q149 0 236.5 127t87.5 344q0 107 -59.5 161t-178.5 54q-78 0 -159 -23.5t-84 -23.5q-17 0 -26 7.5t-9 22.5q0 5 3 17q1 3 1 4z" />
    <glyph glyph-name="six" unicode="6" horiz-adv-x="1241" 
d="M444 651q-38 -141 -60 -267.5t-22 -205.5q0 -77 34.5 -110t113.5 -33q88 0 137 35.5t74 115.5q30 99 52 237t22 230q0 68 -28 101.5t-85 33.5t-118.5 -35.5t-119.5 -101.5zM477 774q71 46 139.5 68t137.5 22q159 0 259.5 -100.5t100.5 -259.5q0 -219 -174 -375t-424 -156
q-212 0 -333.5 126t-121.5 345q0 179 101.5 358t283.5 318q149 114 315.5 174.5t356.5 71.5v-66q-248 -32 -413 -167t-228 -359z" />
    <glyph glyph-name="seven" unicode="7" horiz-adv-x="1241" 
d="M240 934h-74l229 405h819v-92l-311 -377q-116 -140 -185 -276.5t-69 -218.5q0 -34 15.5 -101t15.5 -102q0 -86 -53 -141.5t-133 -55.5t-128.5 43t-48.5 113q0 82 75.5 206.5t271.5 356.5l335 398h-614q-22 0 -41.5 -13.5t-38.5 -42.5z" />
    <glyph glyph-name="eight" unicode="8" horiz-adv-x="1241" 
d="M614 662q-72 0 -120.5 -34.5t-77.5 -105.5q-33 -78 -54.5 -181t-21.5 -183q0 -68 34.5 -97.5t112.5 -29.5q75 0 124.5 27t74.5 81q36 81 60 183.5t24 179.5q0 78 -40 119t-116 41zM743 1309q-62 0 -101 -29t-62 -94q-24 -65 -40 -154t-16 -160q0 -75 30 -111t91 -36
q58 0 93 28.5t65 100.5q28 67 49.5 170.5t21.5 169.5q0 55 -34 85t-97 30zM752 698v-14q169 -38 248 -111t79 -192q0 -182 -158.5 -294t-424.5 -112q-226 0 -345.5 84t-119.5 242q0 157 122.5 260t352.5 137v15q-138 27 -207.5 94.5t-69.5 173.5q0 159 148.5 269t370.5 110
q188 0 300.5 -81.5t112.5 -213.5q0 -136 -110.5 -236t-298.5 -131z" />
    <glyph glyph-name="nine" unicode="9" horiz-adv-x="1241" 
d="M750 561q-71 -45 -139.5 -67.5t-137.5 -22.5q-159 0 -259.5 101t-100.5 259q0 219 176 376t424 157q209 0 331.5 -128t122.5 -347q0 -176 -99 -354t-275 -314q-144 -112 -313.5 -175.5t-368.5 -80.5v68q245 33 413 172t226 356zM784 682q38 136 58 262t20 211
q0 77 -35.5 113.5t-111.5 36.5q-81 0 -133 -38.5t-76 -117.5q-30 -97 -51 -236.5t-21 -232.5q0 -68 27 -100.5t84 -32.5q58 0 120.5 35t118.5 100z" />
    <glyph glyph-name="colon" unicode=":" horiz-adv-x="674" 
d="M164 664q0 66 47 112.5t115 46.5q66 0 112.5 -46.5t46.5 -112.5q0 -67 -47 -114.5t-112 -47.5q-67 0 -114.5 47.5t-47.5 114.5zM61 135q0 67 47.5 113.5t114.5 46.5q66 0 113 -47t47 -113t-48 -114t-114 -48t-113 47.5t-47 114.5z" />
    <glyph glyph-name="semicolon" unicode=";" horiz-adv-x="674" 
d="M164 664q0 66 46.5 112.5t113.5 46.5q66 0 113.5 -47t47.5 -112q0 -66 -47.5 -114t-113.5 -48q-67 0 -113.5 47t-46.5 115zM63 -371l-20 45q160 76 234.5 156t74.5 174q0 23 -6 39.5t-20 31.5q-10 -47 -42.5 -74.5t-80.5 -27.5q-66 0 -109 43t-43 111q0 77 46.5 122.5
t123.5 45.5q98 0 158.5 -68.5t60.5 -177.5q0 -129 -97.5 -238t-279.5 -182z" />
    <glyph glyph-name="less" unicode="&#x3c;" horiz-adv-x="1706" 
d="M1442 1194v-219l-893 -365l893 -364v-219l-1178 485v199z" />
    <glyph glyph-name="equal" unicode="=" horiz-adv-x="1706" 
d="M254 496h1198v-199h-1198v199zM254 926h1198v-199h-1198v199z" />
    <glyph glyph-name="greater" unicode="&#x3e;" horiz-adv-x="1706" 
d="M264 1194l1178 -483v-199l-1178 -485v219l895 364l-895 365v219z" />
    <glyph glyph-name="question" unicode="?" horiz-adv-x="1012" 
d="M143 135q0 67 47.5 113.5t114.5 46.5q66 0 113 -47t47 -113t-47 -114t-113 -48q-67 0 -114.5 47.5t-47.5 114.5zM319 395q0 6 -1 21.5t-1 25.5q0 169 41 257.5t138 152.5q24 16 72 44q188 107 188 230q0 89 -56.5 138t-158.5 49q-62 0 -107 -24t-45 -50q0 -1 48 -40
t48 -101q0 -58 -36 -92.5t-97 -34.5q-58 0 -92.5 38t-34.5 103q0 107 95 179.5t243 72.5q162 0 263.5 -97t101.5 -251q0 -140 -99.5 -247t-315.5 -199l-18 -8q-113 -49 -128 -167h-48z" />
    <glyph glyph-name="at" unicode="@" horiz-adv-x="2019" 
d="M1176 319q-62 -100 -134.5 -148t-160.5 -48q-142 0 -222.5 91t-80.5 251q0 114 50 221.5t144 196.5q69 64 148 97.5t161 33.5q96 0 150.5 -45t71.5 -138l49 164h190l-174 -618l-2 -7q-14 -58 -14 -87q0 -47 20.5 -74t54.5 -27q33 0 85 25t98 63q103 88 158 217t55 285
q0 275 -188.5 446t-489.5 171q-138 0 -262 -38t-228 -112q-173 -121 -266.5 -308.5t-93.5 -416.5q0 -335 210.5 -532t565.5 -197q166 0 319.5 50.5t307.5 156.5l39 -51q-151 -113 -318 -169.5t-348 -56.5q-187 0 -347.5 46t-277.5 133q-151 112 -232 277.5t-81 363.5
q0 155 52 298.5t153 264.5q145 174 346.5 267t435.5 93q349 0 558.5 -189t209.5 -503q0 -161 -59 -299.5t-170 -239.5q-59 -53 -126.5 -80.5t-137.5 -27.5q-98 0 -155 52t-64 148zM1118 948q-62 0 -112.5 -44.5t-100.5 -143.5q-57 -114 -87 -215t-30 -183q0 -79 34.5 -125.5
t92.5 -46.5q64 0 124.5 62t115.5 182q40 92 63 185.5t23 162.5q0 80 -32 123t-91 43z" />
    <glyph glyph-name="A" unicode="A" horiz-adv-x="1235" 
d="M291 453h317l-39 460zM-141 0v65q63 4 109.5 38.5t99.5 121.5l698 1139h80l121 -1298h153v-66h-633v66h150l-27 315h-360l-149 -243q-6 -9 -9.5 -18.5t-3.5 -17.5q0 -16 13.5 -26t33.5 -10h84v-66h-360z" />
    <glyph glyph-name="B" unicode="B" horiz-adv-x="1462" 
d="M588 729h129q89 0 130 13t68 44q31 37 62 149.5t31 211.5q0 75 -32 102t-120 27h-151zM446 66h213q79 0 121.5 19t69.5 65q24 39 52 161.5t28 218.5q0 71 -48 102.5t-155 31.5h-154zM-47 0v66h162l260 1210h-152v61h588q274 0 404.5 -72t130.5 -223q0 -144 -117 -233.5
t-320 -99.5v-15q178 -18 272.5 -100t94.5 -219q0 -175 -139 -275t-385 -100h-799z" />
    <glyph glyph-name="C" unicode="C" horiz-adv-x="1352" 
d="M1098 399l73 -18l-96 -393h-49l-61 88q-70 -55 -156.5 -82t-192.5 -27q-238 0 -382 140.5t-144 369.5q0 183 80 357t227 313q113 107 234.5 163t238.5 56q86 0 150 -25t110 -75l105 77h49l-72 -393h-75q-14 176 -81.5 267.5t-183.5 91.5q-92 0 -154.5 -53.5
t-107.5 -170.5q-30 -84 -60 -194.5t-56 -235.5q-28 -131 -42 -236t-14 -175q0 -117 46.5 -165t154.5 -48q146 0 257.5 89.5t201.5 278.5z" />
    <glyph glyph-name="D" unicode="D" horiz-adv-x="1579" 
d="M453 66h196q142 0 221.5 54.5t128.5 182.5q29 73 76 305l12 62q28 142 40 230t12 149q0 120 -64.5 173.5t-212.5 53.5h-151zM-47 0v66h164l258 1210h-150v61h643q144 0 233.5 -23.5t160.5 -76.5q101 -75 159 -200.5t58 -270.5q0 -320 -233 -543t-578 -223h-715z" />
    <glyph glyph-name="E" unicode="E" horiz-adv-x="1358" 
d="M-47 0v66h164l258 1210h-150v61h1049l-57 -372h-74q-3 179 -63.5 245t-227.5 66h-145l-115 -537h20q108 0 171 51.5t106 176.5h78l-121 -561h-76q0 4 1 13q3 55 3 77q0 85 -46 129.5t-134 44.5h-16l-129 -604h133q194 0 315 89t211 298h74l-105 -453h-1124z" />
    <glyph glyph-name="F" unicode="F" horiz-adv-x="1266" 
d="M-47 0v66h164l258 1210h-150v61h1055l-61 -403h-72v72q0 137 -68.5 203.5t-210.5 66.5h-153l-117 -549q5 0 15.5 -1t15.5 -1q100 0 162.5 53.5t101.5 173.5h76l-119 -563h-75q2 16 3.5 31t1.5 29q0 114 -42.5 160t-147.5 46h-8l-125 -589h176v-66h-680z" />
    <glyph glyph-name="G" unicode="G" horiz-adv-x="1470" 
d="M1268 414q-56 -229 -206 -339t-407 -110q-263 0 -413 134.5t-150 371.5q0 147 55.5 296t157.5 275q125 154 277.5 238t304.5 84q72 0 140.5 -25.5t137.5 -76.5l97 75h47l-62 -381h-76q-18 173 -91 262t-197 89q-97 0 -161.5 -63.5t-121.5 -217.5q-71 -194 -115.5 -421
t-44.5 -369q0 -113 48.5 -164.5t154.5 -51.5q122 0 178.5 79.5t89.5 314.5h-182v67h698v-67h-159z" />
    <glyph glyph-name="H" unicode="H" horiz-adv-x="1583" 
d="M117 66l258 1210h-150v61h645v-61h-159l-117 -553h407l117 553h-147v61h645v-61h-162l-258 -1210h150v-66h-648v66h164l123 579h-407l-125 -579h145v-66h-645v66h164z" />
    <glyph glyph-name="I" unicode="I" horiz-adv-x="844" 
d="M-51 0v66h164l256 1210h-150v61h651v-61h-159l-258 -1210h147v-66h-651z" />
    <glyph glyph-name="J" unicode="J" horiz-adv-x="903" 
d="M219 66l256 1210h-186l12 61h676l-12 -61h-148l-229 -1075q-47 -220 -185 -344.5t-333 -124.5q-133 0 -211 59t-78 158q0 71 40.5 111t112.5 40q61 0 98.5 -39t37.5 -104q0 -48 -31 -87.5t-31 -47.5q0 -13 14.5 -22t34.5 -9q58 0 92.5 55t69.5 220z" />
    <glyph glyph-name="K" unicode="K" horiz-adv-x="1462" 
d="M596 711l563 489q16 14 23.5 24.5t7.5 18.5q0 17 -13 25t-40 8h-105v61h465v-61h-16q-72 0 -131.5 -25t-130.5 -88l-349 -301l383 -796h144v-66h-656v66h162zM-51 0v66h160l260 1210h-148v61h643v-61h-159l-259 -1210h156v-66h-653z" />
    <glyph glyph-name="L" unicode="L" horiz-adv-x="1219" 
d="M-59 0v66h161l256 1210h-147v61h647v-61h-162l-256 -1210h78q195 0 315.5 89t210.5 298h76l-104 -453h-1075z" />
    <glyph glyph-name="M" unicode="M" horiz-adv-x="1700" 
d="M-51 0v66q4 0 12.5 1t13.5 1q69 0 105.5 31t52.5 108l199 949q3 19 4.5 29.5t1.5 14.5q0 40 -31.5 58t-101.5 18h-12v61h514l102 -839l440 839h482v-61h-148l-258 -1210h148v-66h-625v66h147l232 1085l-600 -1151h-72l-149 1174l-189 -920q-1 -5 -3 -14q-13 -63 -13 -88
q0 -45 28.5 -65.5t92.5 -20.5h20v-66h-393z" />
    <glyph glyph-name="N" unicode="N" horiz-adv-x="1462" 
d="M-45 0v66q6 0 18.5 1t18.5 1q64 0 95.5 29t55.5 141l199 923q0 2 1 6q3 18 3 27q0 45 -33 63.5t-118 18.5v61h460l447 -856l141 668q3 16 4.5 30t1.5 25q0 40 -27 55t-114 17v61h391v-61h-29q-63 0 -99 -35.5t-54 -116.5l-246 -1155h-74l-589 1149l-195 -907
q-4 -16 -6 -34.5t-2 -37.5q0 -40 25 -56.5t87 -16.5h27v-66h-389z" />
    <glyph glyph-name="O" unicode="O" horiz-adv-x="1585" 
d="M96 506q0 149 66.5 303t185.5 281q125 132 279 203t317 71q242 0 385.5 -141.5t143.5 -380.5q0 -173 -74.5 -338.5t-212.5 -298.5q-119 -115 -267 -176.5t-305 -61.5q-238 0 -378 145t-140 394zM938 1307q-140 0 -212.5 -61t-135.5 -251q-25 -75 -48.5 -167t-54.5 -238
q-30 -146 -45.5 -243t-15.5 -140q0 -100 49.5 -141t167.5 -41q125 0 194.5 55.5t127.5 212.5q28 75 52 168t58 260q35 171 49.5 268t14.5 158q0 84 -47.5 122t-153.5 38z" />
    <glyph glyph-name="P" unicode="P" horiz-adv-x="1350" 
d="M571 678h123q81 0 123 17t66 57q31 52 59.5 170.5t28.5 210.5q0 85 -30.5 114t-127.5 29h-115zM104 66l258 1210h-147v61h641q224 0 343.5 -84.5t119.5 -242.5q0 -185 -157 -289.5t-439 -104.5h-166l-117 -550h176v-66h-673v66h161z" />
    <glyph glyph-name="Q" unicode="Q" horiz-adv-x="1585" 
d="M451 -16q-176 53 -267.5 181t-91.5 320q0 163 66 319.5t188 285.5q125 132 279.5 203t318.5 71q241 0 385 -142.5t144 -381.5q0 -288 -184 -526.5t-474 -325.5l-1 -7q-7 -79 -7 -112q0 -114 48.5 -170.5t145.5 -56.5q65 0 115.5 5t54.5 9v-70q-62 -15 -128.5 -22.5
t-133.5 -7.5q-215 0 -336.5 95.5t-121.5 262.5v70zM938 1307q-141 0 -210.5 -55t-139.5 -261q-24 -69 -45.5 -153t-57.5 -256q-30 -145 -45.5 -240.5t-15.5 -138.5q0 -97 44.5 -137.5t152.5 -40.5q142 0 213.5 49t132.5 219q55 157 110 430l2 12q33 161 47.5 258.5
t14.5 153.5q0 84 -48.5 122t-154.5 38z" />
    <glyph glyph-name="R" unicode="R" horiz-adv-x="1464" 
d="M582 752h133q65 0 112.5 14.5t73.5 42.5q34 36 65 147.5t31 200.5q0 64 -30 91.5t-101 27.5h-174zM104 66l256 1210h-147v61h612q283 0 402 -68.5t119 -226.5q0 -145 -124.5 -226.5t-373.5 -98.5v-21q166 -38 236 -109t85 -216q5 -44 8 -117q8 -176 93 -176q21 0 44.5 5
t47.5 15v-65q-51 -32 -108.5 -47t-127.5 -15q-157 0 -239 94.5t-82 276.5q0 34 1 81.5t1 59.5q0 106 -40.5 153.5t-131.5 47.5h-68l-131 -618h160v-66h-653v66h161z" />
    <glyph glyph-name="S" unicode="S" horiz-adv-x="1128" 
d="M-8 -12l63 415h74q12 -174 104.5 -273t241.5 -99q140 0 216.5 67t76.5 189q0 135 -223 241l-35 17q-188 90 -257 175t-69 210q0 185 118 309.5t298 124.5q78 0 148 -25t135 -75l92 71h45l-49 -366h-80q-4 158 -83.5 244.5t-219.5 86.5q-98 0 -160.5 -51t-62.5 -129
q0 -111 250 -227l31 -15q173 -81 250 -176t77 -227q0 -218 -140.5 -363t-357.5 -145q-88 0 -165 25.5t-152 79.5l-119 -84h-47z" />
    <glyph glyph-name="T" unicode="T" horiz-adv-x="1235" 
d="M301 66l258 1210q-147 -2 -252.5 -87t-181.5 -261h-68l90 409h1153l-32 -409h-66q-19 178 -89.5 263t-197.5 85h-14l-256 -1210h174v-66h-690v66h172z" />
    <glyph glyph-name="U" unicode="U" horiz-adv-x="1464" 
d="M186 516l166 760h-151v61h647v-61h-160l-182 -842q-12 -53 -18.5 -101t-6.5 -85q0 -99 58 -152t166 -53q157 0 245 79t127 261l156 717q6 26 9 49.5t3 40.5q0 46 -30.5 66t-102.5 20h-12v61h391v-61h-6q-80 0 -117.5 -34.5t-60.5 -143.5l-160 -733q-46 -209 -169 -301.5
t-353 -92.5q-225 0 -347 86.5t-122 245.5q0 33 8 89t22 124z" />
    <glyph glyph-name="V" unicode="V" horiz-adv-x="1190" 
d="M340 -31l-123 1307h-156v61h631v-61h-147l73 -838l431 707q21 35 28.5 53t7.5 31q0 23 -15.5 35t-45.5 12h-76v61h367v-61h-6q-54 0 -93 -28t-86 -105l-714 -1174h-76z" />
    <glyph glyph-name="W" unicode="W" horiz-adv-x="1749" 
d="M592 350l227 307l-47 619h-246zM1083 983l168 227q8 11 12.5 20.5t4.5 16.5q0 13 -12 21t-31 8h-166zM330 -31l-113 1307h-141v61h1409v-61h-8q-55 0 -95 -23.5t-79 -78.5l-213 -289l36 -506l531 827q4 7 8 20t4 19q0 17 -20.5 24t-73.5 7v61h299v-61q-51 -3 -81.5 -20
t-68.5 -76l-778 -1211h-74l-45 594l-428 -594h-69z" />
    <glyph glyph-name="X" unicode="X" horiz-adv-x="1350" 
d="M-43 0v66q72 0 122 25.5t105 94.5l348 430l-282 660h-158v61h658v-61h-152l170 -404l268 330q12 15 16.5 26t4.5 21q0 13 -15 20t-43 7h-81v61h419v-61q-3 0 -13.5 -1t-16.5 -1q-74 0 -121.5 -25.5t-110.5 -101.5l-274 -338l309 -743h147v-66h-655v66h158l-201 479
l-311 -385q-18 -21 -23.5 -32.5t-5.5 -25.5q0 -18 19 -27t57 -9h76v-66h-414z" />
    <glyph glyph-name="Y" unicode="Y" horiz-adv-x="1237" 
d="M137 0v66h174l115 542l-252 668h-121v61h637v-61h-170l219 -588l305 475q16 25 22.5 42t6.5 28q0 22 -19.5 32.5t-62.5 10.5h-65v61h385v-61q-114 -4 -194 -126l-11 -17l-338 -523l-117 -544h183v-66h-697z" />
    <glyph glyph-name="Z" unicode="Z" horiz-adv-x="1237" 
d="M-31 0v66l844 1210h-121q-175 0 -286.5 -70.5t-204.5 -238.5h-74l125 370h950v-61l-842 -1210h136q175 0 301.5 85t255.5 293h69l-145 -444h-1008z" />
    <glyph glyph-name="bracketleft" unicode="[" horiz-adv-x="758" 
d="M860 1337l-14 -63h-279l-362 -1632h280l-14 -64h-502l389 1759h502z" />
    <glyph glyph-name="backslash" unicode="\" horiz-adv-x="559" 
d="M217 1364l242 -1554h-109l-244 1554h111z" />
    <glyph glyph-name="bracketright" unicode="]" horiz-adv-x="758" 
d="M-217 -422l14 64h279l362 1632h-278l12 63h502l-389 -1759h-502z" />
    <glyph glyph-name="asciicircum" unicode="^" horiz-adv-x="2048" 
d="M905 1462h236l491 -565h-112l-498 373l-498 -373h-112z" />
    <glyph glyph-name="underscore" unicode="_" 
d="M0 -279h1024v-204h-1024v204z" />
    <glyph glyph-name="grave" unicode="`" 
d="M758 934h-111l-285 203q-39 29 -53 50t-14 44q0 41 25.5 67.5t64.5 26.5q27 0 51.5 -15t55.5 -50z" />
    <glyph glyph-name="a" unicode="a" horiz-adv-x="1128" 
d="M522 762q-50 0 -87.5 -47.5t-76.5 -165.5q-43 -134 -69.5 -254.5t-26.5 -167.5q0 -42 21.5 -66t58.5 -24q55 0 110 51t97 141q43 93 68.5 194t25.5 173q0 82 -30.5 124t-90.5 42zM788 170q-4 -16 -6 -30t-2 -25q0 -20 7 -29.5t20 -9.5q39 0 84.5 55.5t93.5 163.5l43 -19
q-56 -142 -133.5 -217t-167.5 -75q-73 0 -113.5 45.5t-40.5 128.5q0 4 1 13.5t1 14.5q-55 -108 -125 -160.5t-159 -52.5q-123 0 -203 91t-80 233q0 197 148 361.5t321 164.5q86 0 140.5 -41t66.5 -116l37 135h227z" />
    <glyph glyph-name="b" unicode="b" horiz-adv-x="1118" 
d="M348 469l-63 -276q-8 -34 -10.5 -49.5t-2.5 -26.5q0 -47 30.5 -70.5t90.5 -23.5q78 0 121.5 41.5t81.5 171.5q42 142 68 275t26 179q0 36 -16.5 56t-44.5 20q-91 0 -172.5 -89t-108.5 -208zM64 349l217 931h-164v57h53q102 0 200 5.5t195 15.5l-155 -676
q52 72 114.5 107.5t137.5 35.5q127 0 211.5 -89.5t84.5 -223.5q0 -225 -168.5 -382t-414.5 -157q-150 0 -238 68.5t-88 181.5q0 32 3.5 63t11.5 63z" />
    <glyph glyph-name="c" unicode="c" horiz-adv-x="1008" 
d="M774 240l35 -27q-82 -121 -184.5 -180.5t-233.5 -59.5q-165 0 -263.5 90.5t-98.5 239.5q0 201 174 359.5t397 158.5q113 0 184.5 -51.5t71.5 -130.5q0 -62 -35 -98.5t-96 -36.5q-50 0 -82.5 30t-32.5 74q0 27 9.5 65t9.5 52q0 20 -16.5 33.5t-41.5 13.5q-53 0 -87 -34.5
t-70 -129.5q-46 -122 -77.5 -267.5t-31.5 -213.5q0 -45 30 -70.5t83 -25.5q102 0 194 54t162 155z" />
    <glyph glyph-name="d" unicode="d" horiz-adv-x="1159" 
d="M537 772q-51 0 -86 -47.5t-78 -187.5q-41 -130 -66.5 -259t-25.5 -176q0 -35 19 -53t56 -18q114 0 215 168.5t101 371.5q0 96 -35.5 148.5t-99.5 52.5zM606 174q-61 -101 -134 -151t-161 -50q-127 0 -207.5 90t-80.5 230q0 83 37 176t102 170q72 86 164 134t182 48
q77 0 127 -36.5t65 -104.5l140 600h-164v57h55q105 0 202.5 5.5t188.5 15.5l-274 -1169q-9 -37 -12.5 -57.5t-4.5 -35.5q0 -21 8 -31t25 -10q37 0 86.5 60t89.5 157l41 -18q-47 -136 -128.5 -208.5t-186.5 -72.5q-81 0 -121.5 42.5t-40.5 127.5q0 5 1 15t1 16z" />
    <glyph glyph-name="e" unicode="e" horiz-adv-x="1010" 
d="M342 403q8 0 34.5 -3t41.5 -3q119 0 181.5 68.5t62.5 198.5q0 56 -27.5 83t-83.5 27q-65 0 -107.5 -69.5t-101.5 -301.5zM332 354q-18 -73 -28.5 -132.5t-10.5 -88.5q0 -52 27.5 -76t87.5 -24q107 0 213.5 61t195.5 174l35 -28q-106 -136 -218 -201.5t-239 -65.5
q-172 0 -277.5 90.5t-105.5 233.5q0 91 42.5 182.5t119.5 167.5q86 84 193.5 130t218.5 46q130 0 209 -60.5t79 -156.5q0 -122 -110 -192t-303 -70q-29 0 -93 7q-23 2 -36 3z" />
    <glyph glyph-name="f" unicode="f" horiz-adv-x="668" 
d="M10 737v58h199q77 271 212 417t306 146q92 0 151.5 -52t59.5 -128q0 -54 -31 -87.5t-82 -33.5q-55 0 -87.5 28.5t-32.5 75.5q0 33 18 67t18 42q0 19 -9.5 27t-35.5 8q-78 0 -126.5 -102.5t-100.5 -407.5h211v-58h-221l-20 -95q-108 -518 -156 -642q-80 -206 -205 -323
t-262 -117q-100 0 -161 50.5t-61 129.5q0 54 30.5 87.5t80.5 33.5q56 0 89.5 -28.5t33.5 -76.5q0 -32 -18.5 -66t-18.5 -42q0 -20 10 -27.5t35 -7.5q129 0 236 553q67 347 121 571h-183z" />
    <glyph glyph-name="g" unicode="g" horiz-adv-x="1010" 
d="M508 772q-42 0 -65.5 -13.5t-41.5 -47.5q-25 -55 -49 -163t-24 -155q0 -34 24 -51.5t70 -17.5q43 0 66 16.5t40 60.5q25 59 45.5 155.5t20.5 137.5q0 37 -23 57.5t-63 20.5zM287 -72h-2q-97 5 -152 19q-51 -23 -79.5 -65.5t-28.5 -94.5q0 -80 64 -127t175 -47
q168 0 293 70.5t125 156.5q0 80 -173 83q-32 1 -50 1zM813 664q11 96 47 147t94 51q39 0 61.5 -23t22.5 -61t-20 -61t-55 -23q-21 0 -42 12.5t-30 12.5q-28 0 -42 -96q-5 -30 -7 -45q-24 -148 -132 -228t-282 -80q-71 0 -132.5 17t-119.5 53q-41 -22 -62.5 -46t-21.5 -50
q0 -35 48.5 -52t154.5 -20l245 -8q145 -4 203 -50.5t58 -152.5q0 -167 -158.5 -285t-402.5 -118q-170 0 -268.5 59t-98.5 160q0 66 48 114t145 78q-57 35 -83 76.5t-26 95.5q0 70 40 124t138 112q-29 31 -42 62t-13 71q0 131 118 222t291 91q114 0 192.5 -38.5t131.5 -120.5
z" />
    <glyph glyph-name="h" unicode="h" horiz-adv-x="1120" 
d="M287 1280h-146v57h56q100 0 194.5 5.5t181.5 15.5l-180 -772q88 123 171.5 179t176.5 56q90 0 140.5 -41t50.5 -112q0 -19 -2 -34.5t-6 -30.5l-115 -474q-1 -3 -1.5 -9t-0.5 -20q0 -19 7.5 -26.5t25.5 -7.5q36 0 86.5 61t87.5 158l41 -17q-51 -143 -135 -213.5
t-203 -70.5q-77 0 -121.5 38t-44.5 103q0 18 4.5 45.5t13.5 64.5l93 369q7 28 11.5 54.5t4.5 37.5q0 21 -11.5 33t-29.5 12q-58 0 -157.5 -111.5t-123.5 -217.5l-94 -412h-270z" />
    <glyph glyph-name="i" unicode="i" horiz-adv-x="602" 
d="M217 1151q0 59 41 101t100 42t101.5 -42.5t42.5 -100.5t-42.5 -99.5t-101.5 -41.5t-100 41t-41 100zM31 227l121 510h-142v57q102 2 210 9.5t220 19.5l-151 -659q-5 -21 -7.5 -39t-2.5 -25q0 -17 7.5 -24.5t24.5 -7.5q39 0 84.5 58t98.5 173l43 -18q-64 -159 -143.5 -228
t-196.5 -69q-87 0 -134 37t-47 106q0 17 4 44t11 56z" />
    <glyph glyph-name="j" unicode="j" horiz-adv-x="618" 
d="M266 1151q0 59 42 101t102 42q58 0 99.5 -42t41.5 -101q0 -58 -41.5 -99.5t-99.5 -41.5q-60 0 -102 41t-42 100zM-23 -233l224 970h-140l1 58q116 1 222 8t205 20l-176 -778q-57 -253 -174 -371t-309 -118q-88 0 -139 39.5t-51 105.5q0 50 32.5 81.5t85.5 31.5
q48 0 77.5 -30.5t29.5 -80.5q0 -19 -7.5 -40.5t-7.5 -24.5q0 -13 7.5 -20t19.5 -7q32 0 57 38.5t43 117.5z" />
    <glyph glyph-name="k" unicode="k" horiz-adv-x="1059" 
d="M281 1280h-144v57h56q99 0 193 5.5t183 15.5l-198 -862q21 15 42 21.5t48 6.5q11 0 21 -0.5t20 -1.5q38 44 92 130q109 171 229 171q64 0 105 -36.5t41 -92.5q0 -52 -31 -82t-86 -30q-50 0 -76 25.5t-26 74.5q0 13 3 28t3 17q0 4 -5.5 9t-11.5 5q-38 0 -93.5 -91
t-92.5 -136q104 -15 160.5 -76t56.5 -157q0 -44 -14.5 -103t-14.5 -74q1 -21 8 -29.5t25 -8.5q35 0 84.5 60t91.5 159l43 -19q-65 -152 -143 -216t-197 -64q-80 0 -127 43.5t-47 117.5q0 30 5.5 58.5t15.5 54.5l37 94q6 18 10 39.5t4 34.5q0 19 -8 29t-24 12
q-24 -33 -47 -47t-52 -14q-14 0 -31 4t-37 12l-96 -424h-268z" />
    <glyph glyph-name="l" unicode="l" horiz-adv-x="578" 
d="M25 246l239 1034h-131v57h43q83 0 175 5t200 16l-274 -1181q-5 -21 -7 -35t-2 -25q0 -19 10 -30t25 -11q43 0 90.5 57t89.5 160l45 -19q-58 -146 -140 -217t-191 -71q-85 0 -135 45.5t-50 124.5q0 17 3.5 40t9.5 50z" />
    <glyph glyph-name="m" unicode="m" horiz-adv-x="1614" 
d="M250 0h-258l170 737h-129v58h47q90 0 179.5 5t178.5 15l-53 -231q64 113 154 176t186 63q80 0 127 -47t47 -127q0 -19 -1.5 -37t-4.5 -34q69 120 160.5 182.5t199.5 62.5q83 0 127.5 -38.5t44.5 -110.5q0 -17 -3 -38.5t-9 -45.5l-115 -472q-1 -3 -1.5 -7.5t-0.5 -16.5
q0 -15 8 -21.5t25 -6.5q37 0 84 57t92 160l43 -17q-57 -145 -138.5 -213.5t-195.5 -68.5q-76 0 -119.5 37.5t-43.5 105.5q0 20 4 48.5t12 60.5l104 427q2 6 4 15q5 20 5 29q0 16 -9.5 26t-23.5 10q-70 0 -167.5 -115t-125.5 -237l-92 -391h-258l153 657q3 9 4 19.5t1 32.5
q0 15 -9 24.5t-24 9.5q-71 0 -168 -122t-135 -291z" />
    <glyph glyph-name="n" unicode="n" horiz-adv-x="1120" 
d="M262 0h-270l168 739h-140l1 56q99 1 204.5 8t218.5 20l-61 -248q91 129 177 188.5t181 59.5q90 0 141.5 -41.5t51.5 -113.5q0 -19 -2 -34.5t-6 -30.5l-117 -474q-1 -3 -1.5 -8.5t-0.5 -16.5q0 -22 7.5 -30t25.5 -8q35 0 86 61.5t88 157.5l43 -17q-51 -142 -135.5 -212
t-204.5 -70q-77 0 -121.5 35.5t-44.5 95.5q0 21 5 53.5t13 65.5l97 389q6 27 9 46.5t3 30.5q0 20 -10.5 29.5t-30.5 9.5q-60 0 -157.5 -109.5t-123.5 -217.5z" />
    <glyph glyph-name="o" unicode="o" horiz-adv-x="1118" 
d="M580 772q-78 0 -118.5 -34.5t-72.5 -139.5q-41 -132 -66.5 -265t-25.5 -198q0 -58 29.5 -85t93.5 -27q71 0 111.5 34.5t68.5 122.5q44 137 70 274t26 208q0 56 -28 83t-88 27zM16 311q0 201 173.5 355.5t404.5 154.5q173 0 278 -95t105 -249q0 -200 -174 -352t-410 -152
q-169 0 -273 93.5t-104 244.5z" />
    <glyph glyph-name="p" unicode="p" horiz-adv-x="1120" 
d="M627 758q-55 0 -106.5 -40.5t-94.5 -117.5q-48 -87 -77.5 -195t-29.5 -194q0 -74 41.5 -123t102.5 -49q40 0 67.5 31t57.5 112q52 143 87.5 292t35.5 192t-22.5 67.5t-61.5 24.5zM-94 -385l260 1122h-158v57q124 4 231.5 10.5t204.5 16.5l-45 -176q56 89 124.5 132.5
t154.5 43.5q128 0 212.5 -88t84.5 -223q0 -80 -29.5 -169t-81.5 -165q-70 -102 -158 -152.5t-198 -50.5q-73 0 -127.5 31.5t-91.5 95.5l-111 -485h168v-55h-590v55h150z" />
    <glyph glyph-name="q" unicode="q" horiz-adv-x="1126" 
d="M532 774q-44 0 -77 -35.5t-62 -113.5q-50 -142 -83.5 -299.5t-33.5 -214.5q0 -44 16 -62t54 -18q119 0 219.5 169.5t100.5 381.5q0 88 -37 140t-97 52zM580 152q-54 -91 -122.5 -134t-160.5 -43q-118 0 -198.5 94t-80.5 230q0 93 39.5 186.5t112.5 173.5
q73 81 156.5 122.5t173.5 41.5q86 0 134.5 -39.5t63.5 -121.5l31 133h266l-270 -1178h133v-57h-518v57h117z" />
    <glyph glyph-name="r" unicode="r" horiz-adv-x="782" 
d="M262 0h-272l172 737h-135v58q100 1 206 8t218 20l-54 -235q95 138 151.5 186.5t113.5 48.5q48 0 80 -34t32 -89q0 -51 -33.5 -83.5t-81.5 -32.5q-44 0 -71.5 36.5t-44.5 36.5q-49 0 -111.5 -96.5t-93.5 -228.5z" />
    <glyph glyph-name="s" unicode="s" horiz-adv-x="782" 
d="M266 -27q-132 0 -212.5 53.5t-80.5 137.5q0 53 31 86t82 33t82 -28.5t31 -74.5q0 -28 -13.5 -60t-13.5 -40q0 -28 27.5 -42.5t81.5 -14.5q73 0 119 30t46 78q0 35 -27 66.5t-120 91.5q-119 77 -164 135t-45 127q0 113 91 192.5t229 79.5q107 0 173 -43t66 -110
q0 -44 -24.5 -71.5t-65.5 -27.5q-45 0 -74.5 29.5t-29.5 75.5q0 14 3 33.5t3 23.5q0 22 -17.5 32.5t-52.5 10.5q-59 0 -97 -23t-38 -57q0 -43 109 -107l88 -54q84 -57 123.5 -119.5t39.5 -139.5q0 -138 -94.5 -220.5t-255.5 -82.5z" />
    <glyph glyph-name="t" unicode="t" horiz-adv-x="668" 
d="M33 224l123 519h-103v58h123l51 227q6 0 19 -1q54 -3 73 -3q39 0 83 4t96 12l-56 -239h121v-58h-135l-139 -600q-1 -4 -3.5 -15t-2.5 -17q0 -16 8.5 -24.5t23.5 -8.5q44 0 92 56.5t91 158.5l43 -19q-47 -137 -135 -212.5t-199 -75.5q-91 0 -140 36t-49 103q0 14 4 41
t11 58z" />
    <glyph glyph-name="u" unicode="u" horiz-adv-x="1124" 
d="M39 217l121 520h-140l1 58q101 1 209.5 8.5t220.5 19.5l-150 -647q-9 -37 -12.5 -54t-3.5 -26q0 -21 9.5 -31t31.5 -10q59 0 157 115t123 227l92 398h271l-156 -672q-2 -7 -3 -13.5t-1 -11.5q0 -18 8.5 -28.5t24.5 -10.5q33 0 85 62t91 158l41 -17q-56 -141 -135 -213
t-179 -72q-89 0 -135.5 35.5t-46.5 102.5q0 14 4 40t12 72q-84 -133 -170 -193.5t-192 -60.5q-87 0 -137.5 39t-50.5 105q0 24 2.5 49.5t7.5 50.5z" />
    <glyph glyph-name="v" unicode="v" horiz-adv-x="895" 
d="M78 279l88 366q6 24 9 39.5t3 24.5q0 13 -7.5 21.5t-18.5 8.5q-36 0 -75 -52t-85 -161l-45 17q60 152 128.5 215t172.5 63q83 0 133.5 -42.5t50.5 -112.5q0 -15 -4 -41t-10 -56l-88 -385q-1 -3 -2 -9q-4 -23 -4 -34q0 -30 24 -48.5t62 -18.5q42 0 86.5 31.5t91.5 95.5
q57 80 96 180.5t39 153.5q0 32 -10 46.5t-31 14.5q-8 0 -17.5 -1t-11.5 -1q-45 0 -77.5 32t-32.5 79q0 49 34 82.5t82 33.5q72 0 110 -45.5t38 -130.5t-31 -186.5t-88 -204.5q-77 -139 -175 -210t-212 -71q-112 0 -177 51.5t-65 137.5q0 19 4 44t15 73z" />
    <glyph glyph-name="w" unicode="w" horiz-adv-x="1384" 
d="M629 381q-92 -221 -184.5 -314.5t-213.5 -93.5q-89 0 -140.5 47.5t-51.5 126.5q0 15 3 33.5t11 48.5l113 385l3 11q17 54 17 65q0 14 -6.5 23.5t-15.5 9.5q-31 0 -71.5 -48.5t-94.5 -152.5l-45 25q68 144 141 209t166 65q78 0 129 -42.5t51 -104.5q0 -25 -5 -55t-15 -66
l-123 -422q-4 -17 -5 -23.5t-1 -11.5q0 -16 9.5 -25.5t27.5 -9.5q82 0 189 204.5t190 535.5h262q-55 -210 -85 -375.5t-30 -251.5q0 -56 15 -84.5t44 -28.5q91 0 188 160.5t97 321.5q0 41 -7 53t-28 12q-6 0 -19.5 -3t-21.5 -3q-39 0 -65.5 30t-26.5 77q0 48 30.5 80
t78.5 32q67 0 100 -49.5t33 -150.5q0 -106 -34.5 -225.5t-92.5 -213.5q-63 -103 -141.5 -156t-169.5 -53q-102 0 -160 69t-58 189q0 27 3.5 65t9.5 85z" />
    <glyph glyph-name="x" unicode="x" horiz-adv-x="1001" 
d="M348 262q-100 -160 -166 -224.5t-127 -64.5q-51 0 -80.5 33.5t-29.5 89.5q0 52 31 84.5t79 32.5q32 0 71.5 -23.5t53.5 -23.5q17 0 34 13.5t44 49.5l76 103l-66 301q-6 29 -15.5 41t-25.5 12q-26 0 -63 -51t-74 -141l-45 24q56 144 136.5 223.5t168.5 79.5q62 0 104 -37
t62 -108l27 -90q76 128 131 181.5t108 53.5q54 0 86.5 -31t32.5 -81q0 -48 -27.5 -78.5t-68.5 -30.5q-38 0 -77.5 25.5t-49.5 25.5q-17 0 -43.5 -28.5t-77.5 -102.5l76 -373v0q12 -59 41 -59q34 0 76 56.5t77 152.5l47 -18q-45 -148 -129.5 -227t-195.5 -79
q-82 0 -121.5 51.5t-79.5 237.5z" />
    <glyph glyph-name="y" unicode="y" horiz-adv-x="1008" 
d="M412 -80l-205 651q-19 57 -31.5 74t-30.5 17q-30 0 -61 -38.5t-70 -125.5l-49 22q64 150 146 225.5t180 75.5q61 0 100 -38t64 -119l108 -369l121 362q34 99 67 131.5t87 32.5q41 0 67.5 -30t26.5 -76t-26 -76.5t-64 -30.5q-16 0 -37.5 8.5t-30.5 8.5q-18 0 -33.5 -21.5
t-35.5 -77.5l-168 -454q-107 -285 -208.5 -400.5t-236.5 -115.5q-66 0 -105.5 39t-39.5 104q0 55 36.5 94t88.5 39q44 0 71 -23.5t35 -68.5q2 -9 4 -24q6 -44 35 -44q38 0 92.5 68.5t102.5 179.5z" />
    <glyph glyph-name="z" unicode="z" horiz-adv-x="891" 
d="M57 461l-45 24l170 338q122 -41 238.5 -63.5t200.5 -22.5q47 0 63 43t49 43q20 0 33.5 -14.5t13.5 -34.5q0 -23 -20 -52t-60 -65l-495 -430q48 11 86 16t67 5q66 0 156.5 -27.5t116.5 -27.5q29 0 48 16t19 37q0 8 -3.5 12t-10.5 4q-1 0 -14 -2t-25 -2q-40 0 -64 22.5
t-24 59.5q0 41 25.5 66.5t64.5 25.5q51 0 80 -36.5t29 -100.5q0 -131 -90 -226.5t-220 -95.5q-30 0 -64 8t-67 23l-79 35q-50 21 -77 30t-42 9q-11 0 -16 -5t-5 -18l2 -10t2 -18q0 -26 -14 -40t-39 -14q-32 0 -47.5 17t-15.5 51q0 44 26.5 84.5t100.5 103.5l483 410
q-86 -41 -167.5 -61.5t-156.5 -20.5q-34 0 -70 5.5t-77 17.5z" />
    <glyph glyph-name="braceleft" unicode="{" 
d="M852 1516v-61q-121 -3 -165 -55t-44 -210v-133q0 -225 -53.5 -307t-196.5 -115q143 -32 196.5 -113t53.5 -307v-135q0 -158 44 -210t165 -55v-59q-235 0 -320.5 72.5t-85.5 273.5v193q0 165 -56 226.5t-212 76.5v76q156 15 212 76.5t56 226.5v192q0 201 85.5 274
t320.5 73z" />
    <glyph glyph-name="bar" unicode="|" 
d="M410 1565h206v-2048h-206v2048z" />
    <glyph glyph-name="braceright" unicode="}" 
d="M172 1516q236 0 322 -73t86 -274v-192q0 -165 56 -226.5t212 -76.5v-76q-156 -15 -212 -76.5t-56 -226.5v-193q0 -198 -85 -272t-311 -74h-12v59q119 2 164 55t45 210v135q0 226 53.5 307t196.5 113q-143 33 -196.5 115t-53.5 307v133q0 156 -45 209.5t-164 55.5v61z" />
    <glyph glyph-name="asciitilde" unicode="~" horiz-adv-x="1706" 
d="M1530 803v-221q-104 -71 -196.5 -104.5t-182.5 -33.5q-46 0 -92 8t-92 23q-24 8 -71 25q-219 75 -333 75q-85 0 -177.5 -37.5t-207.5 -119.5v221q107 72 204 107.5t183 35.5q117 0 291 -58l4 -1l55 -19q155 -55 240 -55t175 37t200 117z" />
    <glyph glyph-name="Adieresis" unicode="&#xc4;" horiz-adv-x="1235" 
d="M291 453h317l-39 460zM-141 0v65q63 4 109.5 38.5t99.5 121.5l698 1139h80l121 -1298h153v-66h-633v66h150l-27 315h-360l-149 -243q-6 -9 -9.5 -18.5t-3.5 -17.5q0 -16 13.5 -26t33.5 -10h84v-66h-360zM907 1659q0 51 39.5 90t91.5 39q53 0 90 -38t37 -91
q0 -56 -35.5 -92.5t-91.5 -36.5q-55 0 -93 37.5t-38 91.5zM549 1659q0 51 38.5 90t90.5 39q53 0 91 -38t38 -91q0 -56 -37 -92.5t-92 -36.5t-92 37t-37 92z" />
    <glyph glyph-name="Aring" unicode="&#xc5;" horiz-adv-x="1235" 
d="M705 1686q0 -56 39 -95t96 -39q55 0 95 39.5t40 94.5q0 57 -39.5 97t-95.5 40q-57 0 -96 -39.5t-39 -97.5zM582 1688q0 107 75 182.5t183 75.5q107 0 182.5 -75.5t75.5 -182.5q0 -109 -75 -183.5t-183 -74.5t-183 74.5t-75 183.5zM291 453h317l-39 460zM-141 0v65
q63 4 109.5 38.5t99.5 121.5l698 1139h80l121 -1298h153v-66h-633v66h150l-27 315h-360l-149 -243q-6 -9 -9.5 -18.5t-3.5 -17.5q0 -16 13.5 -26t33.5 -10h84v-66h-360z" />
    <glyph glyph-name="Ccedilla" unicode="&#xc7;" horiz-adv-x="1352" 
d="M1098 399l73 -18l-96 -393h-49l-61 88q-70 -55 -156.5 -82t-192.5 -27q-238 0 -382 140.5t-144 369.5q0 183 80 357t227 313q113 107 234.5 163t238.5 56q86 0 150 -25t110 -75l105 77h49l-72 -393h-75q-14 176 -81.5 267.5t-183.5 91.5q-92 0 -154.5 -53.5
t-107.5 -170.5q-30 -84 -60 -194.5t-56 -235.5q-28 -131 -42 -236t-14 -175q0 -117 46.5 -165t154.5 -48q146 0 257.5 89.5t201.5 278.5zM262 -381l47 98q77 -41 135 -60t107 -19q37 0 62.5 23t25.5 58q0 41 -23.5 61.5t-68.5 20.5q-16 0 -39.5 -3t-56.5 -9l67 211h76
l-36 -117q26 3 44.5 4.5t28.5 1.5q80 0 130 -47.5t50 -124.5q0 -88 -61 -137t-172 -49q-61 0 -139 22t-177 66z" />
    <glyph glyph-name="Eacute" unicode="&#xc9;" horiz-adv-x="1358" 
d="M-47 0v66h164l258 1210h-150v61h1049l-57 -372h-74q-3 179 -63.5 245t-227.5 66h-145l-115 -537h20q108 0 171 51.5t106 176.5h78l-121 -561h-76q0 4 1 13q3 55 3 77q0 85 -46 129.5t-134 44.5h-16l-129 -604h133q194 0 315 89t211 298h74l-105 -453h-1124zM743 1475
h-111l330 326q37 36 64 50.5t57 14.5q35 0 62.5 -29t27.5 -67q0 -29 -18.5 -54t-55.5 -45z" />
    <glyph glyph-name="Ntilde" unicode="&#xd1;" horiz-adv-x="1462" 
d="M-45 0v66q6 0 18.5 1t18.5 1q64 0 95.5 29t55.5 141l199 923q0 2 1 6q3 18 3 27q0 45 -33 63.5t-118 18.5v61h460l447 -856l141 668q3 16 4.5 30t1.5 25q0 40 -27 55t-114 17v61h391v-61h-29q-63 0 -99 -35.5t-54 -116.5l-246 -1155h-74l-589 1149l-195 -907
q-4 -16 -6 -34.5t-2 -37.5q0 -40 25 -56.5t87 -16.5h27v-66h-389zM1251 1809q-30 -130 -78.5 -189t-124.5 -59q-25 0 -38.5 1.5t-24.5 4.5l-103 25q-22 5 -40.5 8.5t-28.5 3.5q-43 0 -70.5 -21.5t-48.5 -72.5h-68q33 138 79.5 196t121.5 58q16 0 37 -3.5t47 -9.5l114 -26
q8 -2 17 -3t29 -1q43 0 68.5 20t43.5 68h68z" />
    <glyph glyph-name="Odieresis" unicode="&#xd6;" horiz-adv-x="1585" 
d="M96 506q0 149 66.5 303t185.5 281q125 132 279 203t317 71q242 0 385.5 -141.5t143.5 -380.5q0 -173 -74.5 -338.5t-212.5 -298.5q-119 -115 -267 -176.5t-305 -61.5q-238 0 -378 145t-140 394zM938 1307q-140 0 -212.5 -61t-135.5 -251q-25 -75 -48.5 -167t-54.5 -238
q-30 -146 -45.5 -243t-15.5 -140q0 -100 49.5 -141t167.5 -41q125 0 194.5 55.5t127.5 212.5q28 75 52 168t58 260q35 171 49.5 268t14.5 158q0 84 -47.5 122t-153.5 38zM1061 1659q0 51 39.5 90t91.5 39q53 0 90 -38t37 -91q0 -56 -35.5 -92.5t-91.5 -36.5q-55 0 -93 37.5
t-38 91.5zM703 1659q0 51 38.5 90t90.5 39q53 0 91 -38t38 -91q0 -56 -37 -92.5t-92 -36.5t-92 37t-37 92z" />
    <glyph glyph-name="Udieresis" unicode="&#xdc;" horiz-adv-x="1464" 
d="M186 516l166 760h-151v61h647v-61h-160l-182 -842q-12 -53 -18.5 -101t-6.5 -85q0 -99 58 -152t166 -53q157 0 245 79t127 261l156 717q6 26 9 49.5t3 40.5q0 46 -30.5 66t-102.5 20h-12v61h391v-61h-6q-80 0 -117.5 -34.5t-60.5 -143.5l-160 -733q-46 -209 -169 -301.5
t-353 -92.5q-225 0 -347 86.5t-122 245.5q0 33 8 89t22 124zM1010 1659q0 51 39.5 90t91.5 39q53 0 90 -38t37 -91q0 -56 -35.5 -92.5t-91.5 -36.5q-55 0 -93 37.5t-38 91.5zM652 1659q0 51 38.5 90t90.5 39q53 0 91 -38t38 -91q0 -56 -37 -92.5t-92 -36.5t-92 37t-37 92z
" />
    <glyph glyph-name="aacute" unicode="&#xe1;" horiz-adv-x="1128" 
d="M522 762q-50 0 -87.5 -47.5t-76.5 -165.5q-43 -134 -69.5 -254.5t-26.5 -167.5q0 -42 21.5 -66t58.5 -24q55 0 110 51t97 141q43 93 68.5 194t25.5 173q0 82 -30.5 124t-90.5 42zM788 170q-4 -16 -6 -30t-2 -25q0 -20 7 -29.5t20 -9.5q39 0 84.5 55.5t93.5 163.5l43 -19
q-56 -142 -133.5 -217t-167.5 -75q-73 0 -113.5 45.5t-40.5 128.5q0 4 1 13.5t1 14.5q-55 -108 -125 -160.5t-159 -52.5q-123 0 -203 91t-80 233q0 197 148 361.5t321 164.5q86 0 140.5 -41t66.5 -116l37 135h227zM539 934h-111l330 326q37 36 64 50.5t57 14.5
q35 0 62.5 -29t27.5 -67q0 -29 -18.5 -54t-55.5 -45z" />
    <glyph glyph-name="agrave" unicode="&#xe0;" horiz-adv-x="1128" 
d="M522 762q-50 0 -87.5 -47.5t-76.5 -165.5q-43 -134 -69.5 -254.5t-26.5 -167.5q0 -42 21.5 -66t58.5 -24q55 0 110 51t97 141q43 93 68.5 194t25.5 173q0 82 -30.5 124t-90.5 42zM788 170q-4 -16 -6 -30t-2 -25q0 -20 7 -29.5t20 -9.5q39 0 84.5 55.5t93.5 163.5l43 -19
q-56 -142 -133.5 -217t-167.5 -75q-73 0 -113.5 45.5t-40.5 128.5q0 4 1 13.5t1 14.5q-55 -108 -125 -160.5t-159 -52.5q-123 0 -203 91t-80 233q0 197 148 361.5t321 164.5q86 0 140.5 -41t66.5 -116l37 135h227zM830 934h-111l-285 203q-39 29 -53 50t-14 44
q0 41 25.5 67.5t64.5 26.5q27 0 51.5 -15t55.5 -50z" />
    <glyph glyph-name="acircumflex" unicode="&#xe2;" horiz-adv-x="1128" 
d="M522 762q-50 0 -87.5 -47.5t-76.5 -165.5q-43 -134 -69.5 -254.5t-26.5 -167.5q0 -42 21.5 -66t58.5 -24q55 0 110 51t97 141q43 93 68.5 194t25.5 173q0 82 -30.5 124t-90.5 42zM788 170q-4 -16 -6 -30t-2 -25q0 -20 7 -29.5t20 -9.5q39 0 84.5 55.5t93.5 163.5l43 -19
q-56 -142 -133.5 -217t-167.5 -75q-73 0 -113.5 45.5t-40.5 128.5q0 4 1 13.5t1 14.5q-55 -108 -125 -160.5t-159 -52.5q-123 0 -203 91t-80 233q0 197 148 361.5t321 164.5q86 0 140.5 -41t66.5 -116l37 135h227zM924 934h-86l-176 186l-260 -186h-111l316 369h153z" />
    <glyph glyph-name="adieresis" unicode="&#xe4;" horiz-adv-x="1128" 
d="M522 762q-50 0 -87.5 -47.5t-76.5 -165.5q-43 -134 -69.5 -254.5t-26.5 -167.5q0 -42 21.5 -66t58.5 -24q55 0 110 51t97 141q43 93 68.5 194t25.5 173q0 82 -30.5 124t-90.5 42zM788 170q-4 -16 -6 -30t-2 -25q0 -20 7 -29.5t20 -9.5q39 0 84.5 55.5t93.5 163.5l43 -19
q-56 -142 -133.5 -217t-167.5 -75q-73 0 -113.5 45.5t-40.5 128.5q0 4 1 13.5t1 14.5q-55 -108 -125 -160.5t-159 -52.5q-123 0 -203 91t-80 233q0 197 148 361.5t321 164.5q86 0 140.5 -41t66.5 -116l37 135h227zM709 1118q0 51 39.5 90t91.5 39q53 0 90 -38t37 -91
q0 -56 -35.5 -92.5t-91.5 -36.5q-55 0 -93 37.5t-38 91.5zM351 1118q0 51 38.5 90t90.5 39q53 0 91 -38t38 -91q0 -56 -37 -92.5t-92 -36.5t-92 37t-37 92z" />
    <glyph glyph-name="atilde" unicode="&#xe3;" horiz-adv-x="1128" 
d="M522 762q-50 0 -87.5 -47.5t-76.5 -165.5q-43 -134 -69.5 -254.5t-26.5 -167.5q0 -42 21.5 -66t58.5 -24q55 0 110 51t97 141q43 93 68.5 194t25.5 173q0 82 -30.5 124t-90.5 42zM788 170q-4 -16 -6 -30t-2 -25q0 -20 7 -29.5t20 -9.5q39 0 84.5 55.5t93.5 163.5l43 -19
q-56 -142 -133.5 -217t-167.5 -75q-73 0 -113.5 45.5t-40.5 128.5q0 4 1 13.5t1 14.5q-55 -108 -125 -160.5t-159 -52.5q-123 0 -203 91t-80 233q0 197 148 361.5t321 164.5q86 0 140.5 -41t66.5 -116l37 135h227zM971 1268q-30 -130 -78.5 -189t-124.5 -59q-25 0 -38.5 1.5
t-24.5 4.5l-103 25q-22 5 -40.5 8.5t-28.5 3.5q-43 0 -70.5 -21.5t-48.5 -72.5h-68q33 138 79.5 196t121.5 58q16 0 37 -3.5t47 -9.5l114 -26q8 -2 17 -3t29 -1q43 0 68.5 20t43.5 68h68z" />
    <glyph glyph-name="aring" unicode="&#xe5;" horiz-adv-x="1128" 
d="M365 1147q0 107 75 182.5t183 75.5q107 0 182.5 -75.5t75.5 -182.5q0 -109 -75 -183.5t-183 -74.5q-109 0 -183.5 74.5t-74.5 183.5zM487 1145q0 -56 39.5 -94.5t96.5 -38.5q55 0 95 39t40 94q0 57 -39.5 97t-95.5 40q-58 0 -97 -39.5t-39 -97.5zM522 762
q-50 0 -87.5 -47.5t-76.5 -165.5q-43 -134 -69.5 -254.5t-26.5 -167.5q0 -42 21.5 -66t58.5 -24q55 0 110 51t97 141q43 93 68.5 194t25.5 173q0 82 -30.5 124t-90.5 42zM788 170q-4 -16 -6 -30t-2 -25q0 -20 7 -29.5t20 -9.5q39 0 84.5 55.5t93.5 163.5l43 -19
q-56 -142 -133.5 -217t-167.5 -75q-73 0 -113.5 45.5t-40.5 128.5q0 4 1 13.5t1 14.5q-55 -108 -125 -160.5t-159 -52.5q-123 0 -203 91t-80 233q0 197 148 361.5t321 164.5q86 0 140.5 -41t66.5 -116l37 135h227z" />
    <glyph glyph-name="ccedilla" unicode="&#xe7;" horiz-adv-x="1008" 
d="M774 240l35 -27q-82 -121 -184.5 -180.5t-233.5 -59.5q-165 0 -263.5 90.5t-98.5 239.5q0 201 174 359.5t397 158.5q113 0 184.5 -51.5t71.5 -130.5q0 -62 -35 -98.5t-96 -36.5q-50 0 -82.5 30t-32.5 74q0 27 9.5 65t9.5 52q0 20 -16.5 33.5t-41.5 13.5q-53 0 -87 -34.5
t-70 -129.5q-46 -122 -77.5 -267.5t-31.5 -213.5q0 -45 30 -70.5t83 -25.5q102 0 194 54t162 155zM32 -381l47 98q77 -41 135 -60t107 -19q37 0 62.5 23t25.5 58q0 41 -23.5 61.5t-68.5 20.5q-16 0 -39.5 -3t-56.5 -9l67 211h76l-36 -117q26 3 44.5 4.5t28.5 1.5
q80 0 130 -47.5t50 -124.5q0 -88 -61 -137t-172 -49q-61 0 -139 22t-177 66z" />
    <glyph glyph-name="eacute" unicode="&#xe9;" horiz-adv-x="1010" 
d="M342 403q8 0 34.5 -3t41.5 -3q119 0 181.5 68.5t62.5 198.5q0 56 -27.5 83t-83.5 27q-65 0 -107.5 -69.5t-101.5 -301.5zM332 354q-18 -73 -28.5 -132.5t-10.5 -88.5q0 -52 27.5 -76t87.5 -24q107 0 213.5 61t195.5 174l35 -28q-106 -136 -218 -201.5t-239 -65.5
q-172 0 -277.5 90.5t-105.5 233.5q0 91 42.5 182.5t119.5 167.5q86 84 193.5 130t218.5 46q130 0 209 -60.5t79 -156.5q0 -122 -110 -192t-303 -70q-29 0 -93 7q-23 2 -36 3zM494 934h-111l330 326q37 36 64 50.5t57 14.5q35 0 62.5 -29t27.5 -67q0 -29 -18.5 -54t-55.5 -45
z" />
    <glyph glyph-name="egrave" unicode="&#xe8;" horiz-adv-x="1010" 
d="M342 403q8 0 34.5 -3t41.5 -3q119 0 181.5 68.5t62.5 198.5q0 56 -27.5 83t-83.5 27q-65 0 -107.5 -69.5t-101.5 -301.5zM332 354q-18 -73 -28.5 -132.5t-10.5 -88.5q0 -52 27.5 -76t87.5 -24q107 0 213.5 61t195.5 174l35 -28q-106 -136 -218 -201.5t-239 -65.5
q-172 0 -277.5 90.5t-105.5 233.5q0 91 42.5 182.5t119.5 167.5q86 84 193.5 130t218.5 46q130 0 209 -60.5t79 -156.5q0 -122 -110 -192t-303 -70q-29 0 -93 7q-23 2 -36 3zM785 934h-111l-285 203q-39 29 -53 50t-14 44q0 41 25.5 67.5t64.5 26.5q27 0 51.5 -15t55.5 -50z
" />
    <glyph glyph-name="ecircumflex" unicode="&#xea;" horiz-adv-x="1010" 
d="M342 403q8 0 34.5 -3t41.5 -3q119 0 181.5 68.5t62.5 198.5q0 56 -27.5 83t-83.5 27q-65 0 -107.5 -69.5t-101.5 -301.5zM332 354q-18 -73 -28.5 -132.5t-10.5 -88.5q0 -52 27.5 -76t87.5 -24q107 0 213.5 61t195.5 174l35 -28q-106 -136 -218 -201.5t-239 -65.5
q-172 0 -277.5 90.5t-105.5 233.5q0 91 42.5 182.5t119.5 167.5q86 84 193.5 130t218.5 46q130 0 209 -60.5t79 -156.5q0 -122 -110 -192t-303 -70q-29 0 -93 7q-23 2 -36 3zM879 934h-86l-176 186l-260 -186h-111l316 369h153z" />
    <glyph glyph-name="edieresis" unicode="&#xeb;" horiz-adv-x="1010" 
d="M342 403q8 0 34.5 -3t41.5 -3q119 0 181.5 68.5t62.5 198.5q0 56 -27.5 83t-83.5 27q-65 0 -107.5 -69.5t-101.5 -301.5zM332 354q-18 -73 -28.5 -132.5t-10.5 -88.5q0 -52 27.5 -76t87.5 -24q107 0 213.5 61t195.5 174l35 -28q-106 -136 -218 -201.5t-239 -65.5
q-172 0 -277.5 90.5t-105.5 233.5q0 91 42.5 182.5t119.5 167.5q86 84 193.5 130t218.5 46q130 0 209 -60.5t79 -156.5q0 -122 -110 -192t-303 -70q-29 0 -93 7q-23 2 -36 3zM664 1118q0 51 39.5 90t91.5 39q53 0 90 -38t37 -91q0 -56 -35.5 -92.5t-91.5 -36.5
q-55 0 -93 37.5t-38 91.5zM306 1118q0 51 38.5 90t90.5 39q53 0 91 -38t38 -91q0 -56 -37 -92.5t-92 -36.5t-92 37t-37 92z" />
    <glyph glyph-name="iacute" unicode="&#xed;" horiz-adv-x="602" 
d="M31 227l121 510h-142v57q102 2 210 9.5t220 19.5l-151 -659q-5 -21 -7.5 -39t-2.5 -25q0 -17 7.5 -24.5t24.5 -7.5q39 0 84.5 58t98.5 173l43 -18q-64 -159 -143.5 -228t-196.5 -69q-87 0 -134 37t-47 106q0 17 4 44t11 56zM236 934h-111l330 326q37 36 64 50.5t57 14.5
q35 0 62.5 -29t27.5 -67q0 -29 -18.5 -54t-55.5 -45z" />
    <glyph glyph-name="igrave" unicode="&#xec;" horiz-adv-x="602" 
d="M31 227l121 510h-142v57q102 2 210 9.5t220 19.5l-151 -659q-5 -21 -7.5 -39t-2.5 -25q0 -17 7.5 -24.5t24.5 -7.5q39 0 84.5 58t98.5 173l43 -18q-64 -159 -143.5 -228t-196.5 -69q-87 0 -134 37t-47 106q0 17 4 44t11 56zM527 934h-111l-285 203q-39 29 -53 50t-14 44
q0 41 25.5 67.5t64.5 26.5q27 0 51.5 -15t55.5 -50z" />
    <glyph glyph-name="icircumflex" unicode="&#xee;" horiz-adv-x="602" 
d="M31 227l121 510h-142v57q102 2 210 9.5t220 19.5l-151 -659q-5 -21 -7.5 -39t-2.5 -25q0 -17 7.5 -24.5t24.5 -7.5q39 0 84.5 58t98.5 173l43 -18q-64 -159 -143.5 -228t-196.5 -69q-87 0 -134 37t-47 106q0 17 4 44t11 56zM621 934h-86l-176 186l-260 -186h-111l316 369
h153z" />
    <glyph glyph-name="idieresis" unicode="&#xef;" horiz-adv-x="602" 
d="M31 227l121 510h-142v57q102 2 210 9.5t220 19.5l-151 -659q-5 -21 -7.5 -39t-2.5 -25q0 -17 7.5 -24.5t24.5 -7.5q39 0 84.5 58t98.5 173l43 -18q-64 -159 -143.5 -228t-196.5 -69q-87 0 -134 37t-47 106q0 17 4 44t11 56zM406 1118q0 51 39.5 90t91.5 39q53 0 90 -38
t37 -91q0 -56 -35.5 -92.5t-91.5 -36.5q-55 0 -93 37.5t-38 91.5zM48 1118q0 51 38.5 90t90.5 39q53 0 91 -38t38 -91q0 -56 -37 -92.5t-92 -36.5t-92 37t-37 92z" />
    <glyph glyph-name="ntilde" unicode="&#xf1;" horiz-adv-x="1120" 
d="M262 0h-270l168 739h-140l1 56q99 1 204.5 8t218.5 20l-61 -248q91 129 177 188.5t181 59.5q90 0 141.5 -41.5t51.5 -113.5q0 -19 -2 -34.5t-6 -30.5l-117 -474q-1 -3 -1.5 -8.5t-0.5 -16.5q0 -22 7.5 -30t25.5 -8q35 0 86 61.5t88 157.5l43 -17q-51 -142 -135.5 -212
t-204.5 -70q-77 0 -121.5 35.5t-44.5 95.5q0 21 5 53.5t13 65.5l97 389q6 27 9 46.5t3 30.5q0 20 -10.5 29.5t-30.5 9.5q-60 0 -157.5 -109.5t-123.5 -217.5zM928 1268q-30 -130 -78.5 -189t-124.5 -59q-25 0 -38.5 1.5t-24.5 4.5l-103 25q-22 5 -40.5 8.5t-28.5 3.5
q-43 0 -70.5 -21.5t-48.5 -72.5h-68q33 138 79.5 196t121.5 58q16 0 37 -3.5t47 -9.5l114 -26q8 -2 17 -3t29 -1q43 0 68.5 20t43.5 68h68z" />
    <glyph glyph-name="oacute" unicode="&#xf3;" horiz-adv-x="1118" 
d="M580 772q-78 0 -118.5 -34.5t-72.5 -139.5q-41 -132 -66.5 -265t-25.5 -198q0 -58 29.5 -85t93.5 -27q71 0 111.5 34.5t68.5 122.5q44 137 70 274t26 208q0 56 -28 83t-88 27zM16 311q0 201 173.5 355.5t404.5 154.5q173 0 278 -95t105 -249q0 -200 -174 -352t-410 -152
q-169 0 -273 93.5t-104 244.5zM530 934h-111l330 326q37 36 64 50.5t57 14.5q35 0 62.5 -29t27.5 -67q0 -29 -18.5 -54t-55.5 -45z" />
    <glyph glyph-name="ograve" unicode="&#xf2;" horiz-adv-x="1118" 
d="M580 772q-78 0 -118.5 -34.5t-72.5 -139.5q-41 -132 -66.5 -265t-25.5 -198q0 -58 29.5 -85t93.5 -27q71 0 111.5 34.5t68.5 122.5q44 137 70 274t26 208q0 56 -28 83t-88 27zM16 311q0 201 173.5 355.5t404.5 154.5q173 0 278 -95t105 -249q0 -200 -174 -352t-410 -152
q-169 0 -273 93.5t-104 244.5zM821 934h-111l-285 203q-39 29 -53 50t-14 44q0 41 25.5 67.5t64.5 26.5q27 0 51.5 -15t55.5 -50z" />
    <glyph glyph-name="ocircumflex" unicode="&#xf4;" horiz-adv-x="1118" 
d="M580 772q-78 0 -118.5 -34.5t-72.5 -139.5q-41 -132 -66.5 -265t-25.5 -198q0 -58 29.5 -85t93.5 -27q71 0 111.5 34.5t68.5 122.5q44 137 70 274t26 208q0 56 -28 83t-88 27zM16 311q0 201 173.5 355.5t404.5 154.5q173 0 278 -95t105 -249q0 -200 -174 -352t-410 -152
q-169 0 -273 93.5t-104 244.5zM915 934h-86l-176 186l-260 -186h-111l316 369h153z" />
    <glyph glyph-name="odieresis" unicode="&#xf6;" horiz-adv-x="1118" 
d="M580 772q-78 0 -118.5 -34.5t-72.5 -139.5q-41 -132 -66.5 -265t-25.5 -198q0 -58 29.5 -85t93.5 -27q71 0 111.5 34.5t68.5 122.5q44 137 70 274t26 208q0 56 -28 83t-88 27zM16 311q0 201 173.5 355.5t404.5 154.5q173 0 278 -95t105 -249q0 -200 -174 -352t-410 -152
q-169 0 -273 93.5t-104 244.5zM700 1118q0 51 39.5 90t91.5 39q53 0 90 -38t37 -91q0 -56 -35.5 -92.5t-91.5 -36.5q-55 0 -93 37.5t-38 91.5zM342 1118q0 51 38.5 90t90.5 39q53 0 91 -38t38 -91q0 -56 -37 -92.5t-92 -36.5t-92 37t-37 92z" />
    <glyph glyph-name="otilde" unicode="&#xf5;" horiz-adv-x="1118" 
d="M580 772q-78 0 -118.5 -34.5t-72.5 -139.5q-41 -132 -66.5 -265t-25.5 -198q0 -58 29.5 -85t93.5 -27q71 0 111.5 34.5t68.5 122.5q44 137 70 274t26 208q0 56 -28 83t-88 27zM16 311q0 201 173.5 355.5t404.5 154.5q173 0 278 -95t105 -249q0 -200 -174 -352t-410 -152
q-169 0 -273 93.5t-104 244.5zM962 1268q-30 -130 -78.5 -189t-124.5 -59q-25 0 -38.5 1.5t-24.5 4.5l-103 25q-22 5 -40.5 8.5t-28.5 3.5q-43 0 -70.5 -21.5t-48.5 -72.5h-68q33 138 79.5 196t121.5 58q16 0 37 -3.5t47 -9.5l114 -26q8 -2 17 -3t29 -1q43 0 68.5 20
t43.5 68h68z" />
    <glyph glyph-name="uacute" unicode="&#xfa;" horiz-adv-x="1124" 
d="M39 217l121 520h-140l1 58q101 1 209.5 8.5t220.5 19.5l-150 -647q-9 -37 -12.5 -54t-3.5 -26q0 -21 9.5 -31t31.5 -10q59 0 157 115t123 227l92 398h271l-156 -672q-2 -7 -3 -13.5t-1 -11.5q0 -18 8.5 -28.5t24.5 -10.5q33 0 85 62t91 158l41 -17q-56 -141 -135 -213
t-179 -72q-89 0 -135.5 35.5t-46.5 102.5q0 14 4 40t12 72q-84 -133 -170 -193.5t-192 -60.5q-87 0 -137.5 39t-50.5 105q0 24 2.5 49.5t7.5 50.5zM504 934h-111l330 326q37 36 64 50.5t57 14.5q35 0 62.5 -29t27.5 -67q0 -29 -18.5 -54t-55.5 -45z" />
    <glyph glyph-name="ugrave" unicode="&#xf9;" horiz-adv-x="1124" 
d="M39 217l121 520h-140l1 58q101 1 209.5 8.5t220.5 19.5l-150 -647q-9 -37 -12.5 -54t-3.5 -26q0 -21 9.5 -31t31.5 -10q59 0 157 115t123 227l92 398h271l-156 -672q-2 -7 -3 -13.5t-1 -11.5q0 -18 8.5 -28.5t24.5 -10.5q33 0 85 62t91 158l41 -17q-56 -141 -135 -213
t-179 -72q-89 0 -135.5 35.5t-46.5 102.5q0 14 4 40t12 72q-84 -133 -170 -193.5t-192 -60.5q-87 0 -137.5 39t-50.5 105q0 24 2.5 49.5t7.5 50.5zM795 934h-111l-285 203q-39 29 -53 50t-14 44q0 41 25.5 67.5t64.5 26.5q27 0 51.5 -15t55.5 -50z" />
    <glyph glyph-name="ucircumflex" unicode="&#xfb;" horiz-adv-x="1124" 
d="M39 217l121 520h-140l1 58q101 1 209.5 8.5t220.5 19.5l-150 -647q-9 -37 -12.5 -54t-3.5 -26q0 -21 9.5 -31t31.5 -10q59 0 157 115t123 227l92 398h271l-156 -672q-2 -7 -3 -13.5t-1 -11.5q0 -18 8.5 -28.5t24.5 -10.5q33 0 85 62t91 158l41 -17q-56 -141 -135 -213
t-179 -72q-89 0 -135.5 35.5t-46.5 102.5q0 14 4 40t12 72q-84 -133 -170 -193.5t-192 -60.5q-87 0 -137.5 39t-50.5 105q0 24 2.5 49.5t7.5 50.5zM889 934h-86l-176 186l-260 -186h-111l316 369h153z" />
    <glyph glyph-name="udieresis" unicode="&#xfc;" horiz-adv-x="1124" 
d="M39 217l121 520h-140l1 58q101 1 209.5 8.5t220.5 19.5l-150 -647q-9 -37 -12.5 -54t-3.5 -26q0 -21 9.5 -31t31.5 -10q59 0 157 115t123 227l92 398h271l-156 -672q-2 -7 -3 -13.5t-1 -11.5q0 -18 8.5 -28.5t24.5 -10.5q33 0 85 62t91 158l41 -17q-56 -141 -135 -213
t-179 -72q-89 0 -135.5 35.5t-46.5 102.5q0 14 4 40t12 72q-84 -133 -170 -193.5t-192 -60.5q-87 0 -137.5 39t-50.5 105q0 24 2.5 49.5t7.5 50.5zM674 1118q0 51 39.5 90t91.5 39q53 0 90 -38t37 -91q0 -56 -35.5 -92.5t-91.5 -36.5q-55 0 -93 37.5t-38 91.5zM316 1118
q0 51 38.5 90t90.5 39q53 0 91 -38t38 -91q0 -56 -37 -92.5t-92 -36.5t-92 37t-37 92z" />
    <glyph glyph-name="dagger" unicode="&#x2020;" 
d="M252 -360q47 250 72.5 450.5t25.5 310.5q0 22 -3 84q-1 17 -1 25q69 80 112.5 169t59.5 185q-64 -1 -148.5 -43.5t-119.5 -42.5q-51 0 -83 30t-32 79q0 50 28 79t75 29q43 0 136.5 -37t153.5 -43q8 37 11.5 72.5t3.5 71.5q0 49 -10.5 117t-10.5 88q0 46 27 73t74 27
q57 0 87.5 -24t30.5 -68q0 -45 -68.5 -154t-84.5 -204q71 4 159.5 42.5t118.5 38.5q48 0 78.5 -29.5t30.5 -76.5q0 -49 -26.5 -80t-69.5 -31q-31 0 -125 41t-172 41h-7q-4 -37 -6 -74t-2 -75q0 -63 9.5 -110t29.5 -89q-86 -172 -156 -380.5t-137 -491.5h-61z" />
    <glyph glyph-name="degree" unicode="&#xb0;" horiz-adv-x="674" 
d="M338 1335q-73 0 -124.5 -51t-51.5 -123q0 -74 51 -125t125 -51q72 0 123 52t51 124t-51 123t-123 51zM338 1464q126 0 214.5 -89.5t88.5 -215.5q0 -125 -89 -214t-216 -89q-126 0 -213.5 88t-87.5 215t88.5 216t214.5 89z" />
    <glyph glyph-name="cent" unicode="&#xa2;" horiz-adv-x="1241" 
d="M434 55l283 574v10q0 24 11 47.5t11 28.5q0 26 -18 38.5t-55 12.5q-46 0 -78.5 -35.5t-65.5 -124.5q-52 -145 -83 -282.5t-31 -200.5q0 -23 5.5 -37t20.5 -31zM877 242l36 -29q-71 -111 -182.5 -177.5t-224.5 -66.5q-3 0 -12 1t-15 1l-123 -252h-84l125 261
q-119 28 -191.5 118.5t-72.5 210.5q0 102 50.5 196t150.5 177q81 68 173 103.5t185 35.5q32 0 58.5 -4t52.5 -12l112 233h86l-127 -262q43 -23 65 -57.5t22 -79.5q0 -62 -34 -97.5t-93 -35.5q-27 0 -45 6t-33 20l-246 -499q5 0 11 1t5 1q101 0 197 56t154 151z" />
    <glyph glyph-name="sterling" unicode="&#xa3;" horiz-adv-x="1241" 
d="M94 719v65h195q15 265 154 421.5t356 156.5q146 0 234.5 -75t88.5 -193q0 -74 -39.5 -117t-107.5 -43q-56 0 -92.5 36.5t-36.5 94.5q0 52 41 96t41 68q0 33 -30 52t-81 19q-99 0 -149 -65t-50 -195q0 -23 3.5 -76t3.5 -81q0 -17 -3 -68q-1 -20 -1 -31h243v-65h-248
q-13 -148 -74 -254.5t-177 -188.5l6 -14q41 29 81.5 42t88.5 13q85 0 222 -60t193 -60t86.5 23.5t30.5 66.5q0 44 -38.5 78t-100.5 45l14 43q89 -12 142 -66.5t53 -132.5q0 -117 -93.5 -197t-236.5 -80q-114 0 -250 79l-5 3l-24 14q-151 87 -215 87q-41 0 -63.5 -19
t-40.5 -75q-17 -59 -36 -77t-52 -18q-29 0 -51.5 18.5t-22.5 41.5q0 48 76 104q29 21 45 35q60 49 88.5 151t28.5 267q0 37 -4 120v11h-193z" />
    <glyph glyph-name="section" unicode="&#xa7;" 
d="M272 649q0 -42 26.5 -98.5t80.5 -128.5q83 -112 126 -141t95 -29q47 0 79 33t32 82q0 43 -25.5 98t-79.5 129q-65 90 -112 130t-86 40q-54 0 -95 -34.5t-41 -80.5zM578 180q58 -66 91 -139.5t33 -136.5q0 -116 -95.5 -187t-254.5 -71q-137 0 -221 62t-84 159
q0 56 41.5 97.5t95.5 41.5q46 0 77.5 -29.5t31.5 -70.5q0 -37 -35 -79.5t-35 -55.5q0 -30 32.5 -50t80.5 -20q76 0 120 43.5t44 118.5q0 89 -138 260q-17 21 -26 33l-103 127q-80 102 -109.5 165.5t-29.5 124.5q0 118 85 189.5t227 71.5h10q-64 76 -95.5 141t-31.5 121
q0 121 92 193.5t246 72.5q138 0 221.5 -56.5t83.5 -146.5q0 -56 -42.5 -96.5t-96.5 -40.5q-49 0 -83 29.5t-34 70.5q0 35 30.5 70.5t30.5 48.5q0 23 -30.5 42.5t-73.5 19.5q-73 0 -117.5 -39t-44.5 -103q0 -80 169 -292l5 -7l103 -127q78 -96 109.5 -164t31.5 -135
q0 -117 -84 -186.5t-227 -69.5z" />
    <glyph glyph-name="bullet" unicode="&#x2022;" horiz-adv-x="1208" 
d="M307 762q0 123 87 209t210 86q122 0 208.5 -86.5t86.5 -208.5t-87.5 -209.5t-209.5 -87.5q-123 0 -209 87t-86 210z" />
    <glyph glyph-name="paragraph" unicode="&#xb6;" 
d="M983 1479v-111h-113v-1368h-151v1368h-158v-1368h-153v784q-167 6 -267 101t-100 245q0 158 107 253.5t284 95.5h551z" />
    <glyph glyph-name="germandbls" unicode="&#xdf;" horiz-adv-x="1126" 
d="M358 633q-50 -263 -93.5 -431.5t-86.5 -262.5q-80 -179 -197.5 -279t-242.5 -100q-100 0 -160.5 50.5t-60.5 129.5q0 54 30 87.5t80 33.5q56 0 89.5 -28.5t33.5 -76.5q0 -32 -18.5 -66t-18.5 -42q0 -20 10 -27.5t35 -7.5q124 0 210 426q6 30 10 48l14 75q119 602 186 774
q83 210 209.5 317t292.5 107q156 0 250 -79t94 -210q0 -134 -88.5 -220t-265.5 -124v-14q153 -25 231 -104.5t78 -213.5q0 -184 -122 -304t-312 -120q-105 0 -166.5 45t-61.5 119q0 55 33 92t82 37q43 0 71.5 -26t28.5 -66q0 -41 -34.5 -70t-34.5 -34q0 -15 18.5 -24
t48.5 -9q26 0 48 22t38 64q34 81 58 207.5t24 214.5q0 74 -24 106t-84 41l-38 5q-52 6 -52 30q0 16 13.5 22.5t47.5 6.5q70 0 94.5 18.5t40.5 67.5q30 87 50 184.5t20 142.5q0 69 -31 102.5t-96 33.5q-85 0 -133 -77.5t-90 -293.5z" />
    <glyph glyph-name="registered" unicode="&#xae;" horiz-adv-x="1683" 
d="M760 723q7 -1 16 -1.5t27 -0.5q96 0 144 45t48 135q0 60 -43 103t-106 43q-44 0 -65 -16.5t-21 -49.5v-258zM465 1098h403q146 0 234 -55.5t88 -143.5q0 -86 -64.5 -134.5t-214.5 -74.5q95 -22 149 -69.5t70 -124.5q6 -25 10 -74q5 -84 46 -84q28 0 42.5 29.5t14.5 87.5
v12h51v-23q0 -88 -44 -134t-128 -46q-47 0 -82.5 14t-56.5 41q-28 40 -33 134q-2 45 -6 67q-14 79 -54 116.5t-112 37.5h-18v-246q0 -46 20 -65t78 -27v-51h-393v50q61 4 83.5 24t22.5 69v522q0 49 -22.5 69.5t-83.5 25.5v53zM844 1309q-126 0 -241.5 -48.5t-203.5 -138.5
q-89 -90 -135.5 -204t-46.5 -240q0 -128 46.5 -242t135.5 -203q90 -89 202 -135.5t241 -46.5q127 0 240 47t200 135q89 91 136.5 206t47.5 239q0 125 -48.5 243t-135.5 203q-88 88 -202.5 136.5t-235.5 48.5zM844 1413q145 0 284 -59.5t242 -165.5q98 -101 150.5 -236.5
t52.5 -285.5q0 -139 -61 -277t-171 -244q-99 -96 -227.5 -147t-271.5 -51q-110 0 -211.5 30.5t-190.5 90.5q-157 104 -243 263.5t-86 346.5q0 146 55 280t158 238q102 104 237.5 160.5t282.5 56.5z" />
    <glyph glyph-name="copyright" unicode="&#xa9;" horiz-adv-x="1683" 
d="M1126 1102h45v-326h-47q-31 131 -100 202t-164 71q-118 0 -175.5 -90.5t-57.5 -274.5q0 -185 62.5 -281t182.5 -96q80 0 148.5 44t124.5 130l45 -28q-63 -107 -150.5 -161t-197.5 -54q-185 0 -308.5 122.5t-123.5 303.5q0 191 121 316.5t305 125.5q79 0 153 -33t80 -33
q24 0 37.5 15t19.5 47zM844 1309q-127 0 -241.5 -48t-203.5 -139q-89 -90 -135.5 -204t-46.5 -240q0 -128 46.5 -242t135.5 -203q90 -89 202 -135.5t241 -46.5q127 0 240 47t200 135q89 91 136.5 206t47.5 239q0 127 -47.5 244t-134.5 202q-87 88 -203 136.5t-237 48.5z
M844 1413q141 0 275.5 -56t238.5 -159q102 -102 159.5 -239.5t57.5 -280.5t-56.5 -277.5t-160.5 -240.5q-102 -104 -235 -158.5t-281 -54.5t-279 54t-237 159q-105 104 -160 237t-55 281t54.5 281.5t158.5 236.5q103 104 239 160.5t281 56.5z" />
    <glyph glyph-name="trademark" unicode="&#x2122;" horiz-adv-x="1683" 
d="M758 1454h211l131 -369l129 369h198v-27l-27 -4q-19 -3 -27.5 -15t-8.5 -36v-379q0 -24 9 -36t28 -15l26 -4v-33h-253v33l30 4q18 3 27.5 16t9.5 35v365l-156 -455h-36l-166 463v-373q0 -22 9 -35t28 -16l34 -4v-33h-196v33l34 4q19 3 28 16t9 35v373q0 23 -9 35.5
t-27 15.5l-35 4v33zM238 1454h450l12 -192h-32q-8 79 -39.5 115t-91.5 36h-7v-420q1 -23 9.5 -35.5t25.5 -15.5l31 -4v-33h-266v33l30 4q17 3 26 16t9 35v420h-10q-59 0 -89 -36t-38 -115h-33z" />
    <glyph glyph-name="acute" unicode="&#xb4;" 
d="M467 934h-111l330 326q37 36 64 50.5t57 14.5q35 0 62.5 -29t27.5 -67q0 -29 -18.5 -54t-55.5 -45z" />
    <glyph glyph-name="dieresis" unicode="&#xa8;" 
d="M637 1118q0 51 39.5 90t91.5 39q53 0 90 -38t37 -91q0 -56 -35.5 -92.5t-91.5 -36.5q-55 0 -93 37.5t-38 91.5zM279 1118q0 51 38.5 90t90.5 39q53 0 91 -38t38 -91q0 -56 -37 -92.5t-92 -36.5t-92 37t-37 92z" />
    <glyph glyph-name="notequal" unicode="&#x2260;" horiz-adv-x="1706" 
d="M1198 1233l148 -119l-154 -192h260v-191h-389l-191 -239h580v-193h-707l-245 -309l-148 119l154 190h-252v193h377l190 239h-567v191h696z" />
    <glyph glyph-name="AE" unicode="&#xc6;" horiz-adv-x="1913" 
d="M479 662h336l133 614h-71zM1663 453h80l-111 -453h-1102v66h158l115 534h-367l-293 -459q-7 -12 -11.5 -22.5t-4.5 -16.5q0 -16 16 -26t41 -10h78v-66h-338v66q54 0 90 22t76 86l567 897q16 25 23.5 48t7.5 44q0 54 -36.5 83.5t-102.5 29.5h-64v61h1348l-59 -374h-70
q0 16 2 35v6q0 134 -73.5 203t-217.5 69h-127l-114 -535h43q88 0 145.5 53t93.5 167h74l-115 -551h-78q1 2 1 6q3 46 3 67q0 103 -39.5 144t-140.5 44l-129 -605h154q151 0 272 98t205 289z" />
    <glyph glyph-name="Oslash" unicode="&#xd8;" horiz-adv-x="1585" 
d="M238 -201h-93l170 271q-115 90 -167 190t-52 232q0 167 72.5 327t208.5 293q121 119 265.5 184.5t287.5 65.5q47 0 106 -9.5t133 -29.5l125 178h90l-143 -211q112 -62 172 -176t60 -266q0 -173 -75.5 -339.5t-211.5 -295.5q-123 -116 -267 -178t-288 -62q-62 0 -120 13.5
t-118 42.5zM442 106q33 -35 87.5 -55t119.5 -20q141 0 222 88t139 315q60 240 94.5 430t34.5 277zM424 209l690 1026q-31 32 -81.5 48.5t-119.5 16.5q-123 0 -199 -73t-128 -246q-69 -223 -110.5 -422t-51.5 -350z" />
    <glyph glyph-name="infinity" unicode="&#x221e;" horiz-adv-x="1706" 
d="M942 561q45 -75 106.5 -113t139.5 -38q94 0 152.5 55.5t58.5 144.5q0 86 -54 142.5t-135 56.5q-74 0 -136 -57t-132 -191zM766 659q-46 76 -107 113t-139 37q-93 0 -152 -56.5t-59 -144.5q0 -85 54 -141.5t135 -56.5q75 0 138 58t130 191zM858 457q-69 -133 -147 -195.5
t-174 -62.5q-139 0 -235.5 117.5t-96.5 293.5q0 184 85.5 297t223.5 113q93 0 169.5 -58.5t164.5 -199.5q68 132 148 196t175 64q139 0 235.5 -118t96.5 -294q0 -183 -86 -296t-223 -113q-93 0 -168.5 56.5t-167.5 199.5z" />
    <glyph glyph-name="plusminus" unicode="&#xb1;" horiz-adv-x="1706" 
d="M254 197h1198v-199h-1198v199zM752 1223h202v-326h498v-199h-498v-325h-202v325h-498v199h498v326z" />
    <glyph glyph-name="lessequal" unicode="&#x2264;" horiz-adv-x="1706" 
d="M258 195h1192v-197h-1192v197zM1448 1241v-209l-834 -264l834 -262v-209l-1190 385v174z" />
    <glyph glyph-name="greaterequal" unicode="&#x2265;" horiz-adv-x="1706" 
d="M258 195h1192v-197h-1192v197zM260 1241l1188 -385v-174l-1188 -385v209l832 262l-832 264v209z" />
    <glyph glyph-name="yen" unicode="&#xa5;" horiz-adv-x="1155" 
d="M135 0v66h172l115 536h-395v60h370l-78 184h-258v59h236l-145 357h-119v61h620v-61h-168l215 -580l304 469q13 23 19.5 39t6.5 29q0 21 -20 32t-60 11h-63v61h381v-61q-117 -4 -200 -134l-5 -8l-137 -215h243v-59h-280l-121 -184h356v-60h-393l-117 -536h181v-66h-660z
" />
    <glyph glyph-name="mu" unicode="&#xb5;" horiz-adv-x="1202" 
d="M178 209q-12 -95 -29 -252q-40 -381 -155 -381q-54 0 -84.5 30.5t-30.5 84.5q0 47 68 274t106 408l109 512h256l-99 -459q-11 -53 -16.5 -89t-5.5 -58q0 -59 30.5 -92t84.5 -33q71 0 116 53t68 166l109 512h256l-115 -533q-9 -41 -13 -66.5t-4 -43.5q0 -47 17.5 -67.5
t56.5 -20.5q40 0 66 18t45 59l21 50q27 69 55 69q15 0 23.5 -10t8.5 -29q0 -34 -16.5 -88.5t-42.5 -101.5q-41 -74 -99 -110t-137 -36q-85 0 -129.5 48t-54.5 151q-40 -106 -98.5 -152.5t-149.5 -46.5q-93 0 -149.5 61t-67.5 173z" />
    <glyph glyph-name="partialdiff" unicode="&#x2202;" horiz-adv-x="1094" 
d="M762 662q19 99 29 188.5t10 155.5q0 100 -26 157.5t-70 57.5t-146 -73t-160 -73q-42 0 -71 30t-29 73q0 64 86.5 118t210.5 54q192 0 309 -161.5t117 -432.5q0 -339 -156.5 -560t-396.5 -221q-171 0 -282 114.5t-111 291.5q0 198 116 329.5t287 131.5q102 0 170 -43.5
t113 -136.5zM700 518q0 116 -38.5 178t-110.5 62q-101 0 -167.5 -134t-66.5 -341q0 -117 38.5 -177.5t111.5 -60.5q101 0 167 133.5t66 339.5z" />
    <glyph glyph-name="summation" unicode="&#x2211;" horiz-adv-x="1542" 
d="M25 1473h1235l139 -429h-88l-92 250q-19 52 -60.5 73.5t-167.5 21.5h-557l666 -783v-41l-735 -680h886q48 0 65 13t27 51l72 229h88l-174 -571h-1309v71l822 756l-817 973v66z" />
    <glyph glyph-name="product" unicode="&#x220f;" horiz-adv-x="1724" 
d="M47 1473h1624v-84h-190v-1698h190v-84h-698v84h178v1698h-582v-1698h176v-84h-698v84h191v1698h-191v84z" />
    <glyph glyph-name="pi" unicode="&#x3c0;" horiz-adv-x="1477" 
d="M1444 885l-60 -275h-348q-4 -64 -6 -117t-2 -81q0 -47 4 -123.5t4 -106.5q0 -116 -38.5 -170.5t-120.5 -54.5q-52 0 -81.5 32.5t-29.5 88.5q0 73 73 245t101 287h-375q-4 -68 -6 -121t-2 -77q0 -48 3 -124t3 -106q0 -116 -38.5 -170.5t-121.5 -54.5q-50 0 -79 32t-29 89
q0 74 72 246t100 286h-156q-118 0 -167 -32t-66 -117h-64q45 238 138 331t284 93h1008z" />
    <glyph glyph-name="integral" unicode="&#x222b;" horiz-adv-x="1186" 
d="M342 -252q102 0 121 639q3 136 6 211q16 508 123 732t328 224q98 0 157.5 -49t59.5 -129q0 -60 -38 -96.5t-100 -36.5q-46 0 -77 24t-41 68q-5 20 -7 54q-3 46 -30 47q-99 0 -119 -633l-6 -178q-11 -296 -31 -444.5t-59 -250.5q-56 -148 -148.5 -225.5t-214.5 -77.5
q-96 0 -156.5 49t-60.5 127q0 62 39 99t105 37q50 0 85 -31.5t35 -71.5q0 -58 6 -73t23 -15z" />
    <glyph glyph-name="ordfeminine" unicode="&#xaa;" horiz-adv-x="846" 
d="M391 1294q-37 0 -65 -33t-58 -114q-32 -96 -51.5 -180.5t-19.5 -116.5q0 -29 15.5 -45.5t43.5 -16.5q42 0 83 35.5t73 98.5q32 66 51.5 137t19.5 121q0 57 -23 85.5t-69 28.5zM592 881q-3 -12 -4.5 -22t-1.5 -17q0 -13 5 -20t15 -7q29 0 63.5 39.5t69.5 114.5l33 -13
q-43 -100 -101 -153t-126 -53q-54 0 -84.5 32t-30.5 90q0 3 1 10t1 11q-41 -75 -94 -112.5t-119 -37.5q-93 0 -153 64t-60 164q0 137 111.5 251.5t240.5 114.5q65 0 106 -28.5t50 -79.5l27 94h170z" />
    <glyph glyph-name="ordmasculine" unicode="&#xba;" horiz-adv-x="840" 
d="M434 1303q-58 0 -88 -25t-53 -98q-32 -91 -51 -183.5t-19 -140.5q0 -40 22.5 -59t69.5 -19q53 0 83.5 24.5t52.5 86.5q32 95 51.5 191.5t19.5 144.5q0 40 -21 59t-67 19zM12 979q0 141 130.5 249.5t303.5 108.5q129 0 208 -66.5t79 -174.5q0 -140 -130.5 -246.5
t-307.5 -106.5q-128 0 -205.5 65.5t-77.5 170.5z" />
    <glyph glyph-name="Omega" unicode="&#x3a9;" horiz-adv-x="1569" 
d="M1133 258v-14h290l43 145h78l-117 -389h-530q98 217 147.5 431.5t49.5 422.5q0 279 -76.5 417t-231.5 138t-232 -138.5t-77 -416.5q0 -208 50 -422t149 -432h-533l-116 389h75l45 -145h289v14q-164 88 -253 239t-89 343q0 285 196.5 471t495.5 186q300 0 495.5 -186
t195.5 -471q0 -191 -89 -341t-255 -241z" />
    <glyph glyph-name="ae" unicode="&#xe6;" horiz-adv-x="1497" 
d="M1313 244l37 -39q-98 -119 -206.5 -176.5t-236.5 -57.5q-116 0 -194 50.5t-127 156.5q-53 -100 -131 -153.5t-170 -53.5q-121 0 -198 89.5t-77 230.5q0 95 36 186.5t104 169.5q71 83 159 129.5t172 46.5q78 0 123.5 -34.5t69.5 -110.5l33 123h186l-33 -125q65 79 125 113
t133 34q111 0 180.5 -64t69.5 -165q0 -125 -104.5 -190.5t-302.5 -65.5q-33 0 -63.5 1t-61.5 3q-21 -76 -29 -117.5t-8 -66.5q0 -62 36 -94.5t105 -32.5q95 0 191.5 55t181.5 158zM522 766q-42 0 -70.5 -30.5t-68.5 -129.5q-53 -128 -88 -271t-35 -198q0 -49 21.5 -72.5
t66.5 -23.5q51 0 98 35t82 100q43 77 75 203.5t32 214.5q0 79 -31 125.5t-82 46.5zM855 397q15 -3 29 -4.5t27 -1.5q123 0 190.5 67.5t67.5 188.5q0 57 -28 88t-78 31q-70 0 -116 -78.5t-92 -290.5z" />
    <glyph glyph-name="oslash" unicode="&#xf8;" horiz-adv-x="1118" 
d="M297 121l381 612q-19 21 -42 30t-56 9q-73 0 -112.5 -30.5t-68.5 -112.5q-39 -117 -65 -247t-37 -261zM330 47q21 -13 43 -18.5t55 -5.5q101 0 156 116t112 500zM156 -238h-80l147 242q-102 44 -154.5 122t-52.5 185q0 93 43.5 184t122.5 164q81 75 186.5 118.5
t204.5 43.5q27 0 64 -4t84 -12l119 199h82l-136 -222q98 -54 144.5 -127.5t46.5 -173.5q0 -98 -46 -191t-130 -167q-79 -69 -182 -109.5t-197 -40.5q-22 0 -52.5 2.5t-78.5 8.5z" />
    <glyph glyph-name="questiondown" unicode="&#xbf;" horiz-adv-x="1012" 
d="M862 1202q0 -66 -47 -113t-115 -47q-66 0 -112.5 47t-46.5 113q0 67 47 114.5t112 47.5q67 0 114.5 -47.5t47.5 -114.5zM688 942v-47q0 -168 -40.5 -256.5t-138.5 -153.5q-22 -15 -72 -43q-187 -107 -187 -231q0 -89 56.5 -138.5t158.5 -49.5q62 0 107.5 24.5t45.5 50.5
q0 1 -49 39t-49 101q0 57 36.5 93t96.5 36q58 0 92.5 -38.5t34.5 -103.5q0 -107 -93.5 -179.5t-242.5 -72.5q-162 0 -264 97t-102 252q0 139 99.5 246.5t316.5 199.5q6 3 16 7q114 49 129 167h49z" />
    <glyph glyph-name="exclamdown" unicode="&#xa1;" horiz-adv-x="674" 
d="M428 924q-25 -116 -37 -228t-12 -221q0 -63 6 -148t6 -108q0 -120 -44.5 -183t-129.5 -63q-68 0 -112 44t-44 112q0 79 93 236q45 75 67 118q43 85 80 199t66 252zM610 1202q0 -67 -47.5 -114.5t-113.5 -47.5t-113 48t-47 114q0 67 47 114.5t113 47.5t113.5 -47.5
t47.5 -114.5z" />
    <glyph glyph-name="logicalnot" unicode="&#xac;" horiz-adv-x="1706" 
d="M254 864h1198v-502h-199v306h-999v196z" />
    <glyph glyph-name="radical" unicode="&#x221a;" horiz-adv-x="1346" 
d="M1141 1694h207v-129h-103l-592 -1606h-100l-311 858l-140 -51l-30 113l331 116l236 -661z" />
    <glyph glyph-name="florin" unicode="&#x192;" horiz-adv-x="1241" 
d="M262 729v57h225q75 278 216 428t327 150q104 0 168 -52.5t64 -135.5q0 -56 -32.5 -90.5t-84.5 -34.5q-59 0 -94 29t-35 79q0 33 18.5 68t18.5 47q0 16 -11.5 24.5t-33.5 8.5q-82 0 -128.5 -99.5t-97.5 -421.5h234v-57h-244l-28 -148q-92 -475 -146 -608
q-82 -201 -208.5 -308t-280.5 -107q-104 0 -168 52.5t-64 135.5q0 56 32.5 90.5t84.5 34.5q59 0 94 -29.5t35 -79.5q0 -33 -18.5 -67.5t-18.5 -46.5q0 -17 10.5 -25t32.5 -8q135 0 233 547q61 344 111 567h-211z" />
    <glyph glyph-name="approxequal" unicode="&#x2248;" horiz-adv-x="1706" 
d="M1530 596v-219q-106 -72 -198 -105.5t-181 -33.5q-95 0 -286.5 66.5t-301.5 66.5q-84 0 -174.5 -37t-210.5 -121v219q111 73 206.5 108t180.5 35q124 0 315.5 -65.5t274.5 -65.5q86 0 174 35.5t201 116.5zM1530 1008v-220q-106 -71 -196.5 -104t-180.5 -33
q-94 0 -286 65.5t-304 65.5q-82 0 -170 -35t-215 -122v219q107 71 204 107t183 36q125 0 316.5 -65.5t273.5 -65.5q84 0 171 35t204 117z" />
    <glyph glyph-name="Delta" unicode="&#x2206;" horiz-adv-x="1350" 
d="M547 1116l-381 -827h764zM647 1497h68l692 -1497h-1460z" />
    <glyph glyph-name="guillemotleft" unicode="&#xab;" horiz-adv-x="991" 
d="M39 389v19q119 68 259 180l17 14l105 84q2 2 7 6q18 17 30 17q6 0 11 -6t5 -15q0 -19 -28 -51q-8 -9 -11 -13l-67 -79l-75.5 -87t-64.5 -67l41 -74q37 -66 62.5 -133t25.5 -84q0 -4 -4.5 -8t-9.5 -4q-14 0 -78.5 74t-134.5 141zM348 389v19q119 68 259 180q12 10 18 14
l104 84q2 2 7 6q19 17 30 17q6 0 10 -6t4 -15q0 -21 -31 -57q-4 -4 -6 -7l-67 -79l-75.5 -87t-63.5 -67l41 -74q36 -66 62 -133t26 -84q0 -4 -5 -8t-10 -4q-14 0 -78 74t-135 141z" />
    <glyph glyph-name="guillemotright" unicode="&#xbb;" horiz-adv-x="991" 
d="M487 408v-19q-113 -66 -252 -177q-16 -13 -24 -19l-102 -82q-2 -2 -6 -5q-21 -18 -33 -18q-7 0 -11 5t-4 13q0 13 6 25t31 41l69 79l14 17q71 84 124 138l-39 71q-36 67 -62 133.5t-26 83.5q0 5 5 10t9 5q14 0 77 -73.5t134 -141.5zM797 408v-19q-114 -66 -251 -176
l-26 -20l-103 -83l-5 -4q-21 -18 -33 -18q-7 0 -10.5 5t-3.5 13q0 13 5.5 25t30.5 41l70 80l14 16q70 84 123 138l-39 71q-36 67 -62 133.5t-26 83.5q0 5 5 10t10 5q13 0 76 -73.5t135 -141.5z" />
    <glyph glyph-name="ellipsis" unicode="&#x2026;" horiz-adv-x="2048" 
d="M92 135q0 67 47.5 113.5t114.5 46.5q66 0 113 -47t47 -113t-48 -114t-114 -48t-113 47.5t-47 114.5zM774 135q0 67 47.5 113.5t114.5 46.5q66 0 113 -47t47 -113t-48 -114t-114 -48t-113 47.5t-47 114.5zM1458 135q0 67 47.5 113.5t114.5 46.5q66 0 113 -47t47 -113
t-48 -114t-114 -48t-113 47.5t-47 114.5z" />
    <glyph glyph-name="nonbreakingspace" unicode="&#xa0;" horiz-adv-x="1241" 
 />
    <glyph glyph-name="Agrave" unicode="&#xc0;" horiz-adv-x="1235" 
d="M291 453h317l-39 460zM-141 0v65q63 4 109.5 38.5t99.5 121.5l698 1139h80l121 -1298h153v-66h-633v66h150l-27 315h-360l-149 -243q-6 -9 -9.5 -18.5t-3.5 -17.5q0 -16 13.5 -26t33.5 -10h84v-66h-360zM1028 1475h-111l-285 203q-39 29 -53 50t-14 44q0 41 25.5 67.5
t64.5 26.5q27 0 51.5 -15t55.5 -50z" />
    <glyph glyph-name="Atilde" unicode="&#xc3;" horiz-adv-x="1235" 
d="M291 453h317l-39 460zM-141 0v65q63 4 109.5 38.5t99.5 121.5l698 1139h80l121 -1298h153v-66h-633v66h150l-27 315h-360l-149 -243q-6 -9 -9.5 -18.5t-3.5 -17.5q0 -16 13.5 -26t33.5 -10h84v-66h-360zM1169 1809q-30 -130 -78.5 -189t-124.5 -59q-25 0 -38.5 1.5
t-24.5 4.5l-103 25q-22 5 -40.5 8.5t-28.5 3.5q-43 0 -70.5 -21.5t-48.5 -72.5h-68q33 138 79.5 196t121.5 58q16 0 37 -3.5t47 -9.5l114 -26q8 -2 17 -3t29 -1q43 0 68.5 20t43.5 68h68z" />
    <glyph glyph-name="Otilde" unicode="&#xd5;" horiz-adv-x="1585" 
d="M96 506q0 149 66.5 303t185.5 281q125 132 279 203t317 71q242 0 385.5 -141.5t143.5 -380.5q0 -173 -74.5 -338.5t-212.5 -298.5q-119 -115 -267 -176.5t-305 -61.5q-238 0 -378 145t-140 394zM938 1307q-140 0 -212.5 -61t-135.5 -251q-25 -75 -48.5 -167t-54.5 -238
q-30 -146 -45.5 -243t-15.5 -140q0 -100 49.5 -141t167.5 -41q125 0 194.5 55.5t127.5 212.5q28 75 52 168t58 260q35 171 49.5 268t14.5 158q0 84 -47.5 122t-153.5 38zM1323 1809q-30 -130 -78.5 -189t-124.5 -59q-25 0 -38.5 1.5t-24.5 4.5l-103 25q-22 5 -40.5 8.5
t-28.5 3.5q-43 0 -70.5 -21.5t-48.5 -72.5h-68q33 138 79.5 196t121.5 58q16 0 37 -3.5t47 -9.5l114 -26q8 -2 17 -3t29 -1q43 0 68.5 20t43.5 68h68z" />
    <glyph glyph-name="OE" unicode="&#x152;" horiz-adv-x="2081" 
d="M973 424l125 584q10 45 15 82.5t5 62.5q0 53 -49 87t-131 34q-123 0 -199 -60.5t-135 -203.5q-23 -57 -47.5 -143.5t-56.5 -223.5q-40 -170 -52 -239.5t-12 -114.5q0 -120 61 -176t191 -56q115 0 176 71t109 296zM1847 451h78l-100 -451h-1182q-246 0 -397.5 138
t-151.5 360q0 178 100 362t265 305q116 86 250 128t290 42h1016l-57 -374h-74q0 8 2 18v2q0 162 -63.5 223.5t-237.5 61.5h-86l-115 -529q6 0 14.5 -1t12.5 -1q88 0 149 55t95 164h82l-119 -540h-82q3 33 3.5 48.5t0.5 29.5q0 90 -40 133t-126 43l-131 -596h199
q154 0 236.5 77.5t168.5 301.5z" />
    <glyph glyph-name="oe" unicode="&#x153;" horiz-adv-x="1581" 
d="M707 98q-73 -63 -153 -94t-171 -31q-165 0 -271 94.5t-106 239.5q0 201 171.5 358.5t389.5 157.5q90 0 156 -29t123 -94q65 59 143.5 91t157.5 32q126 0 206.5 -63t80.5 -160q0 -128 -101.5 -194t-298.5 -66l-135 2q-21 -88 -29 -132t-8 -75q0 -54 31 -79t96 -25
q99 0 198 55t189 160l39 -33q-104 -123 -210 -181.5t-224 -58.5q-88 0 -155.5 31t-118.5 94zM565 774q-77 0 -117.5 -35t-72.5 -141q-41 -130 -65.5 -262t-24.5 -201q0 -58 29 -85t92 -27q71 0 111 34.5t69 122.5q44 137 70 274t26 208q0 57 -28.5 84.5t-88.5 27.5zM918 399
q10 -1 17.5 -1.5t14.5 -0.5q6 0 13 -2t10 -2q127 0 196.5 65.5t69.5 182.5q0 62 -27 95.5t-77 33.5q-80 0 -124.5 -68.5t-92.5 -302.5z" />
    <glyph glyph-name="endash" unicode="&#x2013;" 
d="M-82 319l37 175h1024l-37 -175h-1024z" />
    <glyph glyph-name="emdash" unicode="&#x2014;" horiz-adv-x="2048" 
d="M2003 494l-37 -175h-2048l37 175h2048z" />
    <glyph glyph-name="quotedblleft" unicode="&#x201c;" horiz-adv-x="1141" 
d="M541 1364l22 -45q-159 -76 -234 -156.5t-75 -175.5q0 -25 5.5 -41t18.5 -30q10 47 43.5 74.5t81.5 27.5q66 0 109 -43t43 -111q0 -76 -46.5 -122t-123.5 -46q-97 0 -158 68.5t-61 177.5q0 131 97.5 240.5t277.5 181.5zM1061 1364l22 -45q-159 -76 -235 -157t-76 -175
q0 -23 6 -39.5t21 -31.5q9 46 43 74t82 28q65 0 107 -42.5t42 -111.5q0 -77 -45.5 -122.5t-122.5 -45.5q-97 0 -159 69t-62 177q0 130 98 240t279 182z" />
    <glyph glyph-name="quotedblright" unicode="&#x201d;" horiz-adv-x="1141" 
d="M217 698l-22 43q159 76 235 157t76 175q0 23 -6 39.5t-20 31.5q-10 -46 -44 -74t-82 -28q-65 0 -107 43t-42 111q0 77 45.5 122.5t122.5 45.5q97 0 159 -68.5t62 -177.5q0 -129 -97.5 -238t-279.5 -182zM737 698l-22 43q160 76 235.5 157t75.5 175q0 23 -6 39.5t-20 31.5
q-10 -46 -43.5 -74t-82.5 -28q-65 0 -107 43t-42 111q0 77 45.5 122.5t122.5 45.5q97 0 159 -68.5t62 -177.5q0 -130 -97.5 -238.5t-279.5 -181.5z" />
    <glyph glyph-name="quoteleft" unicode="&#x2018;" horiz-adv-x="621" 
d="M541 1364l22 -45q-159 -76 -234 -156.5t-75 -175.5q0 -25 5.5 -41t18.5 -30q10 47 44 75.5t81 28.5q66 0 109 -43.5t43 -112.5q0 -76 -46.5 -121t-123.5 -45q-97 0 -158 68t-61 176q0 131 97.5 240.5t277.5 181.5z" />
    <glyph glyph-name="quoteright" unicode="&#x2019;" horiz-adv-x="621" 
d="M215 698l-22 43q159 76 235 157t76 175q0 23 -6 39.5t-21 31.5q-9 -46 -43 -74t-82 -28q-65 0 -107 43t-42 111q0 77 45.5 122.5t122.5 45.5q97 0 159 -68.5t62 -177.5q0 -129 -97.5 -238t-279.5 -182z" />
    <glyph glyph-name="divide" unicode="&#xf7;" horiz-adv-x="1706" 
d="M854 369q62 0 107 -45t45 -107q0 -61 -45 -105t-107 -44q-63 0 -107.5 43t-44.5 106t44.5 107.5t107.5 44.5zM254 711h1198v-199h-1198v199zM854 1155q62 0 107 -44.5t45 -106.5q0 -63 -44.5 -107.5t-107.5 -44.5t-107.5 44.5t-44.5 107.5t44.5 107t107.5 44z" />
    <glyph glyph-name="lozenge" unicode="&#x25ca;" horiz-adv-x="1012" 
d="M506 1409l-385 -817l385 -825l385 825zM506 1653l500 -1061l-500 -1069l-500 1069z" />
    <glyph glyph-name="ydieresis" unicode="&#xff;" horiz-adv-x="1008" 
d="M412 -80l-205 651q-19 57 -31.5 74t-30.5 17q-30 0 -61 -38.5t-70 -125.5l-49 22q64 150 146 225.5t180 75.5q61 0 100 -38t64 -119l108 -369l121 362q34 99 67 131.5t87 32.5q41 0 67.5 -30t26.5 -76t-26 -76.5t-64 -30.5q-16 0 -37.5 8.5t-30.5 8.5q-18 0 -33.5 -21.5
t-35.5 -77.5l-168 -454q-107 -285 -208.5 -400.5t-236.5 -115.5q-66 0 -105.5 39t-39.5 104q0 55 36.5 94t88.5 39q44 0 71 -23.5t35 -68.5q2 -9 4 -24q6 -44 35 -44q38 0 92.5 68.5t102.5 179.5zM629 1118q0 51 39.5 90t91.5 39q53 0 90 -38t37 -91q0 -56 -35.5 -92.5
t-91.5 -36.5q-55 0 -93 37.5t-38 91.5zM271 1118q0 51 38.5 90t90.5 39q53 0 91 -38t38 -91q0 -56 -37 -92.5t-92 -36.5t-92 37t-37 92z" />
    <glyph glyph-name="Ydieresis" unicode="&#x178;" horiz-adv-x="1237" 
d="M137 0v66h174l115 542l-252 668h-121v61h637v-61h-170l219 -588l305 475q16 25 22.5 42t6.5 28q0 22 -19.5 32.5t-62.5 10.5h-65v61h385v-61q-114 -4 -194 -126l-11 -17l-338 -523l-117 -544h183v-66h-697zM866 1659q0 51 39.5 90t91.5 39q53 0 90 -38t37 -91
q0 -56 -35.5 -92.5t-91.5 -36.5q-55 0 -93 37.5t-38 91.5zM508 1659q0 51 38.5 90t90.5 39q53 0 91 -38t38 -91q0 -56 -37 -92.5t-92 -36.5t-92 37t-37 92z" />
    <glyph glyph-name="fraction" unicode="&#x2215;" horiz-adv-x="342" 
d="M561 1364h111l-916 -1391h-108z" />
    <glyph glyph-name="currency" unicode="&#xa4;" horiz-adv-x="1241" 
d="M1235 1337l-72 -393h-76q-14 185 -73.5 273t-169.5 88q-88 0 -144.5 -80.5t-105.5 -274.5q-13 -48 -18.5 -72l-10.5 -44h416l-27 -60h-403q-11 -49 -20 -95l-17 -89h342l-27 -60h-327q-21 -111 -33 -201.5t-12 -131.5q0 -79 36.5 -122.5t100.5 -43.5q112 0 203.5 87.5
t185.5 289.5l74 -19l-96 -393h-50l-53 84q-91 -72 -141.5 -88.5t-132.5 -16.5q-193 0 -301.5 132t-108.5 366q0 24 0.5 35.5t1.5 21.5h-133l27 60h110q7 49 16.5 95t22.5 89h-141l26 60h136q87 243 251.5 384.5t370.5 141.5q58 0 117.5 -27.5t101.5 -72.5l105 77h49z" />
    <glyph glyph-name="guilsinglleft" unicode="&#x2039;" horiz-adv-x="682" 
d="M39 389v19q119 68 259 180l17 14l105 84q2 2 7 6q18 17 30 17q6 0 11 -6t5 -15q0 -19 -28 -51q-8 -9 -11 -13l-67 -79l-75.5 -87t-64.5 -67l41 -74q37 -66 62.5 -133t25.5 -84q0 -4 -4.5 -8t-9.5 -4q-14 0 -78.5 74t-134.5 141z" />
    <glyph glyph-name="guilsinglright" unicode="&#x203a;" horiz-adv-x="682" 
d="M487 408v-19q-113 -66 -252 -177q-16 -13 -24 -19l-102 -82q-2 -2 -6 -5q-21 -18 -33 -18q-7 0 -11 5t-4 13q0 13 6 25t31 41l69 79l14 17q71 84 124 138l-39 71q-36 67 -62 133.5t-26 83.5q0 5 5 10t9 5q14 0 77 -73.5t134 -141.5z" />
    <glyph glyph-name="fi" unicode="&#xf001;" horiz-adv-x="1223" 
d="M6 737v58h201q71 276 223.5 419.5t374.5 143.5q118 0 187 -47t69 -127q0 -54 -34.5 -87.5t-90.5 -33.5q-49 0 -79 29.5t-30 76.5q0 23 13.5 50.5t13.5 37.5q0 20 -19.5 30.5t-56.5 10.5q-102 0 -172.5 -87.5t-105.5 -260.5l-33 -155h211q79 0 172.5 7t202.5 21l-150 -651
q-5 -20 -7.5 -37.5t-2.5 -30.5q0 -11 9 -18.5t24 -7.5q45 0 94 58t90 161l45 -21q-54 -148 -141 -219t-213 -71q-83 0 -129.5 37.5t-46.5 103.5q0 17 5 50t13 67l121 493h-309l-19 -92q-109 -522 -155 -645q-80 -206 -205 -323t-262 -117q-100 0 -162 50.5t-62 129.5
q0 54 31.5 87.5t81.5 33.5q55 0 88 -28.5t33 -76.5q0 -32 -18.5 -66t-18.5 -42q0 -19 10.5 -27t36.5 -8q130 0 236 554q67 347 120 570h-184z" />
    <glyph glyph-name="fl" unicode="&#xf002;" horiz-adv-x="1255" 
d="M8 737v58h199q58 264 211 413.5t364 149.5q44 0 81.5 -7t74.5 -22l254 29l-271 -1189q-3 -15 -7.5 -31t-4.5 -17q0 -23 7.5 -33t23.5 -10q45 0 94 57.5t90 159.5l43 -21q-50 -142 -135.5 -215t-202.5 -73q-84 0 -132 40.5t-48 112.5q0 19 3 40.5t14 64.5l196 845
q-22 8 -35.5 27t-13.5 45q0 24 16.5 53.5t16.5 40.5q0 20 -17.5 31.5t-48.5 11.5q-109 0 -178.5 -85.5t-103.5 -262.5l-31 -155h186v-58h-198l-31 -148q-98 -472 -143 -589q-80 -206 -205 -323t-262 -117q-100 0 -162 50.5t-62 129.5q0 54 31.5 87.5t81.5 33.5
q55 0 88 -28.5t33 -76.5q0 -32 -18.5 -66t-18.5 -42q0 -19 10.5 -27t36.5 -8q129 0 236 553q67 347 120 571h-182z" />
    <glyph glyph-name="daggerdbl" unicode="&#x2021;" 
d="M334 510q68 79 110.5 167.5t59.5 186.5q-64 -1 -147.5 -43.5t-118.5 -42.5q-52 0 -84.5 30.5t-32.5 78.5q0 50 28 79t74 29q44 0 137 -37t154 -42q7 35 10.5 70.5t3.5 72.5q0 49 -9 117t-9 88q0 46 27 73t73 27q57 0 88 -24t31 -68q0 -45 -68.5 -154t-84.5 -204
q71 4 159.5 42.5t118.5 38.5q48 0 78.5 -29.5t30.5 -76.5q0 -49 -26.5 -80t-70.5 -31q-31 0 -124.5 41t-172.5 41h-5q-6 -48 -8.5 -84t-2.5 -65q0 -63 9.5 -110t29.5 -89q-72 -95 -114.5 -185.5t-57.5 -178.5q64 1 148.5 42t119.5 41q51 0 83 -29.5t32 -78.5
q0 -50 -28 -79.5t-75 -29.5q-43 0 -136.5 38.5t-153.5 43.5q-8 -36 -11.5 -72.5t-3.5 -72.5q0 -49 10.5 -116t10.5 -87q0 -46 -27.5 -74t-73.5 -28q-56 0 -87 24.5t-31 69.5t68.5 152.5t84.5 203.5q-70 -4 -159 -43t-119 -39q-48 0 -78.5 30.5t-30.5 78.5q0 49 25.5 78.5
t68.5 29.5q31 0 125 -40.5t172 -40.5h6q6 53 8.5 87.5t2.5 59.5q0 61 -9 113t-28 100z" />
    <glyph glyph-name="periodcentered" unicode="&#xb7;" horiz-adv-x="621" 
d="M141 674q0 67 48.5 115.5t115.5 48.5q66 0 114 -48.5t48 -115.5t-47 -114.5t-115 -47.5q-67 0 -115.5 47t-48.5 115z" />
    <glyph glyph-name="quotesinglbase" unicode="&#x201a;" horiz-adv-x="621" 
d="M39 -369l-23 43q160 76 236 157t76 175q0 23 -6.5 39.5t-19.5 31.5q-10 -46 -44 -74t-82 -28q-65 0 -107 43t-42 111q0 77 45.5 122.5t122.5 45.5q97 0 159 -68.5t62 -177.5q0 -129 -98 -238t-279 -182z" />
    <glyph glyph-name="quotedblbase" unicode="&#x201e;" horiz-adv-x="1141" 
d="M39 -369l-23 43q160 76 236 157t76 175q0 23 -6.5 39.5t-19.5 31.5q-10 -46 -44 -74t-82 -28q-65 0 -107 43t-42 111q0 77 45.5 122.5t122.5 45.5q97 0 159 -68.5t62 -177.5q0 -129 -98 -238t-279 -182zM559 -369l-22 43q158 76 233.5 156.5t75.5 175.5q0 26 -5.5 41.5
t-18.5 29.5q-10 -46 -44 -74t-82 -28q-65 0 -108 43t-43 111q0 77 46.5 122.5t123.5 45.5q97 0 158 -68.5t61 -177.5q0 -130 -97 -238.5t-278 -181.5z" />
    <glyph glyph-name="perthousand" unicode="&#x2030;" horiz-adv-x="2847" 
d="M2247 182q0 -61 30 -93t88 -32q112 0 215 150.5t103 324.5q0 75 -29.5 116.5t-81.5 41.5q-46 0 -90 -39.5t-98 -132.5q-62 -105 -99.5 -199t-37.5 -137zM2300 -10q-130 0 -206.5 74t-76.5 200q0 79 37 168t103 166q72 84 158 130t171 46q114 0 180 -68.5t66 -187.5
q0 -92 -38 -193.5t-103 -183.5q-64 -77 -135 -114t-156 -37zM1346 182q0 -62 29 -93.5t87 -31.5q112 0 215 150.5t103 324.5q0 75 -29.5 116.5t-81.5 41.5q-47 0 -91 -39.5t-97 -132.5q-61 -104 -98 -198t-37 -138zM1401 -10q-131 0 -208 74.5t-77 199.5q0 78 37.5 167
t103.5 167q72 84 158.5 130t171.5 46q113 0 177.5 -68t64.5 -188q0 -94 -36.5 -195.5t-100.5 -181.5q-64 -77 -135 -114t-156 -37zM768 1159q-39 16 -68.5 37.5t-54.5 50.5q-43 -8 -78 -37.5t-80 -99.5q-69 -113 -109 -215.5t-40 -163.5q0 -47 31.5 -76.5t81.5 -29.5
q114 0 218.5 143t104.5 297q0 19 -1.5 43.5t-4.5 50.5zM510 -63l719 1265q-59 -44 -126 -65t-149 -21q-29 0 -62 4.5t-71 13.5q1 -17 1.5 -33t0.5 -32q0 -198 -130.5 -355t-295.5 -157q-128 0 -208 74t-80 194q0 97 40.5 190t120.5 179q68 72 147 109.5t163 37.5
q82 0 136 -32.5t85 -100.5q44 -19 81.5 -28t75.5 -9q124 0 217 52.5t168 165.5h99l-830 -1452h-102z" />
    <glyph glyph-name="Acircumflex" unicode="&#xc2;" horiz-adv-x="1235" 
d="M291 453h317l-39 460zM-141 0v65q63 4 109.5 38.5t99.5 121.5l698 1139h80l121 -1298h153v-66h-633v66h150l-27 315h-360l-149 -243q-6 -9 -9.5 -18.5t-3.5 -17.5q0 -16 13.5 -26t33.5 -10h84v-66h-360zM1122 1475h-86l-176 186l-260 -186h-111l316 369h153z" />
    <glyph glyph-name="Ecircumflex" unicode="&#xca;" horiz-adv-x="1358" 
d="M-47 0v66h164l258 1210h-150v61h1049l-57 -372h-74q-3 179 -63.5 245t-227.5 66h-145l-115 -537h20q108 0 171 51.5t106 176.5h78l-121 -561h-76q0 4 1 13q3 55 3 77q0 85 -46 129.5t-134 44.5h-16l-129 -604h133q194 0 315 89t211 298h74l-105 -453h-1124zM1128 1475
h-86l-176 186l-260 -186h-111l316 369h153z" />
    <glyph glyph-name="Aacute" unicode="&#xc1;" horiz-adv-x="1235" 
d="M291 453h317l-39 460zM-141 0v65q63 4 109.5 38.5t99.5 121.5l698 1139h80l121 -1298h153v-66h-633v66h150l-27 315h-360l-149 -243q-6 -9 -9.5 -18.5t-3.5 -17.5q0 -16 13.5 -26t33.5 -10h84v-66h-360zM737 1475h-111l330 326q37 36 64 50.5t57 14.5q35 0 62.5 -29
t27.5 -67q0 -29 -18.5 -54t-55.5 -45z" />
    <glyph glyph-name="Edieresis" unicode="&#xcb;" horiz-adv-x="1358" 
d="M-47 0v66h164l258 1210h-150v61h1049l-57 -372h-74q-3 179 -63.5 245t-227.5 66h-145l-115 -537h20q108 0 171 51.5t106 176.5h78l-121 -561h-76q0 4 1 13q3 55 3 77q0 85 -46 129.5t-134 44.5h-16l-129 -604h133q194 0 315 89t211 298h74l-105 -453h-1124zM913 1659
q0 51 39.5 90t91.5 39q53 0 90 -38t37 -91q0 -56 -35.5 -92.5t-91.5 -36.5q-55 0 -93 37.5t-38 91.5zM555 1659q0 51 38.5 90t90.5 39q53 0 91 -38t38 -91q0 -56 -37 -92.5t-92 -36.5t-92 37t-37 92z" />
    <glyph glyph-name="Egrave" unicode="&#xc8;" horiz-adv-x="1358" 
d="M-47 0v66h164l258 1210h-150v61h1049l-57 -372h-74q-3 179 -63.5 245t-227.5 66h-145l-115 -537h20q108 0 171 51.5t106 176.5h78l-121 -561h-76q0 4 1 13q3 55 3 77q0 85 -46 129.5t-134 44.5h-16l-129 -604h133q194 0 315 89t211 298h74l-105 -453h-1124zM1034 1475
h-111l-285 203q-39 29 -53 50t-14 44q0 41 25.5 67.5t64.5 26.5q27 0 51.5 -15t55.5 -50z" />
    <glyph glyph-name="Iacute" unicode="&#xcd;" horiz-adv-x="844" 
d="M-51 0v66h164l256 1210h-150v61h651v-61h-159l-258 -1210h147v-66h-651zM500 1475h-111l330 326q37 36 64 50.5t57 14.5q35 0 62.5 -29t27.5 -67q0 -29 -18.5 -54t-55.5 -45z" />
    <glyph glyph-name="Icircumflex" unicode="&#xce;" horiz-adv-x="844" 
d="M-51 0v66h164l256 1210h-150v61h651v-61h-159l-258 -1210h147v-66h-651zM885 1475h-86l-176 186l-260 -186h-111l316 369h153z" />
    <glyph glyph-name="Idieresis" unicode="&#xcf;" horiz-adv-x="844" 
d="M-51 0v66h164l256 1210h-150v61h651v-61h-159l-258 -1210h147v-66h-651zM670 1659q0 51 39.5 90t91.5 39q53 0 90 -38t37 -91q0 -56 -35.5 -92.5t-91.5 -36.5q-55 0 -93 37.5t-38 91.5zM312 1659q0 51 38.5 90t90.5 39q53 0 91 -38t38 -91q0 -56 -37 -92.5t-92 -36.5
t-92 37t-37 92z" />
    <glyph glyph-name="Igrave" unicode="&#xcc;" horiz-adv-x="844" 
d="M-51 0v66h164l256 1210h-150v61h651v-61h-159l-258 -1210h147v-66h-651zM791 1475h-111l-285 203q-39 29 -53 50t-14 44q0 41 25.5 67.5t64.5 26.5q27 0 51.5 -15t55.5 -50z" />
    <glyph glyph-name="Oacute" unicode="&#xd3;" horiz-adv-x="1585" 
d="M96 506q0 149 66.5 303t185.5 281q125 132 279 203t317 71q242 0 385.5 -141.5t143.5 -380.5q0 -173 -74.5 -338.5t-212.5 -298.5q-119 -115 -267 -176.5t-305 -61.5q-238 0 -378 145t-140 394zM938 1307q-140 0 -212.5 -61t-135.5 -251q-25 -75 -48.5 -167t-54.5 -238
q-30 -146 -45.5 -243t-15.5 -140q0 -100 49.5 -141t167.5 -41q125 0 194.5 55.5t127.5 212.5q28 75 52 168t58 260q35 171 49.5 268t14.5 158q0 84 -47.5 122t-153.5 38zM891 1475h-111l330 326q37 36 64 50.5t57 14.5q35 0 62.5 -29t27.5 -67q0 -29 -18.5 -54t-55.5 -45z
" />
    <glyph glyph-name="Ocircumflex" unicode="&#xd4;" horiz-adv-x="1585" 
d="M96 506q0 149 66.5 303t185.5 281q125 132 279 203t317 71q242 0 385.5 -141.5t143.5 -380.5q0 -173 -74.5 -338.5t-212.5 -298.5q-119 -115 -267 -176.5t-305 -61.5q-238 0 -378 145t-140 394zM938 1307q-140 0 -212.5 -61t-135.5 -251q-25 -75 -48.5 -167t-54.5 -238
q-30 -146 -45.5 -243t-15.5 -140q0 -100 49.5 -141t167.5 -41q125 0 194.5 55.5t127.5 212.5q28 75 52 168t58 260q35 171 49.5 268t14.5 158q0 84 -47.5 122t-153.5 38zM1276 1475h-86l-176 186l-260 -186h-111l316 369h153z" />
    <glyph glyph-name="apple" unicode="&#xf000;" horiz-adv-x="1618" 
d="M836 1216q-1 6 -1.5 14t-0.5 23q0 124 95 229.5t236 131.5q1 -10 1.5 -23t0.5 -39q0 -131 -103.5 -234.5t-203.5 -103.5h-8q-3 0 -7.5 1t-8.5 1zM1505 403q-114 -247 -205 -342.5t-204 -95.5q-50 0 -131.5 33t-122.5 33q-45 0 -131 -33t-127 -33q-64 0 -128.5 44
t-129.5 132q-102 140 -157.5 295.5t-55.5 300.5q0 219 125 356.5t323 137.5q68 0 155 -34t124 -34q34 0 121.5 35t152.5 35q110 0 198 -40t161 -124q-102 -65 -151.5 -145.5t-49.5 -182.5q0 -113 60 -200t173 -138z" />
    <glyph glyph-name="Ograve" unicode="&#xd2;" horiz-adv-x="1585" 
d="M96 506q0 149 66.5 303t185.5 281q125 132 279 203t317 71q242 0 385.5 -141.5t143.5 -380.5q0 -173 -74.5 -338.5t-212.5 -298.5q-119 -115 -267 -176.5t-305 -61.5q-238 0 -378 145t-140 394zM938 1307q-140 0 -212.5 -61t-135.5 -251q-25 -75 -48.5 -167t-54.5 -238
q-30 -146 -45.5 -243t-15.5 -140q0 -100 49.5 -141t167.5 -41q125 0 194.5 55.5t127.5 212.5q28 75 52 168t58 260q35 171 49.5 268t14.5 158q0 84 -47.5 122t-153.5 38zM1182 1475h-111l-285 203q-39 29 -53 50t-14 44q0 41 25.5 67.5t64.5 26.5q27 0 51.5 -15t55.5 -50z
" />
    <glyph glyph-name="Uacute" unicode="&#xda;" horiz-adv-x="1464" 
d="M186 516l166 760h-151v61h647v-61h-160l-182 -842q-12 -53 -18.5 -101t-6.5 -85q0 -99 58 -152t166 -53q157 0 245 79t127 261l156 717q6 26 9 49.5t3 40.5q0 46 -30.5 66t-102.5 20h-12v61h391v-61h-6q-80 0 -117.5 -34.5t-60.5 -143.5l-160 -733q-46 -209 -169 -301.5
t-353 -92.5q-225 0 -347 86.5t-122 245.5q0 33 8 89t22 124zM840 1475h-111l330 326q37 36 64 50.5t57 14.5q35 0 62.5 -29t27.5 -67q0 -29 -18.5 -54t-55.5 -45z" />
    <glyph glyph-name="Ucircumflex" unicode="&#xdb;" horiz-adv-x="1464" 
d="M186 516l166 760h-151v61h647v-61h-160l-182 -842q-12 -53 -18.5 -101t-6.5 -85q0 -99 58 -152t166 -53q157 0 245 79t127 261l156 717q6 26 9 49.5t3 40.5q0 46 -30.5 66t-102.5 20h-12v61h391v-61h-6q-80 0 -117.5 -34.5t-60.5 -143.5l-160 -733q-46 -209 -169 -301.5
t-353 -92.5q-225 0 -347 86.5t-122 245.5q0 33 8 89t22 124zM1225 1475h-86l-176 186l-260 -186h-111l316 369h153z" />
    <glyph glyph-name="Ugrave" unicode="&#xd9;" horiz-adv-x="1464" 
d="M186 516l166 760h-151v61h647v-61h-160l-182 -842q-12 -53 -18.5 -101t-6.5 -85q0 -99 58 -152t166 -53q157 0 245 79t127 261l156 717q6 26 9 49.5t3 40.5q0 46 -30.5 66t-102.5 20h-12v61h391v-61h-6q-80 0 -117.5 -34.5t-60.5 -143.5l-160 -733q-46 -209 -169 -301.5
t-353 -92.5q-225 0 -347 86.5t-122 245.5q0 33 8 89t22 124zM1131 1475h-111l-285 203q-39 29 -53 50t-14 44q0 41 25.5 67.5t64.5 26.5q27 0 51.5 -15t55.5 -50z" />
    <glyph glyph-name="dotlessi" unicode="&#x131;" horiz-adv-x="602" 
d="M31 227l121 510h-142v57q102 2 210 9.5t220 19.5l-151 -659q-5 -21 -7.5 -39t-2.5 -25q0 -17 7.5 -24.5t24.5 -7.5q39 0 84.5 58t98.5 173l43 -18q-64 -159 -143.5 -228t-196.5 -69q-87 0 -134 37t-47 106q0 17 4 44t11 56z" />
    <glyph glyph-name="circumflex" unicode="&#x2c6;" 
d="M852 934h-86l-176 186l-260 -186h-111l316 369h153z" />
    <glyph glyph-name="tilde" unicode="&#x2dc;" 
d="M899 1268q-30 -130 -78.5 -189t-124.5 -59q-25 0 -38.5 1.5t-24.5 4.5l-103 25q-22 5 -40.5 8.5t-28.5 3.5q-43 0 -70.5 -21.5t-48.5 -72.5h-68q33 138 79.5 196t121.5 58q16 0 37 -3.5t47 -9.5l114 -26q8 -2 17 -3t29 -1q43 0 68.5 20t43.5 68h68z" />
    <glyph glyph-name="macron" unicode="&#xaf;" 
d="M283 1040l32 156h576l-33 -156h-575z" />
    <glyph glyph-name="breve" unicode="&#x2d8;" 
d="M299 1269l80 1q6 -65 51.5 -98t128.5 -33q82 0 155.5 33t137.5 98l86 -2q-96 -159 -191.5 -229t-211.5 -70q-118 0 -176 74t-60 226z" />
    <glyph glyph-name="dotaccent" unicode="&#x2d9;" 
d="M453 1120q0 53 40.5 93t94.5 40q55 0 95 -39t40 -94q0 -58 -38.5 -97.5t-96.5 -39.5q-57 0 -96 40t-39 97z" />
    <glyph glyph-name="ring" unicode="&#x2da;" 
d="M463 1171q0 -55 39.5 -95t95.5 -40q55 0 95 40t40 95q0 58 -39 97t-96 39t-96 -39t-39 -97zM340 1174q0 107 75 181.5t183 74.5t183 -74.5t75 -181.5q0 -109 -75 -185t-183 -76t-183 76t-75 185z" />
    <glyph glyph-name="cedilla" unicode="&#xb8;" 
d="M55 -381l47 98q77 -41 135 -60t107 -19q37 0 62.5 23t25.5 58q0 41 -23.5 61.5t-68.5 20.5q-16 0 -39.5 -3t-56.5 -9l67 211h76l-36 -117q26 3 44.5 4.5t28.5 1.5q80 0 130 -47.5t50 -124.5q0 -88 -61 -137t-172 -49q-61 0 -139 22t-177 66z" />
    <glyph glyph-name="hungarumlaut" unicode="&#x2dd;" 
d="M831 1253q27 36 54.5 54t54.5 18q35 0 60.5 -24.5t25.5 -57.5q0 -23 -14 -45t-43 -45l-289 -219h-92zM508 1239q28 51 51 68.5t55 17.5q31 0 55.5 -25t24.5 -59q0 -20 -10.5 -40t-32.5 -42l-225 -225h-84z" />
    <glyph glyph-name="ogonek" unicode="&#x2db;" 
d="M532 31q-87 -70 -126 -131.5t-39 -128.5q0 -54 23 -83.5t65 -29.5q34 0 61.5 17t50.5 53l33 -19q-41 -86 -99.5 -129t-133.5 -43t-119.5 42t-44.5 112q0 83 69.5 168.5t206.5 171.5h53z" />
    <glyph glyph-name="caron" unicode="&#x2c7;" 
d="M307 1303h84l178 -187l260 187h111l-315 -369h-154z" />
    <glyph glyph-name="Lslash" unicode="&#x141;" horiz-adv-x="1229" 
d="M-51 0v66h162l92 434l-242 -135v81l262 148l144 682h-148v61h647v-61h-161l-117 -555l340 194v-84l-361 -202l-118 -563h77q195 0 315.5 89t211.5 298h75l-104 -453h-1075z" />
    <glyph glyph-name="lslash" unicode="&#x142;" horiz-adv-x="606" 
d="M39 246l67 299l-182 -105v74l203 113l152 653h-132v57h43q83 0 175 5t200 16l-145 -627l184 107v-74l-205 -115l-108 -473q-4 -14 -6 -29t-2 -30q0 -19 9.5 -30t24.5 -11q43 0 91 57t90 160l45 -19q-59 -146 -140.5 -217t-191.5 -71q-85 0 -134.5 45.5t-49.5 124.5
q0 17 3 40t9 50z" />
    <glyph glyph-name="Scaron" unicode="&#x160;" horiz-adv-x="1128" 
d="M-8 -12l63 415h74q12 -174 104.5 -273t241.5 -99q140 0 216.5 67t76.5 189q0 135 -223 241l-35 17q-188 90 -257 175t-69 210q0 185 118 309.5t298 124.5q78 0 148 -25t135 -75l92 71h45l-49 -366h-80q-4 158 -83.5 244.5t-219.5 86.5q-98 0 -160.5 -51t-62.5 -129
q0 -111 250 -227l31 -15q173 -81 250 -176t77 -227q0 -218 -140.5 -363t-357.5 -145q-88 0 -165 25.5t-152 79.5l-119 -84h-47zM483 1844h84l178 -187l260 187h111l-315 -369h-154z" />
    <glyph glyph-name="scaron" unicode="&#x161;" horiz-adv-x="782" 
d="M266 -27q-132 0 -212.5 53.5t-80.5 137.5q0 53 31 86t82 33t82 -28.5t31 -74.5q0 -28 -13.5 -60t-13.5 -40q0 -28 27.5 -42.5t81.5 -14.5q73 0 119 30t46 78q0 35 -27 66.5t-120 91.5q-119 77 -164 135t-45 127q0 113 91 192.5t229 79.5q107 0 173 -43t66 -110
q0 -44 -24.5 -71.5t-65.5 -27.5q-45 0 -74.5 29.5t-29.5 75.5q0 14 3 33.5t3 23.5q0 22 -17.5 32.5t-52.5 10.5q-59 0 -97 -23t-38 -57q0 -43 109 -107l88 -54q84 -57 123.5 -119.5t39.5 -139.5q0 -138 -94.5 -220.5t-255.5 -82.5zM186 1303h84l178 -187l260 187h111
l-315 -369h-154z" />
    <glyph glyph-name="Zcaron" unicode="&#x17d;" horiz-adv-x="1237" 
d="M-31 0v66l844 1210h-121q-175 0 -286.5 -70.5t-204.5 -238.5h-74l125 370h950v-61l-842 -1210h136q175 0 301.5 85t255.5 293h69l-145 -444h-1008zM536 1844h84l178 -187l260 187h111l-315 -369h-154z" />
    <glyph glyph-name="zcaron" unicode="&#x17e;" horiz-adv-x="891" 
d="M57 461l-45 24l170 338q122 -41 238.5 -63.5t200.5 -22.5q47 0 63 43t49 43q20 0 33.5 -14.5t13.5 -34.5q0 -23 -20 -52t-60 -65l-495 -430q48 11 86 16t67 5q66 0 156.5 -27.5t116.5 -27.5q29 0 48 16t19 37q0 8 -3.5 12t-10.5 4q-1 0 -14 -2t-25 -2q-40 0 -64 22.5
t-24 59.5q0 41 25.5 66.5t64.5 25.5q51 0 80 -36.5t29 -100.5q0 -131 -90 -226.5t-220 -95.5q-30 0 -64 8t-67 23l-79 35q-50 21 -77 30t-42 9q-11 0 -16 -5t-5 -18l2 -10t2 -18q0 -26 -14 -40t-39 -14q-32 0 -47.5 17t-15.5 51q0 44 26.5 84.5t100.5 103.5l483 410
q-86 -41 -167.5 -61.5t-156.5 -20.5q-34 0 -70 5.5t-77 17.5zM241 1303h84l178 -187l260 187h111l-315 -369h-154z" />
    <glyph glyph-name="brokenbar" unicode="&#xa6;" 
d="M410 408h206v-758h-206v758zM410 1432h206v-758h-206v758z" />
    <glyph glyph-name="Eth" unicode="&#xd0;" horiz-adv-x="1587" 
d="M461 66h196q142 0 221.5 54.5t129.5 182.5q31 81 86 349l4 18q27 142 39 230t12 149q0 120 -65 173.5t-214 53.5h-151l-119 -557h264v-76h-280zM-37 0v66h164l123 577h-234v76h250l117 557h-150v61h644q144 0 234 -23.5t161 -76.5q101 -75 159 -200.5t58 -270.5
q0 -320 -232.5 -543t-578.5 -223h-715z" />
    <glyph glyph-name="eth" unicode="&#xf0;" horiz-adv-x="1118" 
d="M715 1208l241 107l29 -84l-207 -92q100 -123 153.5 -275t53.5 -313q0 -252 -169.5 -415t-424.5 -163q-167 0 -271 94.5t-104 243.5q0 200 173.5 355t404.5 155q14 0 41.5 -2t62.5 -6v21q0 38 -20 106.5t-53 130.5l-295 -131l-27 80l285 129q-31 46 -69.5 83t-84.5 64
l47 62q63 -24 118 -58.5t116 -91.5zM580 772q-78 0 -118.5 -34.5t-72.5 -139.5q-41 -133 -66.5 -266t-25.5 -197q0 -58 29.5 -85t93.5 -27q72 0 112 34t68 123q44 143 70 279t26 203q0 56 -28 83t-88 27z" />
    <glyph glyph-name="Yacute" unicode="&#xdd;" horiz-adv-x="1237" 
d="M137 0v66h174l115 542l-252 668h-121v61h637v-61h-170l219 -588l305 475q16 25 22.5 42t6.5 28q0 22 -19.5 32.5t-62.5 10.5h-65v61h385v-61q-114 -4 -194 -126l-11 -17l-338 -523l-117 -544h183v-66h-697zM696 1475h-111l330 326q37 36 64 50.5t57 14.5q35 0 62.5 -29
t27.5 -67q0 -29 -18.5 -54t-55.5 -45z" />
    <glyph glyph-name="yacute" unicode="&#xfd;" horiz-adv-x="1008" 
d="M412 -80l-205 651q-19 57 -31.5 74t-30.5 17q-30 0 -61 -38.5t-70 -125.5l-49 22q64 150 146 225.5t180 75.5q61 0 100 -38t64 -119l108 -369l121 362q34 99 67 131.5t87 32.5q41 0 67.5 -30t26.5 -76t-26 -76.5t-64 -30.5q-16 0 -37.5 8.5t-30.5 8.5q-18 0 -33.5 -21.5
t-35.5 -77.5l-168 -454q-107 -285 -208.5 -400.5t-236.5 -115.5q-66 0 -105.5 39t-39.5 104q0 55 36.5 94t88.5 39q44 0 71 -23.5t35 -68.5q2 -9 4 -24q6 -44 35 -44q38 0 92.5 68.5t102.5 179.5zM459 934h-111l330 326q37 36 64 50.5t57 14.5q35 0 62.5 -29t27.5 -67
q0 -29 -18.5 -54t-55.5 -45z" />
    <glyph glyph-name="Thorn" unicode="&#xde;" horiz-adv-x="1350" 
d="M508 383h125q79 0 122 17.5t66 58.5q31 50 59.5 169t28.5 212q0 83 -30 112t-129 29h-115zM104 66l258 1210h-147v61h631v-61h-148l-49 -234h144q223 0 343.5 -85t120.5 -242q0 -184 -157 -288.5t-441 -104.5h-163l-56 -256h176v-66h-673v66h161z" />
    <glyph glyph-name="thorn" unicode="&#xfe;" horiz-adv-x="1120" 
d="M627 758q-57 0 -107.5 -40t-93.5 -118q-48 -85 -78.5 -195t-30.5 -196q0 -75 42.5 -122.5t109.5 -47.5q36 0 62.5 31.5t56.5 111.5q52 142 87.5 290.5t35.5 191.5t-22.5 68.5t-61.5 25.5zM-94 -385l383 1665h-131v57q109 0 213.5 5.5t203.5 15.5l-155 -686
q51 77 116.5 113t153.5 36q119 0 202 -89.5t83 -221.5q0 -80 -30 -168.5t-83 -165.5q-70 -103 -157.5 -153t-196.5 -50q-74 0 -129 32t-90 95l-111 -485h168v-55h-590v55h150z" />
    <glyph glyph-name="minus" unicode="&#x2212;" horiz-adv-x="1706" 
d="M254 713h1198v-203h-1198v203z" />
    <glyph glyph-name="multiply" unicode="&#xd7;" horiz-adv-x="1706" 
d="M416 1202l450 -450l451 450l141 -139l-450 -453l450 -450l-141 -140l-451 451l-450 -451l-140 140l451 450l-451 453z" />
    <glyph glyph-name="onesuperior" unicode="&#xb9;" horiz-adv-x="819" 
d="M217 1286v37q122 6 372 24l29 3l-196 -777h174v-38h-535v38h158l168 656q2 9 3 14t1 8q0 18 -15 26.5t-48 8.5h-111z" />
    <glyph glyph-name="twosuperior" unicode="&#xb2;" horiz-adv-x="819" 
d="M23 535v108q315 190 410 294.5t95 221.5q0 72 -35 111t-100 39q-64 0 -116 -28t-52 -58q0 -16 27.5 -17t42.5 -6q28 -9 44.5 -28.5t16.5 -43.5q0 -38 -27 -62t-73 -24q-42 0 -74 34.5t-32 80.5q0 79 82.5 136t203.5 57q136 0 221.5 -57.5t85.5 -145.5q0 -86 -69.5 -156
t-308.5 -198l-213 -113h383h20q22 0 35.5 8.5t21.5 28.5l25 65h37l-70 -247h-581z" />
    <glyph glyph-name="threesuperior" unicode="&#xb3;" horiz-adv-x="819" 
d="M428 973v-8q122 -10 186 -58t64 -129q0 -108 -111 -183t-278 -75q-120 0 -189 42t-69 114q0 47 28 76.5t74 29.5q40 0 66 -24.5t26 -61.5q0 -47 -43 -67.5t-43 -30.5q0 -16 33.5 -29.5t77.5 -13.5q94 0 151.5 78.5t57.5 206.5q0 51 -32.5 77.5t-94.5 26.5q-17 0 -41.5 -4
t-30.5 -4q-25 0 -36 7t-11 22q0 10 9 16t26 6q13 0 35.5 -3t31.5 -3q76 0 137.5 69t61.5 160q0 57 -27 84t-86 27q-35 0 -65.5 -13.5t-30.5 -27.5q0 -7 28.5 -30.5t28.5 -55.5q0 -34 -23 -54t-63 -20q-37 0 -61.5 22.5t-24.5 57.5q0 64 71.5 108t180.5 44q121 0 198 -48
t77 -122q0 -78 -77 -134t-212 -75z" />
    <glyph glyph-name="onequarter" unicode="&#xbc;" horiz-adv-x="1907" 
d="M1186 246h305l98 381q-109 -87 -209.5 -182t-193.5 -199zM1434 35l43 174h-328v57q116 124 251.5 246.5t297.5 249.5h114l-131 -514h129l23 84h35l-56 -211h-34l22 88h-129l-45 -174h113v-35h-412v35h107zM1343 1364h111l-915 -1391h-109zM209 1290v33q116 6 353 24l30 2
l-189 -724h168v-37h-512v37h152l160 610l3 15t1 7q0 18 -15 25.5t-47 7.5h-104z" />
    <glyph glyph-name="onehalf" unicode="&#xbd;" horiz-adv-x="1907" 
d="M1145 0v102q298 174 390.5 272t92.5 210q0 67 -33 103t-96 36q-60 0 -110 -26t-50 -54q1 -15 30 -16q23 -1 35 -4q29 -10 44.5 -28t15.5 -42q0 -34 -26 -56t-68 -22t-72 31t-30 74q0 75 78.5 128.5t193.5 53.5q130 0 212.5 -54.5t82.5 -136.5q0 -80 -68 -145.5
t-297 -183.5l-200 -107h364q6 0 13 1t8 1q21 0 34 8t19 25l25 61h34l-65 -231h-557zM1343 1364h111l-915 -1391h-109zM209 1290v33q116 6 353 24l30 2l-189 -724h168v-37h-512v37h152l160 610l3 15t1 7q0 18 -15 25.5t-47 7.5h-104z" />
    <glyph glyph-name="threequarters" unicode="&#xbe;" horiz-adv-x="1907" 
d="M1186 246h305l98 381q-109 -87 -209.5 -182t-193.5 -199zM1434 35l43 174h-328v57q116 124 251.5 246.5t297.5 249.5h114l-131 -514h129l23 84h35l-56 -211h-34l22 88h-129l-45 -174h113v-35h-412v35h107zM1343 1364h111l-915 -1391h-109zM408 997v-8q116 -9 177.5 -53.5
t61.5 -120.5q0 -101 -106 -171.5t-265 -70.5q-113 0 -180 40t-67 106q0 45 27 72.5t71 27.5q38 0 63 -22.5t25 -57.5q0 -44 -41 -63t-41 -29q0 -15 32.5 -28t74.5 -13q88 0 143 74t55 192q0 48 -30.5 72.5t-90.5 24.5q-17 0 -40 -3t-29 -3q-25 0 -34 5.5t-9 20.5
q0 11 8.5 17t24.5 6q11 0 32 -3t31 -3q72 0 130 63.5t58 149.5q0 52 -25.5 77t-80.5 25q-34 0 -63 -12.5t-29 -26.5q0 -6 27.5 -27t27.5 -51q0 -32 -22 -50.5t-60 -18.5q-36 0 -59 21t-23 54q0 58 69 99t173 41q115 0 188.5 -45t73.5 -113q0 -72 -74.5 -124.5t-203.5 -70.5z
" />
    <glyph glyph-name="franc" unicode="&#x20a3;" horiz-adv-x="2048" 
d="M-47 0v66h164l258 1210h-150v61h1055l-61 -403h-72v72q0 137 -68.5 203.5t-210.5 66.5h-153l-117 -549q5 0 15.5 -1t15.5 -1q100 0 162.5 53.5t101.5 173.5h76l-119 -563h-75q2 16 3.5 31t1.5 29q0 114 -42.5 160t-147.5 46h-8l-125 -589h176v-66h-680zM1528 0h-272
l172 737h-135v58q100 1 206 8t218 20l-54 -235q95 138 151.5 186.5t113.5 48.5q48 0 80 -34t32 -89q0 -51 -33.5 -83.5t-81.5 -32.5q-44 0 -71.5 36.5t-44.5 36.5q-49 0 -111.5 -96.5t-93.5 -228.5z" />
    <glyph glyph-name="Gbreve" unicode="&#x11e;" horiz-adv-x="1470" 
d="M1268 414q-56 -229 -206 -339t-407 -110q-263 0 -413 134.5t-150 371.5q0 147 55.5 296t157.5 275q125 154 277.5 238t304.5 84q72 0 140.5 -25.5t137.5 -76.5l97 75h47l-62 -381h-76q-18 173 -91 262t-197 89q-97 0 -161.5 -63.5t-121.5 -217.5q-71 -194 -115.5 -421
t-44.5 -369q0 -113 48.5 -164.5t154.5 -51.5q122 0 178.5 79.5t89.5 314.5h-182v67h698v-67h-159zM645 1810l80 1q6 -65 51.5 -98t128.5 -33q82 0 155.5 33t137.5 98l86 -2q-96 -159 -191.5 -229t-211.5 -70q-118 0 -176 74t-60 226z" />
    <glyph glyph-name="gbreve" unicode="&#x11f;" horiz-adv-x="1010" 
d="M508 772q-42 0 -65.5 -13.5t-41.5 -47.5q-25 -55 -49 -163t-24 -155q0 -34 24 -51.5t70 -17.5q43 0 66 16.5t40 60.5q25 59 45.5 155.5t20.5 137.5q0 37 -23 57.5t-63 20.5zM287 -72h-2q-97 5 -152 19q-51 -23 -79.5 -65.5t-28.5 -94.5q0 -80 64 -127t175 -47
q168 0 293 70.5t125 156.5q0 80 -173 83q-32 1 -50 1zM813 664q11 96 47 147t94 51q39 0 61.5 -23t22.5 -61t-20 -61t-55 -23q-21 0 -42 12.5t-30 12.5q-28 0 -42 -96q-5 -30 -7 -45q-24 -148 -132 -228t-282 -80q-71 0 -132.5 17t-119.5 53q-41 -22 -62.5 -46t-21.5 -50
q0 -35 48.5 -52t154.5 -20l245 -8q145 -4 203 -50.5t58 -152.5q0 -167 -158.5 -285t-402.5 -118q-170 0 -268.5 59t-98.5 160q0 66 48 114t145 78q-57 35 -83 76.5t-26 95.5q0 70 40 124t138 112q-29 31 -42 62t-13 71q0 131 118 222t291 91q114 0 192.5 -38.5t131.5 -120.5
zM293 1269l80 1q6 -65 51.5 -98t128.5 -33q82 0 155.5 33t137.5 98l86 -2q-96 -159 -191.5 -229t-211.5 -70q-118 0 -176 74t-60 226z" />
    <glyph glyph-name="Idotaccent" unicode="&#x130;" horiz-adv-x="844" 
d="M-51 0v66h164l256 1210h-150v61h651v-61h-159l-258 -1210h147v-66h-651zM486 1661q0 53 40.5 93t94.5 40q55 0 95 -39t40 -94q0 -58 -38.5 -97.5t-96.5 -39.5q-57 0 -96 40t-39 97z" />
    <glyph glyph-name="Scedilla" unicode="&#x15e;" horiz-adv-x="1128" 
d="M-8 -12l63 415h74q12 -174 104.5 -273t241.5 -99q140 0 216.5 67t76.5 189q0 135 -223 241l-35 17q-188 90 -257 175t-69 210q0 185 118 309.5t298 124.5q78 0 148 -25t135 -75l92 71h45l-49 -366h-80q-4 158 -83.5 244.5t-219.5 86.5q-98 0 -160.5 -51t-62.5 -129
q0 -111 250 -227l31 -15q173 -81 250 -176t77 -227q0 -218 -140.5 -363t-357.5 -145q-88 0 -165 25.5t-152 79.5l-119 -84h-47zM71 -381l47 98q77 -41 135 -60t107 -19q37 0 62.5 23t25.5 58q0 41 -23.5 61.5t-68.5 20.5q-16 0 -39.5 -3t-56.5 -9l67 211h76l-36 -117
q26 3 44.5 4.5t28.5 1.5q80 0 130 -47.5t50 -124.5q0 -88 -61 -137t-172 -49q-61 0 -139 22t-177 66z" />
    <glyph glyph-name="scedilla" unicode="&#x15f;" horiz-adv-x="782" 
d="M266 -27q-132 0 -212.5 53.5t-80.5 137.5q0 53 31 86t82 33t82 -28.5t31 -74.5q0 -28 -13.5 -60t-13.5 -40q0 -28 27.5 -42.5t81.5 -14.5q73 0 119 30t46 78q0 35 -27 66.5t-120 91.5q-119 77 -164 135t-45 127q0 113 91 192.5t229 79.5q107 0 173 -43t66 -110
q0 -44 -24.5 -71.5t-65.5 -27.5q-45 0 -74.5 29.5t-29.5 75.5q0 14 3 33.5t3 23.5q0 22 -17.5 32.5t-52.5 10.5q-59 0 -97 -23t-38 -57q0 -43 109 -107l88 -54q84 -57 123.5 -119.5t39.5 -139.5q0 -138 -94.5 -220.5t-255.5 -82.5zM-66 -381l47 98q77 -41 135 -60t107 -19
q37 0 62.5 23t25.5 58q0 41 -23.5 61.5t-68.5 20.5q-16 0 -39.5 -3t-56.5 -9l67 211h76l-36 -117q26 3 44.5 4.5t28.5 1.5q80 0 130 -47.5t50 -124.5q0 -88 -61 -137t-172 -49q-61 0 -139 22t-177 66z" />
    <glyph glyph-name="Cacute" unicode="&#x106;" horiz-adv-x="1352" 
d="M1098 399l73 -18l-96 -393h-49l-61 88q-70 -55 -156.5 -82t-192.5 -27q-238 0 -382 140.5t-144 369.5q0 183 80 357t227 313q113 107 234.5 163t238.5 56q86 0 150 -25t110 -75l105 77h49l-72 -393h-75q-14 176 -81.5 267.5t-183.5 91.5q-92 0 -154.5 -53.5
t-107.5 -170.5q-30 -84 -60 -194.5t-56 -235.5q-28 -131 -42 -236t-14 -175q0 -117 46.5 -165t154.5 -48q146 0 257.5 89.5t201.5 278.5zM813 1475h-111l330 326q37 36 64 50.5t57 14.5q35 0 62.5 -29t27.5 -67q0 -29 -18.5 -54t-55.5 -45z" />
    <glyph glyph-name="cacute" unicode="&#x107;" horiz-adv-x="1008" 
d="M774 240l35 -27q-82 -121 -184.5 -180.5t-233.5 -59.5q-165 0 -263.5 90.5t-98.5 239.5q0 201 174 359.5t397 158.5q113 0 184.5 -51.5t71.5 -130.5q0 -62 -35 -98.5t-96 -36.5q-50 0 -82.5 30t-32.5 74q0 27 9.5 65t9.5 52q0 20 -16.5 33.5t-41.5 13.5q-53 0 -87 -34.5
t-70 -129.5q-46 -122 -77.5 -267.5t-31.5 -213.5q0 -45 30 -70.5t83 -25.5q102 0 194 54t162 155zM498 934h-111l330 326q37 36 64 50.5t57 14.5q35 0 62.5 -29t27.5 -67q0 -29 -18.5 -54t-55.5 -45z" />
    <glyph glyph-name="Ccaron" unicode="&#x10c;" horiz-adv-x="1352" 
d="M1098 399l73 -18l-96 -393h-49l-61 88q-70 -55 -156.5 -82t-192.5 -27q-238 0 -382 140.5t-144 369.5q0 183 80 357t227 313q113 107 234.5 163t238.5 56q86 0 150 -25t110 -75l105 77h49l-72 -393h-75q-14 176 -81.5 267.5t-183.5 91.5q-92 0 -154.5 -53.5
t-107.5 -170.5q-30 -84 -60 -194.5t-56 -235.5q-28 -131 -42 -236t-14 -175q0 -117 46.5 -165t154.5 -48q146 0 257.5 89.5t201.5 278.5zM653 1844h84l178 -187l260 187h111l-315 -369h-154z" />
    <glyph glyph-name="ccaron" unicode="&#x10d;" horiz-adv-x="1008" 
d="M774 240l35 -27q-82 -121 -184.5 -180.5t-233.5 -59.5q-165 0 -263.5 90.5t-98.5 239.5q0 201 174 359.5t397 158.5q113 0 184.5 -51.5t71.5 -130.5q0 -62 -35 -98.5t-96 -36.5q-50 0 -82.5 30t-32.5 74q0 27 9.5 65t9.5 52q0 20 -16.5 33.5t-41.5 13.5q-53 0 -87 -34.5
t-70 -129.5q-46 -122 -77.5 -267.5t-31.5 -213.5q0 -45 30 -70.5t83 -25.5q102 0 194 54t162 155zM338 1303h84l178 -187l260 187h111l-315 -369h-154z" />
    <glyph glyph-name="dcroat" unicode="&#x111;" horiz-adv-x="1159" 
d="M537 772q-51 0 -86 -47.5t-78 -187.5q-41 -130 -66.5 -259t-25.5 -176q0 -35 19 -53t56 -18q114 0 215 168.5t101 371.5q0 96 -35.5 148.5t-99.5 52.5zM606 174q-61 -101 -134 -151t-161 -50q-127 0 -207.5 90t-80.5 230q0 83 37 176t102 170q72 86 164 134t182 48
q77 0 127 -36.5t65 -104.5l74 317h-272v66h291l47 217h-164v57h55q105 0 202.5 5.5t188.5 15.5l-67 -295h186v-66h-205l-188 -808l-6 -26q-11 -49 -11 -67q0 -21 8 -31t25 -10q37 0 86.5 60t89.5 157l41 -18q-47 -136 -128.5 -208.5t-186.5 -72.5q-81 0 -121.5 42.5
t-40.5 127.5q0 5 1 15t1 16z" />
    <glyph glyph-name="sfthyphen" unicode="&#xad;" horiz-adv-x="674" 
d="M565 526l-53 -245h-528l51 245h530z" />
    <glyph glyph-name="periodcentered" unicode="&#x2219;" horiz-adv-x="621" 
d="M141 674q0 67 48.5 115.5t115.5 48.5q66 0 114 -48.5t48 -115.5t-47 -114.5t-115 -47.5q-67 0 -115.5 47t-48.5 115z" />
    <glyph glyph-name="Euro" horiz-adv-x="1241" 
d="M1235 1337l-72 -393h-76q-14 185 -73.5 273t-169.5 88q-88 0 -144.5 -80.5t-105.5 -274.5q-13 -48 -18.5 -72l-10.5 -44h416l-27 -60h-403q-11 -49 -20 -95l-17 -89h342l-27 -60h-327q-21 -111 -33 -201.5t-12 -131.5q0 -79 36.5 -122.5t100.5 -43.5q112 0 203.5 87.5
t185.5 289.5l74 -19l-96 -393h-50l-53 84q-91 -72 -141.5 -88.5t-132.5 -16.5q-193 0 -301.5 132t-108.5 366q0 24 0.5 35.5t1.5 21.5h-133l27 60h110q7 49 16.5 95t22.5 89h-141l26 60h136q87 243 251.5 384.5t370.5 141.5q58 0 117.5 -27.5t101.5 -72.5l105 77h49z" />
    <glyph glyph-name="Euro" unicode="&#x20ac;" horiz-adv-x="1241" 
d="M1235 1337l-72 -393h-76q-14 185 -73.5 273t-169.5 88q-88 0 -144.5 -80.5t-105.5 -274.5q-13 -48 -18.5 -72l-10.5 -44h416l-27 -60h-403q-11 -49 -20 -95l-17 -89h342l-27 -60h-327q-21 -111 -33 -201.5t-12 -131.5q0 -79 36.5 -122.5t100.5 -43.5q112 0 203.5 87.5
t185.5 289.5l74 -19l-96 -393h-50l-53 84q-91 -72 -141.5 -88.5t-132.5 -16.5q-193 0 -301.5 132t-108.5 366q0 24 0.5 35.5t1.5 21.5h-133l27 60h110q7 49 16.5 95t22.5 89h-141l26 60h136q87 243 251.5 384.5t370.5 141.5q58 0 117.5 -27.5t101.5 -72.5l105 77h49z" />
    </font>
</defs>
</svg>
