<?xml version="1.0" standalone="no"?>
<!DOCTYPE svg PUBLIC "-//W3C//DTD SVG 1.1//EN" "http://www.w3.org/Graphics/SVG/1.1/DTD/svg11.dtd" >
<svg>
<metadata>
Created by FontForge 20090622 at Mon Apr 23 10:35:27 2018
 By deploy user
&#194;&#169; 1993 Gert Wiescher, Wiescher-Design, Munich, Germany, www.wiescher-design.de
</metadata>
<defs>
<font id="BodoniClassic-Roman" horiz-adv-x="301" >
  <font-face 
    font-family="Bodoni Classic"
    font-weight="500"
    font-stretch="normal"
    units-per-em="1000"
    panose-1="2 0 6 6 8 0 0 2 0 3"
    ascent="800"
    descent="-200"
    x-height="380"
    cap-height="706"
    bbox="-38.5714 -314 944 950.083"
    underline-thickness="50"
    underline-position="-50"
    unicode-range="U+0020-U+FB02"
  />
<missing-glyph horiz-adv-x="500" 
 />
    <glyph glyph-name=".notdef" horiz-adv-x="500" 
 />
    <glyph glyph-name="space" unicode=" " horiz-adv-x="276" 
 />
    <glyph glyph-name="exclam" unicode="!" horiz-adv-x="324" 
d="M218 607q-15 -43 -24 -97t-14 -108.5t-6.5 -103.5t-1.5 -81v-60q0 -8 -7 -8t-7 8l-1 58q0 31 -2 80t-7 104t-14 109t-22 96q-5 10 -1 21l20.5 45.5t24.5 48.5q4 7 8.5 7.5t8.5 -6.5q13 -23 22 -45.5t20 -45.5l4.5 -10.5t-1.5 -11.5zM213 36q0 -21 -14.5 -36t-34.5 -15
t-34.5 15t-14.5 36t14.5 36t34.5 15t34.5 -15t14.5 -36z" />
    <glyph glyph-name="numbersign" unicode="#" horiz-adv-x="508" 
d="M484 472q18 0 26 -7.5t7.5 -17t-10 -17.5t-25.5 -8h-94q-2 -21 -6 -46q-3 -21 -6.5 -49.5t-8.5 -60.5q35 -2 66 0l33 2q17 0 24 -7.5t5.5 -17.5t-11 -17.5t-24.5 -7.5l-98 2l-26 -206q-2 -15 -12 -26t-20.5 -13t-18 6.5t-3.5 32.5l31 206l-135 -1l-24 -203
q-2 -18 -12 -28.5t-20.5 -11.5t-17.5 9t-4 31l28 203l-82 -1q-20 0 -29 7.5t-8 17.5t10.5 17.5t26.5 7.5l89 -2l20 155l-88 -1q-21 0 -31 8t-9.5 18t12 18t32.5 8l90 -2l28 217q2 17 11.5 27t19.5 11.5t17 -7t4 -29.5l-30 -219h134l26 216q3 22 13 32.5t20.5 10t17.5 -11.5
t4 -31l-31 -216l89 2v0zM205 421l-21 -155h135l20 156z" />
    <glyph glyph-name="dollar" unicode="$" horiz-adv-x="501" 
d="M472 204q0 -44 -13 -84t-39 -70t-65 -47.5t-91 -17.5q-8 0 -10 1v-81q0 -8 -10 -8.5t-10 8.5v82q-29 3 -51.5 11t-41.5 16.5l-33.5 15.5t-26.5 7q-17 0 -20 -15t-4 -27q-1 -6 -8 -6t-8 6q2 63 3 124t-2 127q-1 10 6.5 10.5t8.5 -10.5q8 -115 55.5 -174t121.5 -68v304
q-35 5 -68.5 14.5t-59.5 32t-42 61.5t-16 103q0 41 12 76.5t35 62t56.5 41.5t75.5 15h4t3 -1v66q0 8 10 8t10 -8v-67q28 -3 49.5 -12.5t38 -19.5t28 -18t20.5 -8q19 0 23.5 12t7.5 25q2 9 9 9t6 -9q-6 -104 0 -208q1 -7 -7.5 -7t-7.5 7q4 41 -6.5 77.5t-33 65t-55.5 47
t-72 23.5v-278q38 -7 77 -18t70.5 -33.5t51 -61t19.5 -101.5zM234 697q-1 1 -8 1q-66 0 -105 -38.5t-39 -105.5q0 -37 12.5 -60.5t33.5 -37.5t48.5 -22t57.5 -13v276zM426 151q0 48 -15 76.5t-39 44t-55 22t-63 11.5v-302q2 -2 6 -2h7q35 0 64 11t50 30.5t33 47.5t12 61z
" />
    <glyph glyph-name="percent" unicode="%" horiz-adv-x="853" 
d="M811 194q0 -37 -9.5 -70.5t-28 -60t-46 -43t-63.5 -19.5q-30 -2 -64 7.5t-62.5 32t-47.5 57.5t-19 84q0 37 11 72t35 62t61.5 44t90.5 17q30 0 56 -14.5t45 -39t30 -58t11 -71.5zM658 665l-212.5 -337l-190.5 -321q-9 -16 -19.5 -21t-17.5 -1.5t-7.5 15t10.5 27.5
l199.5 316.5l202.5 342.5q8 14 18 18t17 0t8 -14t-8 -25zM393 499q0 -37 -9.5 -70.5t-28 -60t-46 -43t-63.5 -19.5q-30 -2 -64 7.5t-62.5 32t-47.5 57.5t-19 84q0 37 11 72t35 62t61.5 44t90.5 17q30 0 56 -14.5t45 -39t30 -58t11 -71.5zM795 192q1 34 -8.5 64.5t-26.5 54.5
t-41.5 38.5t-54.5 15.5q-31 1 -52 -18t-33.5 -47.5t-17.5 -61.5t-5 -60q1 -29 6.5 -58.5t17.5 -53t31.5 -38t49.5 -13.5q28 1 52 14.5t42 37t28.5 55.5t11.5 70zM377 497q1 34 -8.5 64.5t-26.5 54.5t-41.5 38.5t-54.5 15.5q-31 1 -52 -18t-33.5 -47.5t-17.5 -61.5t-5 -60
q1 -29 6.5 -58.5t17.5 -53t31.5 -38t49.5 -13.5q28 1 52 14.5t42 37t28.5 55.5t11.5 70z" />
    <glyph glyph-name="ampersand" unicode="&#x26;" horiz-adv-x="696" 
d="M651 51q-5 -24 -17 -41t-41 -23q-14 -3 -33 0t-41 13.5t-45 31t-45 53.5q-14 -18 -27 -36.5t-33 -33.5t-50 -23.5t-79 -5.5q-32 2 -61 17.5t-51.5 41t-35.5 58t-13 68.5q0 37 16.5 70t41.5 60.5t55 50t56 38.5l-21.5 37.5t-21.5 42t-17 44.5t-7 44q0 32 11 59.5t29.5 48
t43.5 32t54 11.5q50 0 79.5 -31.5t29.5 -86.5q0 -57 -27.5 -93.5t-69.5 -65.5l34 -56l35.5 -61l33 -60.5l27.5 -53.5q6 16 11.5 36t8.5 48q1 15 1.5 31t-5 29.5t-18 21.5t-37.5 7q-4 0 -5.5 3t-1.5 7t2 7.5t5 3.5q37 -2 74.5 -1.5t73.5 2.5q6 0 6.5 -11t-6.5 -11
q-21 1 -33.5 -1t-20 -11t-11.5 -27t-9 -49q-7 -45 -16.5 -73.5t-8.5 -29.5l43 -80q14 -26 32 -45.5t34.5 -29t30.5 -7.5t20 19l6 16q4 11 11 10.5t3 -15.5zM413 590q0 50 -25 76t-62 26q-32 0 -51.5 -22.5t-19.5 -60.5q0 -18 6.5 -38.5t16.5 -41.5t22 -42l23 -39
q38 19 64 56.5t26 85.5zM420 108l-27.5 47l-43.5 73l-49.5 80.5l-44.5 69.5l-37.5 -27.5t-30.5 -27.5t-20.5 -34.5t-7.5 -49.5q0 -26 13.5 -64t34.5 -73t47.5 -60t52.5 -25q27 0 46.5 11.5t32.5 27t21 30.5t13 22z" />
    <glyph glyph-name="parenleft" unicode="(" horiz-adv-x="350" 
d="M275 -274q9 -11 4 -16.5t-15 5.5q-90 106 -132.5 231.5t-42.5 269.5q0 143 42.5 269.5t132.5 231.5q10 9 13.5 2.5t-4.5 -14.5q-41 -50 -68.5 -107t-44 -118.5t-23 -127.5t-6.5 -135q0 -70 7.5 -136t24 -128t44 -119t68.5 -108z" />
    <glyph glyph-name="parenright" unicode=")" horiz-adv-x="353" 
d="M263 216q0 -143 -42.5 -269.5t-132.5 -231.5q-10 -9 -13.5 -2.5t4.5 14.5q41 50 68.5 107t44 118.5t23 127.5t6.5 135q0 70 -7.5 136t-24 128t-44.5 119t-69 108q-9 11 -3.5 16.5t15.5 -5.5q90 -106 132.5 -231.5t42.5 -269.5z" />
    <glyph glyph-name="asterisk" unicode="*" horiz-adv-x="450" 
d="M392 493q-10 -2 -19.5 -1t-19.5 3t-19.5 3.5t-19.5 1.5q-20 -1 -39 -4.5t-39 -8.5q19 -22 41 -42.5t47 -34.5q3 -2 9 -4.5t13 -6t12 -7t7 -6.5q4 -8 -3 -16t-22 -5q15 -15 18.5 -27.5t-2 -18t-18.5 -1t-31 23.5q5 -18 -3 -23t-16 -2q-5 3 -7 12t-3 13q-5 36 -18 70.5
t-35 63.5q-17 -29 -30 -61.5t-15 -65.5q0 -5 -0.5 -16.5t-9.5 -16.5q-6 -4 -15.5 2t-7.5 19q-12 -16 -23.5 -20t-17.5 0.5t-5 16.5t14 28q-11 -7 -22 -2t-9 14q2 11 11.5 13.5t15.5 5.5q27 12 53.5 34.5t49.5 57.5q-22 5 -44 8t-45 2q-17 -1 -32.5 -5t-32.5 -5
q-8 0 -13.5 4.5t-6.5 10.5t4 11t17 7q-21 6 -29.5 16t-6 18t14.5 10.5t33 -5.5q-7 11 -6 18t5.5 10t11.5 2.5t13 -3.5q1 -1 9.5 -9l18.5 -18t19.5 -18.5t13.5 -11.5q28 -19 59 -29q-2 34 -10.5 67t-26.5 62q-2 4 -7.5 12t-5.5 12q-1 14 10 18t24 -11q0 21 6 32t13.5 10.5
t13.5 -11.5t6 -33q7 18 19 16t13 -16q0 -3 -2.5 -9.5t-6 -14l-6.5 -14.5t-4 -11q-9 -26 -16 -53.5t-6 -54.5q31 14 62 33.5t51 48.5q2 3 6 8t8 7q14 6 19.5 -6t-5.5 -26q17 7 28.5 5.5t14.5 -8t-4.5 -17t-28.5 -19.5q8 1 13 -3.5t6.5 -10.5t-0.5 -11.5t-9 -6.5z" />
    <glyph glyph-name="plus" unicode="+" horiz-adv-x="646" 
d="M527 211q-40 4 -88.5 5t-97.5 1q-1 -14 -0.5 -36t2 -48t2.5 -55l2 -57q0 -16 -9 -24t-20 -8.5t-20 7.5t-9 24q2 56 5 108.5t1 88.5q-15 1 -36.5 0.5t-47 -1.5t-53 -2.5t-54.5 -2.5q-18 -1 -26.5 8.5t-8 21t9.5 21t26 9.5q54 -2 103.5 -5t85.5 -1q1 15 1 38t-1 50t-2.5 56
t-2.5 58q-1 17 8.5 26t20.5 9t20.5 -8.5t8.5 -26.5q-2 -29 -3 -53l-2 -47t-1.5 -47.5t0.5 -54.5q27 -1 49.5 -0.5t44 1.5t43.5 2.5t48 2.5q17 1 25.5 -9t8.5 -22t-8.5 -21.5t-24.5 -7.5z" />
    <glyph glyph-name="comma" unicode="," horiz-adv-x="250" 
d="M220 -10q6 -36 -2.5 -66.5t-28 -54.5t-47 -42t-58.5 -28q-9 -3 -12 2.5t7 10.5l46 25t40.5 30.5t28.5 43t10 63.5q0 9 -4.5 23.5t-14.5 28.5t-26.5 24.5t-39.5 12.5l-12 1q-6 1 -1 -3.5t7 -8.5q5 -8 7 -12.5t1 -18.5q-1 -20 -15.5 -28.5t-31.5 -8.5q-20 0 -32 12.5
t-12 32.5q0 23 15.5 35t40.5 17q49 10 86 -11.5t48 -79.5z" />
    <glyph glyph-name="hyphen" unicode="-" horiz-adv-x="350" 
d="M288 261q22 3 33.5 -7t11.5 -23t-11 -23t-35 -8q-59 6 -114.5 6.5t-110.5 -6.5q-23 -3 -34.5 7.5t-11.5 23t11.5 23t34.5 7.5q57 -8 111.5 -8t114.5 8z" />
    <glyph glyph-name="period" unicode="." horiz-adv-x="151" 
d="M128 39q0 -21 -14.5 -36t-34.5 -15t-34.5 15t-14.5 36t14.5 36t34.5 15t34.5 -15t14.5 -36z" />
    <glyph glyph-name="slash" unicode="/" horiz-adv-x="351" 
d="M330 676l-72.5 -175.5l-64.5 -161l-61 -156.5l-61 -163q-8 -21 -19.5 -28t-21 -3t-13.5 17t4 32l72 166.5l63 156l60 159l64 176.5q8 22 19.5 28t21 1.5t13 -18t-3.5 -31.5z" />
    <glyph glyph-name="zero" unicode="0" horiz-adv-x="620" 
d="M585 290q0 -58 -18.5 -112.5t-51 -96.5t-78 -67t-99.5 -25q-48 0 -100.5 16t-97 49.5t-74 87t-30.5 129.5q-1 57 16.5 112t55 98t96.5 69.5t141 26.5q55 0 99.5 -22.5t76 -61.5t48 -91.5t16.5 -111.5zM563 287q0 55 -15 104t-43.5 86.5t-70 60t-96.5 22.5q-49 0 -85 -30
t-59.5 -74.5t-34.5 -96t-10 -93.5q1 -46 13 -92t34.5 -82.5t56.5 -59.5t79 -23q50 0 92.5 24t73.5 63t48 88.5t17 102.5z" />
    <glyph glyph-name="one" unicode="1" horiz-adv-x="400" 
d="M317 0q-26 1 -56 1h-61h-61t-57 -1q-12 0 -12 8.5t12 7.5q14 -2 31 -2t30 2q9 1 10.5 3t1.5 6v506q0 3 -1.5 5t-10.5 3q-13 2 -30 2t-31 -2q-6 -1 -9 1.5t-3 5.5t3 6t9 3q27 -1 57 -1.5t61 -0.5t61 0.5t56 1.5q5 0 8 -3t3 -6t-2.5 -5.5t-8.5 -1.5q-13 2 -29.5 2t-30.5 -2
q-10 -1 -10 -8v-502q0 -5 2.5 -8.5t7.5 -4.5q14 -2 30.5 -2t29.5 2q6 1 8.5 -1.5t2.5 -5.5t-3 -6t-8 -3z" />
    <glyph glyph-name="two" unicode="2" horiz-adv-x="580" 
d="M518 200q-20 -45 -30.5 -91t-7.5 -96v-8.5t-14 -3.5q-112 5 -218.5 4.5t-219.5 -5.5q-7 0 -5 6.5t7 8.5q112 55 182 112.5t109 110t52 96t12 71.5q-1 26 -4.5 51.5t-14 46.5t-31.5 35t-57 18q-27 3 -56.5 -9t-54 -33t-41 -49t-19.5 -57q-2 -18 2 -34.5t10.5 -30
t15.5 -22.5t18 -12q8 -3 21 0.5t13 7.5q-6 1 -10 4q-4 2 -8 5t-6 8q-4 12 -1.5 24.5t13.5 21.5q7 5 18 6t20.5 -4t15.5 -16.5t3 -29.5q-3 -14 -10 -23t-16 -14t-19 -6.5t-18 -1.5q-26 0 -45.5 22.5t-25.5 51.5q-8 35 2.5 72t35 67.5t62 50.5t83.5 21q43 1 82.5 -8t70 -30
t50 -54.5t21.5 -81.5q1 -23 -9.5 -55.5t-43.5 -72.5t-94 -87t-161 -101q-5 -3 -9 -2.5t-4 -2.5t4 -3h9q29 -1 49.5 -1.5t40 -0.5t41.5 1t52 3q28 2 50.5 14t36.5 38l35 68q8 14 14.5 13t1.5 -13z" />
    <glyph glyph-name="three" unicode="3" horiz-adv-x="528" 
d="M460 49q-20 -54 -58.5 -91.5t-84.5 -61t-94 -33.5t-87 -10q-20 0 -40 5.5t-35.5 19.5t-24.5 39t-6 63q3 44 47 38q15 -2 22 -12.5t7 -21.5q0 -13 -3.5 -20t-10.5 -13q-5 -3 -11.5 -5t-14.5 0t-11.5 7.5t-4.5 0.5q-2 -24 6 -41.5t22.5 -28.5t33 -16t36.5 -3q43 3 80 19.5
t65 42t45 57.5t20 67q6 65 -4 105.5t-28 63t-41.5 30t-45 7.5t-37.5 -4.5t-19 -7.5l-20 -16q-5 -4 -8 -3t-4 4t0.5 7t7.5 7l35 18q48 25 81.5 64t42.5 96q5 30 -1 58.5t-22 48t-40.5 27.5t-55.5 -2q-15 -5 -31.5 -15.5t-28.5 -25t-17.5 -31t0.5 -32.5q1 -3 4.5 -10t8.5 -13
t13 -9t18 1q3 1 1.5 3.5t-4.5 7t-6 11.5t-3 19t11 21t21 11t14.5 0t10.5 -5q7 -4 11 -15t4 -15q0 -13 -6 -23t-14.5 -17t-18.5 -10.5t-17 -3.5q-25 0 -38 9t-19 27q-8 24 -0.5 46.5t23.5 40.5t37.5 30t41.5 15q54 9 92.5 3t62.5 -24t34.5 -47.5t8.5 -66.5q-2 -26 -20 -52
t-44.5 -48.5t-56.5 -40t-55 -26.5q-8 -2 -5 -4t13 0q52 11 99.5 -2t79.5 -43.5t43.5 -75t-7.5 -95.5z" />
    <glyph glyph-name="four" unicode="4" horiz-adv-x="504" 
d="M455 187q3 -2 0 -6.5t-7.5 -16.5t-8.5 -34.5t-5 -61.5q0 -6 -13 -6h-56v-165q0 -10 11 -11q14 -2 33.5 -2t31.5 2q11 1 10.5 -7t-10.5 -8q-26 1 -56 1h-61h-61t-57 -1q-11 0 -11 8.5t11 7.5q14 -2 31 -2t31 1q9 1 11.5 3t1.5 6l-1 166h-252l320 508q10 16 13.5 15
t3.5 -15v-444l46 1q4 0 9 2.5t7 7.5q5 17 14.5 35t13.5 16zM282 429l-187 -305h187v305z" />
    <glyph glyph-name="five" unicode="5" horiz-adv-x="510" 
d="M439 62q-9 -50 -28.5 -94t-52 -75.5t-78 -47.5t-105.5 -8q-48 6 -76.5 36t-28.5 102q0 26 13.5 44t45.5 18q14 0 25 -11.5t11 -32.5q0 -16 -5.5 -26.5t-25.5 -15.5q-12 -3 -19 3t-11 13t-6.5 12t-5.5 0q-8 -14 -4.5 -35t15 -41.5t29.5 -35t38 -14.5q35 0 61.5 16.5t46 42
t33 56.5t21.5 60t11.5 53t3.5 36q1 51 -1.5 93.5t-13 74.5t-31.5 51.5t-57 23.5q-14 1 -29 -1.5t-29.5 -15.5t-28.5 -39t-24 -72q-3 -14 -1.5 -23t0.5 -20q-1 -14 -10 -14t-9 14v350q0 16 17 16h225q17 0 20.5 7.5t3.5 12.5q0 7 2.5 10.5t6 3.5t6 -3.5t1.5 -9.5l-2.5 -20.5
t-2.5 -25.5t-2 -23.5t-1 -15.5v-9t-1.5 -9t-7 -6.5t-17.5 -2.5q-37 1 -89 0.5t-115 -0.5q-8 0 -16 -3.5t-8 -11.5v-181q3 22 14.5 43.5t27.5 39t35 28t39 12.5q46 3 86.5 -20t68 -66.5t38 -105.5t-2.5 -137z" />
    <glyph glyph-name="six" unicode="6" horiz-adv-x="546" 
d="M503 614q-4 -12 -13 -19q-4 -4 -9 -5q-9 -5 -16 -5t-14 2q-5 2 -10.5 6.5t-7.5 10.5q-5 12 -5 24q0 7 3 13q5 8 10.5 11t8.5 4q5 2 13 0.5t11 -7.5q3 -8 3 -14.5t8 -4.5q7 2 3.5 14t-16 26t-33.5 25.5t-49 11.5q-38 0 -75.5 -25t-69.5 -65.5t-56 -92.5t-36 -105
q2 5 3 8.5t3 7.5q15 32 44 53.5t59 21.5q57 1 98.5 -15.5t68.5 -49t40 -79t13 -105.5q0 -75 -25 -126.5t-61 -83t-77.5 -45t-74.5 -12.5q-41 1 -76.5 23t-62.5 59.5t-44 86t-20 102.5q-4 63 8.5 122t37 109.5t58.5 92.5t74.5 71t85 44.5t88.5 13.5q33 -1 55.5 -11.5t36 -26
t18 -33.5t0.5 -33zM390 276q0 22 -10.5 55t-28.5 65t-43.5 56t-55.5 27q-16 1 -34.5 -9t-34.5 -27.5t-27.5 -39.5t-13.5 -43q0 -5 -0.5 -18.5t-0.5 -29t-0.5 -29.5t-0.5 -20q-2 -48 3.5 -93t18 -80.5t32 -57.5t46.5 -23q28 -1 50.5 12.5t39 36t28 52t19 59.5t10.5 58t3 49z
" />
    <glyph glyph-name="seven" unicode="7" horiz-adv-x="494" 
d="M474 554q-80 -144 -141 -244l-105 -170.5t-71.5 -119t-41.5 -88.5q-6 -17 -3.5 -36.5t11.5 -32.5t24 -15t34 18q5 6 2 8t-9.5 5t-13.5 9t-8 20q-2 20 9.5 30.5t32.5 13.5q22 3 34 -11t14 -32q2 -22 -14 -38t-36 -26q-24 -12 -42 -10t-29.5 11.5t-17.5 24t-7 28.5
q-3 37 21 90t65 123.5l94 159t109 197.5q-72 3 -137.5 2.5t-137.5 -2.5q-20 -1 -29 -11t-11 -18q-4 -15 -7.5 -30.5t-7.5 -27.5t-11 -13t-4 13q10 47 15.5 84t7.5 74q0 14 22 14q99 -3 195 -3.5t194 3.5z" />
    <glyph glyph-name="eight" unicode="8" horiz-adv-x="527" 
d="M485 176q-4 -50 -24.5 -85.5t-52 -58t-69.5 -32.5t-76 -10t-77.5 10t-71.5 32.5t-52.5 58t-20.5 85.5q0 41 10 71t29 52t47.5 38t66.5 29q-24 8 -45.5 22t-38 36t-26 52.5t-9.5 72.5q0 39 16.5 69.5t43.5 51t60.5 31.5t68.5 11q34 0 69.5 -8.5t64 -27t46 -49.5t16.5 -76
q-1 -41 -12 -67t-29 -42t-42 -24.5t-50 -14.5q41 -18 72 -39.5t51.5 -48.5t29 -61t5.5 -78zM377 573q0 22 -4 44t-17 39.5t-35 28.5t-58 11q-34 0 -54.5 -13t-31 -34.5t-14 -48t-2.5 -51.5q1 -32 20.5 -54.5t45 -39t51 -27.5t38.5 -19q14 8 19.5 18.5t14.5 23.5
q16 23 21.5 53.5t5.5 68.5zM392 173q0 12 -3.5 26t-10 29t-14.5 28.5t-17 23.5q-11 12 -34.5 26t-47.5 25.5t-42.5 18.5l-18.5 7q-18 -15 -28.5 -29.5t-16.5 -28.5q-10 -23 -16 -52t-6 -79q0 -33 6 -62.5t20.5 -51.5t38.5 -35t61 -13t61.5 13.5t39.5 37t21.5 53.5t6.5 63z
" />
    <glyph glyph-name="nine" unicode="9" horiz-adv-x="542" 
d="M502 289q0 -90 -30 -169.5t-82.5 -139.5t-124 -97.5t-153.5 -44.5q-33 -3 -48.5 5.5t-23.5 15.5q-6 4 -12 13.5t-9.5 21t-2.5 23.5t10 23q12 14 24 18t21.5 1.5t16 -10t8.5 -16.5q6 -26 -20 -39q-9 -2 -15 -0.5t-11 3.5q-5 3 -9 6q-12 7 -12.5 -0.5t8.5 -19.5t27.5 -22.5
t43.5 -8.5q40 3 88.5 28.5t93 70.5t78.5 108.5t45 144.5q-9 -29 -15.5 -53t-18 -44.5t-30.5 -38t-52 -32.5q-57 -26 -101.5 -6t-75 67.5t-45 111.5t-9.5 127q3 48 20 91.5t45.5 76.5t68 53t88.5 20q58 0 99 -24t66.5 -63.5t37 -91.5t11.5 -109zM410 287q3 47 5.5 95
t-7.5 86.5t-38 62.5t-86 24q-43 0 -67.5 -23.5t-37 -58t-16.5 -74t-5 -72.5q-2 -52 4.5 -103t21 -91t37.5 -63t56 -18q32 4 53.5 18.5t35.5 36.5t22.5 52t14.5 66q2 10 3.5 27t3.5 35z" />
    <glyph glyph-name="colon" unicode=":" horiz-adv-x="199" 
d="M156 324q0 -21 -14.5 -36t-34.5 -15t-34.5 15t-14.5 36t14.5 36t34.5 15t34.5 -15t14.5 -36zM156 36q0 -21 -14.5 -36t-34.5 -15t-34.5 15t-14.5 36t14.5 36t34.5 15t34.5 -15t14.5 -36z" />
    <glyph glyph-name="semicolon" unicode=";" horiz-adv-x="250" 
d="M113 354q14 -15 13.5 -36.5t-14.5 -35.5q-15 -14 -36 -13.5t-35 16.5q-14 15 -14 36.5t15 35.5q14 14 35 13.5t36 -16.5zM224 -10q6 -36 -2.5 -66.5t-28 -54.5t-46.5 -42t-58 -28q-7 -2 -9.5 4t4.5 10l45.5 24.5t40 30t28.5 42.5t10 63q-1 37 -25.5 62t-59.5 28l-11 1
q-3 0 -3 -1t1.5 -3t3.5 -4t3 -4q5 -8 7 -12.5t1 -18.5q-1 -20 -15.5 -28.5t-31.5 -8.5q-20 0 -31.5 12.5t-11.5 32.5q0 23 15 37t41 15q23 0 45 -3t40 -13t30.5 -28t17.5 -47z" />
    <glyph glyph-name="less" unicode="&#x3c;" horiz-adv-x="550" 
d="M500 92q33 -12 41.5 -35.5t-0.5 -43t-33.5 -26t-58.5 15.5l-100 62l-111 67l-102 60l-73 41q-13 7 -13 15t14 15q27 13 71.5 40l97 60.5l107.5 69.5l102 68q34 23 61.5 19.5t38 -21t-1.5 -42t-57 -42.5l-35.5 -14.5l-53.5 -22.5l-64.5 -27.5l-68.5 -28.5l-173 -74
l177 -68l70.5 -27.5l67.5 -25.5l57.5 -21z" />
    <glyph glyph-name="equal" unicode="=" horiz-adv-x="522" 
d="M464 282q-100 8 -204.5 7.5t-198.5 -7.5q-22 -2 -33 8.5t-11 23t11 22t32 7.5q94 -11 199.5 -11.5t203.5 10.5q22 2 33.5 -7.5t11.5 -21.5t-11 -22.5t-33 -8.5zM468 126q-94 7 -199 8t-204 -7q-23 -2 -34 8t-11 22.5t11 22t33 7.5q100 -11 205 -11t198 11q22 3 33 -7
t11 -22.5t-11 -23t-32 -8.5z" />
    <glyph glyph-name="greater" unicode="&#x3e;" horiz-adv-x="533" 
d="M524 257q13 -7 13 -14.5t-14 -14.5q-27 -13 -71.5 -40l-97 -60.5l-107.5 -70l-102 -68.5q-34 -23 -61.5 -19t-38 22t1.5 42.5t57 42.5l35.5 14.5l53.5 22l64.5 27l68.5 28.5l173 73l-178 68l-71 27l-67.5 26l-56.5 21.5l-39 14.5q-33 12 -41.5 35.5t0.5 42.5t33.5 26
t58.5 -15l99.5 -62.5l111.5 -67l102 -60t73 -41.5z" />
    <glyph glyph-name="question" unicode="?" horiz-adv-x="400" 
d="M348 540q0 -33 -8.5 -58t-20.5 -44t-26.5 -33.5l-27.5 -26.5l-60 -59t-41 -45.5t-23.5 -39t-7.5 -39.5t8 -34.5t10 -24.5q2 -5 -3.5 -6.5t-8.5 4.5q-13 26 -21 58.5t-8 64.5q0 44 15 75.5t37.5 56t48.5 44.5t48.5 41t37.5 45.5t15 58.5q0 27 -12 48t-31.5 36t-43 22.5
t-46.5 7.5q-14 0 -30 -4t-30 -11.5t-23.5 -19t-9.5 -25.5q0 -10 10 -12.5t22 -6t22 -12.5t10 -32t-13.5 -34t-33.5 -11q-12 0 -21.5 6t-16 16t-10 21.5t-3.5 22.5q0 25 10 47t27.5 37.5t40.5 24.5t49 9q37 0 68 -11t53.5 -32t35 -52.5t12.5 -72.5zM186 36q0 -21 -14.5 -36
t-34.5 -15t-34.5 15t-14.5 36t14.5 36t34.5 15t34.5 -15t14.5 -36z" />
    <glyph glyph-name="at" unicode="@" horiz-adv-x="754" 
d="M734 392q0 -38 -6.5 -75t-20 -68.5t-35 -55.5t-51.5 -37q-24 -11 -42 -13.5t-47 0.5q-31 3 -50 18t-24 41q0 2 -1 2t-2 -2q-13 -23 -38.5 -39t-60.5 -16q-51 0 -79.5 24.5t-28.5 69.5q0 33 20 56t49.5 37.5t62.5 21t60 7.5q11 0 13.5 1t2.5 4v105q0 50 -43 50
q-15 0 -30 -2t-27 -6.5t-19.5 -11.5t-7.5 -17q0 -8 4.5 -10t10 -4t10 -7t4.5 -20q0 -17 -11.5 -26.5t-28.5 -11.5q-16 -2 -28 12.5t-10 36.5q1 16 12 30t29.5 25.5t43 18t53.5 7.5q47 2 79 -25.5t32 -75.5v-231q0 -13 6 -21.5t23 -9.5q20 -1 38.5 5t27.5 11q35 18 55.5 74.5
t20.5 132.5q0 48 -19.5 97t-58 88t-94.5 63.5t-128 24.5q-65 0 -118.5 -22.5t-92.5 -67t-60.5 -110t-21.5 -152.5q0 -56 21 -111.5t60.5 -100t96 -72.5t126.5 -29q47 -1 81 3.5t58.5 12t41.5 17t31 18.5q15 10 18.5 4t-8.5 -14q-59 -38 -116.5 -50t-104.5 -12
q-101 0 -173.5 34t-119.5 85.5t-69.5 112t-22.5 113.5q0 84 29 153t79.5 118.5t118.5 77t146 27.5q70 0 131 -23.5t106 -65.5t71 -99.5t26 -124.5zM456 343q0 4 -2.5 5.5t-11.5 0.5q-16 -1 -36.5 -4.5t-38.5 -13.5t-30 -28t-12 -48q0 -38 11.5 -62.5t52.5 -24.5q12 0 23 6.5
t20 15.5t15.5 18t8.5 14v121z" />
    <glyph glyph-name="A" unicode="A" horiz-adv-x="650" 
d="M365 0q-11 0 -12.5 7.5t12.5 6.5t27 -1.5t26 1.5q30 4 36 10.5t3 15.5l-59 182q-1 4 -8 4h-215q-5 0 -5 -3l-57 -181q-3 -9 -0.5 -17.5t29.5 -10.5q17 -2 30 -1.5t30 1.5q13 1 11 -6.5t-11 -7.5h-189q-10 0 -11.5 7.5t12.5 6.5q10 -1 18.5 -1.5t16.5 1.5q13 2 21 4.5
t13 8.5t9.5 16.5t10.5 30.5l206 653q5 16 11 0l234 -653q7 -21 11.5 -32.5t9 -17.5t12 -7.5t21.5 -2.5q18 -1 33 0q16 1 15 -6.5t-14 -7.5h-277zM284 556q-5 14 -7 15.5t-7 -17.5l-93 -311q-2 -3 4 -3h204q7 0 5 4z" />
    <glyph glyph-name="B" unicode="B" horiz-adv-x="577" 
d="M539 185q0 -50 -19 -85t-49 -57.5t-66.5 -32.5t-70.5 -10q-81 1 -160.5 0.5t-160.5 -0.5q-4 0 -7 2.5t-3 5t2.5 4.5t9.5 2q11 -1 24.5 -2t22.5 1q13 2 20 4t10.5 8t4 17t0.5 31v558q0 20 -0.5 31t-4 17t-10.5 8t-20 4q-9 2 -22.5 1t-24.5 -2q-7 0 -9.5 2t-2.5 4.5t3 5
t7 2.5q75 -1 144.5 -1t140.5 5q54 3 95 -8t69.5 -32.5t43.5 -51.5t15 -65q1 -56 -19.5 -88.5t-50.5 -50t-63.5 -23t-59.5 -8.5v-2q46 -5 84.5 -18.5t66.5 -37t44 -58t16 -80.5zM423 542q0 19 -6 46t-24.5 51t-53 39.5t-90.5 12.5q-8 -1 -19.5 -1.5t-20.5 -0.5q-14 0 -14 -14
v-268q0 -6 5.5 -12t13.5 -6h44q33 0 62.5 5t52.5 21t36.5 46.5t13.5 80.5zM430 194q0 41 -5.5 74t-24.5 56.5t-55.5 36t-97.5 12.5h-33q-9 0 -14 -6.5t-5 -13.5v-314q0 -17 6.5 -20.5t16.5 -3.5q15 0 29 -0.5t28 0.5q155 9 155 179z" />
    <glyph glyph-name="C" unicode="C" horiz-adv-x="627" 
d="M598 24q1 -8 -7 -8t-8 8q-2 38 -10.5 48t-26.5 2q-17 -7 -35.5 -21t-43 -27.5t-57 -23.5t-76.5 -10q-61 0 -116 28t-96.5 77.5t-66 117.5t-24.5 148q0 74 24.5 139t66 113.5t96.5 76.5t116 28q44 0 75 -11t53.5 -24.5t38 -24.5t28.5 -11q20 0 28 7t7 29q0 8 8.5 8t7.5 -8
q-3 -50 -4 -97.5t4 -104.5q1 -11 -7 -11t-8 11q0 42 -16.5 81.5t-47 70.5t-73 50t-94.5 19q-64 0 -102.5 -35.5t-58.5 -87.5t-26.5 -111t-6.5 -107q0 -35 2.5 -75t10 -79.5t20.5 -76t34.5 -64t52 -44t73.5 -16.5q53 0 96.5 17.5t75.5 48.5t52 73t26 92q2 10 9 9.5t6 -9.5
q-3 -54 -3 -105.5t3 -109.5z" />
    <glyph glyph-name="D" unicode="D" horiz-adv-x="689" 
d="M639 345q1 -80 -21.5 -145.5t-65.5 -111.5t-103.5 -70t-134.5 -21q-73 3 -146 4t-149 -1q-4 0 -7 2.5t-3 5t2.5 4.5t9.5 2q11 -1 24.5 -2t22.5 1q13 2 20 4t10.5 8t4 17t0.5 31v556q0 21 -0.5 32t-4 16.5t-10.5 7.5t-20 4q-9 2 -22.5 1t-24.5 -2q-7 0 -9.5 2t-2.5 5
t3 5.5t7 2.5q74 -2 147.5 3t145.5 1q99 -5 161.5 -37.5t99 -83t50.5 -113t16 -128.5zM530 345q0 63 -8 124.5t-36 110.5t-81 79.5t-144 30.5q-7 -1 -15 -1.5t-16 -1.5h-9t-9.5 -2.5t-7.5 -7.5t-3 -14v-630q0 -15 5 -16t13 -2q19 -2 33.5 -1t30.5 1q33 0 75.5 10t80.5 44
t64.5 99.5t26.5 176.5z" />
    <glyph glyph-name="E" unicode="E" horiz-adv-x="601" 
d="M557 14q1 -8 -1 -11t-12 -3q-145 2 -273 1t-246 -1q-15 0 -13.5 8t11.5 7q11 -1 15 -1h9q12 0 19 2t10.5 8t4.5 18t1 33v556v32.5t-3 17.5t-9.5 8t-19.5 3q-11 1 -16 0.5t-12 -0.5q-10 0 -9.5 7t11.5 7h472q9 0 11.5 -1.5t2.5 -12.5q1 -41 3.5 -76.5t7.5 -79.5
q0 -8 -7.5 -8.5t-8.5 8.5q-3 46 -16.5 75t-36 46t-53.5 24t-69 9q-20 1 -37 1.5t-33 0.5t-32 -0.5t-35 -1.5q-9 -1 -11 -2t-2 -10v-284q0 -9 2 -11t11 -3q32 -3 59 0q37 4 58.5 13t32.5 23.5t14 33t4 41.5q1 13 9 13t7 -13q-2 -30 -3 -57.5t-1 -56t1 -58.5t3 -65q1 -8 -7 -8
t-9 8q-2 30 -5 50t-14 32.5t-32 19t-59 8.5q-7 0 -11.5 0.5t-10.5 1t-14.5 0t-22.5 -1.5q-6 -1 -9 -3t-3 -10v-321q0 -5 1 -9t11 -5q33 -2 61.5 -2t57.5 2q58 3 101.5 9t72.5 24t43 52.5t14 95.5q0 8 8 9t7 -9q-2 -46 -2.5 -92t2.5 -91z" />
    <glyph glyph-name="F" unicode="F" horiz-adv-x="595" 
d="M541 547q1 -5 -1.5 -8t-5.5 -3t-5.5 3t-3.5 8q-10 79 -52 111t-121 32h-134q-19 0 -19 -18v-276q0 -8 3 -12t14 -4h55q37 0 59 11t33.5 28.5t14.5 39.5t3 45q0 10 8 10.5t7 -10.5q-7 -71 -6 -131.5t6 -123.5q1 -9 -7 -10t-8 10q0 26 -3 47t-14.5 36t-33.5 23.5t-60 8.5
h-53q-11 0 -14.5 -3.5t-3.5 -11.5v-316q0 -10 3 -13t15 -3q16 -2 31 -2.5t30 1.5q11 1 11 -7.5t-11 -8.5q-125 3 -251 0q-15 0 -13.5 8t12.5 7q10 -1 21 -1.5t20 0.5q24 2 29 15.5t5 45.5v556v29.5t-3 18t-9.5 9.5t-18.5 4q-11 1 -25.5 0.5t-20.5 -0.5q-11 0 -10 7t12 7h488
q11 0 13 -3t2 -11q1 -37 4 -73t8 -72z" />
    <glyph glyph-name="G" unicode="G" horiz-adv-x="672" 
d="M646 211q-14 1 -31 0q-18 -1 -24.5 -4.5t-6.5 -14.5v-88q-15 -9 -32 -27.5t-44.5 -37.5t-71 -33.5t-110.5 -15.5q-65 -1 -120.5 23t-96 71.5t-64 117.5t-23.5 162q0 75 25 140t68.5 113t103 75.5t127.5 27.5q39 0 69 -10t53 -21.5t39.5 -21.5t28.5 -10q18 0 22.5 7
t4.5 35q0 8 8 8t7 -8q-2 -26 -3 -47.5t-1 -44t1 -47t4 -54.5q1 -9 -7.5 -9.5t-8.5 9.5q-1 40 -18 76t-46.5 63.5t-68.5 43.5t-84 16q-47 0 -81.5 -16.5t-58.5 -43.5t-38.5 -62t-22.5 -73t-10.5 -76t-2.5 -70q0 -35 2.5 -75t10 -80t20.5 -76.5t34.5 -64.5t52.5 -45t74 -17
q34 0 62.5 6t49 20t31.5 37t11 56v62q0 11 -3.5 17t-15.5 6q-15 2 -29 1.5t-29 -0.5q-12 0 -12 8.5t12 7.5q36 -2 64 -2.5t55 -0.5t56 0.5t68 2.5q14 1 13.5 -7.5t-13.5 -8.5z" />
    <glyph glyph-name="H" unicode="H" horiz-adv-x="711" 
d="M679 0q-66 2 -124.5 2t-127.5 -2q-8 0 -8 8.5t8 7.5q31 -3 60 0q9 1 15.5 4t6.5 14v292q0 12 -11 12h-284q-12 0 -12 -14v-290q0 -11 6 -14t16 -4q17 -2 29 -2t28 2q13 1 13 -7.5t-13 -8.5q-65 2 -125 2t-128 -2q-8 0 -8.5 8.5t8.5 7.5q28 -3 54 0q9 1 15.5 3.5t6.5 14.5
v638q0 11 -6.5 14t-15.5 4q-26 3 -54 0q-9 -1 -8.5 7.5t8.5 8.5q68 -2 128 -2t125 2q7 0 10 -3t3 -6t-3.5 -5.5t-9.5 -1.5q-16 2 -28 2t-29 -2q-10 -1 -16 -5t-6 -15v-304q0 -12 12 -12h284q11 0 11 12v306q0 11 -6.5 14t-15.5 4q-29 3 -60 0q-8 -1 -8 7.5t8 8.5
q69 -2 127.5 -2t124.5 2q6 0 9 -3t3 -6t-3 -5.5t-9 -1.5q-16 2 -24.5 2t-25.5 -2q-10 -1 -16 -5t-6 -15v-636q0 -10 6 -13.5t16 -4.5q17 -2 25.5 -2t24.5 2q12 1 12.5 -7.5t-12.5 -8.5z" />
    <glyph glyph-name="I" unicode="I" horiz-adv-x="315" 
d="M282 0q-65 2 -128 2t-128 -2q-9 0 -8.5 8t8.5 8q31 -3 58 0q10 1 15.5 4.5t5.5 23.5v631q0 12 -21 15q-13 2 -24.5 2t-28.5 -2q-9 -1 -9 7.5t9 8.5q63 -2 124.5 -2t123.5 2q13 0 12 -9t-12 -8q-15 1 -26.5 1.5t-27.5 -1.5q-9 -2 -15.5 -5t-6.5 -11v-637q0 -6 4.5 -12.5
t11.5 -7.5q34 -3 63 0q10 1 9.5 -7.5t-9.5 -8.5z" />
    <glyph glyph-name="J" unicode="J" horiz-adv-x="356" 
d="M338 690q-33 3 -69 0q-5 -1 -8 -8t-3 -15q0 -144 1 -291.5t-7 -285.5q-2 -24 -14 -55t-33.5 -59t-50.5 -47t-63 -19q-50 1 -69 25t-19 58q0 30 15.5 44.5t36.5 14.5q18 0 32 -11.5t14 -34.5q0 -17 -7.5 -24.5t-16.5 -12t-16.5 -7.5t-7.5 -10q0 -11 5 -20.5t30 -9.5
q18 0 31.5 4.5t22.5 19t13 42.5t4 76v603q0 8 -2.5 15t-10.5 8q-20 2 -36 2t-34 -2q-10 -1 -9.5 7.5t9.5 8.5q134 -3 262 0q10 0 10 -8.5t-10 -7.5z" />
    <glyph glyph-name="K" unicode="K" horiz-adv-x="672" 
d="M653 0q-72 2 -135.5 2t-133.5 -2q-13 0 -13 8.5t13 7.5q30 -3 56 0q14 2 10.5 9t-10.5 16l-227 308q-3 4 -8 1t-5 -11v-307q0 -6 3.5 -10.5t13.5 -5.5q35 -3 66 0q13 1 13 -7.5t-13 -8.5q-66 2 -126.5 1.5t-127.5 -2.5q-13 0 -13 9t13 8q19 -2 31.5 -2t26.5 2
q12 2 13.5 6t1.5 10l1 637q0 7 -4.5 13.5t-11.5 7.5q-29 3 -60 0q-10 -1 -10 7.5t10 8.5q128 -3 254 0q11 0 11 -8.5t-11 -7.5q-31 3 -65 0q-16 -2 -16 -17v-292q0 -3 -0.5 -8t0 -8t3 -2.5t8.5 6.5l172 177l113 118q6 6 -4 15t-34 11q-14 1 -27 1t-27 -2q-11 -1 -11 8t11 10
q32 -1 55 -1.5l44 -1t43.5 -0.5t54.5 1q9 0 11.5 -2.5t0.5 -5.5t-8 -5t-13 -2t-8.5 0.5t-9.5 -1.5q-15 -3 -24.5 -8t-19.5 -13t-21.5 -21t-29.5 -31l-180 -183q-8 -8 -10 -12.5t-0.5 -7t5 -5t6.5 -7.5l262 -350q13 -17 22.5 -24.5t29.5 -10.5q11 -2 19.5 -1.5t19.5 2.5
q7 1 10.5 -1.5t4 -6t-3 -6.5t-11.5 -3z" />
    <glyph glyph-name="L" unicode="L" horiz-adv-x="598" 
d="M573 14q2 -14 -15 -14h-520q-11 0 -11 8.5t11 7.5q19 -2 29.5 -2.5t28.5 2.5q15 2 19.5 10.5t4.5 25.5v611q0 8 -5.5 17t-11.5 10q-31 3 -65 0q-7 -1 -10 1.5t-3 5.5t3.5 6t9.5 3q72 -2 138 -1t128 1q13 0 13 -8.5t-13 -7.5q-34 3 -65 0q-7 -1 -13 -7.5t-6 -14.5l1 -646
q0 -5 6.5 -6.5t11.5 -1.5h20.5h16.5t17 0.5t23 1.5q69 4 115.5 11t74.5 28t40 60t12 107q0 10 8 10.5t7 -10.5q-3 -54 -3.5 -105.5t3.5 -102.5z" />
    <glyph glyph-name="M" unicode="M" horiz-adv-x="755" 
d="M729 690q-14 1 -30.5 1.5t-35.5 -1.5q-9 -2 -9 -10v-649q0 -6 3.5 -10.5t12.5 -5.5q18 -2 29 -2t27 2q13 1 13 -7t-13 -8q-66 2 -123.5 1.5t-123.5 -2.5q-13 0 -13 8.5t13 7.5q19 -2 33 -2t29 2q12 2 13.5 6t1.5 10v597l-214 -652q-1 0 -2 1q-2 0 -2 2l-216 666
q-1 0 -2 -1t-1 -3v-516q0 -65 22 -88.5t64 -21.5q13 1 13 -7t-13 -8q-45 0 -87 1.5t-87 -0.5q-13 0 -13 7.5t13 6.5q24 -1 38.5 4.5t22 17t10 29.5t2.5 42v572q0 5 -0.5 7t-8.5 3q-17 2 -30 2t-33 -1q-12 0 -12 7.5t12 5.5q43 -2 83.5 -1.5t83.5 2.5q5 0 6 -2l2 -4l161 -574
l186 575q2 4 4 4.5t4 0.5q43 -2 83 -2t84 2q11 1 12 -7.5t-12 -7.5z" />
    <glyph glyph-name="N" unicode="N" horiz-adv-x="670" 
d="M654 688q-12 2 -16 2.5t-15 -1.5q-16 -2 -26 -5t-15.5 -9t-7.5 -15.5t-2 -24.5v-643q0 -5 -4.5 -6.5t-9.5 4.5l-439 666q-2 4 -2 0v-563q0 -32 13 -55t47 -23h28q11 0 10 -7.5t-10 -7.5q-48 2 -92.5 2t-94.5 -2q-7 0 -7.5 7.5t7.5 7.5h24q33 0 46.5 22.5t13.5 54.5v586
q0 5 -3.5 7.5t-8.5 2.5q-11 0 -19.5 0.5t-16.5 0.5h-16.5t-20.5 -1q-8 -1 -8 8t8 9q54 -1 99.5 -1.5t94.5 1.5l344 -527q0 -1 1 -1h1v1v457q0 30 -9.5 39.5t-40.5 13.5q-12 2 -18 2t-20 -2q-6 -1 -7 8t7 9q27 -1 49.5 -1h44t43.5 0.5t48 1.5q5 0 7 -3t2 -6.5t-2.5 -6
t-6.5 -2.5z" />
    <glyph glyph-name="O" unicode="O" horiz-adv-x="701" 
d="M676 361q0 -80 -24.5 -147.5t-68 -117t-103.5 -77.5t-131 -28t-130.5 28t-103 77.5t-68 117t-24.5 147.5q0 75 24.5 140t68 113.5t103 76.5t130.5 28t131 -28t103.5 -76.5t68 -113.5t24.5 -140zM568 363q-1 63 -8.5 124.5t-30.5 110t-67.5 77.5t-118.5 28
q-49 -1 -83.5 -18t-58 -44.5t-37.5 -63t-21.5 -73.5t-9.5 -75.5t-2 -69.5q0 -37 3 -78t11.5 -80.5t24 -75t40.5 -62t60.5 -42t85.5 -14.5q49 1 83.5 18t58.5 44.5t38 64t21.5 75.5t9 79t1.5 75z" />
    <glyph glyph-name="P" unicode="P" horiz-adv-x="559" 
d="M533 511q-4 -51 -26 -90t-56 -64.5t-76 -38.5t-85 -13q-19 0 -35 4.5t-28 11t-19.5 14.5t-8.5 14v-317q0 -7 7.5 -11t16.5 -5q17 -2 30 -2t30 2q13 1 13.5 -7.5t-13.5 -8.5q-67 2 -132 1.5t-132 -2.5q-12 0 -12.5 9t12.5 8q33 -3 65 0q11 1 14 5.5t3 12.5v638q0 7 -3 12
t-14 6q-32 3 -63 0q-13 -1 -13.5 7.5t13.5 8.5q67 0 129 -0.5t130 2.5q136 6 199 -39t54 -158zM430 502q19 198 -170 190l-51 -2q-7 0 -8.5 -2.5t-1.5 -5.5v-305q0 -7 7 -16t18 -17t24 -13t25 -5q24 0 49.5 9t47.5 29t38.5 54t21.5 84z" />
    <glyph glyph-name="Q" unicode="Q" horiz-adv-x="724" 
d="M687 353q0 -82 -25.5 -148.5t-70 -114t-105.5 -73t-131 -25.5q-71 0 -130 25.5t-101.5 73t-66 114t-23.5 148.5q0 77 24.5 144t68 117t103.5 78.5t131 28.5q70 0 130 -28.5t103.5 -78.5t68 -117t24.5 -144zM560 -70q9 -29 -4 -45.5t-39 -24.5q-31 -9 -61.5 -2t-59 22.5
t-55 35.5l-50.5 37q-15 11 -31.5 16.5t-21.5 -2.5q-7 -9 -3.5 -11.5t10.5 -4.5t15.5 -6t11.5 -16q3 -8 0 -16.5t-8.5 -14.5t-13 -9t-14.5 0q-19 6 -26 20t0 32q4 14 13 24t20 16q32 17 63.5 13.5t67.5 -13.5q20 -5 40.5 -20t38.5 -32t31 -32t19 -19q10 -8 17 -6t10.5 8.5
t2 14.5t-8.5 14q-1 1 -7 2.5t-10 9.5q-5 14 2.5 23t17.5 9q11 -1 20 -6t13 -17zM580 355q-1 43 -4 86t-11.5 82t-24 73t-40.5 58.5t-61 38t-85 12.5t-83.5 -18.5t-58 -45.5t-37.5 -65t-21.5 -76t-9.5 -77.5t-2 -71.5q0 -39 2.5 -79.5t10.5 -79t22.5 -72.5t39 -59t60 -39.5
t84.5 -13.5q73 1 116.5 35t66.5 85t29.5 112t6.5 115z" />
    <glyph glyph-name="R" unicode="R" horiz-adv-x="638" 
d="M650 45q-2 -17 -11.5 -28t-23 -18.5t-29.5 -10.5t-29 -3q-47 0 -72.5 17.5t-39.5 44.5t-21.5 60.5t-17.5 66.5q-15 47 -31 80.5t-35.5 55t-43.5 31.5t-55 10h-35v-324q0 -9 10 -12q20 -2 37.5 -1t34.5 3q13 1 12 -8t-12 -9q-66 2 -130.5 1t-132.5 -1q-11 0 -11.5 8
t11.5 8q18 0 35.5 -1t35.5 1q11 2 11 12v649q0 5 -1.5 8t-9.5 4q-36 3 -75 0q-11 -1 -11.5 7.5t13.5 8.5q151 -3 259 0q46 1 87.5 -2.5t72 -21.5t48.5 -54.5t18 -100.5q0 -37 -18.5 -67.5t-48 -52t-66 -33t-72.5 -10.5l9 -2q50 -4 84 -17t57.5 -38.5t40.5 -66t33 -98.5
q6 -21 10.5 -44t9.5 -42t11.5 -32t15.5 -14q12 -2 16.5 4.5t4.5 14.5q0 6 -2 9.5t-3.5 7.5t-2 8.5t1.5 10.5q3 8 15.5 14t23.5 2t17 -17t5 -18zM405 526q0 30 -5 59t-21.5 52t-47 37t-81.5 14h-31q-8 -2 -11 -3.5t-2 -9.5v-304h41q29 0 57.5 11t51 31t36 49t13.5 64z" />
    <glyph glyph-name="S" unicode="S" horiz-adv-x="488" 
d="M463 214q0 -48 -13 -89t-39 -71.5t-65 -47t-91 -14.5q-44 1 -72.5 10.5t-48.5 19.5t-34 18.5t-27 8.5q-17 0 -21.5 -14.5t-4.5 -27.5q1 -8 -7 -7.5t-7 7.5q5 55 3.5 111.5t-3.5 118.5q0 8 7.5 8t7.5 -8q2 -56 21 -98.5t48 -72t66 -44.5t75 -15q35 0 64 10.5t50 30
t33 46.5t12 60q0 52 -40.5 87.5t-121.5 74.5q-66 31 -109 53t-68 44t-35 48t-10 67t13 76t36.5 60.5t56.5 40t73 14.5q46 0 73.5 -9t45 -20t28 -20.5t22.5 -9.5q17 0 22.5 10t5.5 19q0 8 8.5 8t7.5 -8q-1 -24 -1.5 -45.5t-0.5 -42.5t0.5 -44t1.5 -51q1 -9 -7 -8.5t-9 8.5
q-2 37 -17 72.5t-40.5 63.5t-61 45t-78.5 17q-61 1 -100 -38t-39 -105q0 -18 8 -33t29.5 -31t58.5 -33.5t96 -39.5q61 -23 99.5 -46.5t60.5 -49.5t30 -54t8 -60z" />
    <glyph glyph-name="T" unicode="T" horiz-adv-x="580" 
d="M551 539q1 -10 -6.5 -10t-8.5 10q-5 56 -12 86t-26.5 43.5t-57.5 15t-105 1.5v-660q0 -8 10 -9q38 -3 76 0q10 1 10 -7.5t-10 -8.5q-68 2 -134.5 1.5t-135.5 -1.5q-10 0 -10.5 8.5t10.5 7.5q21 -2 39.5 -2t39.5 2q7 0 7 8v662q-65 0 -102.5 -2t-57.5 -15.5t-27.5 -43.5
t-11.5 -86q0 -5 -3 -7.5t-6.5 -2.5t-6 2.5t-1.5 7.5l20 166q57 -1 119.5 -1.5t126 0l126 1t119.5 0.5l19 -166v0z" />
    <glyph glyph-name="U" unicode="U" horiz-adv-x="683" 
d="M672 685q-8 1 -15 0.5t-15 -0.5q-31 0 -41.5 -15.5t-10.5 -53.5v-404q0 -59 -18.5 -100.5t-51 -68t-75 -39t-90.5 -12.5q-59 0 -107.5 8.5t-82.5 31t-52.5 60.5t-18.5 98v483q0 11 -10 12q-19 2 -34.5 2t-34.5 -2q-4 0 -7 2.5t-3.5 6.5t2 7t8.5 3l133.5 -2t131.5 1
q6 0 9 -2.5t2.5 -6.5t-3.5 -6.5t-8 -2.5q-20 2 -38 2t-38 -2q-12 -2 -12 -12v-500q0 -43 14 -74t37 -51.5t52.5 -30t60.5 -9.5q101 0 160 52t59 164v393q0 40 -14 53t-45 15q-10 1 -19 1.5t-20 -1.5q-5 -1 -8 2t-3 6.5t2.5 6.5t8.5 3q99 -3 195 0q11 0 10 -9.5t-10 -8.5z
" />
    <glyph glyph-name="V" unicode="V" horiz-adv-x="676" 
d="M642 687q-41 0 -58.5 -19t-27.5 -50l-221 -633q-2 -4 -5.5 -3.5t-4.5 3.5l-236 690q-2 5 -4 8t-10 4q-27 3 -56 0q-10 -1 -10.5 8.5t10.5 9.5q128 -3 257 0q6 0 9 -3t3 -6.5t-3 -6t-9 -2.5q-38 3 -81 0l177 -540v-1h1l1 1l136 392l25.5 73.5t8.5 36.5q0 8 -2 15t-9.5 12
t-23 8t-41.5 3q-9 0 -10.5 9t10.5 9q96 -3 188 0q11 0 11 -9t-11 -9h-14z" />
    <glyph glyph-name="W" unicode="W" horiz-adv-x="920" 
d="M898 706q7 1 6.5 -8t-7.5 -9h-9q-38 0 -54.5 -16.5t-28.5 -50.5l-222 -637q-2 -4 -6.5 -4t-5.5 4l-109 356h-2l-117 -356q-2 -4 -6.5 -4t-6.5 4l-233 679q-9 27 -25 27q-15 0 -27 -0.5t-23 -0.5q-8 0 -8 8t8 8q26 -1 55 -1h57.5t55 0.5t47.5 0.5q9 0 8.5 -8.5t-8.5 -7.5
t-12 1h-17q-3 0 -8 -4.5t-1 -15.5l179 -528h1l72 224l-104 294q-9 27 -22 30q-12 2 -20 0.5t-19 -1.5q-6 0 -6.5 8t6.5 8q106 -2 199.5 -1.5t178.5 1.5q8 0 7.5 -9t-8.5 -8l-19 1q-29 2 -46 -9t-29 -46l-57 -166l107 -326h1l165 471q8 22 9.5 30.5t1.5 14.5q0 11 -8.5 19.5
t-33.5 10.5q-22 2 -43 0q-4 0 -6 2.5t-2 5.5t2 6t5 3h20q46 0 88 -1t80 1zM555 665q0 9 -6 17t-32 8q-9 0 -22.5 1t-25.5 0t-19 -6t-4 -16l54 -177h2l45 129q5 14 6.5 25.5t1.5 18.5z" />
    <glyph glyph-name="X" unicode="X" horiz-adv-x="670" 
d="M660 0q-137 3 -274 0q-6 0 -6 8t6 8q12 0 26.5 -1.5t26.5 -0.5t18 6t-1 18l-150 291l-141 -230l-18.5 -31.5l-10 -18t-4 -9.5t-0.5 -6q0 -18 37 -18h48q6 0 6.5 -8t-6.5 -8q-28 1 -52.5 1h-48.5h-48.5t-52.5 -1q-8 0 -8 8t8 8h1q34 0 59.5 8t47.5 43l171 279l-183 333
q-4 7 -14 9.5t-23 3.5t-27 0t-24 -2q-8 -1 -8 7.5t8 8.5q141 -3 281 0q8 0 8.5 -8t-8.5 -8q-10 0 -25 1t-27 -0.5t-18 -8.5t3 -23l117 -218l115 188q8 13 10.5 21t2.5 14t-1 11.5t-6.5 9.5t-17 6t-31.5 1q-5 0 -13 -0.5t-16 -1.5q-6 -1 -5.5 7.5t5.5 8.5q106 -3 208 0
q8 0 8 -8.5t-8 -7.5t-17.5 1t-14.5 -1q-15 -2 -26.5 -6t-21 -10.5t-18.5 -17.5t-19 -27l-123 -205l207 -380q8 -15 19 -21.5t22.5 -8.5t23.5 -0.5t22 1.5q5 0 5.5 -7.5t-4.5 -7.5z" />
    <glyph glyph-name="Y" unicode="Y" horiz-adv-x="594" 
d="M560 687q-16 0 -25.5 -4.5t-15.5 -12t-10.5 -17.5t-8.5 -21l-155 -357q-1 -1 -1 -4v-245q0 -8 2 -9t10 -1h74q14 0 14 -8t-14 -8q-133 3 -265 0q-11 0 -12 8t12 8h70q8 0 9.5 1.5t1.5 8.5v231l-170 412q-7 16 -14 18q-17 5 -24 3.5l-17 -3.5q-12 -1 -13 8.5t12 9.5
q49 -1 106.5 -1.5t108.5 1.5q6 0 9.5 -3t3.5 -6.5t-3.5 -6.5t-10.5 -2q-7 2 -19 2h-26q-7 0 -5 -10q1 -4 3 -10l152 -366q2 -3 3 -2q1 0 1 2l116 277q13 30 19 48t6 32q0 27 -34 27h-20q-7 0 -11 3t-4 6.5t3.5 6t11.5 2.5q34 -2 72.5 -1t70.5 1q14 0 14.5 -9t-14.5 -9h-13z
" />
    <glyph glyph-name="Z" unicode="Z" horiz-adv-x="562" 
d="M551 6q0 -6 -17 -6q-130 0 -254 0.5t-253 -0.5q-12 0 -13 1.5t5 12.5l395 673h-154q-74 0 -117.5 -14t-67.5 -37.5t-32 -53t-11 -59.5q-2 -15 -10.5 -16t-6.5 13q7 43 15 85.5l16 85.5q2 11 2.5 12.5t10.5 1.5q117 -2 233.5 -2t228.5 2q11 0 12.5 -1.5t-5.5 -12.5
l-397 -675h115q48 0 98.5 3t92.5 17t69 43t27 81v30q0 6 3 9t6.5 2.5t6.5 -4.5t2 -11q-5 -51 -3.5 -99t3.5 -81z" />
    <glyph glyph-name="bracketleft" unicode="[" 
d="M244 -289q-17 0 -27.5 0.5t-19.5 0.5t-18 -0.5t-23 -0.5q-34 -1 -51.5 18.5t-17.5 51.5q1 129 2 234t1 204t-1 202t-2 229q0 30 17 47.5t46 17.5h93q13 0 19.5 -6.5t6.5 -14t-6 -13.5t-19 -6q-23 1 -43 1.5t-51 -0.5q-25 -2 -25 -27q-1 -84 -1.5 -156.5t-0.5 -140
t0.5 -132l1 -133l1 -143.5t1.5 -162q0 -31 28 -32q29 -2 49.5 -2t38.5 2q12 1 18.5 -5t7 -13.5t-5.5 -14t-19 -6.5z" />
    <glyph glyph-name="backslash" unicode="\" horiz-adv-x="350" 
d="M329 37q8 -19 4 -32t-13.5 -17t-21.5 3t-19 28l-61 163l-61 156.5l-64.5 161l-72.5 175.5q-8 18 -4 31.5t13.5 18t21 -1.5t19.5 -28l64 -176.5l60 -159l63 -156z" />
    <glyph glyph-name="bracketright" unicode="]" horiz-adv-x="302" 
d="M224 -219q0 -32 -17.5 -51.5t-51.5 -18.5q-14 0 -23 0.5t-18 0.5t-19.5 -0.5t-27.5 -0.5q-13 0 -19 6.5t-5.5 14t7 13.5t18.5 5q18 -2 38.5 -2t49.5 2q28 1 28 32q0 87 0.5 161.5t0.5 142v131.5t-0.5 131.5l-1 141t-0.5 159.5q0 11 -5 18.5t-17 8.5q-16 1 -28 1t-23 -0.5
l-21 -1t-22 -0.5q-13 0 -19 6t-6 13.5t6.5 14t19.5 6.5h93q29 0 46 -17.5t17 -47.5q0 -126 -0.5 -229t-0.5 -202t0.5 -203.5t0.5 -234.5z" />
    <glyph glyph-name="asciicircum" unicode="^" horiz-adv-x="548" 
d="M454 391q16 -24 13.5 -43.5t-15 -26.5t-29.5 1t-30 40q-3 9 -10 25.5l-16 37.5l-19 45l-20 48l-51 121l-48 -124q-9 -25 -19 -50t-18 -47l-15 -40t-10 -28q-8 -23 -24.5 -29t-30 0.5t-18 23.5t10.5 41l43.5 69.5l47.5 78l42 71.5t28 51q11 20 21 -1q9 -18 28 -49.5
l42.5 -68.5l49 -75z" />
    <glyph glyph-name="underscore" unicode="_" horiz-adv-x="444" 
d="M-21 -135v45h494v-45h-494z" />
    <glyph glyph-name="grave" unicode="`" horiz-adv-x="227" 
d="M210 498q-5 3 -27 14.5l-49 26l-53.5 28t-40.5 21.5q-20 11 -29 20.5t-9 24.5t10 24.5t21 9.5q13 0 22 -7t19 -18l66 -71l67 -67q5 -5 3 -6z" />
    <glyph glyph-name="a" unicode="a" horiz-adv-x="460" 
d="M446 16q-12 -10 -27 -17.5t-37 -7.5q-35 0 -57 16.5t-27 42.5q0 2 -1 2t-2 -2q-14 -25 -42.5 -42t-67.5 -17q-57 0 -88.5 26t-31.5 75q0 36 22 60t54.5 39t69.5 22t67 8q11 0 14.5 1.5t3.5 4.5v113q0 26 -12.5 39t-35.5 13q-16 0 -32.5 -2t-30 -6.5t-22 -12.5t-8.5 -19
q0 -8 5 -10t11 -4t11 -8t5 -22q0 -17 -13 -27.5t-32 -12.5q-18 -2 -31 14t-11 39q1 16 13.5 31t33 27t47.5 19.5t59 8.5q26 0 48.5 -7t39.5 -21t26.5 -34t9.5 -45v-246q0 -14 4.5 -27.5t24.5 -13.5q22 0 30 12q7 9 12 4t-2 -13zM296 201q0 4 -3 5.5t-13 0.5q-18 -1 -40 -5
t-42 -14.5t-33.5 -29.5t-13.5 -51q0 -20 2.5 -37t10 -29t21 -19t36.5 -7q13 0 25.5 7t22.5 16.5t17 18.5l10 13v131z" />
    <glyph glyph-name="b" unicode="b" horiz-adv-x="515" 
d="M476 199q-1 -41 -15 -78.5t-39 -66t-61 -45.5t-81 -18q-26 0 -45 7.5t-33 17t-22.5 18t-12.5 9.5q-14 5 -25.5 -1t-19.5 -11q-17 -11 -35 -35q-3 -3 -5.5 -0.5t-2.5 13.5l1 668q0 8 -3 12.5t-13 5.5q-19 1 -39 0q-14 -1 -13.5 8t14.5 8q15 -1 29 -1.5t27 0.5t30 6.5
t31 16.5q11 9 13.5 9.5t2.5 -10.5v-420h3q5 17 15.5 33.5t26.5 30t36 22t44 10.5q52 3 89 -15.5t60 -49.5t33.5 -69.5t9.5 -74.5zM384 205q0 99 -23 145.5t-87 42.5q-26 -2 -48 -16t-37.5 -36t-23.5 -48.5t-8 -52.5l1 -109q0 -33 13 -57.5t32 -40t42 -22.5t43 -5
q35 3 54.5 14t28.5 34.5t11 60t2 90.5z" />
    <glyph glyph-name="c" unicode="c" horiz-adv-x="415" 
d="M395 128q3 -23 -8 -47.5t-32 -44.5t-51 -32.5t-66 -12.5q-47 0 -84.5 15t-64 41.5t-41 61.5t-14.5 75q0 46 16.5 87t44.5 71.5t64 48t75 17.5q25 0 50 -5.5t44.5 -16.5t31.5 -27t12 -38q0 -21 -14 -34t-32 -13q-22 0 -34 13t-12 27q0 15 3.5 22.5t8 12t8.5 7.5t4 8
q0 8 -7.5 13.5t-19 9.5t-25 6t-26.5 3q-32 -1 -51 -13t-29.5 -33t-14 -49t-3.5 -62v-77q0 -31 3 -59t15 -49.5t35 -33.5t64 -12q34 0 59.5 12t43 30t25.5 39t7 39q2 12 9 12t6 -12z" />
    <glyph glyph-name="d" unicode="d" horiz-adv-x="514" 
d="M496 1q-32 2 -61 1.5t-60 -2.5q-8 -1 -10 2t-2 11v54q0 6 -2 0q-5 -11 -16 -24.5t-27 -25.5t-36.5 -20t-45.5 -8q-45 0 -81.5 17t-62.5 46t-40 67t-14 79q0 34 13.5 71t38.5 67.5t60.5 50t78.5 19.5q26 0 46.5 -9t37 -23t28.5 -31t20 -33q1 -1 2 0v367q0 8 -3 12.5
t-13 5.5q-22 2 -44 0q-14 -1 -14 8t14 8q15 -1 32.5 -1.5t30.5 0.5t30.5 6.5t31.5 16.5q11 9 13.5 9.5t2.5 -10.5v-696q0 -8 7.5 -12.5t18.5 -6.5q8 -2 13.5 -1.5t12.5 1.5q5 1 7.5 -1.5t2.5 -6t-2.5 -6t-7.5 -2.5zM364 248q0 22 -11 47.5t-30 46.5t-45 35t-56 13
q-32 -1 -50 -14t-27.5 -37.5t-12 -60.5t-2.5 -84q0 -53 4.5 -89.5t16.5 -59.5t34 -33t57 -8q25 1 47 11.5t38.5 28.5t26.5 43t10 54v107z" />
    <glyph glyph-name="e" unicode="e" horiz-adv-x="410" 
d="M396 129q-18 -60 -64.5 -99t-112.5 -39q-42 0 -77.5 15t-61 43t-39.5 66t-14 85q0 34 13.5 70.5t37.5 67t57 50t72 20.5q58 1 92.5 -20.5t52 -51t22.5 -59t5 -44.5q0 -5 -5 -8t-13 -3h-236q-5 0 -5 -5v-69q0 -25 2.5 -50.5t12.5 -45.5t30 -33t54 -13q30 0 56.5 9
t47.5 25.5t36 39t22 49.5q1 7 8.5 7.5t6.5 -7.5zM287 264q0 22 -2.5 45.5t-10.5 42t-24 30.5t-43 11q-25 -1 -42 -12.5t-27 -30t-14 -41.5t-4 -45v-19q0 -8 6 -8h149q7 0 9.5 5.5t2.5 7.5v14z" />
    <glyph glyph-name="f" unicode="f" horiz-adv-x="329" 
d="M393 623q-2 -18 -14.5 -32.5t-31.5 -14.5q-22 0 -33 13t-8 27q3 15 11 22.5t17 11.5l17 7.5t10 11.5q3 11 -8 20t-42 9q-35 0 -60 -7t-41 -23t-23.5 -42.5t-7.5 -65.5v-161q0 -4 2.5 -4h9.5h85q14 0 13.5 -8.5t-13.5 -7.5q-24 1 -42.5 1.5t-42.5 -1.5q-7 -1 -9.5 -6
t-2.5 -10v-333q0 -11 25 -14q28 -3 50 0q11 1 10.5 -7.5t-10.5 -8.5q-114 3 -227 0q-12 0 -11.5 8.5t11.5 7.5q25 -3 45 0q17 2 22 7t5 11v332q0 9 -2 10.5t-10 2.5q-16 2 -28.5 2t-29.5 -2q-11 -1 -10.5 7.5t10.5 8.5h58q9 0 10.5 1.5t1.5 5.5v56q0 68 16.5 116.5t45 79
t67.5 44.5t84 14q27 0 43.5 -7.5t25.5 -20.5t11 -29t1 -32z" />
    <glyph glyph-name="g" unicode="g" horiz-adv-x="450" 
d="M462 353q0 -19 -12 -27t-27 -8q-14 0 -23.5 9.5t-9.5 21.5q0 17 3.5 23t8.5 11q-15 -1 -31 -12t-27 -26q17 -18 28.5 -46t11.5 -57q0 -32 -15 -59.5t-39 -48t-53.5 -32t-58.5 -11.5q-32 0 -49.5 7.5t-25.5 11.5q-36 2 -62 -8.5t-28 -39.5q-1 -19 12.5 -29t30.5 -11
q60 -3 113.5 -2.5t110.5 2.5q51 2 80.5 -30t31.5 -98q1 -43 -18 -79t-51 -61.5t-73.5 -40t-84.5 -14.5q-33 0 -66 6.5t-59.5 21.5t-43 39.5t-16.5 60.5q0 21 8.5 40t22 34.5t30.5 26t35 14.5v2q-40 0 -60 25.5t-18 66.5q3 88 89 84v2q-34 22 -54.5 48.5t-20.5 68.5
q0 34 13.5 63.5t36 51t53 34t63.5 12.5q35 0 65.5 -11t51.5 -34q14 16 32.5 30.5t43.5 14.5q22 0 36.5 -12t14.5 -35zM300 249q-1 31 -3.5 56t-11 43t-25.5 27.5t-47 8.5q-31 -1 -47 -15.5t-23 -35.5t-7.5 -45t0.5 -45q1 -25 3 -49.5t10.5 -43.5t25.5 -30.5t48 -10.5t47 13
t23 31t7.5 44t-0.5 52zM417 -118q1 19 -8 31t-24 18.5t-34 9.5t-37 4q-42 2 -80 3t-81 -3q-39 -4 -63 -33.5t-24 -79.5q0 -32 12 -54t32 -35.5t46 -20t54 -6.5q37 0 73 13.5t65 36t48 52.5t21 64z" />
    <glyph glyph-name="h" unicode="h" horiz-adv-x="519" 
d="M501 1q-103 3 -211 0q-11 0 -11 8.5t11 6.5q15 -2 27.5 -1.5t25.5 2.5q9 1 10.5 3t1.5 6v288q0 42 -14 57t-37 15q-30 0 -51.5 -12t-38 -29t-29.5 -37t-26 -36v-244q0 -10 11 -11q27 -3 49 0q12 1 11.5 -7.5t-11.5 -8.5q-52 2 -100.5 2t-102.5 -2q-11 0 -11 8.5t11 7.5
q27 -3 51 0q8 1 9.5 3t1.5 6v643q0 8 -3 12.5t-13 5.5q-19 1 -37 0q-14 -1 -14 8t14 8q15 -1 29 -1.5t28 0.5q13 1 30 6.5t31 16.5q11 9 13.5 9.5t2.5 -10.5v-422q0 -5 1 -3t3 5q13 18 28 36t34.5 32t43 22t52.5 8q39 0 61.5 -9.5t34 -25t15 -35.5t3.5 -42v-262
q0 -10 11 -11q29 -3 55 0q6 1 8.5 -1.5t2.5 -5.5t-3 -6t-8 -3z" />
    <glyph glyph-name="i" unicode="i" horiz-adv-x="253" 
d="M175 612q0 -21 -14.5 -36t-34.5 -15t-34.5 15t-14.5 36t14.5 36t34.5 15t34.5 -15t14.5 -36zM232 0q-104 3 -212 0q-11 0 -11 8.5t11 7.5q28 -3 55 0q8 1 9.5 3t1.5 6v317q0 23 -17 24q-19 1 -38 0q-14 -1 -14 8t14 8q31 -2 57 0q13 1 30 6t31 16q11 9 14.5 9t3.5 -15
v-371q0 -10 10 -11q31 -3 55 0q6 1 8.5 -1.5t2.5 -5.5t-3 -6t-8 -3z" />
    <glyph glyph-name="j" unicode="j" horiz-adv-x="231" 
d="M169 614q0 -21 -14.5 -36t-34.5 -15t-34.5 15t-14.5 36t14.5 36t34.5 15t34.5 -15t14.5 -36zM164 -35q0 -19 -2 -48t-7 -61t-14.5 -64t-23.5 -56.5t-34 -38t-47 -8.5q-20 4 -30 15t-10 25q0 15 9.5 27.5t25.5 12.5q20 0 28.5 -12t8.5 -26q0 -7 -2.5 -11l-4.5 -7
q20 -3 28.5 11.5t8.5 30.5q0 14 -1.5 40.5t-3 57t-3.5 61t-2 52.5l-5 367q0 12 -5.5 21.5t-15.5 10.5q-22 2 -43 0q-14 -1 -14 8t14 8q15 -1 34 -1t32 1t30 6t31 16q11 9 14.5 9.5t3.5 -11.5v-436v0z" />
    <glyph glyph-name="k" unicode="k" horiz-adv-x="527" 
d="M514 0q-52 2 -104.5 2.5t-106.5 -1.5q-11 0 -11 8.5t11 7.5l10.5 -1.5t5.5 -0.5t5 0.5t10 1.5q5 1 5 3.5t-3 6t-6.5 7l-6.5 6.5l-114 146l-49 -51v-109q0 -8 10 -9q14 -2 23.5 -2t22.5 2q6 1 8.5 -1.5t2.5 -5.5t-3 -6t-8 -3q-53 2 -99.5 2t-100.5 -2q-11 0 -11 8.5
t11 7.5q27 -3 51 0q8 1 9.5 3t1.5 6v645q0 8 -3 12.5t-13 5.5q-19 1 -37 0q-14 -1 -14 8t14 8q15 -1 29 -1.5t28 0.5q13 1 30 6.5t31 16.5q11 9 13.5 10t2.5 -9v-572q1 3 7 9l147 153l26 27.5t12 18.5q1 4 0 8t-7.5 7t-20 4t-37.5 0q-14 -1 -14.5 8t14.5 8q45 -2 87 -2t86 2
q13 1 13 -8t-13 -8q-21 1 -33 1.5t-19.5 -1.5t-14.5 -8.5l-19 -18.5l-106 -110l142 -179q19 -24 39 -36t34 -14q5 -1 12.5 -2t19.5 1q12 1 11.5 -7.5t-11.5 -8.5z" />
    <glyph glyph-name="l" unicode="l" horiz-adv-x="243" 
d="M222 0q-52 2 -100.5 2t-102.5 -2q-12 0 -12 8.5t12 7.5q26 -3 51 0q8 1 9.5 3t1.5 6v646q0 17 -17 18q-19 1 -38 0q-14 -1 -14 8t14 8q16 -1 30 -1.5t27 0.5t30 6.5t31 16.5q11 9 14 10t3 -7v-703q0 -9 11 -11q27 -3 50 0q12 1 11.5 -7.5t-11.5 -8.5z" />
    <glyph glyph-name="m" unicode="m" horiz-adv-x="704" 
d="M683 0q-38 2 -78 2t-94 -2q-11 0 -11 8.5t11 7.5q7 -1 11.5 -1.5t8.5 -0.5t8 0.5t11 1.5q8 1 9.5 3t1.5 6v270q0 54 -15 72t-50 15q-10 -1 -23.5 -6.5t-27 -20t-26 -39.5t-20.5 -66v-223q0 -10 9 -11q14 -2 18.5 -2t12.5 2q11 1 11 -7.5t-11 -8.5q-38 2 -79 2t-95 -2
q-11 0 -11 8.5t11 7.5q7 -1 12 -1.5t9 -0.5t8.5 0.5t11.5 1.5q8 1 10 3t2 6v289q0 74 -55 69q-12 -1 -27 -7.5t-30.5 -20.5t-29 -36t-21.5 -54v-238q0 -10 10 -11q14 -2 19 -1.5t12 1.5q10 1 10 -7.5t-10 -8.5q-74 3 -178 0q-11 0 -11 8.5t11 7.5q14 -2 22.5 -2t21.5 2
q9 1 10.5 3t1.5 6v322q0 8 -2.5 11t-13.5 4q-10 1 -15 1t-15 -1q-14 -1 -14 8t14 8q15 -1 23 -1t21 1t30 6t31 16q11 9 13 6t4 -13q3 -23 4 -46.5t1 -45.5l2 1q6 23 18.5 40t28 29t31.5 18.5t27 8.5q65 10 95 -14.5t37 -90.5l6 5q6 26 17.5 44.5t26 30t31 18t31.5 8.5
q42 6 68.5 -3.5t41.5 -28t20.5 -42.5t5.5 -48v-251q0 -9 10 -10q15 -2 24 -2t7 2q12 1 11.5 -7.5t-11.5 -8.5z" />
    <glyph glyph-name="n" unicode="n" horiz-adv-x="497" 
d="M486 0q-52 2 -100.5 2t-102.5 -2q-12 0 -12 8.5t12 7.5q26 -3 51 0q8 1 9.5 3t1.5 6v288q0 74 -46 74q-26 0 -48.5 -10t-40.5 -24.5t-31 -30.5t-19 -29v-266q0 -10 10 -11q27 -3 49 0q12 1 11.5 -7.5t-11.5 -8.5q-52 2 -100.5 2t-102.5 -2q-11 0 -11 8.5t11 7.5
q27 -3 51 0q8 1 9.5 3t1.5 6v321q0 18 -17 19q-19 1 -37 0q-14 -1 -14 8t14 8q28 -1 51 0q14 1 31 6.5t31 15.5q10 7 12.5 7t4.5 -10q4 -23 5 -45t0 -46l3 10q9 15 24 30t33 27t39.5 19.5t44.5 7.5q39 0 63 -9.5t37.5 -25.5t18 -36.5t4.5 -42.5v-263q0 -9 10 -10q28 -3 50 0
q12 1 11.5 -7.5t-11.5 -8.5z" />
    <glyph glyph-name="o" unicode="o" horiz-adv-x="445" 
d="M422 200q0 -41 -14.5 -78.5t-41 -66.5t-64.5 -46.5t-84 -17.5q-43 0 -78.5 17.5t-61 46.5t-40 66.5t-14.5 78.5q0 40 14.5 77t40 65.5t61 46t78.5 19.5q47 2 84.5 -13.5t64 -44t41 -67.5t14.5 -83zM329 236q0 31 -3 60t-14 51t-34.5 35t-65.5 11q-31 -2 -50 -15.5
t-30 -36t-14.5 -51t-3.5 -59.5l1 -67q0 -31 3.5 -59.5t15 -50.5t33 -35t58.5 -13q40 0 62 12.5t31.5 33.5t10.5 48.5t1 57.5z" />
    <glyph glyph-name="p" unicode="p" horiz-adv-x="520" 
d="M468 200q-2 -41 -16 -79t-39 -67t-61 -46t-81 -17q-43 0 -74.5 24t-42.5 57h-2v-337q0 -10 11 -11q28 -3 52 0q6 1 8.5 -1.5t2.5 -5.5t-3 -6t-8 -3q-102 3 -206 0q-11 0 -11 8.5t11 6.5q15 -2 26.5 -1.5t24.5 2.5q9 1 10.5 3t1.5 6v621q0 18 -17 19q-19 1 -38 0
q-14 -1 -14 8t14 8q28 -1 52 0q13 1 30 6.5t31 15.5q11 7 13.5 7t4.5 -10q3 -23 4 -51.5t0 -48.5l3 4q7 17 18.5 33.5t27 30t35 22.5t41.5 11q50 4 86.5 -13t60.5 -46.5t35 -69t9 -80.5zM376 200q2 96 -20 146t-85 48q-19 -1 -40 -14.5t-38.5 -35t-29 -47.5t-11.5 -52v-110
q0 -27 10.5 -52t27.5 -43t40 -27.5t47 -6.5q35 3 54.5 14t29 33.5t12 58t3.5 88.5z" />
    <glyph glyph-name="q" unicode="q" horiz-adv-x="498" 
d="M486 -293q-104 1 -205 0q-11 0 -11 8t11 7q24 -3 52 0q10 1 10 11v338h-2q-11 -33 -42 -56.5t-73 -23.5q-45 0 -81 17t-61.5 46t-39.5 67t-16 79t9 80.5t35 69t60.5 46.5t86.5 13q45 -3 75.5 -21.5t48.5 -47.5q-1 22 0 34t5 33q2 9 4.5 9t12.5 -6q15 -9 32 -14.5t30 -6.5
q24 -1 52 0q14 1 14 -7.5t-14 -7.5q-19 1 -38 0q-17 -1 -17 -18v-625q0 -4 1.5 -6t10.5 -3q24 -3 50 0q12 1 12 -7t-12 -8zM344 277q0 28 -11.5 49.5t-29 36.5t-38.5 22.5t-40 8.5q-63 2 -85 -48t-20 -146q1 -53 3.5 -88t12 -57.5t29 -33.5t54.5 -14q24 -3 47 6.5t40 27.5
t27.5 42.5t10.5 51.5v142z" />
    <glyph glyph-name="r" unicode="r" horiz-adv-x="366" 
d="M355 359q4 -9 5 -19.5t-1 -20t-7.5 -16t-14.5 -7.5q-5 0 -12.5 0.5t-15.5 3.5t-15 9.5t-11 17.5q-5 14 -3.5 23.5t4.5 16t5 10t-1 6.5q-4 3 -14 3q-15 0 -34.5 -12t-36 -36.5t-28 -61t-11.5 -85.5v-164q0 -10 11 -11q15 -2 33 -2t30 2q11 1 11 -7.5t-10 -8.5
q-52 2 -110.5 2t-112.5 -2q-11 0 -11 8.5t11 7.5q29 -3 56 0q8 1 9.5 3t1.5 6l1 321q0 18 -17 19q-11 1 -25 1t-25 -1q-14 -1 -14 8t14 8q15 -1 32.5 -1t31.5 1t30.5 6.5t30.5 15.5q10 7 12.5 7t4.5 -10q4 -23 5 -54t0 -65l2 3q4 17 13 37.5t23.5 38.5t36 30t51.5 12
q24 0 38.5 -10t26.5 -33z" />
    <glyph glyph-name="s" unicode="s" horiz-adv-x="336" 
d="M321 135q4 -36 -5.5 -63t-29 -45t-45.5 -27t-53 -9q-32 0 -53 6.5t-35 15t-22.5 15t-15.5 6.5q-10 0 -12 -5.5t-3 -25.5q-1 -8 -7.5 -7.5t-5.5 7.5q2 32 1.5 64t-2.5 65q-1 5 5 5.5t7 -5.5q3 -16 10 -37.5t23 -41t42 -33t68 -13.5q39 0 65.5 22.5t27.5 63.5q0 16 -8 27
t-22.5 20t-34.5 16.5t-44 15.5l-54 18t-41.5 19t-27 29t-9.5 47q-1 50 32.5 84.5t96.5 35.5q19 0 35 -4.5t28.5 -11t21 -12.5t13.5 -7q5 -2 5.5 6t1.5 19q0 9 6.5 8.5t6.5 -8.5q-2 -26 -1.5 -50.5t3.5 -49.5q1 -10 -4.5 -8.5t-6.5 8.5q-3 17 -10 34t-20 30.5t-33.5 22
t-48.5 8.5q-44 0 -71 -19.5t-26 -54.5q0 -14 8 -24t22.5 -17.5t34.5 -14.5t45 -14q45 -14 72 -26.5t42 -25.5t20.5 -27.5t7.5 -31.5z" />
    <glyph glyph-name="t" unicode="t" horiz-adv-x="294" 
d="M271 33q-13 -16 -35 -29t-57 -13q-51 0 -81 19.5t-30 69.5v295q0 4 -1.5 6.5t-9.5 3.5q-9 1 -16.5 1.5t-14.5 -0.5q-14 -2 -13.5 5.5t14.5 9.5q88 15 110 65q5 10 8.5 10.5t3.5 -10.5v-53q0 -5 1 -8.5t11 -3.5h92q12 0 11.5 -8.5t-11.5 -7.5q-14 1 -24 1.5t-19 0.5h-19
h-24q-16 0 -17 -3.5t-1 -8.5v-314q0 -31 12 -42.5t35 -11.5t38.5 11t23.5 25q5 7 12.5 3t0.5 -13z" />
    <glyph glyph-name="u" unicode="u" horiz-adv-x="514" 
d="M488 0q-35 2 -65 2t-65 -3q-3 15 -3.5 34l-1.5 59l-3 -10q-19 -45 -57 -69.5t-84 -24.5q-39 0 -63 7.5t-37.5 22.5t-18 36t-4.5 48v249q0 16 -17 17q-22 2 -43 0q-14 -1 -14 8.5t14 8.5q15 -1 33 -2t31 0t28.5 3t30.5 12q18 12 18 -5v-315q0 -37 17 -55.5t40 -18.5
q26 0 47 12t37.5 29t27.5 36t17 33v243q0 7 -3.5 8.5t-13.5 2.5q-22 2 -43 0q-14 -1 -14 8.5t14 8.5q15 -1 33 -2t31 0t28.5 3t29.5 12q11 7 15 6.5t4 -10.5v-359q0 -18 17 -19q18 -1 37 0q14 1 14 -8t-14 -8z" />
    <glyph glyph-name="v" unicode="v" horiz-adv-x="481" 
d="M463 371q-15 1 -24 0t-15.5 -6.5t-12 -16t-13.5 -28.5l-157 -331q-3 -8 -8 0l-171 374q-3 7 -11 8q-10 2 -17 1t-17 -1q-11 0 -11.5 8t11.5 7q49 -2 97.5 -1.5t97.5 2.5q11 0 11 -8.5t-11 -7.5q-26 1 -50 0q-9 -1 -9 -3t2 -5l116 -258q2 -4 2 -6q0 4 1 6l94 185
q16 40 16 55q0 33 -64 27q-14 -1 -13 7.5t13 7.5q38 -2 72 -2t70 2q14 1 14 -8t-13 -8z" />
    <glyph glyph-name="w" unicode="w" horiz-adv-x="676" 
d="M658 372q-15 1 -24 0t-15.5 -6t-12 -15t-11.5 -26l-128 -334q-3 -10 -7 0l-125 279l-96 -279q-3 -10 -7 0l-172 374q-4 6 -11 7q-10 2 -17 1t-17 -1q-11 0 -11.5 7.5t11.5 6.5q49 -2 97.5 -1.5t97.5 2.5q11 0 11 -8t-11 -7q-26 1 -50 0q-9 -1 -8.5 -3t1.5 -4l114 -249
l95 277l132 -296l93 251q5 14 -16 21t-55 4q-13 -1 -12 7t12 7q38 -2 72 -2t70 2q15 1 14.5 -7.5t-14.5 -7.5z" />
    <glyph glyph-name="x" unicode="x" horiz-adv-x="487" 
d="M466 0q-53 2 -108 1.5t-106 -2.5q-5 0 -7.5 2.5t-2 5.5t3 5.5t6.5 2.5q9 -2 26 -2t25 1q10 1 10 3.5t-2 4.5l-92 145l-70 -89q-23 -29 -23 -48t53 -15q12 1 12 -7.5t-12 -7.5q-79 3 -160 0q-11 -1 -12 7t12 7q23 -2 38.5 2t27.5 12.5t22.5 22l25.5 32.5l78 98l-113 181
q-3 6 -12 7q-14 1 -25 1t-25 -1q-10 -1 -10 7t10 8q53 -2 101 -2t99 2q11 0 10 -8t-10 -8q-8 1 -17 1.5t-17 0.5q-10 -1 -10 -3.5t2 -4.5l70 -112l47 60q9 11 16.5 23.5t7.5 18.5q0 5 -1 9t-5.5 7t-14.5 3.5t-28 -0.5q-12 -1 -12.5 6.5t11.5 6.5q40 -2 75 -2t76 2
q11 1 12 -7.5t-12 -7.5q-23 1 -38.5 -2t-27 -10.5t-22.5 -20t-25 -31.5l-51 -67l135 -216q3 -6 12 -7q14 -2 23.5 -1.5t23.5 1.5q10 1 10 -7t-10 -8z" />
    <glyph glyph-name="y" unicode="y" horiz-adv-x="471" 
d="M464 364q-22 1 -34 -1.5t-19.5 -10.5t-13 -22l-13.5 -35q-45 -118 -75.5 -207.5l-52.5 -155.5l-37.5 -110.5t-31.5 -71t-34 -38t-44 -11.5q-13 0 -22.5 5.5t-16 13.5t-9.5 17.5t-3 17.5q0 13 8 26t30 13q20 0 31.5 -14t10.5 -24q-2 -16 4 -18.5t11 -1.5q8 1 16.5 14
t17 32.5t16 43.5l14 46t11 40l6.5 26l-174 420q-2 4 -4 4.5l-6 1.5q-11 2 -17.5 2t-17.5 -2q-4 -1 -6 1.5t-2 5.5t2 6t6 3q50 -2 96.5 -1.5t95.5 1.5q6 0 9 -3t3 -6t-3 -5.5t-9 -1.5q-13 2 -23.5 2t-24.5 -2q-8 -1 -6 -8l123 -305l91 239q12 31 12 48q0 7 -2.5 13t-11 9
t-25 4t-44.5 0q-9 -1 -10 7.5t10 8.5q43 -2 84 -1.5t83 1.5q11 0 11.5 -8.5t-10.5 -7.5z" />
    <glyph glyph-name="z" unicode="z" horiz-adv-x="453" 
d="M397 138q-19 -61 -22 -123q0 -5 -2.5 -10t-10.5 -5q-50 1 -94.5 1h-86.5h-83.5t-84.5 -1l270 366h-91q-42 0 -69.5 -10.5t-45 -28.5t-25.5 -41.5t-11 -48.5q-1 -8 -8 -8t-6 8q2 32 7 65.5l10 65.5q1 6 3 10t9 4h336l-267 -366h103q36 0 62 6.5t44 21t29.5 38t18.5 56.5
q2 9 10 9t5 -9z" />
    <glyph glyph-name="braceleft" unicode="{" 
d="M240 690q-1 -11 -9.5 -14t-13.5 6q0 3 -5.5 3.5t-12.5 0t-13 -2t-7 -2.5q-18 -23 -23.5 -59.5t-3.5 -76.5q1 -31 6.5 -63l11 -63t8.5 -60t-1 -54.5t-17.5 -47t-40.5 -37.5q42 -24 52.5 -59.5t5.5 -78t-17.5 -90t-16.5 -95.5q-2 -20 -2.5 -41.5t1.5 -42t7 -37.5t16 -27
q5 -5 17 -6t14 7q5 10 15 8t11 -16q1 -15 -8 -21t-21.5 -6t-25.5 4.5t-20 9.5q-14 16 -20.5 39t-8 50t0 57.5t2.5 62.5q1 33 4 65.5t5 63.5t1 59.5t-7 53.5q-3 11 -9 19.5t-29 20.5q24 14 31 23.5t9 20.5q4 21 5 50t0.5 62t-2 67.5t-2.5 67.5q-1 32 0 60t4.5 52t12 44
t22.5 37q7 5 20 9t25.5 3.5t21 -6.5t7.5 -20z" />
    <glyph glyph-name="bar" unicode="|" horiz-adv-x="170" 
d="M115 33q1 -24 -8 -36t-20.5 -12t-20.5 12t-8 36q4 87 6 168t2 160.5t-2 159t-6 165.5q-1 24 8 36t20.5 12t20.5 -12.5t8 -36.5q-4 -89 -6.5 -170t-2.5 -159.5t2 -158t7 -164.5z" />
    <glyph glyph-name="braceright" unicode="}" 
d="M225 219q-23 -12 -28.5 -20.5t-8.5 -19.5q-6 -25 -7 -54t1 -59.5t5 -63t4 -65.5l2 -63.5t-0.5 -57.5t-7.5 -49.5t-20 -38.5q-7 -6 -20 -10.5t-25 -4.5t-21 6t-8 22q1 14 10.5 16t14.5 -8q2 -8 14 -7t17 6q10 10 15.5 26.5t7.5 37t1 42t-2 40.5q-2 32 -9.5 64l-14.5 62.5
t-11.5 59t-1 54t17 47t43.5 38.5q-42 24 -53 60.5t-7.5 80t14.5 91.5t13 95q2 39 -3.5 75.5t-23.5 58.5q-1 1 -6.5 2.5t-12 2t-11.5 0t-5 -3.5q-5 -8 -14.5 -5.5t-10.5 13.5q-2 15 7 21t21 6t25 -4t20 -9q14 -16 22.5 -36t12 -44t4.5 -52.5t0 -60.5q-1 -33 -2.5 -67.5
t-2.5 -67t0 -61.5t6 -51q2 -11 9 -20.5t30 -23.5z" />
    <glyph glyph-name="asciitilde" unicode="~" horiz-adv-x="477" 
d="M460 340q-3 -54 -26.5 -86.5t-58 -43t-74 1t-74.5 44.5q-8 8 -20.5 18t-27 19.5t-30 17.5t-28.5 12q-18 5 -32.5 0t-25 -16.5t-17 -28t-8.5 -34.5q-1 -8 -5 -13.5t-7.5 -5t-6 8.5t-0.5 28q2 24 14.5 48t31.5 42t42 27.5t46 5.5q24 -4 44.5 -14.5t38.5 -23.5t34 -27
t31 -24q47 -33 73 -35t39 12.5t17.5 38t9.5 41.5q2 10 6 14t7 2t5.5 -9t1.5 -20z" />
    <glyph glyph-name="Adieresis" unicode="&#xc4;" horiz-adv-x="640" 
d="M445 858q0 -18 -13 -31.5t-30 -13.5q-18 0 -31 13.5t-13 31.5t13 31.5t31 13.5q17 0 30 -13.5t13 -31.5zM264 858q0 -18 -13 -31.5t-30 -13.5q-18 0 -30.5 13.5t-12.5 31.5t12.5 31.5t30.5 13.5q17 0 30 -13.5t13 -31.5zM359 1q-11 0 -12.5 7.5t12.5 6.5t27 -1.5t27 1.5
q30 4 35.5 10.5t2.5 15.5l-59 182q-1 4 -8 4h-214q-5 0 -6 -3l-57 -181q-3 -9 -0.5 -17.5t29.5 -10.5q17 -2 30 -1.5t30 1.5q13 1 11 -6.5t-11 -7.5h-189q-10 0 -11.5 7.5t12.5 6.5q10 -1 18.5 -1.5t17.5 1.5q13 2 20.5 4.5t13 8.5t9.5 16.5t10 30.5l206 653q5 16 11 0
l234 -653q7 -21 11.5 -32.5t9 -17.5t12 -7.5t21.5 -2.5q18 -1 33 0q16 1 15 -6.5t-14 -7.5h-277zM279 557q-5 14 -7 15.5t-7 -17.5l-93 -311q-2 -3 4 -3h204q7 0 5 4z" />
    <glyph glyph-name="Aring" unicode="&#xc5;" horiz-adv-x="658" 
d="M399 857q0 -18 -7 -34.5t-18.5 -29t-27.5 -19.5t-34 -7q-36 0 -61 26.5t-25 63.5t25 63.5t61 26.5q18 0 34 -7t27.5 -19.5t18.5 -29t7 -34.5zM365 1q-11 0 -12.5 7.5t12.5 6.5t27 -1.5t27 1.5q30 4 35.5 10.5t2.5 15.5l-59 182q-1 4 -8 4h-214q-5 0 -6 -3l-57 -181
q-3 -9 -0.5 -17.5t29.5 -10.5q17 -2 30 -1.5t30 1.5q13 1 11 -6.5t-11 -7.5h-189q-10 0 -11.5 7.5t12.5 6.5q10 -1 18.5 -1.5t17.5 1.5q13 2 20.5 4.5t13 8.5t9.5 16.5t10 30.5l206 653q5 16 11 0l234 -653q7 -21 11.5 -32.5t9 -17.5t12 -7.5t21.5 -2.5q18 -1 33 0
q16 1 15 -6.5t-14 -7.5h-277zM376 857q0 26 -19 46t-45 20t-44.5 -20t-18.5 -46t18.5 -46t44.5 -20t45 20t19 46zM285 557q-5 14 -7 15.5t-7 -17.5l-93 -311q-2 -3 4 -3h204q7 0 5 4z" />
    <glyph glyph-name="Ccedilla" unicode="&#xc7;" horiz-adv-x="621" 
d="M601 238q-3 -54 -3 -105.5t2 -109.5q1 -8 -6.5 -8t-7.5 8q-1 38 -10 48t-28 2q-16 -7 -34 -20t-41 -26t-53 -23.5t-71 -12.5l-54 -91q-2 -4 2 -2q13 6 28 8t31 2q13 0 26.5 -4t24.5 -12t18 -19.5t7 -26.5q0 -23 -11 -38t-27.5 -24t-36 -12.5t-37.5 -3.5q-26 0 -51 6.5
t-50 15.5q-5 3 -2.5 9.5t10.5 4.5q14 -5 28.5 -8t37.5 -4q30 -1 47 11.5t17 40.5q0 15 -9 27.5t-28 12.5q-20 0 -39 -6q-7 -3 -13 -0.5t-3 7.5l61 106q-59 2 -112.5 31t-93.5 78.5t-63.5 116.5t-23.5 145q0 74 24.5 139t66 113.5t96.5 76.5t116 28q44 0 75 -11t53.5 -24.5
t38 -24.5t28.5 -11q20 0 28 7t8 29q0 8 8 8t7 -8q-4 -50 -4.5 -97.5t4.5 -104.5q1 -11 -7 -11t-8 11q0 42 -16.5 81.5t-47 70.5t-73 50t-94.5 19q-64 0 -102.5 -35.5t-58.5 -87.5t-26.5 -111t-6.5 -107q0 -53 6.5 -115t26.5 -115.5t58.5 -89t102.5 -35.5q53 0 96.5 17.5
t75.5 48.5t52 73t26 92q2 10 9 9.5t6 -9.5z" />
    <glyph glyph-name="Eacute" unicode="&#xc9;" horiz-adv-x="579" 
d="M400 915q0 -15 -9 -24.5t-29 -20.5q-14 -8 -40.5 -21.5l-53.5 -28l-49 -26t-27 -14.5q-2 1 3 6l67 67l66 71q10 11 19 18t22 7q11 0 21 -9.5t10 -24.5zM557 14q1 -8 -1 -11t-12 -3q-145 2 -273 1t-246 -1q-15 0 -13.5 8t11.5 7q11 -1 15 -1h9q12 0 19 2t10.5 8t4.5 18
t1 33v556v32.5t-3 17.5t-9.5 8t-19.5 3q-11 1 -16 0.5t-12 -0.5q-10 0 -9.5 7t11.5 7h472q9 0 11.5 -1.5t2.5 -12.5q1 -41 3.5 -76.5t7.5 -79.5q0 -8 -7.5 -8.5t-8.5 8.5q-3 46 -16.5 75t-36 46t-53.5 24t-69 9q-20 1 -37 1.5t-33 0.5t-32 -0.5t-35 -1.5q-9 -1 -11 -2
t-2 -10v-284q0 -9 2 -11t11 -3q32 -3 59 0q37 4 58.5 13t32.5 23.5t14 33t4 41.5q1 13 9 13t7 -13q-2 -30 -3 -57.5t-1 -56t1 -58.5t3 -65q1 -8 -7 -8t-9 8q-2 30 -5 50t-14 32.5t-32 19t-59 8.5q-7 0 -11.5 0.5t-10.5 1t-14.5 0t-22.5 -1.5q-6 -1 -9 -3t-3 -10v-321
q0 -5 1 -9t11 -5q33 -2 61.5 -2t57.5 2q58 3 101.5 9t72.5 24t43 52.5t14 95.5q0 8 8 9t7 -9q-2 -46 -2.5 -92t2.5 -91z" />
    <glyph glyph-name="Ntilde" unicode="&#xd1;" horiz-adv-x="673" 
d="M475 889q-2 -34 -17 -54.5t-36.5 -27t-46 1t-46.5 28.5q-10 10 -29.5 23t-36.5 18q-23 6 -36 -10t-16 -39q-1 -5 -3.5 -8.5t-4.5 -3.5t-3.5 5.5t-0.5 17.5q1 15 9 30t20 26t26 17.5t29 3.5t27.5 -9.5t24 -14.5t21.5 -16.5t20 -15.5q29 -21 45 -22t24.5 8t11 24t5.5 26
q3 12 8.5 10t4.5 -18zM654 687q-12 2 -16 2.5t-15 -1.5q-16 -2 -26 -5t-15.5 -9t-7.5 -15.5t-2 -24.5v-643q0 -5 -4.5 -6.5t-9.5 4.5l-439 666q-2 4 -2 0v-563q0 -32 13 -55t47 -23h28q11 0 10 -7.5t-10 -7.5q-48 2 -92.5 2t-94.5 -2q-7 0 -7.5 7.5t7.5 7.5h24
q33 0 46.5 22.5t13.5 54.5v586q0 5 -3.5 7.5t-8.5 2.5q-11 0 -19.5 0.5t-16.5 0.5h-16.5t-20.5 -1q-8 -1 -8 8t8 9q54 -1 99.5 -1.5t94.5 1.5l344 -527q0 -1 1 -1h1v1v457q0 30 -9.5 39.5t-40.5 13.5q-12 2 -18 2t-20 -2q-6 -1 -7 8t7 9q27 -1 49.5 -1h44t43.5 0.5t48 1.5
q5 0 7 -3t2 -6.5t-2.5 -6t-6.5 -2.5z" />
    <glyph glyph-name="Odieresis" unicode="&#xd6;" horiz-adv-x="702" 
d="M494 861q0 -18 -13 -31.5t-30 -13.5q-18 0 -31 13.5t-13 31.5t13 31.5t31 13.5q17 0 30 -13.5t13 -31.5zM313 861q0 -18 -13 -31.5t-30 -13.5q-18 0 -30.5 13.5t-12.5 31.5t12.5 31.5t30.5 13.5q17 0 30 -13.5t13 -31.5zM676 359q0 -80 -24.5 -147.5t-68 -117
t-103.5 -77.5t-131 -28t-130.5 28t-103 77.5t-68 117t-24.5 147.5q0 75 24.5 140t68 113.5t103 76.5t130.5 28t131 -28t103.5 -76.5t68 -113.5t24.5 -140zM568 361q-1 63 -8.5 124.5t-30.5 110t-67.5 77.5t-118.5 28q-49 -1 -83.5 -18t-58 -44.5t-37.5 -63t-21.5 -73.5
t-9.5 -75.5t-2 -69.5q0 -37 3 -78t11.5 -80.5t24 -75t40.5 -62t60.5 -42t85.5 -14.5q49 1 83.5 18t58.5 44.5t38 64t21.5 75.5t9 79t1.5 75z" />
    <glyph glyph-name="Udieresis" unicode="&#xdc;" horiz-adv-x="689" 
d="M489 860q0 -18 -13 -31.5t-30 -13.5q-18 0 -31 13.5t-13 31.5t13 31.5t31 13.5q17 0 30 -13.5t13 -31.5zM308 860q0 -18 -13 -31.5t-30 -13.5q-18 0 -30.5 13.5t-12.5 31.5t12.5 31.5t30.5 13.5q17 0 30 -13.5t13 -31.5zM672 696q-8 1 -15 0.5t-15 -0.5
q-31 0 -41.5 -15.5t-10.5 -53.5v-414q0 -59 -18.5 -100.5t-51 -68t-75 -39t-90.5 -12.5q-59 0 -107.5 8.5t-82.5 31t-52.5 60.5t-18.5 98v493q0 11 -10 12q-19 2 -34.5 2t-34.5 -2q-4 0 -7 2.5t-3.5 6.5t2 7t8.5 3l133.5 -2t131.5 1q6 0 9 -2.5t2.5 -6.5t-3.5 -6.5t-8 -2.5
q-20 2 -38 2t-38 -2q-12 -2 -12 -12v-510q0 -43 14 -74t37 -51.5t52.5 -30t60.5 -9.5q101 0 160 52t59 164v403q0 40 -14 53t-45 15q-10 1 -19 1.5t-20 -1.5q-5 -1 -8 2t-3 6.5t2.5 6.5t8.5 3q99 -3 195 0q11 0 10 -9.5t-10 -8.5z" />
    <glyph glyph-name="aacute" unicode="&#xe1;" horiz-adv-x="408" 
d="M300 689q0 -15 -9 -24.5t-29 -20.5q-14 -8 -40.5 -21.5l-53.5 -28l-49 -26t-27 -14.5q-2 1 3 6l67 67l66 71q10 11 19 18t22 7q11 0 21 -9.5t10 -24.5zM396 15q-12 -10 -27 -17.5t-37 -7.5q-35 0 -57 16.5t-27 42.5q0 2 -1 2t-2 -2q-14 -25 -42.5 -42t-67.5 -17
q-57 0 -88.5 26t-31.5 75q0 36 22 60t54.5 39t69.5 22t67 8q11 0 14.5 1.5t3.5 4.5v113q0 26 -12.5 39t-35.5 13q-16 0 -32.5 -2t-30 -6.5t-22 -12.5t-8.5 -19q0 -8 5 -10t11 -4t11 -8t5 -22q0 -17 -13 -27.5t-32 -12.5q-18 -2 -31 14t-11 39q1 16 13.5 31t33 27t47.5 19.5
t59 8.5q26 0 48.5 -7t39.5 -21t26.5 -34t9.5 -45v-246q0 -14 4.5 -27.5t24.5 -13.5q22 0 30 12q7 9 12 4t-2 -13zM246 200q0 4 -3 5.5t-13 0.5q-18 -1 -40 -5t-42 -14.5t-33.5 -29.5t-13.5 -51q0 -20 2.5 -37t10 -29t21 -19t36.5 -7q13 0 25.5 7t22.5 16.5t17 18.5l10 13
v131z" />
    <glyph glyph-name="agrave" unicode="&#xe0;" horiz-adv-x="408" 
d="M324 556q-5 3 -27 14.5l-49 26l-53.5 28t-40.5 21.5q-20 11 -29 20.5t-9 24.5t10 24.5t21 9.5q13 0 22 -7t19 -18l66 -71l67 -67q5 -5 3 -6zM396 15q-12 -10 -27 -17.5t-37 -7.5q-35 0 -57 16.5t-27 42.5q0 2 -1 2t-2 -2q-14 -25 -42.5 -42t-67.5 -17q-57 0 -88.5 26
t-31.5 75q0 36 22 60t54.5 39t69.5 22t67 8q11 0 14.5 1.5t3.5 4.5v113q0 26 -12.5 39t-35.5 13q-16 0 -32.5 -2t-30 -6.5t-22 -12.5t-8.5 -19q0 -8 5 -10t11 -4t11 -8t5 -22q0 -17 -13 -27.5t-32 -12.5q-18 -2 -31 14t-11 39q1 16 13.5 31t33 27t47.5 19.5t59 8.5
q26 0 48.5 -7t39.5 -21t26.5 -34t9.5 -45v-246q0 -14 4.5 -27.5t24.5 -13.5q22 0 30 12q7 9 12 4t-2 -13zM246 200q0 4 -3 5.5t-13 0.5q-18 -1 -40 -5t-42 -14.5t-33.5 -29.5t-13.5 -51q0 -20 2.5 -37t10 -29t21 -19t36.5 -7q13 0 25.5 7t22.5 16.5t17 18.5l10 13v131z" />
    <glyph glyph-name="acircumflex" unicode="&#xe2;" horiz-adv-x="402" 
d="M334 554q3 -5 -0.5 -3t-18.5 14t-43 37l-73 68q-45 -43 -73.5 -68t-44 -37.5t-20 -14t-0.5 3.5l59 78.5t53 80.5q7 11 25 12t25 -10l55 -82t56 -79zM396 15q-12 -10 -27 -17.5t-37 -7.5q-35 0 -57 16.5t-27 42.5q0 2 -1 2t-2 -2q-14 -25 -42.5 -42t-67.5 -17
q-57 0 -88.5 26t-31.5 75q0 36 22 60t54.5 39t69.5 22t67 8q11 0 14.5 1.5t3.5 4.5v113q0 26 -12.5 39t-35.5 13q-16 0 -32.5 -2t-30 -6.5t-22 -12.5t-8.5 -19q0 -8 5 -10t11 -4t11 -8t5 -22q0 -17 -13 -27.5t-32 -12.5q-18 -2 -31 14t-11 39q1 16 13.5 31t33 27t47.5 19.5
t59 8.5q26 0 48.5 -7t39.5 -21t26.5 -34t9.5 -45v-246q0 -14 4.5 -27.5t24.5 -13.5q22 0 30 12q7 9 12 4t-2 -13zM246 200q0 4 -3 5.5t-13 0.5q-18 -1 -40 -5t-42 -14.5t-33.5 -29.5t-13.5 -51q0 -20 2.5 -37t10 -29t21 -19t36.5 -7q13 0 25.5 7t22.5 16.5t17 18.5l10 13
v131z" />
    <glyph glyph-name="adieresis" unicode="&#xe4;" horiz-adv-x="403" 
d="M329 634q0 -18 -13 -31.5t-30 -13.5q-18 0 -31 13.5t-13 31.5t13 31.5t31 13.5q17 0 30 -13.5t13 -31.5zM148 634q0 -18 -13 -31.5t-30 -13.5q-18 0 -30.5 13.5t-12.5 31.5t12.5 31.5t30.5 13.5q17 0 30 -13.5t13 -31.5zM396 15q-12 -10 -27 -17.5t-37 -7.5
q-35 0 -57 16.5t-27 42.5q0 2 -1 2t-2 -2q-14 -25 -42.5 -42t-67.5 -17q-57 0 -88.5 26t-31.5 75q0 36 22 60t54.5 39t69.5 22t67 8q11 0 14.5 1.5t3.5 4.5v113q0 26 -12.5 39t-35.5 13q-16 0 -32.5 -2t-30 -6.5t-22 -12.5t-8.5 -19q0 -8 5 -10t11 -4t11 -8t5 -22
q0 -17 -13 -27.5t-32 -12.5q-18 -2 -31 14t-11 39q1 16 13.5 31t33 27t47.5 19.5t59 8.5q26 0 48.5 -7t39.5 -21t26.5 -34t9.5 -45v-246q0 -14 4.5 -27.5t24.5 -13.5q22 0 30 12q7 9 12 4t-2 -13zM246 200q0 4 -3 5.5t-13 0.5q-18 -1 -40 -5t-42 -14.5t-33.5 -29.5
t-13.5 -51q0 -20 2.5 -37t10 -29t21 -19t36.5 -7q13 0 25.5 7t22.5 16.5t17 18.5l10 13v131z" />
    <glyph glyph-name="atilde" unicode="&#xe3;" horiz-adv-x="404" 
d="M338 666q-2 -34 -17 -54.5t-36.5 -27t-46 1t-46.5 28.5q-10 10 -29.5 23t-36.5 18q-23 6 -36 -10t-16 -39q-1 -5 -3.5 -8.5t-4.5 -3.5t-3.5 5.5t-0.5 17.5q1 15 9 30t20 26t26 17.5t29 3.5t27.5 -9.5t24 -14.5t21.5 -16.5t20 -15.5q29 -21 45 -22t24.5 8t11 24t5.5 26
q3 12 8.5 10t4.5 -18zM396 14q-12 -10 -27 -17.5t-37 -7.5q-35 0 -57 16.5t-27 42.5q0 2 -1 2t-2 -2q-14 -25 -42.5 -42t-67.5 -17q-57 0 -88.5 26t-31.5 75q0 36 22 60t54.5 39t69.5 22t67 8q11 0 14.5 1.5t3.5 4.5v113q0 26 -12.5 39t-35.5 13q-16 0 -32.5 -2t-30 -6.5
t-22 -12.5t-8.5 -19q0 -8 5 -10t11 -4t11 -8t5 -22q0 -17 -13 -27.5t-32 -12.5q-18 -2 -31 14t-11 39q1 16 13.5 31t33 27t47.5 19.5t59 8.5q26 0 48.5 -7t39.5 -21t26.5 -34t9.5 -45v-246q0 -14 4.5 -27.5t24.5 -13.5q22 0 30 12q7 9 12 4t-2 -13zM246 199q0 4 -3 5.5
t-13 0.5q-18 -1 -40 -5t-42 -14.5t-33.5 -29.5t-13.5 -51q0 -20 2.5 -37t10 -29t21 -19t36.5 -7q13 0 25.5 7t22.5 16.5t17 18.5l10 13v131z" />
    <glyph glyph-name="aring" unicode="&#xe5;" horiz-adv-x="402" 
d="M286 634q0 -18 -7 -34.5t-18.5 -29t-27.5 -19.5t-34 -7q-36 0 -61 26.5t-25 63.5t25 63.5t61 26.5q18 0 34 -7t27.5 -19.5t18.5 -29t7 -34.5zM396 14q-12 -10 -27 -17.5t-37 -7.5q-35 0 -57 16.5t-27 42.5q0 2 -1 2t-2 -2q-14 -25 -42.5 -42t-67.5 -17q-57 0 -88.5 26
t-31.5 75q0 36 22 60t54.5 39t69.5 22t67 8q11 0 14.5 1.5t3.5 4.5v113q0 26 -12.5 39t-35.5 13q-16 0 -32.5 -2t-30 -6.5t-22 -12.5t-8.5 -19q0 -8 5 -10t11 -4t11 -8t5 -22q0 -17 -13 -27.5t-32 -12.5q-18 -2 -31 14t-11 39q1 16 13.5 31t33 27t47.5 19.5t59 8.5
q26 0 48.5 -7t39.5 -21t26.5 -34t9.5 -45v-246q0 -14 4.5 -27.5t24.5 -13.5q22 0 30 12q7 9 12 4t-2 -13zM263 634q0 26 -19 46t-45 20t-44.5 -20t-18.5 -46t18.5 -46t44.5 -20t45 20t19 46zM246 199q0 4 -3 5.5t-13 0.5q-18 -1 -40 -5t-42 -14.5t-33.5 -29.5t-13.5 -51
q0 -20 2.5 -37t10 -29t21 -19t36.5 -7q13 0 25.5 7t22.5 16.5t17 18.5l10 13v131z" />
    <glyph glyph-name="ccedilla" unicode="&#xe7;" horiz-adv-x="386" 
d="M375 128q3 -23 -8 -47.5t-32 -44.5t-51 -32.5t-66 -12.5h-13l-46 -79q-2 -4 2 -2q13 6 28 8t31 2q13 0 26.5 -4t24.5 -12t18 -19.5t7 -26.5q0 -23 -11 -38t-27.5 -24t-36 -12.5t-37.5 -3.5q-26 0 -51 6.5t-50 15.5q-5 3 -2.5 9t10.5 4q14 -5 28.5 -8.5t37.5 -3.5
q30 -1 47 12t17 41q0 15 -9 27.5t-28 12.5q-20 0 -39 -6q-7 -3 -13 -0.5t-3 7.5l54 96q-39 6 -70 23t-53 42.5t-34 57.5t-12 68q0 46 16.5 87t44.5 71.5t64 48t75 17.5q25 0 50 -5.5t44.5 -16.5t31.5 -27t12 -38q0 -21 -14 -34t-32 -13q-22 0 -34 13t-12 27q0 15 3.5 22.5
t8 12t8.5 7.5t4 8q0 8 -7.5 13.5t-19 9.5t-25 6t-26.5 3q-32 -1 -51 -13t-29.5 -33t-14 -49t-3.5 -62v-77q0 -31 3 -59t15 -49.5t35 -33.5t64 -12q34 0 59.5 12t43 30t25.5 39t7 39q2 12 9 12t6 -12z" />
    <glyph glyph-name="eacute" unicode="&#xe9;" horiz-adv-x="389" 
d="M312 691q0 -15 -9 -24.5t-29 -20.5q-14 -8 -40.5 -21.5l-53.5 -28l-49 -26t-27 -14.5q-2 1 3 6l67 67l66 71q10 11 19 18t22 7q11 0 21 -9.5t10 -24.5zM386 130q-18 -60 -64.5 -99t-112.5 -39q-42 0 -77.5 15t-61 43t-39.5 66t-14 85q0 34 13.5 70.5t37.5 67t57 50
t72 20.5q58 1 92.5 -20.5t52 -51t22.5 -59t5 -44.5q0 -5 -5 -8t-13 -3h-236q-5 0 -5 -5v-69q0 -25 2.5 -50.5t12.5 -45.5t30 -33t54 -13q30 0 56.5 9t47.5 25.5t36 39t22 49.5q1 7 8.5 7.5t6.5 -7.5zM277 265q0 22 -2.5 45.5t-10.5 42t-24 30.5t-43 11q-25 -1 -42 -12.5
t-27 -30t-14 -41.5t-4 -45v-19q0 -8 6 -8h149q7 0 9.5 5.5t2.5 7.5v14z" />
    <glyph glyph-name="egrave" unicode="&#xe8;" horiz-adv-x="389" 
d="M316 554q-5 3 -27 14.5l-49 26l-53.5 28t-40.5 21.5q-20 11 -29 20.5t-9 24.5t10 24.5t21 9.5q13 0 22 -7t19 -18l66 -71l67 -67q5 -5 3 -6zM386 128q-18 -60 -64.5 -99t-112.5 -39q-42 0 -77.5 15t-61 43t-39.5 66t-14 85q0 34 13.5 70.5t37.5 67t57 50t72 20.5
q58 1 92.5 -20.5t52 -51t22.5 -59t5 -44.5q0 -5 -5 -8t-13 -3h-236q-5 0 -5 -5v-69q0 -25 2.5 -50.5t12.5 -45.5t30 -33t54 -13q30 0 56.5 9t47.5 25.5t36 39t22 49.5q1 7 8.5 7.5t6.5 -7.5zM277 263q0 22 -2.5 45.5t-10.5 42t-24 30.5t-43 11q-25 -1 -42 -12.5t-27 -30
t-14 -41.5t-4 -45v-19q0 -8 6 -8h149q7 0 9.5 5.5t2.5 7.5v14z" />
    <glyph glyph-name="ecircumflex" unicode="&#xea;" horiz-adv-x="388" 
d="M338 553q3 -5 -0.5 -3t-18.5 14t-43 37l-73 68q-45 -43 -73.5 -68t-44 -37.5t-20 -14t-0.5 3.5l59 78.5t53 80.5q7 11 25 12t25 -10l55 -82t56 -79zM386 130q-18 -60 -64.5 -99t-112.5 -39q-42 0 -77.5 15t-61 43t-39.5 66t-14 85q0 34 13.5 70.5t37.5 67t57 50t72 20.5
q58 1 92.5 -20.5t52 -51t22.5 -59t5 -44.5q0 -5 -5 -8t-13 -3h-236q-5 0 -5 -5v-69q0 -25 2.5 -50.5t12.5 -45.5t30 -33t54 -13q30 0 56.5 9t47.5 25.5t36 39t22 49.5q1 7 8.5 7.5t6.5 -7.5zM277 265q0 22 -2.5 45.5t-10.5 42t-24 30.5t-43 11q-25 -1 -42 -12.5t-27 -30
t-14 -41.5t-4 -45v-19q0 -8 6 -8h149q7 0 9.5 5.5t2.5 7.5v14z" />
    <glyph glyph-name="edieresis" unicode="&#xeb;" horiz-adv-x="389" 
d="M349 632q0 -18 -13 -31.5t-30 -13.5q-18 0 -31 13.5t-13 31.5t13 31.5t31 13.5q17 0 30 -13.5t13 -31.5zM168 632q0 -18 -13 -31.5t-30 -13.5q-18 0 -30.5 13.5t-12.5 31.5t12.5 31.5t30.5 13.5q17 0 30 -13.5t13 -31.5zM386 129q-18 -60 -64.5 -99t-112.5 -39
q-42 0 -77.5 15t-61 43t-39.5 66t-14 85q0 34 13.5 70.5t37.5 67t57 50t72 20.5q58 1 92.5 -20.5t52 -51t22.5 -59t5 -44.5q0 -5 -5 -8t-13 -3h-236q-5 0 -5 -5v-69q0 -25 2.5 -50.5t12.5 -45.5t30 -33t54 -13q30 0 56.5 9t47.5 25.5t36 39t22 49.5q1 7 8.5 7.5t6.5 -7.5z
M277 264q0 22 -2.5 45.5t-10.5 42t-24 30.5t-43 11q-25 -1 -42 -12.5t-27 -30t-14 -41.5t-4 -45v-19q0 -8 6 -8h149q7 0 9.5 5.5t2.5 7.5v14z" />
    <glyph glyph-name="iacute" unicode="&#xed;" horiz-adv-x="249" 
d="M218 689q0 -15 -9 -24.5t-29 -20.5q-14 -8 -40.5 -21.5l-53.5 -28l-49 -26t-27 -14.5q-2 1 3 6l67 67l66 71q10 11 19 18t22 7q11 0 21 -9.5t10 -24.5zM232 0q-104 3 -212 0q-11 0 -11 8.5t11 7.5q28 -3 55 0q8 1 9.5 3t1.5 6v317q0 23 -17 24q-19 1 -38 0q-14 -1 -14 8
t14 8q31 -2 57 0q13 1 30 6t31 16q11 9 14.5 9t3.5 -15v-371q0 -10 10 -11q31 -3 55 0q6 1 8.5 -1.5t2.5 -5.5t-3 -6t-8 -3z" />
    <glyph glyph-name="igrave" unicode="&#xec;" horiz-adv-x="247" 
d="M216 554q-5 3 -27 14.5l-49 26l-53.5 28t-40.5 21.5q-20 11 -29 20.5t-9 24.5t10 24.5t21 9.5q13 0 22 -7t19 -18l66 -71l67 -67q5 -5 3 -6zM232 0q-104 3 -212 0q-11 0 -11 8.5t11 7.5q28 -3 55 0q8 1 9.5 3t1.5 6v317q0 23 -17 24q-19 1 -38 0q-14 -1 -14 8t14 8
q31 -2 57 0q13 1 30 6t31 16q11 9 14.5 9t3.5 -15v-371q0 -10 10 -11q31 -3 55 0q6 1 8.5 -1.5t2.5 -5.5t-3 -6t-8 -3z" />
    <glyph glyph-name="icircumflex" unicode="&#xee;" horiz-adv-x="280" 
d="M275 554q3 -5 -0.5 -3t-18.5 14t-43 37l-73 68q-45 -43 -73.5 -68t-44 -37.5t-20 -14t-0.5 3.5l59 78.5t53 80.5q7 11 25 12t25 -10l55 -82t56 -79zM254 0q-104 3 -212 0q-11 0 -11 8.5t11 7.5q28 -3 55 0q8 1 9.5 3t1.5 6v317q0 23 -17 24q-19 1 -38 0q-14 -1 -14 8
t14 8q31 -2 57 0q13 1 30 6t31 16q11 9 14.5 9t3.5 -15v-371q0 -10 10 -11q31 -3 55 0q6 1 8.5 -1.5t2.5 -5.5t-3 -6t-8 -3z" />
    <glyph glyph-name="idieresis" unicode="&#xef;" horiz-adv-x="253" 
d="M243 634q0 -18 -13 -31.5t-30 -13.5q-18 0 -31 13.5t-13 31.5t13 31.5t31 13.5q17 0 30 -13.5t13 -31.5zM92 634q0 -18 -13 -31.5t-30 -13.5q-18 0 -30.5 13.5t-12.5 31.5t12.5 31.5t30.5 13.5q17 0 30 -13.5t13 -31.5zM244 0q-104 3 -212 0q-11 0 -11 8.5t11 7.5
q28 -3 55 0q8 1 9.5 3t1.5 6v317q0 23 -17 24q-19 1 -38 0q-14 -1 -14 8t14 8q31 -2 57 0q13 1 30 6t31 16q11 9 14.5 9t3.5 -15v-371q0 -10 10 -11q31 -3 55 0q6 1 8.5 -1.5t2.5 -5.5t-3 -6t-8 -3z" />
    <glyph glyph-name="ntilde" unicode="&#xf1;" horiz-adv-x="497" 
d="M413 665q-2 -34 -17 -54.5t-36.5 -27t-46 1t-46.5 28.5q-10 10 -29.5 23t-36.5 18q-23 6 -36 -10t-16 -39q-1 -5 -3.5 -8.5t-4.5 -3.5t-3.5 5.5t-0.5 17.5q1 15 9 30t20 26t26 17.5t29 3.5t27.5 -9.5t24 -14.5t21.5 -16.5t20 -15.5q29 -21 45 -22t24.5 8t11 24t5.5 26
q3 12 8.5 10t4.5 -18zM486 0q-52 2 -100.5 2t-102.5 -2q-12 0 -12 8.5t12 7.5q26 -3 51 0q8 1 9.5 3t1.5 6v288q0 74 -46 74q-26 0 -48.5 -10t-40.5 -24.5t-31 -30.5t-19 -29v-266q0 -10 10 -11q27 -3 49 0q12 1 11.5 -7.5t-11.5 -8.5q-52 2 -100.5 2t-102.5 -2
q-11 0 -11 8.5t11 7.5q27 -3 51 0q8 1 9.5 3t1.5 6v321q0 18 -17 19q-19 1 -37 0q-14 -1 -14 8t14 8q28 -1 51 0q14 1 31 6.5t31 15.5q10 7 12.5 7t4.5 -10q4 -23 5 -45t0 -46l3 10q9 15 24 30t33 27t39.5 19.5t44.5 7.5q39 0 63 -9.5t37.5 -25.5t18 -36.5t4.5 -42.5v-263
q0 -9 10 -10q28 -3 50 0q12 1 11.5 -7.5t-11.5 -8.5z" />
    <glyph glyph-name="oacute" unicode="&#xf3;" horiz-adv-x="431" 
d="M306 687q0 -15 -9 -24.5t-29 -20.5q-14 -8 -40.5 -21.5l-53.5 -28l-49 -26t-27 -14.5q-2 1 3 6l67 67l66 71q10 11 19 18t22 7q11 0 21 -9.5t10 -24.5zM412 200q0 -41 -14.5 -78.5t-41 -66.5t-64.5 -46.5t-84 -17.5q-43 0 -78.5 17.5t-61 46.5t-40 66.5t-14.5 78.5
q0 40 14.5 77t40 65.5t61 46t78.5 19.5q47 2 84.5 -13.5t64 -44t41 -67.5t14.5 -83zM319 236q0 31 -3 60t-14 51t-34.5 35t-65.5 11q-31 -2 -50 -15.5t-30 -36t-14.5 -51t-3.5 -59.5l1 -67q0 -31 3.5 -59.5t15 -50.5t33 -35t58.5 -13q40 0 62 12.5t31.5 33.5t10.5 48.5
t1 57.5z" />
    <glyph glyph-name="ograve" unicode="&#xf2;" horiz-adv-x="425" 
d="M318 554q-5 3 -27 14.5l-49 26l-53.5 28t-40.5 21.5q-20 11 -29 20.5t-9 24.5t10 24.5t21 9.5q13 0 22 -7t19 -18l66 -71l67 -67q5 -5 3 -6zM412 200q0 -41 -14.5 -78.5t-41 -66.5t-64.5 -46.5t-84 -17.5q-43 0 -78.5 17.5t-61 46.5t-40 66.5t-14.5 78.5q0 40 14.5 77
t40 65.5t61 46t78.5 19.5q47 2 84.5 -13.5t64 -44t41 -67.5t14.5 -83zM319 236q0 31 -3 60t-14 51t-34.5 35t-65.5 11q-31 -2 -50 -15.5t-30 -36t-14.5 -51t-3.5 -59.5l1 -67q0 -31 3.5 -59.5t15 -50.5t33 -35t58.5 -13q40 0 62 12.5t31.5 33.5t10.5 48.5t1 57.5z" />
    <glyph glyph-name="ocircumflex" unicode="&#xf4;" horiz-adv-x="429" 
d="M378 553q3 -5 -0.5 -3t-18.5 14t-43 37l-73 68q-45 -43 -73.5 -68t-44 -37.5t-20 -14t-0.5 3.5l59 78.5t53 80.5q7 11 25 12t25 -10l55 -82t56 -79zM412 200q0 -41 -14.5 -78.5t-41 -66.5t-64.5 -46.5t-84 -17.5q-43 0 -78.5 17.5t-61 46.5t-40 66.5t-14.5 78.5
q0 40 14.5 77t40 65.5t61 46t78.5 19.5q47 2 84.5 -13.5t64 -44t41 -67.5t14.5 -83zM319 236q0 31 -3 60t-14 51t-34.5 35t-65.5 11q-31 -2 -50 -15.5t-30 -36t-14.5 -51t-3.5 -59.5l1 -67q0 -31 3.5 -59.5t15 -50.5t33 -35t58.5 -13q40 0 62 12.5t31.5 33.5t10.5 48.5
t1 57.5z" />
    <glyph glyph-name="odieresis" unicode="&#xf6;" horiz-adv-x="430" 
d="M365 634q0 -18 -13 -31.5t-30 -13.5q-18 0 -31 13.5t-13 31.5t13 31.5t31 13.5q17 0 30 -13.5t13 -31.5zM184 634q0 -18 -13 -31.5t-30 -13.5q-18 0 -30.5 13.5t-12.5 31.5t12.5 31.5t30.5 13.5q17 0 30 -13.5t13 -31.5zM412 200q0 -41 -14.5 -78.5t-41 -66.5
t-64.5 -46.5t-84 -17.5q-43 0 -78.5 17.5t-61 46.5t-40 66.5t-14.5 78.5q0 40 14.5 77t40 65.5t61 46t78.5 19.5q47 2 84.5 -13.5t64 -44t41 -67.5t14.5 -83zM319 236q0 31 -3 60t-14 51t-34.5 35t-65.5 11q-31 -2 -50 -15.5t-30 -36t-14.5 -51t-3.5 -59.5l1 -67
q0 -31 3.5 -59.5t15 -50.5t33 -35t58.5 -13q40 0 62 12.5t31.5 33.5t10.5 48.5t1 57.5z" />
    <glyph glyph-name="otilde" unicode="&#xf5;" horiz-adv-x="425" 
d="M381 662q-2 -34 -17 -54.5t-36.5 -27t-46 1t-46.5 28.5q-10 10 -29.5 23t-36.5 18q-23 6 -36 -10t-16 -39q-1 -5 -3.5 -8.5t-4.5 -3.5t-3.5 5.5t-0.5 17.5q1 15 9 30t20 26t26 17.5t29 3.5t27.5 -9.5t24 -14.5t21.5 -16.5t20 -15.5q29 -21 45 -22t24.5 8t11 24t5.5 26
q3 12 8.5 10t4.5 -18zM412 200q0 -41 -14.5 -78.5t-41 -66.5t-64.5 -46.5t-84 -17.5q-43 0 -78.5 17.5t-61 46.5t-40 66.5t-14.5 78.5q0 40 14.5 77t40 65.5t61 46t78.5 19.5q47 2 84.5 -13.5t64 -44t41 -67.5t14.5 -83zM319 236q0 31 -3 60t-14 51t-34.5 35t-65.5 11
q-31 -2 -50 -15.5t-30 -36t-14.5 -51t-3.5 -59.5l1 -67q0 -31 3.5 -59.5t15 -50.5t33 -35t58.5 -13q40 0 62 12.5t31.5 33.5t10.5 48.5t1 57.5z" />
    <glyph glyph-name="uacute" unicode="&#xfa;" horiz-adv-x="492" 
d="M354 689q0 -15 -9 -24.5t-29 -20.5q-14 -8 -40.5 -21.5l-53.5 -28l-49 -26t-27 -14.5q-2 1 3 6l67 67l66 71q10 11 19 18t22 7q11 0 21 -9.5t10 -24.5zM478 -2q-35 2 -65 2t-65 -3q-3 15 -3.5 34l-1.5 59l-3 -10q-19 -45 -57 -69.5t-84 -24.5q-39 0 -63 7.5t-37.5 22.5
t-18 36t-4.5 48v249q0 16 -17 17q-22 2 -43 0q-14 -1 -14 8.5t14 8.5q15 -1 33 -2t31 0t28.5 3t30.5 12q18 12 18 -5v-315q0 -37 17 -55.5t40 -18.5q26 0 47 12t37.5 29t27.5 36t17 33v243q0 7 -3.5 8.5t-13.5 2.5q-22 2 -43 0q-14 -1 -14 8.5t14 8.5q15 -1 33 -2t31 0
t28.5 3t29.5 12q11 7 15 6.5t4 -10.5v-359q0 -18 17 -19q18 -1 37 0q14 1 14 -8t-14 -8z" />
    <glyph glyph-name="ugrave" unicode="&#xf9;" horiz-adv-x="495" 
d="M346 556q-5 3 -27 14.5l-49 26l-53.5 28t-40.5 21.5q-20 11 -29 20.5t-9 24.5t10 24.5t21 9.5q13 0 22 -7t19 -18l66 -71l67 -67q5 -5 3 -6zM478 -2q-35 2 -65 2t-65 -3q-3 15 -3.5 34l-1.5 59l-3 -10q-19 -45 -57 -69.5t-84 -24.5q-39 0 -63 7.5t-37.5 22.5t-18 36
t-4.5 48v249q0 16 -17 17q-22 2 -43 0q-14 -1 -14 8.5t14 8.5q15 -1 33 -2t31 0t28.5 3t30.5 12q18 12 18 -5v-315q0 -37 17 -55.5t40 -18.5q26 0 47 12t37.5 29t27.5 36t17 33v243q0 7 -3.5 8.5t-13.5 2.5q-22 2 -43 0q-14 -1 -14 8.5t14 8.5q15 -1 33 -2t31 0t28.5 3
t29.5 12q11 7 15 6.5t4 -10.5v-359q0 -18 17 -19q18 -1 37 0q14 1 14 -8t-14 -8z" />
    <glyph glyph-name="ucircumflex" unicode="&#xfb;" horiz-adv-x="509" 
d="M395 553q3 -5 -0.5 -3t-18.5 14t-43 37l-73 68q-45 -43 -73.5 -68t-44 -37.5t-20 -14t-0.5 3.5l59 78.5t53 80.5q7 11 25 12t25 -10l55 -82t56 -79zM488 -2q-35 2 -65 2t-65 -3q-3 15 -3.5 34l-1.5 59l-3 -10q-19 -45 -57 -69.5t-84 -24.5q-39 0 -63 7.5t-37.5 22.5
t-18 36t-4.5 48v249q0 16 -17 17q-22 2 -43 0q-14 -1 -14 8.5t14 8.5q15 -1 33 -2t31 0t28.5 3t30.5 12q18 12 18 -5v-315q0 -37 17 -55.5t40 -18.5q26 0 47 12t37.5 29t27.5 36t17 33v243q0 7 -3.5 8.5t-13.5 2.5q-22 2 -43 0q-14 -1 -14 8.5t14 8.5q15 -1 33 -2t31 0
t28.5 3t29.5 12q11 7 15 6.5t4 -10.5v-359q0 -18 17 -19q18 -1 37 0q14 1 14 -8t-14 -8z" />
    <glyph glyph-name="udieresis" unicode="&#xfc;" horiz-adv-x="497" 
d="M380 631q0 -18 -13 -31.5t-30 -13.5q-18 0 -31 13.5t-13 31.5t13 31.5t31 13.5q17 0 30 -13.5t13 -31.5zM199 631q0 -18 -13 -31.5t-30 -13.5q-18 0 -30.5 13.5t-12.5 31.5t12.5 31.5t30.5 13.5q17 0 30 -13.5t13 -31.5zM478 -2q-35 2 -65 2t-65 -3q-3 15 -3.5 34
l-1.5 59l-3 -10q-19 -45 -57 -69.5t-84 -24.5q-39 0 -63 7.5t-37.5 22.5t-18 36t-4.5 48v249q0 16 -17 17q-22 2 -43 0q-14 -1 -14 8.5t14 8.5q15 -1 33 -2t31 0t28.5 3t30.5 12q18 12 18 -5v-315q0 -37 17 -55.5t40 -18.5q26 0 47 12t37.5 29t27.5 36t17 33v243
q0 7 -3.5 8.5t-13.5 2.5q-22 2 -43 0q-14 -1 -14 8.5t14 8.5q15 -1 33 -2t31 0t28.5 3t29.5 12q11 7 15 6.5t4 -10.5v-359q0 -18 17 -19q18 -1 37 0q14 1 14 -8t-14 -8z" />
    <glyph glyph-name="dagger" unicode="&#x2020;" horiz-adv-x="480" 
d="M491 402q0 -23 -19 -27t-40 6q16 -15 15.5 -31.5t-17.5 -14.5q-9 1 -15 10.5t-22 20t-47.5 19t-91.5 8.5v-106t1.5 -88.5t5.5 -88t11 -103.5q6 -53 14.5 -90.5t16 -62.5t12.5 -38.5t5 -18.5q0 -8 -3 -14.5t-8.5 -8.5t-13.5 1.5t-18 14.5q4 -11 4 -26.5t-5 -29.5
t-13.5 -24t-20.5 -10t-20.5 9.5t-14 23t-6 29t4.5 27.5q-11 -12 -18.5 -14.5t-12.5 0t-7.5 9t-2.5 13.5q0 5 4.5 19t11.5 39.5t15.5 63.5t16.5 89q9 58 14 104t7.5 89t3 88.5t0.5 103.5q-60 0 -91.5 -8.5t-47.5 -19t-22.5 -19.5t-15.5 -11q-17 -4 -18.5 10.5t16.5 35.5
q-20 -11 -39 -5.5t-19 26.5q0 23 18 24t41 -7q-9 9 -13.5 18.5t-4.5 17t5 12t14 1.5q7 -2 13 -11t22.5 -19.5t49 -19t92.5 -8.5q-1 52 -9.5 90t-18.5 63.5t-18 40t-8 19.5q0 14 10.5 14.5t25.5 -17.5q-5 15 -6 30.5t2 29t10.5 22t19.5 8.5t19 -9.5t10 -23t2 -29.5t-5 -28
q11 16 23 18t12 -15q0 -5 -8 -19.5t-18 -40t-18.5 -63.5t-8.5 -90q60 0 92 8t48.5 18.5t22.5 20t14 11.5q9 3 13 -1.5t3.5 -12.5t-4.5 -18t-11 -18q22 13 40.5 9.5t18.5 -25.5z" />
    <glyph glyph-name="degree" unicode="&#xb0;" horiz-adv-x="333" 
d="M298 561q0 -29 -10 -54t-27.5 -43t-41.5 -28.5t-51 -10.5t-51 10.5t-41.5 28.5t-27.5 43t-10 54t10 54t27.5 43t41.5 28.5t51 10.5t51 -10.5t41.5 -28.5t27.5 -43t10 -54zM271 561q0 21 -8 40t-22 34t-32.5 24t-40.5 9t-40.5 -9t-32 -24t-21 -34t-7.5 -40t7.5 -40t21 -34
t32 -24t40.5 -9t40.5 9t32.5 24t22 34t8 40z" />
    <glyph glyph-name="cent" unicode="&#xa2;" horiz-adv-x="386" 
d="M379 129q-1 -27 -13 -52.5t-33 -46t-50 -33t-65 -12.5v-91q-2 -4 -9.5 -4.5t-8.5 4.5v93q-43 3 -77.5 19t-58.5 41.5t-37 59t-13 71.5q0 43 14.5 81.5t40 68.5t59.5 49t72 24v69q1 7 8.5 7t9.5 -7v-67h6q25 0 50 -5.5t44.5 -16.5t31.5 -27.5t12 -38.5q0 -21 -14 -34
t-32 -13q-23 0 -34.5 13t-11.5 28q0 14 3.5 21.5t8 12t8.5 7.5t4 8q0 8 -7.5 13.5t-18 9.5t-23.5 5.5t-23 1.5h-4v-387q36 0 62.5 12t44 30.5t27 41t12.5 44.5q1 5 8 5t7 -5zM200 386q-28 -3 -46 -15t-28.5 -31t-14.5 -44.5t-4 -56.5v-81q0 -29 2 -56t11 -48.5t27.5 -35.5
t52.5 -17v385z" />
    <glyph glyph-name="sterling" unicode="&#xa3;" horiz-adv-x="520" 
d="M513 87l-25.5 -35t-27 -33t-32 -25t-39.5 -10q-25 0 -53.5 10.5t-57 25.5t-56 31t-50.5 27q-14 -33 -39.5 -60t-60.5 -27q-25 0 -42 15t-17 42q0 25 13.5 44t33.5 32t43 19.5t43 6.5h19.5t17.5 -2q7 22 7 42t-4.5 37t-11.5 32t-16.5 30.5t-18.5 32.5h-120q-5 0 -7 3.5
t-2 8t2 8.5t7 4h109l-28.5 39t-26.5 41t-19.5 43t-7.5 46q0 49 19 85t50.5 60t72 35.5t82.5 11.5q39 0 75.5 -9t65 -29t46 -51.5t17.5 -75.5q0 -32 -14.5 -53t-42.5 -21q-19 0 -33 12.5t-14 35.5q0 24 13.5 36t29.5 12q13 0 16.5 -3t10.5 -3q6 0 9.5 5.5t1.5 14.5
q-6 28 -21.5 49t-37 35t-47.5 21.5t-53 7.5q-38 0 -66.5 -13t-48 -36.5t-29 -56t-9.5 -70.5q0 -43 15.5 -83.5t28.5 -85.5h216q4 0 5 -4t-0.5 -9t-5 -9t-7.5 -4l-203 2q6 -26 11.5 -52.5t5.5 -56.5q0 -17 -2.5 -35.5t-7.5 -32.5q20 -1 54.5 -17l71 -34.5l68.5 -34t47 -15.5
q20 0 35.5 17.5t27.5 32.5q4 7 11 4t3 -11zM160 84q-12 8 -30 13t-35 5q-26 0 -46.5 -11.5t-20.5 -42.5q0 -17 11 -29t35 -12q29 0 50.5 22.5t35.5 54.5z" />
    <glyph glyph-name="section" unicode="&#xa7;" horiz-adv-x="455" 
d="M437 219q0 -21 -9 -46t-23 -49.5t-31.5 -47t-34.5 -38.5q41 -26 54.5 -61t13.5 -84q0 -47 -15 -83t-41 -60.5t-62 -37.5t-78 -13q-63 0 -102.5 33t-39.5 90q0 28 13 51.5t42 23.5q23 0 34 -16t11 -33q0 -26 -13 -39t-30 -13q-14 0 -20.5 5.5t-10.5 9.5q-3 -6 -3 -19
q0 -17 11.5 -31t29.5 -24t39 -15.5t39 -5.5q27 0 54.5 7t50 22.5t37 41t14.5 61.5q0 22 -5 37.5t-16.5 28.5t-30.5 25.5t-48 29.5l-115 66q-33 19 -58 36t-41.5 35t-25 38t-8.5 44q0 66 28 115.5t73 89.5q-25 19 -36.5 47t-11.5 60q0 40 11.5 77.5t34 67t55.5 47t77 17.5
q27 0 51.5 -8t43 -23t30 -37t11.5 -50q0 -32 -14 -51t-41 -19q-18 0 -32 13.5t-14 33.5q0 23 12.5 35t32.5 12q14 0 20.5 -4t11.5 -9q1 3 1 12q0 12 -6.5 26t-20.5 25.5t-35 19t-51 7.5q-25 0 -48 -8t-40.5 -23.5t-27.5 -38.5t-10 -52q0 -26 5.5 -43.5t17 -30.5t28.5 -24
t41 -24l107 -59l41.5 -24t36.5 -31t26 -46t10 -69zM397 174q0 23 -9.5 40.5t-23.5 31.5t-31.5 24.5l-33.5 19.5l-165 91q-13 -8 -27 -22t-26 -31.5t-20 -37.5t-8 -40q0 -27 14.5 -44t49.5 -37l210 -122q25 24 47.5 56.5t22.5 70.5z" />
    <glyph glyph-name="bullet" unicode="&#x2022;" horiz-adv-x="398" 
d="M335 337q0 -29 -10.5 -55t-29 -45t-43 -30t-52.5 -11t-52.5 11t-43 30t-29 45t-10.5 55t10.5 55t29 45t43 30t52.5 11t52.5 -11t43 -30t29 -45t10.5 -55z" />
    <glyph glyph-name="paragraph" unicode="&#xb6;" horiz-adv-x="504" 
d="M491 -301l-66 2t-67 -1l-1 955q0 17 -11.5 25.5t-25.5 8.5t-25.5 -9t-11.5 -27v-954q-35 2 -69 1.5t-69 -2.5q-9 -1 -9 8t9 9q10 0 23.5 -0.5t25.5 1t20.5 7t8.5 17.5v553q-53 0 -91 16t-62.5 44.5t-36 68t-10.5 86.5q1 43 13.5 79.5t38 62.5t65 40.5t94.5 13.5
q66 -1 129.5 -0.5t127.5 0.5q12 0 11.5 -8t-11.5 -8q-10 0 -23.5 1t-25.5 -1.5t-20.5 -11.5t-8.5 -30v-908q0 -11 8.5 -16t21 -6.5t26 -1t22.5 0.5q8 1 8 -7t-8 -9zM223 672q0 15 -20 11.5t-43.5 -24.5t-42 -60t-15.5 -95q3 -47 13.5 -83.5t27 -61.5t37 -37.5t43.5 -12.5
v363z" />
    <glyph glyph-name="germandbls" unicode="&#xdf;" horiz-adv-x="509" 
d="M507 205q6 -54 -5 -95t-34.5 -68.5t-56 -42t-70.5 -14.5q-58 0 -94 27t-36 76q0 17 5 29t12.5 19.5t16 10.5t14.5 3q22 0 34.5 -14.5t11.5 -36.5q0 -17 -8 -21t-17 -6t-16.5 -7t-7.5 -25q1 -20 25 -32t63 -12q18 0 39.5 8.5t39 27t27 48t5.5 71.5q-3 27 -19 43.5t-38 28
t-47.5 20.5t-47.5 19.5t-37.5 26.5t-17.5 41q-3 25 6 42.5t23 31.5t31.5 27t32.5 29t25 37t10 52q0 69 -25 106t-86 37q-38 0 -60.5 -20t-33.5 -53t-14 -75t-3 -85v-429q0 -13 15 -14q14 -2 24 -2t22 2q11 1 12 -7.5t-12 -8.5q-53 2 -101.5 2t-102.5 -2q-7 0 -10 3t-3 6
t3.5 5.5t9.5 1.5q15 -2 25.5 -2t24.5 2q7 1 9.5 5.5t2.5 10.5v380q0 58 14.5 111.5t40 94.5t61 65.5t76.5 24.5q31 0 63 -5t58 -19.5t43.5 -41.5t19.5 -71q2 -43 -22 -73t-53.5 -50.5t-54.5 -33t-25 -18.5q0 -16 15 -27t37.5 -21t49 -20.5t50 -26.5t40.5 -39t21 -57z" />
    <glyph glyph-name="registered" unicode="&#xae;" horiz-adv-x="716" 
d="M676 315q0 -67 -25 -126t-68 -103.5t-101 -70t-124 -25.5t-124 25.5t-101 70t-68 103.5t-25 126t25 126t68 103t101 69.5t124 25.5t124 -25.5t101 -69.5t68 -103t25 -126zM656 315q0 62 -23.5 117.5t-64 97.5t-95 67t-115.5 25t-115.5 -25t-95 -67t-64 -97.5
t-23.5 -117.5q0 -63 23.5 -119t64 -98t95 -66.5t115.5 -24.5t115.5 24.5t95 66.5t64 98t23.5 119zM548 154q-2 -18 -19 -26t-32 -8q-26 0 -40 9.5t-21.5 24t-11.5 33t-10 36.5q-17 53 -37 75.5t-54 22.5h-19v-173q0 -5 1.5 -5.5t3.5 -1.5q11 -1 21 -1t19 2q8 -1 7 -9t-7 -8
q-37 1 -72 0.5t-72 -0.5q-6 0 -6.5 7.5t6.5 7.5q10 0 19 -0.5t19 0.5q4 2 5.5 2.5t1.5 4.5v347q0 5 -7 7q-19 1 -41 0q-3 -1 -4.5 1.5t-1.5 5.5t2 6t6 3q42 -1 77 -0.5t64 0.5q26 0 48.5 -2t39.5 -12t27 -30t10 -56q0 -20 -10 -37t-26.5 -29t-36.5 -18t-40 -4l5 -2
q28 -2 46.5 -9t31.5 -21t22.5 -36t18.5 -54q7 -25 11 -48t14 -25q7 -2 9.5 1.5t2.5 7.5q0 8 -3 11t0 9q2 4 8.5 8t12.5 0q6 -1 9.5 -8t2.5 -9zM414 417q0 16 -3 31t-12 26.5t-26 18t-45 6.5h-17q-7 -1 -7 -6v-156h23q16 0 31.5 5t28 15.5t20 25t7.5 34.5z" />
    <glyph glyph-name="copyright" unicode="&#xa9;" horiz-adv-x="725" 
d="M682 315q0 -67 -25 -126t-68 -103.5t-101 -70t-124 -25.5t-124 25.5t-101 70t-68 103.5t-25 126t25 126t68 103t101 69.5t124 25.5t124 -25.5t101 -69.5t68 -103t25 -126zM662 315q0 62 -23.5 117.5t-64 97.5t-95 67t-115.5 25t-115.5 -25t-95 -67t-64 -97.5
t-23.5 -117.5q0 -63 23.5 -119t64 -98t95 -66.5t115.5 -24.5t115.5 24.5t95 66.5t64 98t23.5 119zM523 129q0 -3 -7.5 -3.5t-7.5 2.5q0 23 -5.5 28.5t-16.5 0.5q-9 -4 -19.5 -12t-24.5 -15.5t-33 -13.5t-44 -6q-35 0 -66.5 16.5t-55.5 45t-38.5 68t-14.5 86.5q0 43 14.5 81
t38.5 66t55.5 44t66.5 16q25 0 42.5 -6.5t30.5 -14t22 -14t17 -6.5q12 0 16 4t4 18q0 4 7.5 4t7.5 -4q-2 -30 -2.5 -58t2.5 -60q0 -7 -7.5 -7t-7.5 7q0 24 -9.5 46t-27 38.5t-41.5 26.5t-54 10q-37 0 -59 -19.5t-34 -48.5t-15.5 -62.5t-3.5 -60.5q0 -31 3.5 -66t15.5 -64.5
t34 -49t59 -19.5q60 0 98 34.5t45 92.5q1 5 8 5t7 -5q-2 -32 -2 -61.5t2 -63.5z" />
    <glyph glyph-name="trademark" unicode="&#x2122;" horiz-adv-x="769" 
d="M746 690q-8 0 -17 0.5t-20 -0.5q-2 -1 -2 -4v-364q0 -6 6 -7q10 -1 16.5 -0.5t14.5 1.5q5 1 7.5 -1.5t2.5 -6t-2.5 -6.5t-7.5 -3h-138q-10 0 -10 8t10 8q20 -1 34 0q8 1 8 6v328l-117 -364h-2q-2 0 -2 4l-121 379v-294q0 -36 11.5 -48.5t34.5 -11.5q11 1 11 -7t-11 -8
h-101q-12 0 -12 8t12 7q23 -1 31.5 14t8.5 37v320q0 2 -3 4q-11 1 -17 0.5t-15 -0.5q-5 -1 -7.5 2t-2.5 6.5t2.5 6.5t7.5 3q23 -1 46 -0.5t47 0.5q6 0 6 -5l89 -321l103 321q1 5 2 5h3h94q4 1 6.5 -2t3 -6.5t-2 -6.5t-7.5 -2zM313 613q2 -8 -7.5 -8.5t-10.5 7.5
q-3 30 -6 45.5t-12.5 22.5t-28.5 7h-54v-367q0 -3 3 -4h41q7 1 7 -7.5t-7 -8.5h-151q-8 0 -9 8.5t9 7.5h44q2 0 2 3v367q-35 0 -54 -0.5t-28.5 -6.5t-12.5 -21.5t-6 -45.5q-1 -8 -11 -7.5t-8 8.5l12 92h276l12 -92v0z" />
    <glyph glyph-name="acute" unicode="&#xb4;" horiz-adv-x="243" 
d="M238 691q0 -15 -9 -24.5t-29 -20.5q-14 -8 -40.5 -21.5l-53.5 -28l-49 -26t-27 -14.5q-2 1 3 6l67 67l66 71q10 11 19 18t22 7q11 0 21 -9.5t10 -24.5z" />
    <glyph glyph-name="dieresis" unicode="&#xa8;" horiz-adv-x="297" 
d="M281 633q0 -18 -13 -31.5t-30 -13.5q-18 0 -31 13.5t-13 31.5t13 31.5t31 13.5q17 0 30 -13.5t13 -31.5zM100 633q0 -18 -13 -31.5t-30 -13.5q-18 0 -30.5 13.5t-12.5 31.5t12.5 31.5t30.5 13.5q17 0 30 -13.5t13 -31.5z" />
    <glyph glyph-name="AE" unicode="&#xc6;" horiz-adv-x="923" 
d="M341 0q-8 0 -8 8t8 8q13 0 31 -1.5t34.5 0t28 6.5t11.5 19v188h-229l-65 -127q-11 -20 -16.5 -33.5t-5.5 -28.5q0 -23 53 -23h36q8 0 8 -8t-8 -8h-210q-10 0 -9.5 8t9.5 8h18q34 0 55.5 16.5t40.5 52.5l315 603h-103q-8 0 -8 7.5t8 8.5h520l12 -170q0 -5 -8 -5t-8 5
q0 43 -13 72.5t-36 47.5t-55 26t-70 8h-133v-296q0 -13 8 -18.5t19.5 -7t23.5 -1t21 0.5q37 0 59 11t33.5 29t14.5 41t3 47q0 8 7.5 8t7.5 -8q-5 -136 0 -266q0 -6 -7.5 -6t-7.5 6q0 28 -3 51t-14.5 38.5t-33.5 24t-60 8.5h-21t-23.5 -1.5t-19 -5.5t-7.5 -13v-285
q0 -16 12.5 -22.5t30.5 -8t37.5 0t33.5 1.5q58 0 101.5 5.5t72 25t42.5 57t14 101.5q0 7 7.5 7t7.5 -7q-2 -52 -2 -103.5t2 -101.5h-562zM446 668h-2l-219 -424h221v424z" />
    <glyph glyph-name="Oslash" unicode="&#xd8;" horiz-adv-x="688" 
d="M670 362q0 -80 -24.5 -147.5t-68 -117t-103.5 -77.5t-130 -28q-66 0 -121 23.5t-95 66.5l-76 -88q-2 -3 -6 -2t-7 3.5t-4.5 5.5t0.5 6l76 91q-45 48 -69.5 116t-24.5 148q0 75 24.5 140t68.5 113.5t103.5 76.5t130.5 28q66 0 122.5 -23.5t95.5 -59.5l81 94q3 4 7 3t7 -4
t4 -6.5t-1 -6.5l-82 -97q42 -53 67 -121t25 -137zM525 592q-11 25 -27 45.5t-39 35.5t-53 23.5t-69 7.5q-73 -2 -115.5 -37.5t-64 -88t-27 -111.5t-5.5 -107q0 -51 6 -107t23 -106l371 445v0zM563 364q-1 50 -8 106t-21 100l-369 -444q12 -26 28.5 -48t39 -37.5t51.5 -24.5
t66 -8q49 1 83.5 18t58.5 45t38 64t21.5 75.5t9.5 79t2 74.5z" />
    <glyph glyph-name="yen" unicode="&#xa5;" horiz-adv-x="575" 
d="M538 686q-15 0 -24.5 -4t-15.5 -11.5t-10.5 -17t-8.5 -20.5l-133 -316h134q9 0 9 -8t-9 -8h-138q-5 0 -9 -7t-4 -13v-73h151q8 0 8 -9t-8 -9h-150v-163q0 -8 1.5 -9t9.5 -1h70q15 0 15 -8t-15 -8q-127 3 -253 0q-11 0 -12 8t12 8h66q9 0 10.5 1.5t1.5 8.5v163h-147
q-8 0 -8 9t8 9h147v66q0 6 -4.5 16.5t-14.5 10.5h-128q-11 0 -11 8t11 8h130l-147 353q-6 14 -13 16q-17 5 -25 3.5t-24 -3.5q-12 -1 -13 8.5t12 9.5q54 -1 112 -1.5t113 1.5q6 0 9.5 -3t3.5 -6.5t-3.5 -6.5t-10.5 -2q-14 2 -26.5 2h-26.5q-4 0 -5 -3t0 -6q1 -4 3 -9
l146 -352q2 -3 3 -2q1 0 2 2l111 265q12 29 17.5 46.5t5.5 31.5q0 12 -9 18.5t-32 6.5h-19q-14 0 -14.5 9.5t14.5 8.5q39 -2 78.5 -1t77.5 1q14 0 14 -9t-14 -9h-21z" />
    <glyph glyph-name="mu" unicode="&#xb5;" horiz-adv-x="513" 
d="M496 0q-39 1 -76.5 1.5t-78.5 -0.5l-2 90h-2q-3 -9 -11 -26t-22.5 -34t-36.5 -30t-54 -13q-17 0 -34 8.5t-32 26.5q-1 -30 -1 -63t0.5 -65t1.5 -62.5t3 -55.5q2 -40 -10.5 -59.5t-27.5 -19t-27 20t-8 58.5q1 14 3 51t3.5 88t2.5 111t1 120.5t-1.5 116.5t-4.5 100h-77
q-4 0 -4.5 8t4.5 8h77q23 0 43.5 3.5t34.5 18.5v-328q0 -32 17.5 -51t44.5 -19q25 0 46.5 13.5t37 35t24.5 49t9 55.5v207h-76q-6 0 -6 8t6 8h76q23 0 44.5 3.5t36.5 18.5v-367q0 -11 8.5 -15.5t20.5 -5.5t25 0.5t22 1.5q6 0 5.5 -8t-5.5 -8z" />
    <glyph glyph-name="ordfeminine" unicode="&#xaa;" horiz-adv-x="298" 
d="M293 470q-9 -15 -22.5 -23.5t-34.5 -8.5q-26 0 -40.5 11t-18.5 30h-1q-11 -23 -32.5 -32t-51.5 -9q-38 0 -62 14.5t-24 49.5q0 13 6.5 28.5t24.5 28.5t51.5 21.5t87.5 8.5v65q0 21 -13.5 27.5t-32.5 6.5q-6 0 -16 -0.5t-19.5 -3t-16.5 -7.5t-7 -13q0 -5 4 -7.5t9 -4.5
t9 -6.5t4 -13.5q0 -13 -9 -22t-25 -9t-25.5 10t-9.5 24q0 32 29 50.5t74 18.5q21 0 40.5 -4.5t34.5 -14t24 -24.5t9 -35v-140q0 -8 2.5 -17t12.5 -9q11 0 16.5 5t12.5 14l10 -9v0zM176 573q-53 0 -77 -11t-24 -51q0 -26 8.5 -38.5t31.5 -12.5q18 0 35.5 11t25.5 37v65z" />
    <glyph glyph-name="ordmasculine" unicode="&#xba;" horiz-adv-x="300" 
d="M286 571q0 -26 -9.5 -50t-27 -42.5t-43 -29.5t-57.5 -11t-57.5 11t-43 29.5t-27 42.5t-9.5 50t9.5 50t27 42.5t43 29.5t57.5 11t57.5 -11t43 -29.5t27 -42.5t9.5 -50zM217 571q0 27 -1 49t-7.5 37t-20.5 23t-39 8q-26 0 -39.5 -9t-20 -24.5t-7.5 -37t-1 -46.5
q0 -26 1 -47.5t7 -37t19.5 -24t39.5 -8.5q25 0 39 8t21 23t8 37t1 49z" />
    <glyph glyph-name="ae" unicode="&#xe6;" horiz-adv-x="655" 
d="M641 137q-11 -65 -56.5 -104.5t-112.5 -39.5q-41 0 -70 4.5t-50 13t-36 21.5t-26 30q-30 -39 -67 -54t-85 -15q-57 0 -88.5 26.5t-31.5 74.5q0 39 24 64.5t60 40.5t78.5 21t79.5 6h14v115q0 16 -6.5 27t-17 17t-24 8.5t-26.5 2.5q-11 0 -26.5 -2t-30.5 -7.5t-25.5 -14
t-10.5 -20.5q0 -9 5 -12.5t10.5 -8t10.5 -11.5t5 -23q0 -17 -12.5 -28t-31.5 -11q-20 0 -31 14t-11 38q0 18 9.5 36t28.5 32.5t46.5 23.5t63.5 9q61 0 90.5 -16t43.5 -36q6 7 17.5 16t27 17t35 13.5t40.5 5.5q45 0 78.5 -20t56 -47t33.5 -54.5t11 -42.5q0 -9 -9 -9h-264v-88
q0 -25 3 -50t14.5 -45.5t34 -33t60.5 -12.5q28 0 54 9.5t46 26.5t34 40.5t19 51.5q5 11 9.5 9t6.5 -9zM541 280q0 22 -4 43t-13.5 37.5t-26.5 26t-43 9.5q-28 0 -46 -9.5t-28.5 -26t-15 -37.5t-4.5 -43v-26h174q7 0 7 6v20zM274 210h-12q-26 0 -54 -2t-51 -11.5t-37.5 -30.5
t-14.5 -59q0 -20 2 -36.5t9.5 -29t21.5 -19.5t37 -7q22 0 40.5 6.5t31.5 16t20 20.5t7 20v132z" />
    <glyph glyph-name="oslash" unicode="&#xf8;" horiz-adv-x="462" 
d="M381 343q26 -28 40 -64.5t14 -76.5q0 -41 -14.5 -78.5t-41 -66.5t-64.5 -46.5t-84 -17.5q-43 0 -78 14.5t-60 39.5l-57 -58q-5 -5 -11 1t-1 11l57 58q-26 29 -40 66t-14 77t14.5 78t41 67t64 46.5t84.5 17.5q43 0 77 -15t60 -41l59 59q6 6 11 0t0 -11zM335 322
q-4 16 -11 29.5t-19 23.5t-30.5 15.5t-43.5 5.5q-41 0 -63 -13t-33 -35t-13 -50t-2 -59v-74q0 -32 3 -62l212 219v0zM342 239q0 16 -0.5 32t-2.5 31l-213 -220q8 -32 30.5 -53t74.5 -21q40 0 62.5 13t33.5 34.5t13 50t2 59.5v74z" />
    <glyph glyph-name="questiondown" unicode="&#xbf;" horiz-adv-x="347" 
d="M281 380q0 -21 -14.5 -36t-34.5 -15t-34.5 15t-14.5 36t14.5 36t34.5 15t34.5 -15t14.5 -36zM317 -183q0 -26 -10 -47.5t-27.5 -37t-40.5 -24.5t-49 -9q-37 0 -65 12.5t-47 35t-29 54t-10 68.5q0 33 5.5 57.5t14.5 43t20.5 33t24.5 26.5l60 59t41 45.5t23.5 39t7.5 39.5
t-2 34t-4 24q-2 5 4 6.5t8 -3.5q8 -30 12.5 -60.5t4.5 -62.5q0 -44 -14 -76t-35.5 -57t-46 -45.5t-46 -42.5t-35.5 -47t-14 -58q0 -27 10.5 -47.5t27.5 -34t39 -20.5t45 -7q14 0 30 4t30 11.5t23.5 19t9.5 25.5q0 10 -10 12.5t-22 6t-22 12.5t-10 32t13.5 34t33.5 11
q12 0 21.5 -6t16 -16t10 -21.5t3.5 -22.5z" />
    <glyph glyph-name="exclamdown" unicode="&#xa1;" horiz-adv-x="194" 
d="M145 377q0 -21 -14.5 -36t-34.5 -15t-34.5 15t-14.5 36t14.5 36t34.5 15t34.5 -15t14.5 -36zM150 -182q3 -8 1.5 -11.5l-4.5 -10.5q-10 -23 -23 -46t-23 -46q-2 -5 -5 -5t-5 5q-9 24 -24 48t-25 48q-1 4 -1 4.5v4.5q1 2 1.5 6t1.5 6q13 42 22 96t14 109t7 103.5t2 80.5
v58q0 5 7.5 4.5t7.5 -4.5v-58q0 -32 1.5 -81t6.5 -104t14 -109.5t24 -97.5z" />
    <glyph glyph-name="logicalnot" unicode="&#xac;" horiz-adv-x="564" 
d="M530 93q2 -18 -7.5 -27t-21.5 -9t-21.5 9t-7.5 27q3 29 5 60t2 59.5t-1 53.5t-2 42q-41 3 -92.5 4.5t-108.5 1.5t-116.5 -2t-114.5 -5q-20 -1 -29.5 9t-9.5 22t9.5 21.5t29.5 6.5q54 -7 114 -9.5t121 -1.5t120 4t110 7q17 2 20 -2t1 -20q-3 -25 -4.5 -55t-1.5 -63
t1.5 -67t4.5 -66z" />
    <glyph glyph-name="florin" unicode="&#x192;" horiz-adv-x="543" 
d="M519 631q0 -24 -11.5 -40t-33.5 -16t-32 14t-10 31q0 12 4 18.5t8.5 11.5t8.5 10t4 14q0 14 -26 14q-23 0 -39.5 -17t-27.5 -45.5t-18 -66.5t-11 -81l-14 -136h135q7 0 7 -8t-7 -8h-137l-31 -248q-5 -40 -12.5 -84t-18 -86t-25 -80t-34 -66.5t-45 -45.5t-57.5 -17
q-30 0 -52.5 12.5t-22.5 50.5q0 21 12.5 32.5t29.5 11.5q19 0 29 -11t10 -30q0 -11 -5.5 -19.5t-5.5 -19.5t11 -11q13 0 27 8t26 29.5t22 58.5t16 95l42 420h-131q-6 0 -6 8t6 8h133l10 78q5 37 19.5 86t39 93t59 74.5t79.5 30.5q27 0 51 -20t24 -53z" />
    <glyph glyph-name="guillemotleft" unicode="&#xab;" horiz-adv-x="315" 
d="M291 89q9 -10 8 -18.5t-7.5 -13t-16 -3.5t-15.5 11q-28 42 -51 80t-51 79q-4 5 -5.5 7.5t3.5 7.5q17 21 30.5 39.5t25.5 37t23 37.5t25 40q6 10 14.5 11t14.5 -3.5t7 -12.5t-6 -17q-30 -35 -61 -67.5t-63 -70.5l25 -29.5l32 -37l34.5 -39.5zM164 89q9 -10 8 -18.5
t-7.5 -13t-16 -3.5t-15.5 11q-28 42 -51 80t-51 79q-4 5 -5.5 7.5t3.5 7.5q17 21 30.5 39.5t25.5 37t23 37.5t25 40q6 10 14.5 11t14.5 -3.5t7 -12.5t-6 -17q-30 -35 -61 -67.5t-63 -70.5l25 -29.5l32 -37l34.5 -39.5z" />
    <glyph glyph-name="guillemotright" unicode="&#xbb;" horiz-adv-x="328" 
d="M295 239q5 -5 3.5 -7.5t-5.5 -7.5q-29 -41 -51.5 -79t-50.5 -80q-6 -10 -15.5 -11t-16 3.5t-7.5 13t8 18.5l33.5 38l34.5 39.5l31.5 37t25.5 29.5q-32 38 -63 70.5t-61 67.5q-8 9 -6.5 17t7.5 12.5t14.5 3.5t14.5 -11l24.5 -40l23.5 -37.5t25.5 -37t30.5 -39.5zM168 239
q5 -5 3.5 -7.5t-5.5 -7.5q-29 -41 -51.5 -79t-50.5 -80q-6 -10 -15.5 -11t-16 3.5t-7.5 13t8 18.5l33.5 38l34.5 39.5l31.5 37t25.5 29.5q-32 38 -63 70.5t-61 67.5q-8 9 -6.5 17t7.5 12.5t14.5 3.5t14.5 -11l24.5 -40l23.5 -37.5t25.5 -37t30.5 -39.5z" />
    <glyph glyph-name="ellipsis" unicode="&#x2026;" horiz-adv-x="856" 
d="M793 36q0 -21 -14.5 -36t-34.5 -15t-34.5 15t-14.5 36t14.5 36t34.5 15t34.5 -15t14.5 -36zM473 36q0 -21 -14.5 -36t-34.5 -15t-34.5 15t-14.5 36t14.5 36t34.5 15t34.5 -15t14.5 -36zM153 36q0 -21 -14.5 -36t-34.5 -15t-34.5 15t-14.5 36t14.5 36t34.5 15t34.5 -15
t14.5 -36z" />
    <glyph glyph-name="Agrave" unicode="&#xc0;" horiz-adv-x="660" 
d="M412 779q-5 3 -27 14.5l-49 26l-53.5 28t-40.5 21.5q-20 11 -29 20.5t-9 24.5t10 24.5t21 9.5q13 0 22 -7t19 -18l66 -71l67 -67q5 -5 3 -6zM365 -1q-11 0 -12.5 7.5t12.5 6.5t27 -1.5t27 1.5q30 4 35.5 10.5t2.5 15.5l-59 182q-1 4 -8 4h-214q-5 0 -6 -3l-57 -181
q-3 -9 -0.5 -17.5t29.5 -10.5q17 -2 30 -1.5t30 1.5q13 1 11 -6.5t-11 -7.5h-189q-10 0 -11.5 7.5t12.5 6.5q10 -1 18.5 -1.5t17.5 1.5q13 2 20.5 4.5t13 8.5t9.5 16.5t10 30.5l206 653q5 16 11 0l234 -653q7 -21 11.5 -32.5t9 -17.5t12 -7.5t21.5 -2.5q18 -1 33 0
q16 1 15 -6.5t-14 -7.5h-277zM285 555q-5 14 -7 15.5t-7 -17.5l-93 -311q-2 -3 4 -3h204q7 0 5 4z" />
    <glyph glyph-name="Atilde" unicode="&#xc3;" horiz-adv-x="661" 
d="M460 884q-2 -34 -17 -54.5t-36.5 -27t-46 1t-46.5 28.5q-10 10 -29.5 23t-36.5 18q-23 6 -36 -10t-16 -39q-1 -5 -3.5 -8.5t-4.5 -3.5t-3.5 5.5t-0.5 17.5q1 15 9 30t20 26t26 17.5t29 3.5t27.5 -9.5t24 -14.5t21.5 -16.5t20 -15.5q29 -21 45 -22t24.5 8t11 24t5.5 26
q3 12 8.5 10t4.5 -18zM365 -1q-11 0 -12.5 7.5t12.5 6.5t27 -1.5t27 1.5q30 4 35.5 10.5t2.5 15.5l-59 182q-1 4 -8 4h-214q-5 0 -6 -3l-57 -181q-3 -9 -0.5 -17.5t29.5 -10.5q17 -2 30 -1.5t30 1.5q13 1 11 -6.5t-11 -7.5h-189q-10 0 -11.5 7.5t12.5 6.5q10 -1 18.5 -1.5
t17.5 1.5q13 2 20.5 4.5t13 8.5t9.5 16.5t10 30.5l206 653q5 16 11 0l234 -653q7 -21 11.5 -32.5t9 -17.5t12 -7.5t21.5 -2.5q18 -1 33 0q16 1 15 -6.5t-14 -7.5h-277zM285 555q-5 14 -7 15.5t-7 -17.5l-93 -311q-2 -3 4 -3h204q7 0 5 4z" />
    <glyph glyph-name="Otilde" unicode="&#xd5;" horiz-adv-x="685" 
d="M487 886q-2 -34 -17 -54.5t-36.5 -27t-46 1t-46.5 28.5q-10 10 -29.5 23t-36.5 18q-23 6 -36 -10t-16 -39q-1 -5 -3.5 -8.5t-4.5 -3.5t-3.5 5.5t-0.5 17.5q1 15 9 30t20 26t26 17.5t29 3.5t27.5 -9.5t24 -14.5t21.5 -16.5t20 -15.5q29 -21 45 -22t24.5 8t11 24t5.5 26
q3 12 8.5 10t4.5 -18zM666 359q0 -80 -24.5 -147.5t-68 -117t-103.5 -77.5t-131 -28t-130.5 28t-103 77.5t-68 117t-24.5 147.5q0 75 24.5 140t68 113.5t103 76.5t130.5 28t131 -28t103.5 -76.5t68 -113.5t24.5 -140zM558 361q-1 63 -8.5 124.5t-30.5 110t-67.5 77.5
t-118.5 28q-49 -1 -83.5 -18t-58 -44.5t-37.5 -63t-21.5 -73.5t-9.5 -75.5t-2 -69.5q0 -37 3 -78t11.5 -80.5t24 -75t40.5 -62t60.5 -42t85.5 -14.5q49 1 83.5 18t58.5 44.5t38 64t21.5 75.5t9 79t1.5 75z" />
    <glyph glyph-name="OE" unicode="&#x152;" horiz-adv-x="909" 
d="M891 12q2 -10 -3 -11t-9 -1h-351q-23 0 -46 -2.5t-46 -5.5q-26 -3 -50.5 -5.5t-50.5 -2.5q-80 0 -139 34t-97.5 87.5t-57.5 119t-19 127.5t19 127.5t57.5 119t97.5 87.5t139 34q26 0 49.5 -2.5t48.5 -5.5q26 -3 51 -5.5t51 -2.5h289q8 0 9 -1.5t2 -8.5l12 -160
q1 -8 -7.5 -8.5t-8.5 8.5q0 43 -13 72.5t-36 47.5t-55 26t-70 8q-15 0 -35.5 0.5t-39 -1t-32 -6.5t-15.5 -16v-287q0 -6 6.5 -9t16.5 -4t20 -0.5t18 0.5q37 0 60 11t35 29.5t15 41.5t0 47q-1 5 7 5.5t8 -5.5q-1 -69 -0.5 -134.5t0.5 -131.5q0 -6 -7.5 -6t-7.5 6q0 28 -3 51
t-14.5 38.5t-33.5 24t-60 8.5q-7 0 -17.5 0.5t-20 -1t-16 -5t-6.5 -12.5v-300q0 -10 11 -13.5t27 -4t34 0.5t31 1q58 0 101.5 5.5t72 25t42.5 57t14 101.5q0 6 7.5 6t7.5 -6q0 -19 0.5 -47t1.5 -56.5t2.5 -53t3.5 -36.5zM437 661q0 16 -11 24.5t-27 12.5t-33.5 5t-30.5 1
q-72 0 -113 -36t-61 -89.5t-24.5 -114.5t-4.5 -112t4.5 -112t24.5 -114.5t61 -89.5t113 -36q13 0 30.5 0.5t33.5 3.5t27 9.5t11 18.5v629z" />
    <glyph glyph-name="oe" unicode="&#x153;" horiz-adv-x="704" 
d="M696 136q-11 -65 -57 -104.5t-112 -39.5q-62 0 -96 17.5t-62 52.5q-57 -70 -150 -70q-47 0 -84.5 17.5t-64 46.5t-41 66.5t-14.5 78.5q0 40 14.5 78t41 67t64 46.5t84.5 17.5q54 0 92.5 -20t65.5 -56q23 32 53 54t79 22q45 0 78.5 -20t55.5 -47t33 -54.5t11 -42.5
q0 -9 -8 -9h-264v-88q0 -25 3 -50t14.5 -45.5t33.5 -33t61 -12.5q61 0 102 35.5t52 92.5q1 6 8 5.5t7 -5.5zM595 279q0 22 -3.5 43t-13 37.5t-26.5 26t-43 9.5q-28 0 -46 -9.5t-28.5 -26t-15 -37.5t-4.5 -43v-26h174q6 0 6 6v20zM328 201q0 45 -1.5 81t-12 61t-32.5 38.5
t-63 13.5q-42 0 -64.5 -13.5t-33 -38.5t-12 -61t-1.5 -81t1.5 -81t12 -60.5t33 -38t64.5 -13.5q41 0 63 13.5t32.5 38t12 60.5t1.5 81z" />
    <glyph glyph-name="endash" unicode="&#x2013;" horiz-adv-x="495" 
d="M449 198q-100 8 -204.5 8t-198.5 -8q-22 -2 -33 8t-11 22.5t11 22.5t32 8q95 -11 199.5 -12t203.5 11q22 3 33.5 -7t11.5 -22t-11 -22.5t-33 -8.5z" />
    <glyph glyph-name="quotedblleft" unicode="&#x201c;" horiz-adv-x="438" 
d="M423 499q0 -23 -15 -37t-41 -15q-23 0 -45 3t-40 13t-30.5 28t-17.5 47q-6 36 2.5 66.5t28 54.5t46.5 41.5t58 28.5q7 2 9.5 -4t-4.5 -10l-45.5 -24.5t-40 -30t-28.5 -43t-10 -62.5t25.5 -62t59.5 -28l11 -1q7 -1 1.5 3.5t-7.5 8.5q-4 8 -6 12.5t-1 18.5q1 20 15.5 28.5
t31.5 8.5q20 0 31.5 -12.5t11.5 -32.5zM216 495q0 -23 -15.5 -37t-40.5 -15q-24 0 -45.5 3t-39.5 13t-31 28t-18 47q-6 36 2.5 66.5t28 54.5t47 41.5t58.5 28.5q6 2 8.5 -4t-3.5 -10l-45.5 -25.5t-40.5 -30t-28.5 -42.5t-9.5 -62t25 -62t59 -28l12 -1q6 -1 1 3.5t-7 8.5
q-5 8 -7 12.5t-1 18.5q1 20 15.5 28.5t31.5 8.5q20 0 32 -12.5t12 -32.5z" />
    <glyph glyph-name="quotedblright" unicode="&#x201d;" horiz-adv-x="438" 
d="M412 636q6 -36 -2.5 -66.5t-28 -54.5t-47 -42t-58.5 -28q-6 -2 -8.5 4t3.5 10l45.5 25.5t40.5 30t28.5 42t9.5 62.5q-1 37 -25 62t-59 28l-12 1q-6 1 -1 -3.5t7 -8.5q5 -8 7 -12.5t1 -18.5q-1 -20 -15.5 -28.5t-31.5 -8.5q-20 0 -31.5 12.5t-11.5 32.5q0 23 15 37t40 15
q24 0 45.5 -3t39.5 -13t31 -28t18 -47zM211 634q6 -36 -2.5 -66.5t-28 -54.5t-46.5 -42t-58 -28q-7 -2 -9.5 4t4.5 10l45.5 24.5t40 30t28.5 42.5t10 63q-1 37 -25.5 62t-59.5 28l-11 1q-7 1 -1.5 -3.5t7.5 -8.5q4 -8 6 -12.5t1 -18.5q-1 -20 -15.5 -28.5t-31.5 -8.5
q-20 0 -31.5 12.5t-11.5 32.5q0 23 15 37t41 15q23 0 45 -3t40 -13t30.5 -28t17.5 -47z" />
    <glyph glyph-name="quoteleft" unicode="&#x2018;" horiz-adv-x="244" 
d="M217 496q0 -23 -15 -37t-41 -15q-23 0 -45 3t-39.5 13t-30.5 28t-18 47q-6 36 2.5 66.5t27.5 54.5t46.5 41.5t58.5 28.5q7 3 9 -3.5t-4 -10.5l-45.5 -25.5t-40.5 -30t-28.5 -42.5t-9.5 -62t25 -62t59 -28l12 -1q6 -1 1 3.5t-7 8.5q-5 8 -7 12.5t-1 18.5q1 20 15.5 28.5
t31.5 8.5q20 0 32 -12.5t12 -32.5z" />
    <glyph glyph-name="quoteright" unicode="&#x2019;" horiz-adv-x="246" 
d="M214 634q6 -36 -2.5 -66.5t-28 -54.5t-47 -42t-58.5 -28q-6 -2 -8.5 4t3.5 10l45.5 25.5t40.5 30t28.5 42t9.5 62.5q-1 37 -25 62t-59 28l-12 1q-6 1 -1 -3.5t7 -8.5q5 -8 7 -12.5t1 -18.5q-1 -20 -15.5 -28.5t-31.5 -8.5q-20 0 -32 12.5t-12 32.5q0 23 15 37t41 15
q23 0 45 -3t40 -13t31 -28t18 -47z" />
    <glyph glyph-name="divide" unicode="&#xf7;" horiz-adv-x="532" 
d="M324 460q0 -23 -17.5 -41.5t-40.5 -18.5t-40.5 18t-17.5 42q0 25 17.5 42.5t40.5 17.5t40.5 -18t17.5 -42zM469 221q-101 8 -204.5 7.5t-198.5 -7.5q-22 -2 -33 8.5t-11 23t11 22t32 7.5q97 -10 201 -10.5t202 9.5q22 2 33.5 -7.5t11.5 -22t-11 -22.5t-33 -8zM324 46
q0 -23 -17.5 -41.5t-40.5 -18.5t-40.5 18t-17.5 42q0 25 17.5 42.5t40.5 17.5t40.5 -18t17.5 -42z" />
    <glyph glyph-name="ydieresis" unicode="&#xff;" horiz-adv-x="496" 
d="M394 644q0 -18 -13 -31.5t-30 -13.5q-18 0 -31 13.5t-13 31.5t13 31.5t31 13.5q17 0 30 -13.5t13 -31.5zM213 644q0 -18 -13 -31.5t-30 -13.5q-18 0 -30.5 13.5t-12.5 31.5t12.5 31.5t30.5 13.5q17 0 30 -13.5t13 -31.5zM473 349q-22 1 -34 -1.5t-19.5 -10.5t-12.5 -22
l-13 -35q-45 -118 -75.5 -207.5l-52.5 -155.5l-37.5 -110.5t-31.5 -71t-34 -38t-44 -11.5q-13 0 -22.5 5.5t-16 13.5t-9.5 17.5t-3 17.5q0 13 8 26t30 13q20 0 31.5 -14t10.5 -24q-2 -16 4 -18.5t11 -1.5q8 1 16.5 14t17 32.5t16 43.5l14 46t11 40l6.5 26l-174 420
q-2 4 -4 4.5l-6 1.5q-11 2 -17.5 2t-17.5 -2q-4 -1 -6 1.5t-2 5.5t2 6t6 3q50 -2 96.5 -1.5t95.5 1.5q6 0 9 -3t3 -6t-3 -5.5t-9 -1.5q-13 2 -23.5 2t-24.5 -2q-9 -1 -6 -8l123 -305l91 239q12 31 12 48q0 7 -2.5 13t-11 9t-25 4t-44.5 0q-9 -1 -10 7.5t10 8.5
q43 -2 84 -1.5t83 1.5q11 0 11 -8.5t-11 -7.5z" />
    <glyph glyph-name="Ydieresis" unicode="&#x178;" horiz-adv-x="586" 
d="M439 869q0 -18 -13 -31.5t-30 -13.5q-18 0 -31 13.5t-13 31.5t13 31.5t31 13.5q17 0 30 -13.5t13 -31.5zM258 869q0 -18 -13 -31.5t-30 -13.5q-18 0 -30.5 13.5t-12.5 31.5t12.5 31.5t30.5 13.5q17 0 30 -13.5t13 -31.5zM554 688q-16 0 -25.5 -4.5t-16 -12t-10.5 -17.5
t-9 -21l-155 -357q-1 -1 -1 -4v-245q0 -8 2 -9t10 -1h74q14 0 14 -8t-14 -8q-133 3 -265 0q-11 0 -12 8t12 8h70q8 0 9.5 1.5t1.5 8.5v231l-170 412q-7 16 -14 18q-17 5 -24 3.5t-17 -2.5q-12 -1 -13 8.5t12 9.5q49 -1 106.5 -1.5t108.5 0.5q6 0 9.5 -3t3.5 -6.5t-3.5 -6.5
t-10.5 -2q-7 2 -19 2h-26q-7 0 -5 -10q1 -4 3 -10l152 -366q2 -3 3 -2q1 0 1 2l116 277q13 30 19 48t6 32q0 27 -34 27h-20q-7 0 -11 3t-4 6.5t3.5 6t11.5 2.5q34 -2 72.5 -1t70.5 1q14 0 14.5 -9t-14.5 -9h-12z" />
    <glyph glyph-name="fraction" unicode="&#x2044;" horiz-adv-x="470" 
d="M458 665l-212.5 -337l-190.5 -321q-9 -16 -19.5 -21t-17.5 -1.5t-7.5 15t10.5 27.5l199.5 316.5l202.5 342.5q8 14 18 18t17 0t8 -14t-8 -25z" />
    <glyph glyph-name="currency" unicode="&#xa4;" horiz-adv-x="719" 
d="M703 177q-2 -27 -2.5 -43.5t-1 -31t0 -32t2.5 -46.5q1 -8 -7 -8t-8 8q-2 38 -11 49.5t-26 0.5q-15 -9 -33 -23t-43 -27t-58.5 -22.5t-77.5 -9.5q-49 0 -94.5 18.5t-84 52.5t-67 81.5t-43.5 105.5l-44 -2t-43 -3q-23 -2 -34 8t-11 22.5t11 22t33 7.5q20 -2 39.5 -3.5
t39.5 -3.5q-2 16 -3.5 32t-1.5 33q0 21 3 42q-21 -2 -41 -2.5t-39 -2.5q-22 -2 -33 8.5t-11 23t11 22t32 7.5l43.5 -4t45.5 -3q13 57 41 106t67 84.5t86 55.5t98 20q44 0 75 -11t53.5 -24.5t38 -24.5t28.5 -11q20 0 28 7t7 29q0 8 8.5 8t7.5 -8q-2 -25 -3 -39.5t-1.5 -28
t0.5 -30t3 -44.5q1 -10 -6 -10t-9 10q-3 12 -20 38.5t-46.5 54t-70.5 48t-93 20.5q-51 0 -85 -23t-56 -59.5t-33 -81.5t-15 -90q27 0 70 0.5t89 2l88.5 3t68.5 4.5q22 2 33.5 -7.5t11.5 -21.5t-11 -22.5t-33 -8.5q-26 2 -69.5 3.5t-90.5 2l-90.5 1t-70.5 0.5q0 -11 -0.5 -22
t-0.5 -22q0 -33 3 -69q28 0 72.5 0.5t91.5 2t90 3.5t68 5q22 3 33 -7t11 -22.5t-11 -23t-32 -8.5q-25 2 -68 3.5t-89.5 2.5t-90.5 1.5t-72 0.5q5 -45 17 -89t33.5 -78.5t55 -55.5t81.5 -21q53 0 98 19.5t78 47t52.5 56t22.5 46.5q2 10 9 9.5t6 -9.5z" />
    <glyph glyph-name="guilsinglleft" unicode="&#x2039;" horiz-adv-x="179" 
d="M164 89q9 -10 8 -18.5t-7.5 -13t-16 -3.5t-15.5 11q-28 42 -51 80t-51 79q-4 5 -5.5 7.5t3.5 7.5q17 21 30.5 39.5t25.5 37t23 37.5t25 40q6 10 14.5 11t14.5 -3.5t7 -12.5t-6 -17q-30 -35 -61 -67.5t-63 -70.5l25 -29.5l32 -37l34.5 -39.5z" />
    <glyph glyph-name="guilsinglright" unicode="&#x203a;" horiz-adv-x="171" 
d="M153 239q5 -5 3.5 -7.5t-5.5 -7.5q-29 -41 -51.5 -79t-50.5 -80q-6 -10 -15.5 -11t-16 3.5t-7.5 13t8 18.5l33.5 38l34.5 39.5l31.5 37t25.5 29.5q-32 38 -63 70.5t-61 67.5q-8 9 -6.5 17t7.5 12.5t14.5 3.5t14.5 -11l24.5 -40l23.5 -37.5t25.5 -37t30.5 -39.5z" />
    <glyph glyph-name="fi" unicode="&#xfb01;" horiz-adv-x="525" 
d="M514 0q-113 2 -227 0q-8 0 -8 8t8 8q9 0 21 -1.5t23.5 -0.5t19 5t7.5 16l-1 329h-172v-331q0 -11 8 -15t20 -4.5t24.5 1t21.5 1.5q5 0 5 -8t-5 -8q-61 1 -119.5 1.5t-121.5 -1.5q-7 0 -7 8t7 8q11 0 26 -1.5t28.5 -1t23 4.5t9.5 15v331h-87q-6 0 -6 8t6 8h87v66
q0 47 13 93.5t39 83t66 59.5t93 23q21 0 43.5 -4.5t42 -15t32 -28.5t12.5 -45q0 -25 -12.5 -39.5t-35.5 -14.5q-19 0 -31.5 12.5t-12.5 32.5q0 18 8.5 25.5t18 11.5t18 6.5t8.5 10.5q0 11 -23 21.5t-56 10.5q-45 0 -73 -11.5t-43.5 -32.5t-21 -51.5t-5.5 -68.5v-145h172
q23 0 44.5 3.5t36.5 18.5v-370q0 -11 8.5 -14.5t20.5 -4t25 1t22 1.5q7 0 7 -8t-7 -8z" />
    <glyph glyph-name="fl" unicode="&#xfb02;" horiz-adv-x="511" 
d="M493 -1q-52 2 -100.5 2t-102.5 -2q-12 0 -12 8.5t12 7.5q26 -3 50 0q9 1 10.5 3t1.5 6v460q0 15 1 45t-2 60t-11.5 53t-27.5 23q-77 2 -107 -35t-30 -106v-132q0 -10 12 -10h85q14 0 14 -8.5t-14 -7.5q-23 1 -42 1.5t-43 -1.5q-7 -1 -9.5 -6t-2.5 -10v-320q0 -11 25 -14
q28 -3 50 0q6 1 8.5 -1.5t2.5 -5.5t-3 -6t-8 -3q-114 3 -226 0q-13 0 -12.5 8.5t12.5 7.5q24 -3 44 0q17 2 22 7t5 11v319q0 9 -2 10.5t-10 2.5q-16 2 -28.5 2t-28.5 -2q-11 -1 -11 7.5t11 8.5h57q9 0 10.5 4.5t1.5 8.5v49q0 48 14 88t37 70t51 49.5t57 27.5q32 8 53 5
t38.5 -7.5t35.5 -4t43 15.5q14 8 15.5 7t0.5 -19q-2 -46 -3.5 -110t-2.5 -134.5t-1.5 -140.5t-0.5 -127t0.5 -94.5t1.5 -43.5q-2 -5 5 -8t17 -3.5t20.5 -0.5t16.5 1t8.5 -1.5t2.5 -5.5t-3 -6t-8 -3z" />
    <glyph glyph-name="daggerdbl" unicode="&#x2021;" horiz-adv-x="543" 
d="M517 8q0 -22 -18 -23.5t-41 6.5q7 -8 11 -17t4.5 -17t-3.5 -12.5t-13 -2.5t-15.5 11t-22.5 19.5t-47.5 19t-91.5 8.5q0 -52 8.5 -90t18.5 -63.5t18 -40t8 -19.5q0 -17 -10.5 -15t-24.5 18q4 -11 5 -26.5t-2 -29.5t-10 -24t-19 -10t-19 9.5t-10.5 23t-2.5 29t6 27.5
q-17 -19 -26.5 -17.5t-9.5 15.5q0 5 8 19.5t18 40t18.5 63.5t9.5 90q-60 0 -92 -8t-48 -18.5t-22.5 -19.5t-14.5 -12q-12 -4 -16 1t-3 13.5t6 18t12 14.5q-10 -5 -20.5 -7t-19 0.5t-14 8.5t-5.5 17q0 18 19 22.5t39 -2.5q-8 6 -12.5 15.5t-5 18t4 13t15.5 1.5
q8 -3 14.5 -12.5t22.5 -20t48 -18.5t92 -8q0 32 -2 57t-6 46.5t-11 42t-17 42.5q10 22 17 42.5t11 42t6 46.5t2 57q-60 0 -91.5 -8.5t-47.5 -19t-22.5 -19.5t-15.5 -11q-8 -2 -12 2t-4 11.5t3.5 16t10.5 16.5q-20 -11 -39 -5.5t-19 26.5q0 23 19.5 25.5t39.5 -8.5
q-7 6 -11.5 15t-4.5 17.5t4 14t13 2.5q7 -2 13 -11t22.5 -19.5t49 -19t92.5 -8.5q-1 52 -9.5 88.5t-18.5 60.5t-18 37t-8 18q0 14 10.5 18.5t24.5 -12.5q-5 12 -6 28t2.5 29.5t11 23t19.5 9.5t19.5 -9.5t11 -23.5t2.5 -29.5t-6 -26.5q13 17 23.5 12.5t10.5 -21.5
q0 -5 -8 -17.5t-18 -36.5t-18.5 -60t-8.5 -88q60 0 90.5 8t45 18.5t19.5 20t13 11.5q9 3 14 -2.5t6 -14t-1.5 -18t-8.5 -15.5q9 5 19.5 7t19.5 0t14.5 -8t5.5 -17t-6 -17t-14.5 -7.5t-19 0.5t-19.5 5q6 -6 8 -14.5t0.5 -16.5t-6.5 -13t-13 -2t-13 12t-19 19.5t-44.5 18.5
t-90.5 8q0 -32 2 -57t6 -46.5t11 -42t17 -42.5q-10 -22 -17 -42.5t-11 -42t-6 -46.5t-2 -57q60 0 91.5 8.5t47.5 19t22.5 20t15.5 11.5t13 -3t4 -13t-4 -16.5t-12 -14.5q23 8 41 3.5t18 -24.5z" />
    <glyph glyph-name="periodcentered" unicode="&#xb7;" horiz-adv-x="144" 
d="M122 296q0 -21 -14.5 -36t-34.5 -15t-34.5 15t-14.5 36t14.5 36t34.5 15t34.5 -15t14.5 -36z" />
    <glyph glyph-name="quotesinglbase" unicode="&#x201a;" horiz-adv-x="188" 
d="M169 -27q0 -57 -25.5 -100.5t-65.5 -78.5l-10 11q19 18 35 36t27.5 38t17.5 44t6 53q0 14 -2.5 29t-9.5 27.5t-18 21t-29 11.5l-2 -2q8 -6 13.5 -16.5t5.5 -24.5q0 -20 -13 -29t-30 -9q-20 0 -32 12.5t-12 32.5q0 23 15.5 37.5t40.5 14.5q24 0 40.5 -9t27 -24t15.5 -34.5
t5 -40.5z" />
    <glyph glyph-name="quotedblbase" unicode="&#x201e;" horiz-adv-x="359" 
d="M340 -27q0 -57 -25.5 -100.5t-65.5 -78.5l-11 11q20 18 36 36t27.5 38t17.5 44t6 53q0 14 -3 29t-9.5 27.5t-18 21t-29.5 11.5l-2 -2q20 -13 20 -41q0 -20 -13.5 -29t-30.5 -9q-20 0 -31.5 12.5t-11.5 32.5q0 23 15 37.5t41 14.5q23 0 40 -9t27.5 -24t15.5 -34.5t5 -40.5
zM164 -27q0 -57 -26 -100.5t-65 -78.5l-11 11q20 18 36 36t27.5 38t17.5 44t6 53q0 14 -3 29t-9.5 27.5t-18 21t-29.5 11.5l-2 -2q19 -13 19 -41q0 -20 -13 -29t-30 -9q-20 0 -31.5 12.5t-11.5 32.5q0 23 15 37.5t41 14.5q23 0 40 -9t27.5 -24t15.5 -34.5t5 -40.5z" />
    <glyph glyph-name="perthousand" unicode="&#x2030;" horiz-adv-x="967" 
d="M944 151q0 -32 -8 -61.5t-24 -52t-40 -36.5t-55 -17q-27 -2 -56 6t-53.5 27.5t-40.5 50t-17 72.5q0 32 9.5 62.5t30.5 54t53.5 38.5t77.5 15q26 0 48.5 -12.5t39 -34.5t26 -50.5t9.5 -61.5zM310 530q0 -32 -8 -61.5t-24 -52t-40 -36.5t-55 -17q-27 -2 -56 6t-53.5 27.5
t-40.5 50t-17 72.5q0 32 9.5 62.5t30.5 54t53.5 38.5t77.5 15q26 0 48.5 -12.5t39 -34.5t26 -50.5t9.5 -61.5zM546 665l-212.5 -337l-190.5 -321q-9 -16 -19.5 -21t-17.5 -1.5t-7.5 15t10.5 27.5l199.5 316.5l202.5 342.5q8 14 18 18t17 0t8 -14t-8 -25zM612 151
q0 -32 -8 -61.5t-24 -52t-40 -36.5t-55 -17q-27 -2 -56 6t-53.5 27.5t-40.5 50t-17 72.5q0 32 9.5 62.5t30.5 54t53.5 38.5t77.5 15q26 0 48.5 -12.5t39 -34.5t26 -50.5t9.5 -61.5zM930 149q1 31 -7.5 58t-24 46.5t-36.5 31t-45 11.5q-27 1 -42.5 -15t-23.5 -40t-9.5 -51.5
t-1.5 -51.5q1 -25 3 -50t9.5 -45t21.5 -32.5t40 -11.5q45 2 79.5 38t36.5 112zM296 528q1 31 -7.5 58t-24 46.5t-36.5 31t-45 11.5q-27 1 -42.5 -15t-23.5 -40t-9.5 -51.5t-1.5 -51.5q1 -25 3 -50t9.5 -45t21.5 -32.5t40 -11.5q45 2 79.5 38t36.5 112zM598 149q1 31 -7.5 58
t-24 46.5t-36.5 31t-45 11.5q-27 1 -42.5 -15t-23.5 -40t-9.5 -51.5t-1.5 -51.5q1 -25 3 -50t9.5 -45t21.5 -32.5t40 -11.5q45 2 79.5 38t36.5 112z" />
    <glyph glyph-name="Acircumflex" unicode="&#xc2;" horiz-adv-x="677" 
d="M466 779q3 -5 -0.5 -3t-18.5 14t-43 37l-73 68q-45 -43 -73.5 -68t-44 -37.5t-20 -14t-0.5 3.5l59 78.5t53 80.5q7 11 25 12t25 -10l55 -82t56 -79zM375 0q-11 0 -12.5 7.5t12.5 6.5t27 -1.5t27 1.5q30 4 35.5 10.5t2.5 15.5l-59 182q-2 4 -9 4h-213q-5 0 -6 -3l-57 -181
q-3 -9 -0.5 -17.5t29.5 -10.5q17 -2 30 -1.5t30 1.5q13 1 11 -6.5t-11 -7.5h-189q-10 0 -11.5 7.5t12.5 6.5q10 -1 18.5 -1.5t17.5 1.5q13 2 20.5 4.5t13 8.5t9.5 16.5t10 30.5l206 653q5 16 11 0l234 -653l11 -31.5t9 -17.5t12.5 -7.5t21.5 -2.5q10 -2 17.5 -2t15.5 1
q16 1 15 -6.5t-14 -7.5h-277zM295 557q-5 14 -7 15.5t-7 -17.5l-93 -311q-2 -3 4 -3h204q7 0 5 4z" />
    <glyph glyph-name="Ecircumflex" unicode="&#xca;" horiz-adv-x="587" 
d="M460 776q3 -5 -0.5 -3t-18.5 14t-43 37l-73 68q-45 -43 -73.5 -68t-44 -37.5t-20 -14t-0.5 3.5l59 78.5t53 80.5q7 11 25 12t25 -10l55 -82t56 -79zM567 14q1 -8 -1 -11t-12 -3q-145 2 -273 1t-246 -1q-15 0 -13.5 8t11.5 7q11 -1 15 -1h9q12 0 19 2t10.5 8t4.5 18t1 33
v556v32.5t-3 17.5t-9.5 8t-19.5 3q-11 1 -16 0.5t-12 -0.5q-10 0 -9.5 7t11.5 7h472q9 0 11.5 -1.5t2.5 -12.5q1 -41 3.5 -76.5t7.5 -79.5q0 -8 -7.5 -8.5t-8.5 8.5q-3 46 -16.5 75t-36 46t-53.5 24t-69 9q-20 1 -37 1.5t-33 0.5t-32 -0.5t-35 -1.5q-9 -1 -11 -2t-2 -10
v-284q0 -9 2 -11t11 -3q32 -3 59 0q37 4 58.5 13t32.5 23.5t14 33t4 41.5q1 13 9 13t7 -13q-2 -30 -3 -57.5t-1 -56t1 -58.5t3 -65q1 -8 -7 -8t-9 8q-2 30 -5 50t-14 32.5t-32 19t-59 8.5q-7 0 -11.5 0.5t-10.5 1t-14.5 0t-22.5 -1.5q-6 -1 -9 -3t-3 -10v-321q0 -5 1 -9
t11 -5q33 -2 61.5 -2t57.5 2q58 3 101.5 9t72.5 24t43 52.5t14 95.5q0 8 8 9t7 -9q-2 -46 -2.5 -92t2.5 -91z" />
    <glyph glyph-name="Aacute" unicode="&#xc1;" horiz-adv-x="680" 
d="M449 914q0 -15 -9 -24.5t-29 -20.5q-14 -8 -40.5 -21.5l-53.5 -28l-49 -26t-27 -14.5q-2 1 3 6l67 67l66 71q10 11 19 18t22 7q11 0 21 -9.5t10 -24.5zM375 0q-11 0 -12.5 7.5t12.5 6.5t27 -1.5t27 1.5q30 4 35.5 10.5t2.5 15.5l-59 182q-1 4 -8 4h-214q-5 0 -6 -3
l-57 -181q-3 -9 -0.5 -17.5t29.5 -10.5q17 -2 30 -1.5t30 1.5q13 1 11 -6.5t-11 -7.5h-189q-10 0 -11.5 7.5t12.5 6.5q10 -1 18.5 -1.5t17.5 1.5q13 2 20.5 4.5t13 8.5t9.5 16.5t10 30.5l206 653q5 16 11 0l234 -653q7 -21 11.5 -32.5t9 -17.5t12 -7.5t21.5 -2.5q18 -1 33 0
q16 1 15 -6.5t-14 -7.5h-277zM295 556q-5 14 -7 15.5t-7 -17.5l-93 -311q-2 -3 4 -3h204q7 0 5 4z" />
    <glyph glyph-name="Edieresis" unicode="&#xcb;" horiz-adv-x="575" 
d="M411 857q0 -18 -13 -31.5t-30 -13.5q-18 0 -31 13.5t-13 31.5t13 31.5t31 13.5q17 0 30 -13.5t13 -31.5zM230 857q0 -18 -13 -31.5t-30 -13.5q-18 0 -30.5 13.5t-12.5 31.5t12.5 31.5t30.5 13.5q17 0 30 -13.5t13 -31.5zM555 14q1 -8 -1 -11t-12 -3q-145 2 -273 1
t-246 -1q-15 0 -13.5 8t11.5 7q11 -1 15 -1h9q12 0 19 2t10.5 8t4.5 18t1 33v556v32.5t-3 17.5t-9.5 8t-19.5 3q-11 1 -16 0.5t-12 -0.5q-10 0 -9.5 7t11.5 7h472q9 0 11.5 -1.5t2.5 -12.5q1 -41 3.5 -76.5t7.5 -79.5q0 -8 -7.5 -8.5t-8.5 8.5q-3 46 -16.5 75t-36 46
t-53.5 24t-69 9q-20 1 -37 1.5t-33 0.5t-32 -0.5t-35 -1.5q-9 -1 -11 -2t-2 -10v-284q0 -9 2 -11t11 -3q32 -3 59 0q37 4 58.5 13t32.5 23.5t14 33t4 41.5q1 13 9 13t7 -13q-2 -30 -3 -57.5t-1 -56t1 -58.5t3 -65q1 -8 -7 -8t-9 8q-2 30 -5 50t-14 32.5t-32 19t-59 8.5
q-7 0 -11.5 0.5t-10.5 1t-14.5 0t-22.5 -1.5q-6 -1 -9 -3t-3 -10v-321q0 -5 1 -9t11 -5q33 -2 61.5 -2t57.5 2q58 3 101.5 9t72.5 24t43 52.5t14 95.5q0 8 8 9t7 -9q-2 -46 -2.5 -92t2.5 -91z" />
    <glyph glyph-name="Egrave" unicode="&#xc8;" horiz-adv-x="585" 
d="M379 779q-5 3 -27 14.5l-49 26l-53.5 28t-40.5 21.5q-20 11 -29 20.5t-9 24.5t10 24.5t21 9.5q13 0 22 -7t19 -18l66 -71l67 -67q5 -5 3 -6zM567 14q1 -8 -1 -11t-12 -3q-145 2 -273 1t-246 -1q-15 0 -13.5 8t11.5 7q11 -1 15 -1h9q12 0 19 2t10.5 8t4.5 18t1 33v556
v32.5t-3 17.5t-9.5 8t-19.5 3q-11 1 -16 0.5t-12 -0.5q-10 0 -9.5 7t11.5 7h472q9 0 11.5 -1.5t2.5 -12.5q1 -41 3.5 -76.5t7.5 -79.5q0 -8 -7.5 -8.5t-8.5 8.5q-3 46 -16.5 75t-36 46t-53.5 24t-69 9q-20 1 -37 1.5t-33 0.5t-32 -0.5t-35 -1.5q-9 -1 -11 -2t-2 -10v-284
q0 -9 2 -11t11 -3q32 -3 59 0q37 4 58.5 13t32.5 23.5t14 33t4 41.5q1 13 9 13t7 -13q-2 -30 -3 -57.5t-1 -56t1 -58.5t3 -65q1 -8 -7 -8t-9 8q-2 30 -5 50t-14 32.5t-32 19t-59 8.5q-7 0 -11.5 0.5t-10.5 1t-14.5 0t-22.5 -1.5q-6 -1 -9 -3t-3 -10v-321q0 -5 1 -9t11 -5
q33 -2 61.5 -2t57.5 2q58 3 101.5 9t72.5 24t43 52.5t14 95.5q0 8 8 9t7 -9q-2 -46 -2.5 -92t2.5 -91z" />
    <glyph glyph-name="Iacute" unicode="&#xcd;" horiz-adv-x="292" 
d="M256 915q0 -15 -9 -24.5t-29 -20.5q-14 -8 -40.5 -21.5l-53.5 -28l-49 -26t-27 -14.5q-2 1 3 6l67 67l66 71q10 11 19 18t22 7q11 0 21 -9.5t10 -24.5zM272 -1q-65 2 -128 2t-128 -2q-9 0 -8.5 8t8.5 8q31 -3 58 0q10 1 15.5 4.5t5.5 23.5v631q0 12 -21 15q-13 2 -24.5 2
t-28.5 -2q-9 -1 -9 7.5t9 8.5q63 -2 124.5 -2t123.5 2q13 0 12 -9t-12 -8q-15 1 -26.5 1.5t-27.5 -1.5q-9 -2 -15.5 -5t-6.5 -11v-637q0 -6 4.5 -12.5t11.5 -7.5q34 -3 63 0q10 1 9.5 -7.5t-9.5 -8.5z" />
    <glyph glyph-name="Icircumflex" unicode="&#xce;" horiz-adv-x="295" 
d="M284 777q3 -5 -0.5 -3t-18.5 14t-43 37l-73 68q-45 -43 -73.5 -68t-44 -37.5t-20 -14t-0.5 3.5l59 78.5t53 80.5q7 11 25 12t25 -10l55 -82t56 -79zM272 -1q-65 2 -128 2t-128 -2q-9 0 -8.5 8t8.5 8q31 -3 58 0q10 1 15.5 4.5t5.5 23.5v631q0 12 -21 15q-13 2 -24.5 2
t-28.5 -2q-9 -1 -9 7.5t9 8.5q63 -2 124.5 -2t123.5 2q13 0 12 -9t-12 -8q-15 1 -26.5 1.5t-27.5 -1.5q-9 -2 -15.5 -5t-6.5 -11v-637q0 -6 4.5 -12.5t11.5 -7.5q34 -3 63 0q10 1 9.5 -7.5t-9.5 -8.5z" />
    <glyph glyph-name="Idieresis" unicode="&#xcf;" horiz-adv-x="291" 
d="M280 857q0 -18 -13 -31.5t-30 -13.5q-18 0 -31 13.5t-13 31.5t13 31.5t31 13.5q17 0 30 -13.5t13 -31.5zM99 857q0 -18 -13 -31.5t-30 -13.5q-18 0 -30.5 13.5t-12.5 31.5t12.5 31.5t30.5 13.5q17 0 30 -13.5t13 -31.5zM270 0q-65 2 -128 2t-128 -2q-9 0 -8.5 8t8.5 8
q31 -3 58 0q10 1 15.5 4.5t5.5 23.5v631q0 12 -21 15q-13 2 -24.5 2t-28.5 -2q-9 -1 -9 7.5t9 8.5q63 -2 124.5 -2t123.5 2q13 0 12 -9t-12 -8q-15 1 -26.5 1.5t-27.5 -1.5q-9 -2 -15.5 -5t-6.5 -11v-637q0 -6 4.5 -12.5t11.5 -7.5q34 -3 63 0q10 1 9.5 -7.5t-9.5 -8.5z" />
    <glyph glyph-name="Igrave" unicode="&#xcc;" horiz-adv-x="292" 
d="M256 780q-5 3 -27 14.5l-49 26l-53.5 28t-40.5 21.5q-20 11 -29 20.5t-9 24.5t10 24.5t21 9.5q13 0 22 -7t19 -18l66 -71l67 -67q5 -5 3 -6zM272 -1q-65 2 -128 2t-128 -2q-9 0 -8.5 8t8.5 8q31 -3 58 0q10 1 15.5 4.5t5.5 23.5v631q0 12 -21 15q-13 2 -24.5 2t-28.5 -2
q-9 -1 -9 7.5t9 8.5q63 -2 124.5 -2t123.5 2q13 0 12 -9t-12 -8q-15 1 -26.5 1.5t-27.5 -1.5q-9 -2 -15.5 -5t-6.5 -11v-637q0 -6 4.5 -12.5t11.5 -7.5q34 -3 63 0q10 1 9.5 -7.5t-9.5 -8.5z" />
    <glyph glyph-name="Oacute" unicode="&#xd3;" horiz-adv-x="696" 
d="M471 916q0 -15 -9 -24.5t-29 -20.5q-14 -8 -40.5 -21.5l-53.5 -28l-49 -26t-27 -14.5q-2 1 3 6l67 67l66 71q10 11 19 18t22 7q11 0 21 -9.5t10 -24.5zM676 359q0 -80 -24.5 -147.5t-68 -117t-103.5 -77.5t-131 -28t-130.5 28t-103 77.5t-68 117t-24.5 147.5
q0 75 24.5 140t68 113.5t103 76.5t130.5 28t131 -28t103.5 -76.5t68 -113.5t24.5 -140zM568 361q-1 63 -8.5 124.5t-30.5 110t-67.5 77.5t-118.5 28q-49 -1 -83.5 -18t-58 -44.5t-37.5 -63t-21.5 -73.5t-9.5 -75.5t-2 -69.5q0 -37 3 -78t11.5 -80.5t24 -75t40.5 -62
t60.5 -42t85.5 -14.5q49 1 83.5 18t58.5 44.5t38 64t21.5 75.5t9 79t1.5 75z" />
    <glyph glyph-name="Ocircumflex" unicode="&#xd4;" horiz-adv-x="704" 
d="M503 778q3 -5 -0.5 -3t-18.5 14t-43 37l-73 68q-45 -43 -73.5 -68t-44 -37.5t-20 -14t-0.5 3.5l59 78.5t52 80.5q7 11 25 12t26 -10l55 -82t56 -79zM679 358q0 -80 -24.5 -147.5t-68 -117t-103.5 -77.5t-131 -28t-130.5 28t-103 77.5t-68 117t-24.5 147.5q0 75 24.5 140
t68 113.5t103 76.5t130.5 28t131 -28t103.5 -76.5t68 -113.5t24.5 -140zM571 360q-1 63 -8.5 124t-30.5 109.5t-67.5 78t-118.5 28.5q-49 -1 -83.5 -18t-58 -44.5t-37.5 -63t-21.5 -73.5t-9.5 -75.5t-2 -69.5q0 -37 3 -78t11.5 -80.5t23.5 -75t40 -62t61 -42t85 -14.5
q73 1 115.5 37t64.5 89.5t27.5 115t5.5 114.5z" />
    <glyph glyph-name="Ograve" unicode="&#xd2;" horiz-adv-x="702" 
d="M466 779q-5 3 -27 14.5l-49 26l-53.5 28t-40.5 21.5q-20 11 -29 20.5t-9 24.5t10 24.5t21 9.5q13 0 22 -7t19 -18l66 -71l67 -67q5 -5 3 -6zM676 358q0 -80 -24.5 -147.5t-68 -117t-103.5 -77.5t-131 -28t-130.5 28t-103 77.5t-68 117t-24.5 147.5q0 75 24.5 140
t68 113.5t103 76.5t130.5 28t131 -28t103.5 -76.5t68 -113.5t24.5 -140zM568 360q-1 63 -8.5 124.5t-30.5 110t-67.5 77.5t-118.5 28q-49 -1 -83.5 -18t-58 -44.5t-37.5 -63t-21.5 -73.5t-9.5 -75.5t-2 -69.5q0 -37 3 -78t11.5 -80.5t24 -75t40.5 -62t60.5 -42t85.5 -14.5
q49 1 83.5 18t58.5 44.5t38 64t21.5 75.5t9 79t1.5 75z" />
    <glyph glyph-name="Uacute" unicode="&#xda;" horiz-adv-x="706" 
d="M519 914q0 -15 -9 -24.5t-29 -20.5q-14 -8 -40.5 -21.5l-53.5 -28l-49 -26t-27 -14.5q-2 1 3 6l67 67l66 71q10 11 19 18t22 7q11 0 21 -9.5t10 -24.5zM682 694q-8 1 -15 0.5t-15 -0.5q-31 0 -41.5 -15.5t-10.5 -53.5v-414q0 -59 -18.5 -100.5t-51 -68t-75 -39
t-90.5 -12.5q-59 0 -107.5 8.5t-82.5 31t-52.5 60.5t-18.5 98v493q0 11 -10 12q-19 2 -34.5 2t-34.5 -2q-4 0 -7 2.5t-3.5 6.5t2 7t8.5 3l133.5 -2t131.5 1q6 0 9 -2.5t2.5 -6.5t-3.5 -6.5t-8 -2.5q-20 2 -38 2t-38 -2q-12 -2 -12 -12v-510q0 -43 14 -74t37 -51.5t52.5 -30
t60.5 -9.5q101 0 160 52t59 164v403q0 40 -14 53t-45 15q-10 1 -19 1.5t-20 -1.5q-5 -1 -8 2t-3 6.5t2.5 6.5t8.5 3q99 -3 195 0q11 0 10 -9.5t-10 -8.5z" />
    <glyph glyph-name="Ucircumflex" unicode="&#xdb;" horiz-adv-x="705" 
d="M501 777q3 -5 -0.5 -3t-18.5 14t-43 37l-73 68q-45 -43 -73.5 -68t-44 -37.5t-20 -14t-0.5 3.5l59 78.5t53 80.5q7 11 25 12t25 -10l55 -82t56 -79zM682 694q-8 1 -15 0.5t-15 -0.5q-31 0 -41.5 -15.5t-10.5 -53.5v-414q0 -59 -18.5 -100.5t-51 -68t-75 -39t-90.5 -12.5
q-59 0 -107.5 8.5t-82.5 31t-52.5 60.5t-18.5 98v493q0 11 -10 12q-19 2 -34.5 2t-34.5 -2q-4 0 -7 2.5t-3.5 6.5t2 7t8.5 3l133.5 -2t131.5 1q6 0 9 -2.5t2.5 -6.5t-3.5 -6.5t-8 -2.5q-20 2 -38 2t-38 -2q-12 -2 -12 -12v-510q0 -43 14 -74t37 -51.5t52.5 -30t60.5 -9.5
q101 0 160 52t59 164v403q0 40 -14 53t-45 15q-10 1 -19 1.5t-20 -1.5q-5 -1 -8 2t-3 6.5t2.5 6.5t8.5 3q99 -3 195 0q11 0 10 -9.5t-10 -8.5z" />
    <glyph glyph-name="Ugrave" unicode="&#xd9;" horiz-adv-x="706" 
d="M467 780q-5 3 -27 14.5l-49 26l-53.5 28t-40.5 21.5q-20 11 -29 20.5t-9 24.5t10 24.5t21 9.5q13 0 22 -7t19 -18l66 -71l67 -67q5 -5 3 -6zM682 694q-8 1 -15 0.5t-15 -0.5q-31 0 -41.5 -15.5t-10.5 -53.5v-414q0 -59 -18.5 -100.5t-51 -68t-75 -39t-90.5 -12.5
q-59 0 -107.5 8.5t-82.5 31t-52.5 60.5t-18.5 98v493q0 11 -10 12q-19 2 -34.5 2t-34.5 -2q-4 0 -7 2.5t-3.5 6.5t2 7t8.5 3l133.5 -2t131.5 1q6 0 9 -2.5t2.5 -6.5t-3.5 -6.5t-8 -2.5q-20 2 -38 2t-38 -2q-12 -2 -12 -12v-510q0 -43 14 -74t37 -51.5t52.5 -30t60.5 -9.5
q101 0 160 52t59 164v403q0 40 -14 53t-45 15q-10 1 -19 1.5t-20 -1.5q-5 -1 -8 2t-3 6.5t2.5 6.5t8.5 3q99 -3 195 0q11 0 10 -9.5t-10 -8.5z" />
    <glyph glyph-name="dotlessi" unicode="&#x131;" horiz-adv-x="250" 
d="M232 0q-104 3 -212 0q-11 0 -11 8.5t11 7.5q28 -3 55 0q8 1 9.5 3t1.5 6v317q0 23 -17 24q-19 1 -38 0q-14 -1 -14 8t14 8q31 -2 57 0q13 1 30 6t31 16q11 9 14.5 9t3.5 -15v-371q0 -10 10 -11q31 -3 55 0q6 1 8.5 -1.5t2.5 -5.5t-3 -6t-8 -3z" />
    <glyph glyph-name="circumflex" unicode="&#x2c6;" horiz-adv-x="308" 
d="M293 553q3 -5 -0.5 -3t-18.5 14t-43 37l-73 68q-45 -43 -73.5 -68t-44 -37.5t-20 -14t-0.5 3.5l59 78.5t53 80.5q7 11 25 12t25 -10l55 -82t56 -79z" />
    <glyph glyph-name="tilde" unicode="&#x2dc;" horiz-adv-x="313" 
d="M294 664q-2 -34 -17 -54.5t-36.5 -27t-46 1t-46.5 28.5q-10 10 -29.5 23t-36.5 18q-23 6 -36 -10t-16 -39q-1 -5 -3.5 -8.5t-4.5 -3.5t-3.5 5.5t-0.5 17.5q1 15 9 30t20 26t26 17.5t29 3.5t27.5 -9.5t24 -14.5t21.5 -16.5t20 -15.5q29 -21 45 -22t24.5 8t11 24t5.5 26
q3 12 8.5 10t4.5 -18z" />
    <glyph glyph-name="macron" unicode="&#xaf;" horiz-adv-x="276" 
d="M241 608q-40 4 -95.5 3t-109.5 -7q-18 -2 -26 7t-8 19.5t8.5 19t24.5 5.5q25 -5 53.5 -6t56.5 -0.5t53 2.5t43 5t26.5 -5t8.5 -18t-9 -18.5t-26 -6.5z" />
    <glyph glyph-name="breve" unicode="&#x2d8;" 
d="M278 715q-5 -66 -38.5 -98.5t-91.5 -33.5t-92.5 32.5t-38.5 99.5q0 4 2.5 5.5t6 1.5t6.5 -1.5t3 -5.5q2 -22 12.5 -37t26.5 -24.5t35.5 -13.5t38.5 -4q20 0 39 4t34.5 13.5t25.5 24.5t13 37q1 8 10 8.5t8 -8.5z" />
    <glyph glyph-name="dotaccent" unicode="&#x2d9;" horiz-adv-x="159" 
d="M127 631q0 -18 -13.5 -31.5t-30.5 -13.5q-18 0 -30.5 13.5t-12.5 31.5t12.5 31.5t30.5 13.5q17 0 30.5 -13.5t13.5 -31.5z" />
    <glyph glyph-name="ring" unicode="&#x2da;" horiz-adv-x="219" 
d="M197 634q0 -18 -7 -34.5t-18.5 -29t-27.5 -19.5t-34 -7q-36 0 -61 26.5t-25 63.5t25 63.5t61 26.5q18 0 34 -7t27.5 -19.5t18.5 -29t7 -34.5zM174 634q0 26 -19 46t-45 20t-44.5 -20t-18.5 -46t18.5 -46t44.5 -20t45 20t19 46z" />
    <glyph glyph-name="cedilla" unicode="&#xb8;" horiz-adv-x="254" 
d="M235 -153q0 -23 -11 -38t-27.5 -24t-36 -12.5t-37.5 -3.5q-26 0 -51 6.5t-50 15.5q-5 3 -2.5 9.5t10.5 4.5q14 -5 28.5 -8t37.5 -4q30 -1 47 11.5t17 40.5q0 15 -9 27.5t-28 12.5q-20 0 -39 -6q-7 -3 -13 -0.5t-3 7.5l56 99h23l-49 -84q-2 -4 2 -2q13 6 28 8t31 2
q13 0 26.5 -4t24.5 -12t18 -19.5t7 -26.5z" />
    <glyph glyph-name="hungarumlaut" unicode="&#x2dd;" horiz-adv-x="344" 
d="M363 690q0 -15 -9 -24.5t-29 -20.5q-14 -8 -40.5 -21.5l-53.5 -28l-49 -26t-27 -14.5q-2 1 3 6l67 67l66 71q10 11 19 18t22 7q11 0 21 -9.5t10 -24.5zM170 690q0 -15 -9 -24.5t-29 -20.5q-14 -8 -40.5 -21.5l-53.5 -28l-49 -26t-27 -14.5q-2 1 3 6l67 67l66 71
q10 11 19 18t22 7q11 0 21 -9.5t10 -24.5z" />
    <glyph glyph-name="ogonek" unicode="&#x2db;" horiz-adv-x="195" 
d="M193 -183q-17 -16 -43 -31t-62 -15q-29 0 -46.5 18.5t-17.5 51.5q0 26 15.5 49t36.5 42t43 32.5t35 20.5h16q-11 -9 -25 -23t-26.5 -31.5t-21.5 -37.5t-9 -42q0 -23 14 -33.5t33 -10.5q16 0 28.5 7t22.5 17l7 -14v0z" />
    <glyph glyph-name="caron" unicode="&#x2c7;" horiz-adv-x="295" 
d="M284 711q-29 -39 -56 -79l-55 -82q-7 -11 -25 -10t-25 12q-25 42 -53 80.5l-59 78.5q-4 5 0.5 3.5t20 -14t44 -37.5t73.5 -68l73 68t43 37t18.5 13.5t0.5 -2.5z" />
  </font>
</defs>
</svg>
