<?xml version="1.0" standalone="no"?>
<!DOCTYPE svg PUBLIC "-//W3C//DTD SVG 1.1//EN" "http://www.w3.org/Graphics/SVG/1.1/DTD/svg11.dtd" >
<svg xmlns="http://www.w3.org/2000/svg" xmlns:xlink="http://www.w3.org/1999/xlink" version="1.1">
<metadata></metadata>
<defs>
<font id="museo100" horiz-adv-x="1054" >
<font-face units-per-em="2048" ascent="1536" descent="-512" />
<missing-glyph horiz-adv-x="563" />
<glyph unicode="&#xfb00;" horiz-adv-x="1155" d="M55 946v78h129v41q0 96 24.5 168.5t59.5 111.5t82.5 62.5t84 30t73.5 6.5l53 -4v-80q-18 4 -47 4t-57 -5t-63.5 -24t-61.5 -49.5t-44 -87t-18 -131.5v-43h482v41q0 96 24.5 168.5t59 111.5t82 62.5t84 30t73.5 6.5l53 -4v-80q-18 4 -47 4t-57 -5t-63.5 -24t-61 -49.5 t-43.5 -87t-18 -131.5v-43h280v-78h-280v-946h-86v946h-482v-946h-86v946h-129z" />
<glyph unicode="&#xfb01;" horiz-adv-x="1038" d="M55 946v78h129v41q0 96 24.5 168.5t59.5 111.5t82.5 62.5t84 30t73.5 6.5l53 -4v-80q-18 4 -47 4t-57 -5t-63.5 -24t-61.5 -49.5t-44 -87t-18 -131.5v-43h459q63 0 91 -28t28 -91v-782q0 -45 45 -45h88v-78h-100q-63 0 -91 28t-28 91v782q0 45 -45 45h-447v-946h-86v946 h-129zM750 1284v150h94v-150h-94z" />
<glyph unicode="&#xfb02;" horiz-adv-x="1026" d="M55 946v78h129v41q0 70 13 127t33 94.5t49.5 65.5t58 43.5t62 24.5t58 11.5t50.5 2.5h209q63 0 91 -28t28 -91v-1192q0 -45 45 -45h88v-78h-101q-63 0 -90.5 28t-27.5 91v1192q0 45 -45 45h-191q-30 0 -57.5 -4.5t-63.5 -22t-61.5 -46.5t-43.5 -85t-18 -131v-43h281v-78 h-281v-946h-86v946h-129z" />
<glyph unicode="&#xfb03;" horiz-adv-x="1605" d="M55 946v78h129v41q0 96 24.5 168.5t59.5 111.5t82.5 62.5t84 30t73.5 6.5l53 -4v-80q-18 4 -47 4t-57 -5t-63.5 -24t-61.5 -49.5t-44 -87t-18 -131.5v-43h482v41q0 96 24.5 168.5t59 111.5t82 62.5t84 30t73.5 6.5l53 -4v-80q-18 4 -47 4t-57 -5t-63.5 -24t-61 -49.5 t-43.5 -87t-18 -131.5v-43h458q63 0 91 -28t28 -91v-782q0 -45 45 -45h88v-78h-100q-63 0 -91 28t-28 91v782q0 45 -45 45h-446v-946h-86v946h-482v-946h-86v946h-129zM1317 1284v150h94v-150h-94z" />
<glyph unicode="&#xfb04;" horiz-adv-x="1593" d="M55 946v78h129v47q0 95 23.5 166t57 109t80 61.5t83 30t74.5 6.5l59 -4v-80q-22 4 -53 4q-30 0 -57.5 -5.5t-62 -24t-59.5 -48.5t-42 -85t-17 -128v-49h482v41q0 96 24.5 167.5t59 109t82.5 59.5t83.5 27.5t73.5 5.5h209q63 0 91 -28t28 -91v-1192q0 -45 45 -45h88v-78 h-100q-63 0 -91 28t-28 91v1192q0 45 -45 45h-191q-30 0 -57 -4.5t-63 -22t-61.5 -46.5t-43.5 -85t-18 -131v-43h280v-78h-280v-946h-86v946h-482v-946h-86v946h-129z" />
<glyph unicode="fj" horiz-adv-x="1093" d="M55 946v78h129v41q0 96 24.5 168.5t59.5 111.5t82.5 62.5t84 30t73.5 6.5l53 -4v-80q-18 4 -47 4t-57 -5t-63.5 -24t-61.5 -49.5t-44 -87t-18 -131.5v-43h510q63 0 91 -28t28 -91v-946q0 -97 -24.5 -169.5t-59.5 -111t-83 -62t-84.5 -30t-74.5 -6.5l-51 4v80q18 -4 45 -4 q30 0 58 5t63.5 24t62 49.5t44.5 87t18 131.5v944q0 45 -45 45h-498v-946h-86v946h-129zM803 1284v150h94v-150h-94z" />
<glyph horiz-adv-x="0" />
<glyph horiz-adv-x="682" />
<glyph unicode=" "  horiz-adv-x="563" />
<glyph unicode="&#x09;" horiz-adv-x="563" />
<glyph unicode="&#xa0;" horiz-adv-x="563" />
<glyph unicode="!" horiz-adv-x="575" d="M231 0v121h117v-121h-117zM244 358v1076h88v-1076h-88z" />
<glyph unicode="&#x22;" horiz-adv-x="587" d="M143 1143v309h88v-309h-88zM356 1143v309h88v-309h-88z" />
<glyph unicode="#" horiz-adv-x="1472" d="M92 408l14 81h312l80 453h-312l15 82h311l72 410h88l-72 -410h387l72 410h88l-72 -410h305l-14 -82h-305l-80 -453h305l-14 -81h-305l-72 -408h-88l72 408h-387l-72 -408h-88l71 408h-311zM506 489h387l80 453h-387z" />
<glyph unicode="$" horiz-adv-x="1064" d="M100 236l72 55q5 -9 14.5 -24.5t44 -55.5t74.5 -70t106.5 -55t139.5 -25q145 0 232 85t87 208q0 64 -24.5 116.5t-66.5 89t-96.5 68t-114.5 59t-119.5 55.5t-114 63t-96.5 76.5t-66.5 101.5t-24.5 133q0 128 98 224t261 114v195h88v-191q54 -3 107.5 -16.5t107 -38.5 t86.5 -70t33 -104v-90h-88v69q0 70 -79 117t-192 47q-153 0 -241 -73.5t-88 -180.5q0 -77 40 -137t103.5 -99t140.5 -73.5t154.5 -73t141 -85.5t103.5 -121.5t40 -170.5q0 -147 -101.5 -257.5t-267.5 -123.5v-190h-88v190q-79 7 -149.5 36.5t-115.5 66t-78.5 72t-48.5 60.5z " />
<glyph unicode="%" horiz-adv-x="1447" d="M129 0l1088 1434h106l-1087 -1434h-107zM133 1190q0 110 78 189t188 79t189.5 -79t79.5 -189t-79 -188t-190 -78q-110 0 -188 78t-78 188zM221 1190q0 -77 51 -130.5t127 -53.5t128.5 53.5t52.5 130.5t-52.5 131.5t-128.5 54.5t-127 -54.5t-51 -131.5zM780 242 q0 110 78.5 189t188.5 79t189 -79t79 -189t-79 -188.5t-189 -78.5t-188.5 78.5t-78.5 188.5zM868 242q0 -77 51.5 -131t127.5 -54t128 54t52 131t-52 131.5t-128 54.5t-127.5 -54.5t-51.5 -131.5z" />
<glyph unicode="&#x26;" horiz-adv-x="1253" d="M96 391q0 132 72 241t199 144v4q-8 2 -22 8t-50 30.5t-63 57t-49.5 93t-22.5 133.5q0 158 111.5 257t306.5 99q27 0 65 -5t62 -10l24 -5l-29 -78q-76 16 -129 16q-138 0 -228.5 -74.5t-90.5 -197.5q0 -36 6 -69.5t28 -75.5t58 -72t102.5 -51t155.5 -21h334v209h88v-209 h199v-82h-199v-229q0 -265 -122.5 -397t-334.5 -132q-206 0 -338.5 118t-132.5 298zM188 395q0 -143 102 -238.5t277 -95.5q174 0 271.5 106t97.5 337v229h-330q-208 0 -313 -91t-105 -247z" />
<glyph unicode="'" horiz-adv-x="374" d="M143 1143v309h88v-309h-88z" />
<glyph unicode="(" horiz-adv-x="593" d="M178 686q0 444 213 799h90q-219 -369 -219 -793q0 -230 60 -457t176 -430h-90q-107 188 -168.5 417.5t-61.5 463.5z" />
<glyph unicode=")" horiz-adv-x="593" d="M96 -195q116 203 176 430t60 457q0 424 -219 793h90q213 -355 213 -799q0 -234 -61.5 -463.5t-168.5 -417.5h-90z" />
<glyph unicode="*" horiz-adv-x="972" d="M102 1122l27 86l317 -110l-10 336h96l-10 -336l320 108l28 -84l-321 -96v-4l201 -266l-72 -54l-191 275h-4l-190 -272l-74 51l203 266v4z" />
<glyph unicode="+" horiz-adv-x="1228" d="M86 539v82h485v538h88v-538h484v-82h-484v-539h-88v539h-485z" />
<glyph unicode="," horiz-adv-x="395" d="M47 -193l109 318h106l-131 -318h-84z" />
<glyph unicode="-" horiz-adv-x="884" d="M160 539v82h565v-82h-565z" />
<glyph unicode="." horiz-adv-x="395" d="M139 0v121h117v-121h-117z" />
<glyph unicode="/" horiz-adv-x="628" d="M10 -86l518 1602h90l-518 -1602h-90z" />
<glyph unicode="0" horiz-adv-x="1224" d="M129 717q0 129 15 236.5t50 202.5t90 160.5t138 103.5t190 38t190.5 -38t138 -103.5t90 -160.5t50.5 -202.5t15 -236.5q0 -163 -25 -292.5t-79.5 -233t-150.5 -160t-229 -56.5q-107 0 -190 37.5t-138 103t-90 161t-50 203.5t-15 237zM221 717q0 -147 19 -260.5t62 -205.5 t121 -141t189 -49q89 0 157.5 33t112.5 90.5t71.5 142t39 179.5t11.5 211t-11.5 210.5t-39 179t-71.5 142t-112.5 90.5t-157.5 33t-157.5 -33t-112 -90.5t-71.5 -142t-39 -179t-11 -210.5z" />
<glyph unicode="1" horiz-adv-x="921" d="M131 0v82h326v1167l2 72h-4q-15 -27 -76 -88l-170 -170l-62 59l310 312h88v-1352h317v-82h-731z" />
<glyph unicode="2" horiz-adv-x="1140" d="M94 119q0 86 27 159t72.5 125.5t104 98t124 83t130.5 74t123.5 77.5t104 86.5t72.5 107.5t27 135q0 133 -90 220t-242 87q-117 0 -201 -51.5t-84 -122.5v-70h-88v91q0 63 39.5 112t100 75t121 39t114.5 13q103 0 185 -32.5t133 -87.5t77.5 -125t26.5 -148q0 -81 -27 -151 t-72.5 -121t-105 -96t-125 -83t-130.5 -75.5t-124.5 -79t-105 -88t-72.5 -109t-27 -135.5q0 -45 45 -45h680q45 0 45 45v100h86v-108q0 -63 -27.5 -91t-90.5 -28h-707q-63 0 -91 28t-28 91z" />
<glyph unicode="3" d="M53 174l66 66q6 -7 17.5 -19t50 -43t80 -54.5t106.5 -43t131 -19.5q142 0 250 100t108 253q0 107 -56 186.5t-141.5 117.5t-185.5 38h-98l-25 61l402 469q14 16 29.5 32.5t24.5 25.5l9 8v4q-38 -4 -110 -4h-459q-45 0 -45 -45v-101h-86v109q0 63 28 91t91 28h704v-62 l-463 -534q57 0 116 -11t124.5 -41.5t116 -76t83.5 -122t33 -173.5q0 -183 -133.5 -311t-320.5 -128q-76 0 -150 20.5t-125.5 49.5t-92 58.5t-60.5 50.5z" />
<glyph unicode="4" horiz-adv-x="1126" d="M29 410v61l743 963h82v-942h231v-82h-231v-410h-88v410h-737zM143 485q58 7 115 7h508v671l6 129h-4q-35 -51 -72 -98l-477 -616l-76 -89v-4z" />
<glyph unicode="5" horiz-adv-x="1140" d="M117 182l71 56q4 -7 12 -19t37.5 -42.5t64.5 -54t94 -42.5t124 -19q168 0 283 107.5t115 267.5q0 162 -115 270.5t-283 108.5q-73 0 -142.5 -21.5t-102.5 -43.5l-33 -21l-66 23l66 563q8 66 32.5 92.5t85.5 26.5h447q62 0 89.5 -28t27.5 -91v-109h-86v101q0 45 -45 45 h-418q-21 0 -31.5 -10.5t-13.5 -34.5l-45 -383l-15 -88h4q11 7 32 18t85.5 29t128.5 18q205 0 347.5 -135.5t142.5 -329.5q0 -127 -66 -233t-178.5 -167t-245.5 -61q-78 0 -148.5 21.5t-115 52t-77.5 60.5t-47 51z" />
<glyph unicode="6" horiz-adv-x="1134" d="M96 625q0 112 21 224.5t69.5 223t118 195.5t175.5 137.5t233 52.5q65 0 127.5 -14t92.5 -28l30 -15l-43 -80q-10 6 -28 14.5t-73 22.5t-110 14q-97 0 -180.5 -39t-142.5 -104.5t-103 -153.5t-67.5 -184t-29.5 -197h4q55 98 166 151.5t242 53.5q192 0 316 -122.5 t124 -323.5q0 -113 -35.5 -205t-96 -151t-140 -90.5t-168.5 -31.5q-154 0 -269.5 89t-174 235.5t-58.5 325.5zM197 528q0 -59 17.5 -123.5t53 -125.5t82.5 -110t111.5 -78.5t134.5 -29.5q163 0 256.5 109t93.5 283q0 165 -97.5 262.5t-254.5 97.5q-159 0 -278 -91.5 t-119 -193.5z" />
<glyph unicode="7" horiz-adv-x="1024" d="M70 1206v109q0 63 27.5 91t90.5 28h826v-62l-721 -1372h-103l639 1219q16 32 35 65.5t30 50.5l11 17v4q-40 -4 -112 -4h-592q-45 0 -45 -45v-101h-86z" />
<glyph unicode="8" horiz-adv-x="1155" d="M106 399q0 73 28 140t67.5 110.5t79.5 76.5t68 48l28 14v5q-9 4 -23 11t-51 34t-65 59t-51 85t-23 112q0 73 28.5 138.5t81 116t133.5 80t179 29.5q197 0 311.5 -103t114.5 -270q0 -64 -21.5 -125t-52 -103t-60.5 -75t-52 -49l-21 -16v-4q119 -58 181.5 -132.5 t62.5 -197.5q0 -111 -63 -205t-170.5 -148.5t-233.5 -54.5q-91 0 -175 28t-152 80t-108.5 134t-40.5 182zM199 399q0 -102 56 -181t142.5 -118t184.5 -39q145 0 259.5 92t114.5 228q0 61 -22 108t-68.5 82.5t-92 58.5t-120.5 52q-156 61 -184 61q-23 0 -66.5 -26t-89.5 -69 t-80 -110.5t-34 -138.5zM256 1094q0 -42 10.5 -77t34 -63t48 -48.5t66 -40.5t72 -32.5t82.5 -31.5q114 -43 142 -43q21 0 56 28t69 72t59 106t25 121q0 131 -93 209t-241 78q-152 0 -241 -78.5t-89 -199.5z" />
<glyph unicode="9" horiz-adv-x="1134" d="M96 981q0 113 35.5 205t96.5 150.5t140.5 90t168.5 31.5q154 0 269.5 -89t173.5 -235t58 -325q0 -79 -10.5 -159t-34.5 -162.5t-58.5 -157t-85 -140t-112 -113t-142.5 -75t-173 -27.5q-65 0 -127.5 14.5t-92.5 28.5l-30 15l43 80q10 -6 28 -14.5t73 -23t110 -14.5 q97 0 180.5 39t142.5 105t102.5 154t67 184.5t29.5 197.5h-4q-55 -98 -166 -152t-241 -54q-192 0 -316.5 122.5t-124.5 323.5zM188 981q0 -165 98 -262.5t255 -97.5q159 0 278 91t119 193q0 59 -17.5 123.5t-53 125.5t-82.5 110t-111.5 78.5t-134.5 29.5q-163 0 -257 -108.5 t-94 -282.5z" />
<glyph unicode=":" horiz-adv-x="559" d="M221 0v121h117v-121h-117zM221 903v121h117v-121h-117z" />
<glyph unicode=";" horiz-adv-x="559" d="M129 -193l92 318h107l-115 -318h-84zM221 903v121h117v-121h-117z" />
<glyph unicode="&#x3c;" horiz-adv-x="1228" d="M147 543v73l900 404v-98l-773 -340v-4l773 -340v-99z" />
<glyph unicode="=" horiz-adv-x="1228" d="M147 375v82h934v-82h-934zM147 702v82h934v-82h-934z" />
<glyph unicode="&#x3e;" horiz-adv-x="1228" d="M162 139v99l772 340v4l-772 340v98l899 -404v-73z" />
<glyph unicode="?" horiz-adv-x="841" d="M82 1356q5 4 14 11t40 24.5t64.5 31t84 24.5t102.5 11q175 0 284 -99.5t109 -252.5q0 -69 -20.5 -127.5t-53 -100.5t-72 -80.5t-79 -74.5t-72 -74.5t-53 -89.5t-20.5 -110v-91h-88v91q0 68 20 127t52.5 102.5t71.5 83t78 76.5t71.5 75.5t52.5 88.5t20 106 q0 112 -83.5 188t-215.5 76q-67 0 -132 -21.5t-97 -42.5l-31 -22zM307 0v121h117v-121h-117z" />
<glyph unicode="@" horiz-adv-x="1470" d="M88 498q0 152 57 290.5t152 238.5t226 159t274 59q127 0 222 -30.5t148.5 -83t79 -114.5t25.5 -134v-705h143v-82h-543q-164 0 -279.5 116.5t-115.5 281.5t115.5 283t279.5 118h308q-2 54 -23 100t-63 85t-115 61t-170 22q-130 0 -247 -52.5t-200.5 -141.5t-132.5 -212 t-49 -259q0 -183 83 -335t227.5 -239.5t318.5 -87.5v-86q-196 0 -362 99.5t-262.5 271.5t-96.5 377zM569 494q0 -131 92 -223.5t222 -92.5h297v635h-293q-133 0 -225.5 -94t-92.5 -225z" />
<glyph unicode="A" horiz-adv-x="1329" d="M27 0v82h22q32 0 50 9t28 36l489 1307h97l489 -1307q10 -27 28 -36t50 -9h23v-82h-25q-77 0 -108.5 22t-59.5 97l-141 377h-609l-141 -377q-28 -75 -59.5 -97t-108.5 -22h-24zM391 578h549l-219 581q-10 27 -24 70t-23 73l-8 29h-4q-31 -111 -54 -172z" />
<glyph unicode="B" horiz-adv-x="1218" d="M88 1352v82h604q159 0 261 -98.5t102 -260.5q0 -113 -50 -192t-137 -121v-4q108 -30 176 -128.5t68 -234.5q0 -178 -112.5 -286.5t-286.5 -108.5h-373q-63 0 -91 28t-28 91v1233h-133zM309 127q0 -45 45 -45h351q145 0 230 83.5t85 229.5q0 144 -89 231t-229 87h-393 v-586zM309 795h381q121 0 197 77t76 203t-74.5 201.5t-200.5 75.5h-379v-557z" />
<glyph unicode="C" horiz-adv-x="1409" d="M84 727q0 205 91.5 372.5t252 263t356.5 95.5q84 0 173.5 -18t171.5 -52t135 -93t53 -132v-102h-88v82q0 69 -73.5 123.5t-173 80t-196.5 25.5q-171 0 -310.5 -83.5t-219.5 -231.5t-80 -330q0 -137 47 -260t128.5 -212.5t196.5 -141.5t245 -52q86 0 167.5 21t136.5 51.5 t98 60.5t63 51l20 21l55 -63q-8 -9 -23 -24.5t-67 -55t-110 -69.5t-150.5 -54.5t-189.5 -24.5q-202 0 -365 101t-253.5 273t-90.5 378z" />
<glyph unicode="D" horiz-adv-x="1464" d="M92 1352v82h574q324 0 519 -190.5t195 -526.5q0 -225 -90 -388t-250 -246t-374 -83h-322q-63 0 -91 28t-28 91v1233h-133zM313 127q0 -45 45 -45h293q292 0 464.5 166t172.5 469q0 302 -173 468.5t-464 166.5h-338v-1225z" />
<glyph unicode="E" horiz-adv-x="1124" d="M92 1352v82h799q63 0 91 -28t28 -91v-109h-86v101q0 45 -45 45h-566v-588h572v-82h-572v-555q0 -45 45 -45h582q45 0 45 45v100h86v-108q0 -63 -28 -91t-91 -28h-608q-63 0 -91 28t-28 91v1233h-133z" />
<glyph unicode="F" horiz-adv-x="997" d="M92 1352v82h737q63 0 91 -28t28 -91v-109h-86v101q0 45 -45 45h-504v-598h549v-82h-549v-672h-88v1352h-133z" />
<glyph unicode="G" horiz-adv-x="1482" d="M88 717q0 204 93.5 374t256.5 268.5t359 98.5q91 0 175 -17.5t139 -43t97 -51t61 -42.5l19 -18l-53 -69q-7 6 -19.5 16.5t-55.5 37.5t-90.5 47t-121.5 37t-151 17q-174 0 -315.5 -86.5t-221.5 -236.5t-80 -332q0 -184 78.5 -334t218.5 -236t314 -86q86 0 168 24.5t138 59 t99.5 69t64.5 58.5l21 25v209q0 45 -45 45h-88v82h102q63 0 91 -28t28 -91v-514h-88v125l2 61h-4q-7 -9 -20.5 -23t-60.5 -50.5t-99 -64t-136 -50.5t-173 -23q-196 0 -357.5 98t-253.5 268.5t-92 375.5z" />
<glyph unicode="H" horiz-adv-x="1536" d="M92 1352v82h103q63 0 90.5 -28t27.5 -91v-555h910v555q0 63 27.5 91t90.5 28h103v-82h-88q-45 0 -45 -45v-1307h-88v678h-910v-678h-88v1307q0 45 -45 45h-88z" />
<glyph unicode="I" horiz-adv-x="555" d="M102 0v82h131v1270h-131v82h351v-82h-131v-1270h131v-82h-351z" />
<glyph unicode="J" horiz-adv-x="1003" d="M53 391v45h88v-45q0 -89 25.5 -155.5t69.5 -103t94 -54t106 -17.5t106 17.5t94 54t69.5 103t25.5 155.5v916q0 45 -45 45h-358v82h372q63 0 91 -28t28 -91v-924q0 -110 -33 -193.5t-89.5 -130.5t-122 -69.5t-138.5 -22.5t-138.5 22.5t-122 69.5t-89.5 130.5t-33 193.5z " />
<glyph unicode="K" horiz-adv-x="1167" d="M92 1352v82h103q63 0 90.5 -28t27.5 -91v-520h203q90 0 123 51l373 588h106l-391 -607q-15 -23 -30.5 -40t-24.5 -23l-8 -6v-4q28 -11 59 -72l278 -553q14 -30 36.5 -38.5t68.5 -8.5h41v-82h-41q-92 0 -127 19t-70 90l-272 548q-16 33 -48 44.5t-85 11.5h-191v-713h-88 v1307q0 45 -45 45h-88z" />
<glyph unicode="L" horiz-adv-x="1058" d="M92 1352v82h103q63 0 90.5 -28t27.5 -91v-1188q0 -45 45 -45h549q45 0 45 45v100h86v-108q0 -63 -27.5 -91t-90.5 -28h-576q-63 0 -91 28t-28 91v1188q0 45 -45 45h-88z" />
<glyph unicode="M" horiz-adv-x="1708" d="M47 0v82h82q42 0 45 45l105 1307h86l417 -902l70 -161h4q37 91 70 161l417 902h87l104 -1307q3 -45 45 -45h82v-82h-96q-62 0 -88 27.5t-31 91.5l-78 975q-3 31 -4.5 78.5t-1.5 79.5v32h-4q-41 -120 -74 -190l-385 -818h-90l-383 818q-14 30 -33 78.5t-31 81.5l-12 34h-4 q0 -124 -6 -194l-78 -975q-5 -64 -31 -91.5t-88 -27.5h-96z" />
<glyph unicode="N" horiz-adv-x="1548" d="M92 0v82h88q45 0 45 45v1307h82l817 -1125q21 -29 50 -74t48 -75l19 -31h4q-10 108 -10 180v1006q0 63 28 91t91 28h102v-82h-88q-45 0 -45 -45v-1307h-82l-817 1124q-21 29 -50 74.5t-48 75.5l-19 31h-4q10 -109 10 -181v-1005q0 -63 -27.5 -91t-90.5 -28h-103z" />
<glyph unicode="O" horiz-adv-x="1617" d="M84 727q0 152 57.5 288t155 232.5t231.5 153.5t281 57t281 -57t231.5 -153.5t155 -232.5t57.5 -288q0 -155 -57.5 -295t-155 -240t-231.5 -158.5t-281 -58.5t-281 58.5t-231.5 158.5t-155 240t-57.5 295zM176 727q0 -184 85 -337.5t230 -241t318 -87.5t318 87.5t230 241 t85 337.5q0 179 -85 327.5t-230 233t-318 84.5t-318 -84.5t-230 -233t-85 -327.5z" />
<glyph unicode="P" horiz-adv-x="1163" d="M92 1352v82h584q191 0 313.5 -113.5t122.5 -304.5q0 -192 -122.5 -307t-313.5 -115h-363v-594h-88v1352h-133zM313 676h359q159 0 253.5 90.5t94.5 249.5t-94.5 247.5t-253.5 88.5h-359v-676z" />
<glyph unicode="Q" horiz-adv-x="1617" d="M84 725q0 152 57 288.5t153.5 233.5t230 154t280.5 57q150 0 285 -57t232.5 -154t154.5 -233.5t57 -288.5q0 -145 -49.5 -278t-138.5 -232l184 -190l-57 -56l-183 189q-202 -183 -485 -183q-196 0 -362 100t-262.5 272.5t-96.5 377.5zM176 725q0 -183 83 -335.5 t227.5 -240.5t318.5 -88q73 0 143.5 16.5t119.5 39.5t87.5 46t56.5 39l19 17l-184 191l57 55l182 -189q73 89 114.5 206t41.5 243q0 136 -49 256.5t-134 206t-203 135t-251 49.5q-131 0 -247.5 -49.5t-200 -135t-132.5 -206t-49 -256.5z" />
<glyph unicode="R" horiz-adv-x="1214" d="M92 1352v82h594q173 0 284 -110t111 -288q0 -152 -80.5 -254.5t-214.5 -130.5v-4q23 -14 41 -49l234 -469q14 -30 36 -38.5t68 -8.5h29v-82h-29q-92 0 -126.5 19t-69.5 90l-215 432q-31 61 -59.5 77.5t-90.5 16.5h-291v-635h-88v1352h-133zM313 717h369q141 0 224 86.5 t83 232.5t-83 231t-224 85h-369v-635z" />
<glyph unicode="S" horiz-adv-x="1032" d="M80 170l59 68q6 -7 17 -19t49 -42.5t79.5 -54t106 -42.5t131.5 -19q135 0 227.5 83t92.5 210q0 64 -24.5 116.5t-66.5 89.5t-96.5 68.5t-114.5 58.5t-119.5 54.5t-114 62t-96.5 75.5t-66.5 99.5t-24.5 129.5q0 144 116 247t304 103q41 0 86.5 -6.5t97.5 -23t92.5 -41.5 t67 -66t26.5 -92v-90h-88v69q0 69 -83 116.5t-197 47.5q-153 0 -241.5 -77t-88.5 -185q0 -59 24.5 -108t66.5 -83t96.5 -64t114.5 -56.5t119.5 -54t114 -63.5t96.5 -79t66.5 -105.5t24.5 -138.5q0 -160 -114.5 -271.5t-301.5 -111.5q-79 0 -153.5 20t-124 48.5t-87.5 57.5 t-55 49z" />
<glyph unicode="T" horiz-adv-x="1239" d="M31 1206v117q0 63 23.5 87t86.5 24h957q63 0 86.5 -24t23.5 -87v-117h-86v101q0 24 -10.5 34.5t-34.5 10.5h-413v-1352h-89v1352h-413q-24 0 -34.5 -10.5t-10.5 -34.5v-101h-86z" />
<glyph unicode="U" horiz-adv-x="1447" d="M76 1352v82h102q63 0 91 -28t28 -91v-828q0 -195 115.5 -310.5t310.5 -115.5t311.5 116.5t116.5 314.5v823q0 63 28 91t91 28h102v-82h-88q-45 0 -45 -45v-826q0 -228 -142 -367t-372 -139t-373 139t-143 367v826q0 45 -45 45h-88z" />
<glyph unicode="V" horiz-adv-x="1308" d="M27 1352v82h14q77 0 108.5 -22t59.5 -97l387 -1041l55 -172h4q31 104 56 172l389 1041q29 76 60 97.5t108 21.5h14v-82h-12q-32 0 -50 -9t-28 -36l-490 -1307h-96l-489 1307q-10 27 -28 36t-50 9h-12z" />
<glyph unicode="W" horiz-adv-x="1894" d="M37 1352v82h14q81 0 117 -23t55 -96l271 -1049l34 -153h4q21 81 41 153l342 1159h105l305 -1159l35 -153h4q17 83 35 153l272 1049q19 73 55 96t117 23h15v-82h-17q-35 0 -54 -9t-26 -36l-344 -1307h-108l-289 1081q-11 41 -24 98t-20 93l-7 37h-4q-31 -134 -58 -226 l-321 -1083h-109l-344 1307q-7 27 -26 36t-54 9h-16z" />
<glyph unicode="X" horiz-adv-x="1128" d="M29 1352v82h34q79 0 120 -22.5t85 -96.5l203 -338l94 -160h4q43 90 86 160l205 338q44 74 85 96.5t120 22.5h35v-82h-35q-76 0 -111 -56l-329 -538l465 -758h-105l-332 545l-92 153h-4q-43 -83 -86 -155l-328 -543h-104l463 758l-328 538q-35 56 -111 56h-34z" />
<glyph unicode="Y" horiz-adv-x="1191" d="M20 1352v82h19q78 0 115.5 -21.5t83.5 -97.5l268 -447l88 -161h4q45 91 88 161l268 447q46 76 83.5 97.5t115.5 21.5h18v-82h-26q-68 0 -101 -56l-403 -673v-623h-88v623l-406 673q-33 56 -100 56h-27z" />
<glyph unicode="Z" horiz-adv-x="1165" d="M41 0v70l823 1151q23 32 49 64.5t41 49.5l15 17v4q-33 -4 -105 -4h-669q-45 0 -45 -45v-101h-87v109q0 63 28 91t91 28h893v-70l-823 -1151q-23 -32 -49 -65t-41 -50l-15 -16v-4q33 4 105 4h719q45 0 45 45v100h86v-108q0 -63 -28 -91t-91 -28h-942z" />
<glyph unicode="[" horiz-adv-x="577" d="M215 -76v1442q0 63 28 91t91 28h102v-82h-88q-45 0 -45 -45v-1426q0 -45 45 -45h88v-82h-102q-63 0 -91 28t-28 91z" />
<glyph unicode="\" horiz-adv-x="608" d="M10 1516h90l518 -1602h-90z" />
<glyph unicode="]" horiz-adv-x="577" d="M141 -113h88q45 0 45 45v1426q0 45 -45 45h-88v82h103q63 0 90.5 -28t27.5 -91v-1442q0 -63 -27.5 -91t-90.5 -28h-103v82z" />
<glyph unicode="^" horiz-adv-x="1228" d="M158 516l403 918h66l403 -918h-94l-342 795l-342 -795h-94z" />
<glyph unicode="_" horiz-adv-x="1036" d="M10 0h1016v-82h-1016v82z" />
<glyph unicode="`" horiz-adv-x="702" d="M209 1763h115l137 -227h-90z" />
<glyph unicode="a" d="M88 272q0 56 16.5 103.5t42 81.5t66 61t79.5 44.5t92 30t93 18.5t93 9.5t82.5 4t70.5 0.5h68v14q0 182 -68 256t-229 74q-26 0 -59 -4t-74 -14t-68 -31.5t-27 -51.5v-69h-86v94q0 42 36.5 74.5t91 49t103 24.5t85.5 8q113 0 190.5 -29t118 -84.5t56.5 -120.5t16 -153 v-539q0 -45 45 -45h88v-78h-101q-64 0 -91 28.5t-27 96.5l4 92h-4q2 0 -10 -25t-38.5 -60.5t-65.5 -71t-103 -60.5t-138 -25q-64 0 -124.5 18t-111.5 53t-81.5 93.5t-30.5 132.5zM178 279q0 -89 69.5 -156.5t192.5 -67.5q80 0 148 39t111.5 102t67.5 139.5t24 153.5v56h-66 q-41 0 -65.5 -0.5t-73 -2.5t-81 -6.5t-79.5 -14t-78 -22t-66 -33t-55.5 -46.5t-34.5 -62t-14 -79z" />
<glyph unicode="b" horiz-adv-x="1165" d="M43 1356v78h100q63 0 91 -28t28 -91v-404l-4 -84h4q3 9 10.5 24t37.5 53.5t67.5 67.5t105 53t146.5 24q203 0 322.5 -148t119.5 -389q0 -242 -128 -389.5t-331 -147.5q-72 0 -134.5 23t-100.5 55.5t-65.5 65t-38.5 55.5l-11 23h-4q4 -38 4 -91v-106h-86v1311q0 45 -45 45 h-88zM260 510q0 -87 22.5 -167t65 -144.5t112 -103t156.5 -38.5q156 0 260.5 123t104.5 332q0 205 -99 329t-257 124q-73 0 -137 -26.5t-116 -79.5t-82 -143t-30 -206z" />
<glyph unicode="c" horiz-adv-x="1073" d="M90 510q0 119 42.5 221t114.5 171t168.5 108t202.5 39q48 0 104.5 -10.5t116.5 -33t100 -67t40 -102.5v-78h-86v59q0 35 -29 65t-72.5 47t-89 26.5t-84.5 9.5q-185 0 -311.5 -126.5t-126.5 -328.5q0 -200 127 -325.5t311 -125.5q63 0 121.5 15t97 37t68 44t43.5 37l13 15 l45 -72q-5 -7 -16 -17.5t-47.5 -38t-78 -48.5t-108.5 -38.5t-138 -17.5q-145 0 -264.5 65t-191.5 188t-72 282z" />
<glyph unicode="d" horiz-adv-x="1173" d="M94 512q0 242 128 389.5t331 147.5q72 0 134.5 -23t100.5 -55.5t65.5 -65t38.5 -55.5l11 -23h4q-4 37 -4 84v400q0 45 -45 45h-88v78h100q63 0 91 -28t28 -91v-1192q0 -45 45 -45h88v-78h-100q-63 0 -91 28t-28 91l4 78h-4q-3 -9 -10.5 -24t-37 -53.5t-67 -67.5t-105 -53 t-146.5 -24q-203 0 -323 148.5t-120 388.5zM184 512q0 -205 99.5 -329t257.5 -124q73 0 136.5 26.5t115.5 79.5t82 142.5t30 206.5q0 87 -22.5 167t-65 144.5t-112 103t-156.5 38.5q-156 0 -260.5 -123t-104.5 -332z" />
<glyph unicode="e" horiz-adv-x="1114" d="M90 510q0 126 41 229.5t110 170.5t158.5 103t188.5 36q101 0 182.5 -38t132 -103t77 -148t26.5 -178l-5 -56h-821q0 -215 126 -341t312 -126q55 0 108 13.5t89.5 32.5t65 37.5t41.5 31.5l14 14l47 -71q-6 -6 -17 -15.5t-47.5 -34t-76.5 -43t-101 -34t-123 -15.5 q-145 0 -264.5 65t-191.5 188t-72 282zM186 606h729q-7 178 -100 270.5t-229 92.5q-148 0 -260.5 -95t-139.5 -268z" />
<glyph unicode="f" horiz-adv-x="587" d="M55 946v78h129v41q0 96 24.5 168.5t59.5 111.5t82.5 62.5t84 30t73.5 6.5l53 -4v-80q-18 4 -47 4t-57 -5t-63.5 -24t-61.5 -49.5t-44 -87t-18 -131.5v-43h281v-78h-281v-946h-86v946h-129z" />
<glyph unicode="g" horiz-adv-x="1157" d="M94 528q0 238 120.5 379.5t320.5 141.5q59 0 110.5 -10.5t86.5 -27.5t63.5 -37t45 -40.5t27.5 -37.5t15 -28l4 -10h4q-2 22 -2 47q0 63 28 91t91 28h100v-78h-88q-45 0 -45 -45v-895q0 -113 -38.5 -199.5t-105 -136.5t-148.5 -75t-177 -25q-165 0 -322 80l41 76 q14 -8 39.5 -20t98 -32t137.5 -20q175 0 282 87.5t107 264.5v109l4 84h-4q-97 -199 -340 -199q-201 0 -328 145.5t-127 382.5zM184 528q0 -205 102.5 -324.5t268.5 -119.5q71 0 129 23.5t106 73.5t74.5 138.5t26.5 208.5q0 437 -356 437q-165 0 -258 -115.5t-93 -321.5z" />
<glyph unicode="h" horiz-adv-x="1208" d="M43 1356v78h100q63 0 91 -27t28 -86v-467l-4 -84h4q11 31 33 66t60 73.5t84.5 69t113 50.5t139.5 20q97 0 164.5 -27.5t104.5 -82.5t53 -124.5t16 -165.5v-526q0 -45 45 -45h88v-78h-100q-63 0 -91 28t-28 91v499q0 61 -4 105t-19 93t-41 79t-74 50t-114 20 q-144 0 -259.5 -91.5t-153.5 -234.5q-17 -61 -17 -139v-500h-86v1311q0 45 -45 45h-88z" />
<glyph unicode="i" horiz-adv-x="471" d="M61 946v78h101q63 0 91 -28t28 -91v-782q0 -45 45 -45h88v-78h-101q-63 0 -90.5 28t-27.5 91v782q0 45 -45 45h-89zM182 1284v150h94v-150h-94z" />
<glyph unicode="j" horiz-adv-x="516" d="M-45 -336q18 -4 45 -4q30 0 58 5t63.5 24t62 49.5t44.5 87t18 131.5v944q0 45 -45 45h-88v78h100q63 0 91 -28t28 -91v-946q0 -97 -24.5 -169.5t-59.5 -111t-83 -62t-84.5 -30t-74.5 -6.5l-51 4v80zM236 1284v150h94v-150h-94z" />
<glyph unicode="k" horiz-adv-x="968" d="M43 1356v78h100q63 0 91 -28t28 -91v-697h119q33 0 68 14t57 40l289 352h114l-311 -371q-24 -27 -43.5 -44.5t-26.5 -20.5l-8 -4v-4q29 -13 62 -72l215 -383q15 -28 34.5 -37.5t63.5 -9.5h49v-78h-53q-81 0 -114 20t-72 89l-218 387q-26 47 -114 47h-111v-543h-86v1311 q0 45 -45 45h-88z" />
<glyph unicode="l" horiz-adv-x="458" d="M49 1356v78h101q63 0 90.5 -28t27.5 -91v-1192q0 -45 45 -45h88v-78h-100q-63 0 -91 28t-28 91v1192q0 45 -45 45h-88z" />
<glyph unicode="m" horiz-adv-x="1894" d="M49 946v78h101q63 0 90.5 -27t27.5 -86v-57l-4 -84h4q38 115 153 197t236 82q151 0 228.5 -69.5t95.5 -209.5h4q44 119 152 199t237 80q188 0 265 -102t77 -298v-526q0 -45 45 -45h88v-78h-100q-63 0 -91 28t-28 91v499q0 63 -5.5 111t-22 95t-44.5 77.5t-74.5 49 t-109.5 18.5q-122 0 -223 -93t-137 -219q-21 -71 -21 -157v-500h-86v618q0 60 -4 104.5t-19 94t-41.5 80.5t-73.5 51.5t-112 20.5q-130 0 -232.5 -97t-139.5 -233q-17 -61 -17 -139v-500h-86v901q0 45 -45 45h-88z" />
<glyph unicode="n" horiz-adv-x="1214" d="M49 946v78h101q63 0 90.5 -27t27.5 -86v-57l-4 -84h4q11 31 33 66t60 73.5t84.5 69t113 50.5t139.5 20q97 0 164.5 -27.5t104.5 -82.5t53 -124.5t16 -165.5v-526q0 -45 45 -45h88v-78h-100q-63 0 -91 28t-28 91v499q0 61 -4 105t-19 93t-41 79t-74 50t-114 20 q-144 0 -259.5 -91.5t-153.5 -234.5q-17 -61 -17 -139v-500h-86v901q0 45 -45 45h-88z" />
<glyph unicode="o" horiz-adv-x="1241" d="M90 518q0 147 71 269t193 192t267 70t266.5 -70t192.5 -192t71 -269q0 -150 -71 -275t-192.5 -196.5t-266.5 -71.5q-108 0 -206 42.5t-169.5 114.5t-113.5 173t-42 213zM180 518q0 -194 128.5 -326.5t312.5 -132.5t312 132.5t128 326.5q0 189 -128 318t-312 129 t-312.5 -129t-128.5 -318z" />
<glyph unicode="p" horiz-adv-x="1171" d="M49 946v78h101q63 0 90.5 -27t27.5 -86l-2 -82h4q3 9 10 24t36.5 52.5t66.5 66.5t104.5 53t147.5 24q203 0 322.5 -148t119.5 -389q0 -242 -127 -389.5t-327 -147.5q-55 0 -104.5 12t-84.5 32t-64 43.5t-47.5 47t-31 43.5t-17.5 32l-6 12h-4q4 -38 4 -91v-516h-86v1311 q0 45 -45 45h-88zM266 510q0 -117 39.5 -218t122.5 -168t195 -67q156 0 260 123t104 332q0 205 -99 329t-257 124q-73 0 -137 -26.5t-116 -79.5t-82 -143t-30 -206z" />
<glyph unicode="q" horiz-adv-x="1173" d="M96 512q0 242 128 389.5t331 147.5q72 0 134.5 -22.5t100 -55t64.5 -65t38 -54.5l11 -23h4q-2 35 -2 82q0 59 28 86t89 27h102v-78h-88q-45 0 -45 -45v-1311h-86v516l4 91h-4q-3 -9 -10.5 -24t-37 -53.5t-67 -67.5t-105 -53t-146.5 -24q-203 0 -323 148.5t-120 388.5z M186 512q0 -205 99.5 -329t257.5 -124q73 0 136.5 26.5t115.5 79.5t82 142.5t30 206.5q0 87 -22.5 167t-65 144.5t-112 103t-156.5 38.5q-156 0 -260.5 -123t-104.5 -332z" />
<glyph unicode="r" horiz-adv-x="696" d="M49 946v78h101q63 0 90.5 -27t27.5 -86v-71l-4 -84h4q40 125 123.5 200.5t200.5 75.5l59 -6v-86q-24 4 -47 4q-113 0 -190.5 -81t-114.5 -206q-31 -97 -31 -215v-442h-86v901q0 45 -45 45h-88z" />
<glyph unicode="s" horiz-adv-x="874" d="M63 152l62 63q4 -6 12.5 -16.5t38 -37.5t63.5 -47.5t89 -37.5t114 -17q105 0 178.5 51t73.5 142q0 46 -25.5 83.5t-67 62t-94.5 48.5t-108 43.5t-108 47.5t-94.5 59t-67 79t-25.5 107q0 128 96.5 197.5t254.5 69.5q38 0 83 -9t93 -27.5t80 -55t32 -83.5v-77h-86v49 q0 40 -35.5 68.5t-78.5 39.5t-84 11q-126 0 -195 -45t-69 -132q0 -53 32.5 -94t84.5 -68t114.5 -52t125.5 -52.5t115 -61t84.5 -86.5t32.5 -122q0 -122 -98 -199.5t-246 -77.5q-72 0 -137.5 18t-107.5 44t-73 52.5t-45 44.5z" />
<glyph unicode="t" horiz-adv-x="655" d="M61 946v78h136v285h86v-285h268v-78h-268v-569q0 -77 18 -135t43.5 -89.5t61 -50.5t63.5 -24.5t57 -5.5l47 4v-80q-20 -4 -51 -4q-39 0 -75.5 6.5t-84 29.5t-82 62t-59 111.5t-24.5 169.5v575h-136z" />
<glyph unicode="u" horiz-adv-x="1204" d="M45 946v78h100q63 0 91 -27t28 -86v-505q0 -61 4 -105t19 -93t41 -79t74 -50t114 -20q124 0 221.5 66.5t148 172t50.5 226.5v500h86v-901q0 -45 45 -45h88v-78h-100q-63 0 -91 27t-28 86v57l4 84h-4q-11 -31 -33 -66t-59 -73.5t-82.5 -69t-110 -50.5t-135.5 -20 q-183 0 -260.5 98.5t-77.5 301.5v526q0 45 -45 45h-88z" />
<glyph unicode="v" horiz-adv-x="1036" d="M31 946v78h14q77 0 108 -22t60 -97l268 -684l35 -110h4q17 61 35 110l268 684q29 75 60 97t108 22h15v-78h-17q-31 0 -49.5 -10.5t-28.5 -38.5l-352 -897h-82l-352 897q-10 28 -28.5 38.5t-49.5 10.5h-16z" />
<glyph unicode="w" horiz-adv-x="1705" d="M20 946v78h25q78 0 110 -22t58 -97l238 -684l34 -110h4q19 61 35 110l281 799h96l281 -799l35 -110h4q16 59 34 110l238 684q26 75 58 97t110 22h25v-78h-27q-31 0 -49.5 -10.5t-28.5 -38.5l-315 -897h-92l-285 795l-35 110h-4q-17 -61 -35 -110l-283 -795h-92l-315 897 q-10 28 -28.5 38.5t-49.5 10.5h-27z" />
<glyph unicode="x" horiz-adv-x="946" d="M37 946v78h29q83 0 116.5 -20.5t85.5 -98.5l168 -254l35 -59h4q19 32 35 59l168 254q52 78 86 98.5t117 20.5h28v-78h-28q-70 0 -103 -43l-246 -362l369 -541h-106l-283 424l-37 59h-4q-17 -28 -37 -59l-282 -424h-107l369 541l-246 360q-33 45 -102 45h-29z" />
<glyph unicode="y" horiz-adv-x="1089" d="M23 -334l51 66q0 -1 7 -9t21.5 -20t32.5 -23.5t42.5 -19.5t49.5 -8q122 0 201 184l74 170l-371 891q-12 28 -29.5 38.5t-48.5 10.5h-16v78h14q76 0 106.5 -22t61.5 -97l291 -698l35 -96h4q15 47 35 96l288 698q31 75 61.5 97t106.5 22h15v-78h-17q-31 0 -48 -10.5 t-29 -38.5l-474 -1137q-36 -85 -102 -137.5t-158 -52.5q-37 0 -72 10t-58 24t-40.5 28t-25.5 24z" />
<glyph unicode="z" horiz-adv-x="1009" d="M92 0v70l621 780l80 94v4q-37 -4 -105 -4h-461q-45 0 -45 -45v-88h-84v94q0 63 28 91t91 28h692v-70l-622 -780q-16 -21 -36.5 -44.5t-32.5 -36.5l-13 -13v-4q38 4 106 4h512q45 0 45 45v88h84v-94q0 -63 -27.5 -91t-90.5 -28h-742z" />
<glyph unicode="{" horiz-adv-x="645" d="M76 616v82q7 1 19 4t42 19t52.5 40t41.5 72t19 109v166q0 99 23.5 172.5t55 110.5t74 59.5t70.5 27.5t55 5h19v-80h-12q-19 0 -39 -4t-50 -21.5t-52.5 -46.5t-39 -86.5t-16.5 -134.5v-190q0 -56 -16.5 -103t-40.5 -75t-48 -48t-41 -28l-16 -7v-4q7 -2 17.5 -7t38.5 -25 t49.5 -46.5t39 -75t17.5 -106.5v-217q0 -77 16.5 -134.5t39 -86.5t52.5 -46.5t50 -21.5t39 -4h12v-80q-7 -2 -19 -2q-27 0 -55 5t-70.5 27.5t-74 60t-55 111.5t-23.5 173v193q0 61 -18 108.5t-43.5 72t-51 39.5t-43.5 19z" />
<glyph unicode="|" horiz-adv-x="559" d="M236 -317v1925h88v-1925h-88z" />
<glyph unicode="}" horiz-adv-x="645" d="M98 -115h13q19 0 39 4t50 21.5t52 46.5t38.5 86.5t16.5 134.5v217q0 58 16.5 106t40.5 75.5t48 46.5t40 25l17 7v4q-7 3 -17.5 8t-38.5 26.5t-49.5 48.5t-39 74.5t-17.5 103.5v190q0 77 -16.5 134.5t-38.5 86.5t-52 46.5t-50 21.5t-39 4h-13v80h19q27 0 55 -5t70.5 -27.5 t74 -59.5t55 -110.5t23.5 -172.5v-166q0 -61 18 -109t43.5 -72t51 -39.5t43.5 -19.5l18 -4v-82q-7 -1 -19 -4t-42 -19t-52.5 -39.5t-41.5 -71.5t-19 -109v-193q0 -99 -23.5 -173t-55 -111.5t-74 -60t-70.5 -27.5t-55 -5l-19 2v80z" />
<glyph unicode="~" horiz-adv-x="1228" d="M147 436q0 152 64.5 223.5t171.5 71.5q54 0 98.5 -16.5t72 -41.5t56.5 -54.5t53 -54.5t61 -41.5t81 -16.5q48 0 81 23t47.5 60.5t19.5 69t5 64.5h82q0 -152 -64 -223.5t-171 -71.5q-54 0 -98.5 16.5t-72 41.5t-56.5 54.5t-53 54.5t-61 41.5t-81 16.5q-39 0 -68.5 -16.5 t-45 -39.5t-25.5 -55t-12.5 -56.5t-2.5 -49.5h-82z" />
<glyph unicode="&#xa1;" horiz-adv-x="575" d="M227 903v121h117v-121h-117zM244 -410v1076h88v-1076h-88z" />
<glyph unicode="&#xa2;" horiz-adv-x="1079" d="M113 717q0 153 43 275.5t136.5 203t227.5 92.5v228h88v-228q236 -22 359 -291l-84 -32q-106 237 -314 237q-93 0 -164.5 -37.5t-114 -105t-64 -153.5t-21.5 -189t21.5 -189.5t64 -153.5t114 -105t164.5 -38q208 0 314 238l84 -33q-124 -272 -359 -291v-227h-88v227 q-134 12 -227.5 93t-136.5 203.5t-43 275.5z" />
<glyph unicode="&#xa3;" horiz-adv-x="1187" d="M117 0v82h133v600h-92v82h92v332q0 154 114 258t289 104q51 0 100.5 -10.5t84.5 -26t62 -31t40 -26.5l14 -10l-59 -68q-4 3 -11.5 9t-33 21t-52 26t-67 20.5t-80.5 9.5q-147 0 -230 -82.5t-83 -202.5v-323h405v-82h-405v-600h625q45 0 45 45v100h86v-108q0 -63 -28 -91 t-91 -28h-858z" />
<glyph unicode="&#xa5;" horiz-adv-x="1228" d="M39 1352v82h10q80 0 121.5 -22.5t85.5 -96.5l268 -447l88 -159h4q46 89 89 159l268 447q44 74 85.5 96.5t121.5 22.5h10v-82h-16q-77 0 -105 -45l-301 -500v-4h221v-82h-272l-58 -98v-86h330v-82h-330v-455h-88v455h-331v82h331v86l-59 98h-283v82h232v4l-303 500 q-28 45 -105 45h-14z" />
<glyph unicode="&#xa8;" horiz-adv-x="995" d="M348 1614v149h94v-149h-94zM629 1614v149h94v-149h-94z" />
<glyph unicode="&#xa9;" horiz-adv-x="1634" d="M92 717q0 152 57 289.5t153.5 236.5t230 157t280.5 58q150 0 285 -58t232.5 -157t154.5 -236t57 -290t-57 -291t-154.5 -236.5t-232.5 -156.5t-285 -58q-197 0 -362.5 98t-262 269t-96.5 375zM184 717q0 -183 83 -333.5t227.5 -236.5t318.5 -86q177 0 323.5 86t230 236.5 t83.5 333.5q0 136 -49.5 257.5t-134 208.5t-202.5 138t-251 51q-174 0 -318.5 -86t-227.5 -236.5t-83 -332.5zM397 715q0 82 28.5 158.5t82 138t139.5 98.5t191 37q60 0 116 -18.5t93.5 -45t67 -53t43.5 -44.5l13 -19l-67 -60q-4 6 -11.5 16.5t-33.5 36.5t-54.5 46 t-73.5 36.5t-91 16.5q-165 0 -258 -101.5t-93 -240.5q0 -65 22.5 -125.5t65 -109t111 -78t152.5 -29.5q48 0 92.5 15.5t74.5 37.5t53 44.5t34 37.5l10 16l67 -59q-5 -7 -14.5 -19.5t-42 -43.5t-68.5 -54.5t-92.5 -43t-115.5 -19.5q-106 0 -192 36.5t-139 97.5t-81.5 136.5 t-28.5 157.5z" />
<glyph unicode="&#xab;" horiz-adv-x="985" d="M70 578l336 421h108l-336 -421l336 -420h-108zM397 578l336 421h109l-336 -421l336 -420h-109z" />
<glyph unicode="&#xad;" horiz-adv-x="884" d="M160 539v82h565v-82h-565z" />
<glyph unicode="&#xae;" horiz-adv-x="1634" d="M92 717q0 152 57 289.5t153.5 236.5t230 157t280.5 58q150 0 285 -58t232.5 -157t154.5 -236t57 -290t-57 -291t-154.5 -236.5t-232.5 -156.5t-285 -58q-197 0 -362.5 98t-262 269t-96.5 375zM184 717q0 -183 83 -333.5t227.5 -236.5t318.5 -86q177 0 323.5 86t230 236.5 t83.5 333.5q0 136 -49.5 257.5t-134 208.5t-202.5 138t-251 51q-174 0 -318.5 -86t-227.5 -236.5t-83 -332.5zM500 1044v82h348q105 0 171 -65t66 -172q0 -87 -45 -145t-112 -74v-4q21 -8 39 -43l104 -211q6 -13 16.5 -19t19 -7t23.5 -1h21v-78h-43q-50 0 -73.5 11t-43.5 51 l-117 231q-17 31 -31.5 40t-43.5 9h-133v-342h-91v737h-75zM666 727h172q71 0 113 43.5t42 118.5q0 73 -42 114t-113 41h-172v-317z" />
<glyph unicode="&#xb4;" horiz-adv-x="731" d="M227 1536l138 227h114l-162 -227h-90z" />
<glyph unicode="&#xb8;" horiz-adv-x="839" d="M225 -332q37 -10 84 -10q111 0 111 76q0 36 -33 57t-92 21l-25 -2l49 227l66 -10v-17l-25 -133q64 -9 103 -46.5t39 -92.5q0 -79 -53.5 -117.5t-133.5 -38.5q-24 0 -46.5 2t-32.5 4l-11 2v78z" />
<glyph unicode="&#xbb;" horiz-adv-x="985" d="M143 158l336 420l-336 421h109l336 -421l-336 -420h-109zM471 158l336 420l-336 421h109l335 -421l-335 -420h-109z" />
<glyph unicode="&#xbc;" horiz-adv-x="1773" d="M162 541v77h194v629l2 72h-4q-12 -23 -28 -39l-105 -102l-55 55l199 201h73v-816h193v-77h-469zM522 0l627 1434h94l-625 -1434h-96zM979 248v57l455 588h71v-567h140v-78h-140v-248h-80v248h-446zM1090 324q31 2 45 2h290v344l2 84h-4q-14 -27 -34 -54l-269 -344 l-30 -30v-2z" />
<glyph unicode="&#xbd;" horiz-adv-x="1773" d="M162 541v77h194v629l2 72h-4q-12 -23 -28 -39l-105 -102l-55 55l199 201h73v-816h193v-77h-469zM502 0l626 1434h95l-625 -1434h-96zM1020 86q0 37 8.5 70.5t20 59t34.5 51.5t40.5 42.5t50 38t51.5 33t55 31.5q54 30 81.5 48t63.5 49t52 67t16 81q0 74 -50.5 123 t-135.5 49q-64 0 -111 -27.5t-47 -64.5v-55h-80v68q0 41 25 73.5t63.5 50t77 26.5t72.5 9q130 0 200 -72.5t70 -179.5q0 -35 -9 -66.5t-19.5 -54.5t-35 -49t-39.5 -40.5t-50 -37t-50 -31.5t-55 -32q-38 -23 -56 -34t-49.5 -33t-47 -39t-33.5 -40.5t-25.5 -50.5t-7.5 -57 q0 -14 14 -14h410q12 0 12 14v74h80v-80q0 -45 -20.5 -65.5t-65.5 -20.5h-424q-45 0 -65.5 20.5t-20.5 65.5z" />
<glyph unicode="&#xbe;" horiz-adv-x="1773" d="M131 657l59 60q4 -5 11 -12.5t31 -27t49.5 -34.5t64 -27t76.5 -12q80 0 141.5 57t61.5 144q0 88 -64.5 140t-152.5 52h-70l-19 54l218 256q10 12 23 24.5t20 19.5l8 7v4q-37 -6 -78 -6h-229q-23 0 -23 -23v-61h-80v65q0 56 20.5 76.5t75.5 20.5h428v-56l-264 -307 q42 0 87 -15.5t87 -45.5t69.5 -84t27.5 -121q0 -118 -85 -199.5t-204 -81.5q-48 0 -95 13.5t-80.5 33t-60 39.5t-40.5 34zM522 0l627 1434h94l-625 -1434h-96zM979 248v57l455 588h71v-567h140v-78h-140v-248h-80v248h-446zM1090 324q31 2 45 2h290v344l2 84h-4 q-14 -27 -34 -54l-269 -344l-30 -30v-2z" />
<glyph unicode="&#xbf;" horiz-adv-x="841" d="M61 -78q0 69 20.5 127.5t53 101t72 80.5t79.5 74.5t72.5 75t53 89.5t20.5 110v86h88v-86q0 -68 -20 -127t-52.5 -102.5t-71.5 -83t-78 -77t-71.5 -76t-52.5 -88.5t-20 -106q0 -112 83.5 -188t215.5 -76q67 0 132 21.5t97 42.5l31 22l47 -70q-5 -4 -14 -11t-40 -24.5 t-64.5 -31t-84 -24.5t-102.5 -11q-175 0 -284.5 99.5t-109.5 252.5zM418 903v121h117v-121h-117z" />
<glyph unicode="&#xc0;" horiz-adv-x="1329" d="M27 0v82h22q32 0 50 9t28 36l489 1307h97l489 -1307q10 -27 28 -36t50 -9h23v-82h-25q-77 0 -108.5 22t-59.5 97l-141 377h-609l-141 -377q-28 -75 -59.5 -97t-108.5 -22h-24zM391 578h549l-219 581q-10 27 -24 70t-23 73l-8 29h-4q-31 -111 -54 -172zM459 1763h114 l138 -227h-90z" />
<glyph unicode="&#xc1;" horiz-adv-x="1329" d="M27 0v82h22q32 0 50 9t28 36l489 1307h97l489 -1307q10 -27 28 -36t50 -9h23v-82h-25q-77 0 -108.5 22t-59.5 97l-141 377h-609l-141 -377q-28 -75 -59.5 -97t-108.5 -22h-24zM391 578h549l-219 581q-10 27 -24 70t-23 73l-8 29h-4q-31 -111 -54 -172zM621 1536l137 227 h114l-161 -227h-90z" />
<glyph unicode="&#xc2;" horiz-adv-x="1329" d="M27 0v82h22q32 0 50 9t28 36l489 1307h97l489 -1307q10 -27 28 -36t50 -9h23v-82h-25q-77 0 -108.5 22t-59.5 97l-141 377h-609l-141 -377q-28 -75 -59.5 -97t-108.5 -22h-24zM391 578h549l-219 581q-10 27 -24 70t-23 73l-8 29h-4q-31 -111 -54 -172zM449 1536l163 227 h107l164 -227h-101l-114 164h-4l-115 -164h-100z" />
<glyph unicode="&#xc3;" horiz-adv-x="1329" d="M27 0v82h22q32 0 50 9t28 36l489 1307h97l489 -1307q10 -27 28 -36t50 -9h23v-82h-25q-77 0 -108.5 22t-59.5 97l-141 377h-609l-141 -377q-28 -75 -59.5 -97t-108.5 -22h-24zM365 1542q0 221 170 221q38 0 69.5 -15.5t53.5 -37.5t41.5 -44.5t43.5 -38t50 -15.5 q25 0 42.5 15.5t25 40.5t10.5 46t3 43h82q0 -221 -170 -221q-38 0 -69.5 15.5t-53.5 38t-41.5 45t-43.5 38t-50 15.5q-33 0 -53 -28.5t-24.5 -57.5t-4.5 -60h-81zM391 578h549l-219 581q-10 27 -24 70t-23 73l-8 29h-4q-31 -111 -54 -172z" />
<glyph unicode="&#xc4;" horiz-adv-x="1329" d="M27 0v82h22q32 0 50 9t28 36l489 1307h97l489 -1307q10 -27 28 -36t50 -9h23v-82h-25q-77 0 -108.5 22t-59.5 97l-141 377h-609l-141 -377q-28 -75 -59.5 -97t-108.5 -22h-24zM391 578h549l-219 581q-10 27 -24 70t-23 73l-8 29h-4q-31 -111 -54 -172zM479 1614v149h94 v-149h-94zM760 1614v149h94v-149h-94z" />
<glyph unicode="&#xc5;" horiz-adv-x="1329" d="M27 0v82h22q32 0 50 9t28 36l489 1307h97l489 -1307q10 -27 28 -36t50 -9h23v-82h-25q-77 0 -108.5 22t-59.5 97l-141 377h-609l-141 -377q-28 -75 -59.5 -97t-108.5 -22h-24zM391 578h549l-219 581q-10 27 -24 70t-23 73l-8 29h-4q-31 -111 -54 -172zM528 1653 q0 58 39.5 97.5t98.5 39.5q58 0 97.5 -39t39.5 -98t-39.5 -98t-97.5 -39q-59 0 -98.5 39.5t-39.5 97.5zM600 1653q0 -29 18.5 -47.5t47.5 -18.5t47 18.5t18 47.5q0 31 -18 49t-47 18q-30 0 -48 -18t-18 -49z" />
<glyph unicode="&#xc6;" horiz-adv-x="1624" d="M27 0v82h12q32 0 50 9t28 36l489 1307h785q63 0 90.5 -28t27.5 -91v-109h-86v101q0 45 -45 45h-544v-588h550v-82h-550v-555q0 -29 13.5 -37t47.5 -8h545q45 0 45 45v100h86v-108q0 -63 -28 -91t-91 -28h-563q-81 0 -112.5 23t-31.5 96v563h-325l-211 -563 q-28 -75 -59.5 -97t-108.5 -22h-14zM451 764h294v588h-75z" />
<glyph unicode="&#xc7;" horiz-adv-x="1409" d="M84 727q0 205 91.5 372.5t252 263t356.5 95.5q83 0 173 -18t172 -52.5t135 -93.5t53 -131v-102h-88v82q0 69 -73.5 123.5t-173 80t-196.5 25.5q-171 0 -310.5 -83.5t-219.5 -231.5t-80 -330q0 -184 78 -336t218 -241t314 -89q86 0 168.5 21t138.5 51.5t99.5 60.5t64.5 51 l21 21l55 -63q-8 -9 -23 -24t-66.5 -54t-109 -69t-150 -55t-189.5 -26l-19 -98q64 -9 103 -46.5t39 -92.5q0 -79 -53.5 -117.5t-133.5 -38.5q-24 0 -46.5 2t-32.5 4l-11 2v78q37 -10 84 -10q111 0 111 76q0 36 -33 57t-92 21l-25 -2l37 167q-186 16 -332.5 120t-226.5 269 t-80 361z" />
<glyph unicode="&#xc8;" horiz-adv-x="1124" d="M92 1352v82h799q63 0 91 -28t28 -91v-109h-86v101q0 45 -45 45h-566v-588h572v-82h-572v-555q0 -45 45 -45h582q45 0 45 45v100h86v-108q0 -63 -28 -91t-91 -28h-608q-63 0 -91 28t-28 91v1233h-133zM393 1763h115l137 -227h-90z" />
<glyph unicode="&#xc9;" horiz-adv-x="1124" d="M92 1352v82h799q63 0 91 -28t28 -91v-109h-86v101q0 45 -45 45h-566v-588h572v-82h-572v-555q0 -45 45 -45h582q45 0 45 45v100h86v-108q0 -63 -28 -91t-91 -28h-608q-63 0 -91 28t-28 91v1233h-133zM555 1536l137 227h115l-162 -227h-90z" />
<glyph unicode="&#xca;" horiz-adv-x="1124" d="M92 1352v82h799q63 0 91 -28t28 -91v-109h-86v101q0 45 -45 45h-566v-588h572v-82h-572v-555q0 -45 45 -45h582q45 0 45 45v100h86v-108q0 -63 -28 -91t-91 -28h-608q-63 0 -91 28t-28 91v1233h-133zM383 1536l164 227h106l164 -227h-100l-115 164h-4l-115 -164h-100z " />
<glyph unicode="&#xcb;" horiz-adv-x="1124" d="M92 1352v82h799q63 0 91 -28t28 -91v-109h-86v101q0 45 -45 45h-566v-588h572v-82h-572v-555q0 -45 45 -45h582q45 0 45 45v100h86v-108q0 -63 -28 -91t-91 -28h-608q-63 0 -91 28t-28 91v1233h-133zM414 1614v149h94v-149h-94zM694 1614v149h94v-149h-94z" />
<glyph unicode="&#xcc;" horiz-adv-x="555" d="M70 1763h114l138 -227h-91zM102 0v82h131v1270h-131v82h351v-82h-131v-1270h131v-82h-351z" />
<glyph unicode="&#xcd;" horiz-adv-x="555" d="M102 0v82h131v1270h-131v82h351v-82h-131v-1270h131v-82h-351zM231 1536l138 227h114l-161 -227h-91z" />
<glyph unicode="&#xce;" horiz-adv-x="555" d="M59 1536l164 227h107l164 -227h-101l-114 164h-5l-114 -164h-101zM102 0v82h131v1270h-131v82h351v-82h-131v-1270h131v-82h-351z" />
<glyph unicode="&#xcf;" horiz-adv-x="555" d="M90 1614v149h94v-149h-94zM102 0v82h131v1270h-131v82h351v-82h-131v-1270h131v-82h-351zM371 1614v149h94v-149h-94z" />
<glyph unicode="&#xd1;" horiz-adv-x="1548" d="M92 0v82h88q45 0 45 45v1307h82l817 -1125q21 -29 50 -74t48 -75l19 -31h4q-10 108 -10 180v1006q0 63 28 91t91 28h102v-82h-88q-45 0 -45 -45v-1307h-82l-817 1124q-21 29 -50 74.5t-48 75.5l-19 31h-4q10 -109 10 -181v-1005q0 -63 -27.5 -91t-90.5 -28h-103z M498 1542q0 221 170 221q38 0 69.5 -15.5t53.5 -37.5t41.5 -44.5t43.5 -38t50 -15.5q25 0 43 15.5t25.5 40.5t10.5 46t3 43h82q0 -221 -170 -221q-38 0 -69.5 15.5t-53.5 38t-41.5 45t-43.5 38t-50 15.5q-33 0 -53 -28.5t-24.5 -57.5t-4.5 -60h-82z" />
<glyph unicode="&#xd2;" horiz-adv-x="1617" d="M84 727q0 152 57.5 288t155 232.5t231.5 153.5t281 57t281 -57t231.5 -153.5t155 -232.5t57.5 -288q0 -155 -57.5 -295t-155 -240t-231.5 -158.5t-281 -58.5t-281 58.5t-231.5 158.5t-155 240t-57.5 295zM176 727q0 -184 85 -337.5t230 -241t318 -87.5t318 87.5t230 241 t85 337.5q0 179 -85 327.5t-230 233t-318 84.5t-318 -84.5t-230 -233t-85 -327.5zM596 1763h115l137 -227h-90z" />
<glyph unicode="&#xd3;" horiz-adv-x="1617" d="M84 727q0 152 57.5 288t155 232.5t231.5 153.5t281 57t281 -57t231.5 -153.5t155 -232.5t57.5 -288q0 -155 -57.5 -295t-155 -240t-231.5 -158.5t-281 -58.5t-281 58.5t-231.5 158.5t-155 240t-57.5 295zM176 727q0 -184 85 -337.5t230 -241t318 -87.5t318 87.5t230 241 t85 337.5q0 179 -85 327.5t-230 233t-318 84.5t-318 -84.5t-230 -233t-85 -327.5zM758 1536l137 227h115l-162 -227h-90z" />
<glyph unicode="&#xd4;" horiz-adv-x="1617" d="M84 727q0 152 57.5 288t155 232.5t231.5 153.5t281 57t281 -57t231.5 -153.5t155 -232.5t57.5 -288q0 -155 -57.5 -295t-155 -240t-231.5 -158.5t-281 -58.5t-281 58.5t-231.5 158.5t-155 240t-57.5 295zM176 727q0 -184 85 -337.5t230 -241t318 -87.5t318 87.5t230 241 t85 337.5q0 179 -85 327.5t-230 233t-318 84.5t-318 -84.5t-230 -233t-85 -327.5zM586 1536l164 227h106l164 -227h-100l-115 164h-4l-115 -164h-100z" />
<glyph unicode="&#xd5;" horiz-adv-x="1617" d="M84 727q0 152 57.5 288t155 232.5t231.5 153.5t281 57t281 -57t231.5 -153.5t155 -232.5t57.5 -288q0 -155 -57.5 -295t-155 -240t-231.5 -158.5t-281 -58.5t-281 58.5t-231.5 158.5t-155 240t-57.5 295zM176 727q0 -184 85 -337.5t230 -241t318 -87.5t318 87.5t230 241 t85 337.5q0 179 -85 327.5t-230 233t-318 84.5t-318 -84.5t-230 -233t-85 -327.5zM502 1542q0 221 170 221q38 0 69.5 -15.5t53.5 -37.5t41.5 -44.5t43.5 -38t50 -15.5q25 0 43 15.5t25.5 40.5t10.5 46t3 43h82q0 -221 -170 -221q-38 0 -69.5 15.5t-53.5 38t-41.5 45 t-43.5 38t-50 15.5q-33 0 -53 -28.5t-24.5 -57.5t-4.5 -60h-82z" />
<glyph unicode="&#xd6;" horiz-adv-x="1617" d="M84 727q0 152 57.5 288t155 232.5t231.5 153.5t281 57t281 -57t231.5 -153.5t155 -232.5t57.5 -288q0 -155 -57.5 -295t-155 -240t-231.5 -158.5t-281 -58.5t-281 58.5t-231.5 158.5t-155 240t-57.5 295zM176 727q0 -184 85 -337.5t230 -241t318 -87.5t318 87.5t230 241 t85 337.5q0 179 -85 327.5t-230 233t-318 84.5t-318 -84.5t-230 -233t-85 -327.5zM616 1614v149h95v-149h-95zM897 1614v149h94v-149h-94z" />
<glyph unicode="&#xd8;" horiz-adv-x="1626" d="M88 727q0 152 57.5 288t155 232.5t231.5 153.5t281 57q209 0 389 -115l101 140l69 -51l-98 -140q123 -102 193.5 -249t70.5 -316q0 -155 -57.5 -295t-155 -240t-231.5 -158.5t-281 -58.5q-220 0 -395 121l-103 -143l-71 49l104 145q-122 105 -191 255.5t-69 324.5z M180 727q0 -153 58 -284.5t161 -223.5l754 1055q-157 98 -340 98q-173 0 -318 -84.5t-230 -233t-85 -327.5zM467 166q159 -105 346 -105q173 0 318 87.5t230 241t85 337.5q0 148 -60 276t-165 218z" />
<glyph unicode="&#xd9;" horiz-adv-x="1447" d="M76 1352v82h102q63 0 91 -28t28 -91v-828q0 -195 115.5 -310.5t310.5 -115.5t311.5 116.5t116.5 314.5v823q0 63 28 91t91 28h102v-82h-88q-45 0 -45 -45v-826q0 -228 -142 -367t-372 -139t-373 139t-143 367v826q0 45 -45 45h-88zM520 1763h115l137 -227h-90z" />
<glyph unicode="&#xda;" horiz-adv-x="1447" d="M76 1352v82h102q63 0 91 -28t28 -91v-828q0 -195 115.5 -310.5t310.5 -115.5t311.5 116.5t116.5 314.5v823q0 63 28 91t91 28h102v-82h-88q-45 0 -45 -45v-826q0 -228 -142 -367t-372 -139t-373 139t-143 367v826q0 45 -45 45h-88zM682 1536l137 227h115l-162 -227h-90z " />
<glyph unicode="&#xdb;" horiz-adv-x="1447" d="M76 1352v82h102q63 0 91 -28t28 -91v-828q0 -195 115.5 -310.5t310.5 -115.5t311.5 116.5t116.5 314.5v823q0 63 28 91t91 28h102v-82h-88q-45 0 -45 -45v-826q0 -228 -142 -367t-372 -139t-373 139t-143 367v826q0 45 -45 45h-88zM510 1536l164 227h106l164 -227h-100 l-115 164h-4l-115 -164h-100z" />
<glyph unicode="&#xdc;" horiz-adv-x="1447" d="M76 1352v82h102q63 0 91 -28t28 -91v-828q0 -195 115.5 -310.5t310.5 -115.5t311.5 116.5t116.5 314.5v823q0 63 28 91t91 28h102v-82h-88q-45 0 -45 -45v-826q0 -228 -142 -367t-372 -139t-373 139t-143 367v826q0 45 -45 45h-88zM541 1614v149h94v-149h-94zM821 1614 v149h94v-149h-94z" />
<glyph unicode="&#xdd;" horiz-adv-x="1191" d="M20 1352v82h19q78 0 115.5 -21.5t83.5 -97.5l268 -447l88 -161h4q45 91 88 161l268 447q46 76 83.5 97.5t115.5 21.5h18v-82h-26q-68 0 -101 -56l-403 -673v-623h-88v623l-406 673q-33 56 -100 56h-27zM553 1536l137 227h115l-162 -227h-90z" />
<glyph unicode="&#xdf;" horiz-adv-x="1105" d="M43 0v78h88q45 0 45 45v967q0 70 22 130t59 103.5t86.5 74t104.5 45.5t113 15q152 0 241 -84.5t89 -197.5q0 -58 -25.5 -109.5t-62 -88t-73 -69t-62 -67t-25.5 -68.5q0 -37 32 -75.5t80 -70t104 -72t104 -81t80 -99.5t32 -124q0 -132 -92 -204.5t-223 -72.5 q-56 0 -110 14t-91.5 33.5t-66.5 39t-44 33.5l-14 14l49 67q5 -5 14 -13t38.5 -28t60.5 -35.5t76.5 -28t89.5 -12.5q95 0 159 48.5t64 144.5q0 46 -24 88.5t-62 75.5t-84 65t-92 63.5t-84 64t-62 74t-24 87.5q0 48 25.5 92t62 78.5t73 68t62 77t25.5 90.5q0 77 -64.5 137.5 t-179.5 60.5q-117 0 -206 -79.5t-89 -211.5v-964q0 -63 -28 -91t-91 -28h-100z" />
<glyph unicode="&#xe0;" d="M88 272q0 56 16.5 103.5t42 81.5t66 61t79.5 44.5t92 30t93 18.5t93 9.5t82.5 4t70.5 0.5h68v14q0 182 -68 256t-229 74q-26 0 -59 -4t-74 -14t-68 -31.5t-27 -51.5v-69h-86v94q0 42 36.5 74.5t91 49t103 24.5t85.5 8q113 0 190.5 -29t118 -84.5t56.5 -120.5t16 -153 v-539q0 -45 45 -45h88v-78h-101q-64 0 -91 28.5t-27 96.5l4 92h-4q2 0 -10 -25t-38.5 -60.5t-65.5 -71t-103 -60.5t-138 -25q-64 0 -124.5 18t-111.5 53t-81.5 93.5t-30.5 132.5zM178 279q0 -89 69.5 -156.5t192.5 -67.5q80 0 148 39t111.5 102t67.5 139.5t24 153.5v56h-66 q-41 0 -65.5 -0.5t-73 -2.5t-81 -6.5t-79.5 -14t-78 -22t-66 -33t-55.5 -46.5t-34.5 -62t-14 -79zM315 1434h115l137 -228h-90z" />
<glyph unicode="&#xe1;" d="M88 272q0 56 16.5 103.5t42 81.5t66 61t79.5 44.5t92 30t93 18.5t93 9.5t82.5 4t70.5 0.5h68v14q0 182 -68 256t-229 74q-26 0 -59 -4t-74 -14t-68 -31.5t-27 -51.5v-69h-86v94q0 42 36.5 74.5t91 49t103 24.5t85.5 8q113 0 190.5 -29t118 -84.5t56.5 -120.5t16 -153 v-539q0 -45 45 -45h88v-78h-101q-64 0 -91 28.5t-27 96.5l4 92h-4q2 0 -10 -25t-38.5 -60.5t-65.5 -71t-103 -60.5t-138 -25q-64 0 -124.5 18t-111.5 53t-81.5 93.5t-30.5 132.5zM178 279q0 -89 69.5 -156.5t192.5 -67.5q80 0 148 39t111.5 102t67.5 139.5t24 153.5v56h-66 q-41 0 -65.5 -0.5t-73 -2.5t-81 -6.5t-79.5 -14t-78 -22t-66 -33t-55.5 -46.5t-34.5 -62t-14 -79zM477 1206l137 228h115l-162 -228h-90z" />
<glyph unicode="&#xe2;" d="M88 272q0 56 16.5 103.5t42 81.5t66 61t79.5 44.5t92 30t93 18.5t93 9.5t82.5 4t70.5 0.5h68v14q0 182 -68 256t-229 74q-26 0 -59 -4t-74 -14t-68 -31.5t-27 -51.5v-69h-86v94q0 42 36.5 74.5t91 49t103 24.5t85.5 8q113 0 190.5 -29t118 -84.5t56.5 -120.5t16 -153 v-539q0 -45 45 -45h88v-78h-101q-64 0 -91 28.5t-27 96.5l4 92h-4q2 0 -10 -25t-38.5 -60.5t-65.5 -71t-103 -60.5t-138 -25q-64 0 -124.5 18t-111.5 53t-81.5 93.5t-30.5 132.5zM178 279q0 -89 69.5 -156.5t192.5 -67.5q80 0 148 39t111.5 102t67.5 139.5t24 153.5v56h-66 q-41 0 -65.5 -0.5t-73 -2.5t-81 -6.5t-79.5 -14t-78 -22t-66 -33t-55.5 -46.5t-34.5 -62t-14 -79zM305 1206l164 228h106l164 -228h-100l-115 164h-4l-114 -164h-101z" />
<glyph unicode="&#xe3;" d="M88 272q0 56 16.5 103.5t42 81.5t66 61t79.5 44.5t92 30t93 18.5t93 9.5t82.5 4t70.5 0.5h68v14q0 182 -68 256t-229 74q-26 0 -59 -4t-74 -14t-68 -31.5t-27 -51.5v-69h-86v94q0 42 36.5 74.5t91 49t103 24.5t85.5 8q113 0 190.5 -29t118 -84.5t56.5 -120.5t16 -153 v-539q0 -45 45 -45h88v-78h-101q-64 0 -91 28.5t-27 96.5l4 92h-4q2 0 -10 -25t-38.5 -60.5t-65.5 -71t-103 -60.5t-138 -25q-64 0 -124.5 18t-111.5 53t-81.5 93.5t-30.5 132.5zM178 279q0 -89 69.5 -156.5t192.5 -67.5q80 0 148 39t111.5 102t67.5 139.5t24 153.5v56h-66 q-41 0 -65.5 -0.5t-73 -2.5t-81 -6.5t-79.5 -14t-78 -22t-66 -33t-55.5 -46.5t-34.5 -62t-14 -79zM221 1212q0 222 170 222q38 0 69.5 -15.5t53.5 -38t41.5 -45t43.5 -38t50 -15.5q25 0 43 15.5t25.5 40.5t10.5 46t3 43h82q0 -221 -170 -221q-38 0 -69.5 15.5t-53.5 38 t-41.5 45t-43.5 38t-50 15.5q-33 0 -53 -28.5t-24.5 -57.5t-4.5 -60h-82z" />
<glyph unicode="&#xe4;" d="M88 272q0 56 16.5 103.5t42 81.5t66 61t79.5 44.5t92 30t93 18.5t93 9.5t82.5 4t70.5 0.5h68v14q0 182 -68 256t-229 74q-26 0 -59 -4t-74 -14t-68 -31.5t-27 -51.5v-69h-86v94q0 42 36.5 74.5t91 49t103 24.5t85.5 8q113 0 190.5 -29t118 -84.5t56.5 -120.5t16 -153 v-539q0 -45 45 -45h88v-78h-101q-64 0 -91 28.5t-27 96.5l4 92h-4q2 0 -10 -25t-38.5 -60.5t-65.5 -71t-103 -60.5t-138 -25q-64 0 -124.5 18t-111.5 53t-81.5 93.5t-30.5 132.5zM178 279q0 -89 69.5 -156.5t192.5 -67.5q80 0 148 39t111.5 102t67.5 139.5t24 153.5v56h-66 q-41 0 -65.5 -0.5t-73 -2.5t-81 -6.5t-79.5 -14t-78 -22t-66 -33t-55.5 -46.5t-34.5 -62t-14 -79zM336 1284v150h94v-150h-94zM616 1284v150h95v-150h-95z" />
<glyph unicode="&#xe5;" d="M88 272q0 56 16.5 103.5t42 81.5t66 61t79.5 44.5t92 30t93 18.5t93 9.5t82.5 4t70.5 0.5h68v14q0 182 -68 256t-229 74q-26 0 -59 -4t-74 -14t-68 -31.5t-27 -51.5v-69h-86v94q0 42 36.5 74.5t91 49t103 24.5t85.5 8q113 0 190.5 -29t118 -84.5t56.5 -120.5t16 -153 v-539q0 -45 45 -45h88v-78h-101q-64 0 -91 28.5t-27 96.5l4 92h-4q2 0 -10 -25t-38.5 -60.5t-65.5 -71t-103 -60.5t-138 -25q-64 0 -124.5 18t-111.5 53t-81.5 93.5t-30.5 132.5zM178 279q0 -89 69.5 -156.5t192.5 -67.5q80 0 148 39t111.5 102t67.5 139.5t24 153.5v56h-66 q-41 0 -65.5 -0.5t-73 -2.5t-81 -6.5t-79.5 -14t-78 -22t-66 -33t-55.5 -46.5t-34.5 -62t-14 -79zM385 1323q0 59 39.5 98t97.5 39t97.5 -39t39.5 -98t-39.5 -98t-97.5 -39t-97.5 39t-39.5 98zM457 1323q0 -29 18 -47.5t47 -18.5t47.5 18.5t18.5 47.5q0 31 -18.5 49.5 t-47.5 18.5t-47 -18.5t-18 -49.5z" />
<glyph unicode="&#xe6;" horiz-adv-x="1787" d="M88 272q0 55 14 100.5t35.5 78.5t57.5 59t70 43t84 29t88.5 18t94 9.5t89.5 4t86 0.5h81v25q0 182 -67 256t-227 74q-27 0 -60.5 -4t-74 -14t-67 -31.5t-26.5 -51.5v-69h-86v94q0 48 52 85t122.5 54t141.5 17q168 0 250.5 -61.5t109.5 -178.5h4q62 118 167.5 179 t238.5 61q131 0 226.5 -63.5t141 -165.5t45.5 -228l-4 -57h-801q0 -224 116.5 -350t301.5 -126q55 0 108 13.5t89.5 32.5t65 37.5t41.5 31.5l14 14l47 -71q-6 -6 -17 -15.5t-47.5 -34t-76.5 -43t-101 -34t-123 -15.5q-160 0 -283 83.5t-178 230.5h-4q-5 -23 -17.5 -54.5 t-43.5 -79t-71.5 -86t-108 -66.5t-146.5 -28q-148 0 -250 78t-102 219zM178 279q0 -92 69.5 -158t192.5 -66q80 0 147.5 39t110.5 102t66.5 139.5t23.5 153.5v46h-141q-49 0 -86 -1.5t-88.5 -7t-89.5 -16t-79 -29.5t-66.5 -45.5t-42.5 -66.5t-17 -90zM883 614h706 q-4 90 -32.5 160t-75 111t-102.5 61.5t-119 20.5q-146 0 -249 -91t-128 -262z" />
<glyph unicode="&#xe7;" horiz-adv-x="1073" d="M90 510q0 119 42.5 221t114.5 171t168.5 108t202.5 39q48 0 104.5 -10.5t116.5 -33t100 -67t40 -102.5v-78h-86v59q0 35 -29 65t-72.5 47t-89 26.5t-84.5 9.5q-185 0 -311.5 -126.5t-126.5 -328.5q0 -200 127 -325.5t311 -125.5q63 0 121.5 15t97 37t68 44t43.5 37l13 15 l45 -72q-5 -7 -16 -17.5t-48 -38t-79.5 -48.5t-111 -38.5t-141.5 -17.5l-18 -98q64 -9 102.5 -46.5t38.5 -92.5q0 -79 -53 -117.5t-133 -38.5q-24 0 -46.5 2t-32.5 4l-11 2v78q37 -10 84 -10q110 0 110 76q0 36 -33 57t-92 21l-24 -2l37 172q-195 25 -322 168.5t-127 359.5z " />
<glyph unicode="&#xe8;" horiz-adv-x="1114" d="M90 510q0 126 41 229.5t110 170.5t158.5 103t188.5 36q101 0 182.5 -38t132 -103t77 -148t26.5 -178l-5 -56h-821q0 -215 126 -341t312 -126q55 0 108 13.5t89.5 32.5t65 37.5t41.5 31.5l14 14l47 -71q-6 -6 -17 -15.5t-47.5 -34t-76.5 -43t-101 -34t-123 -15.5 q-145 0 -264.5 65t-191.5 188t-72 282zM186 606h729q-7 178 -100 270.5t-229 92.5q-148 0 -260.5 -95t-139.5 -268zM377 1434h115l137 -228h-90z" />
<glyph unicode="&#xe9;" horiz-adv-x="1114" d="M90 510q0 126 41 229.5t110 170.5t158.5 103t188.5 36q101 0 182.5 -38t132 -103t77 -148t26.5 -178l-5 -56h-821q0 -215 126 -341t312 -126q55 0 108 13.5t89.5 32.5t65 37.5t41.5 31.5l14 14l47 -71q-6 -6 -17 -15.5t-47.5 -34t-76.5 -43t-101 -34t-123 -15.5 q-145 0 -264.5 65t-191.5 188t-72 282zM186 606h729q-7 178 -100 270.5t-229 92.5q-148 0 -260.5 -95t-139.5 -268zM539 1206l137 228h115l-162 -228h-90z" />
<glyph unicode="&#xea;" horiz-adv-x="1114" d="M90 510q0 126 41 229.5t110 170.5t158.5 103t188.5 36q101 0 182.5 -38t132 -103t77 -148t26.5 -178l-5 -56h-821q0 -215 126 -341t312 -126q55 0 108 13.5t89.5 32.5t65 37.5t41.5 31.5l14 14l47 -71q-6 -6 -17 -15.5t-47.5 -34t-76.5 -43t-101 -34t-123 -15.5 q-145 0 -264.5 65t-191.5 188t-72 282zM186 606h729q-7 178 -100 270.5t-229 92.5q-148 0 -260.5 -95t-139.5 -268zM367 1206l163 228h107l164 -228h-101l-114 164h-4l-115 -164h-100z" />
<glyph unicode="&#xeb;" horiz-adv-x="1114" d="M90 510q0 126 41 229.5t110 170.5t158.5 103t188.5 36q101 0 182.5 -38t132 -103t77 -148t26.5 -178l-5 -56h-821q0 -215 126 -341t312 -126q55 0 108 13.5t89.5 32.5t65 37.5t41.5 31.5l14 14l47 -71q-6 -6 -17 -15.5t-47.5 -34t-76.5 -43t-101 -34t-123 -15.5 q-145 0 -264.5 65t-191.5 188t-72 282zM186 606h729q-7 178 -100 270.5t-229 92.5q-148 0 -260.5 -95t-139.5 -268zM397 1284v150h95v-150h-95zM678 1284v150h94v-150h-94z" />
<glyph unicode="&#xec;" horiz-adv-x="471" d="M16 1434h115l137 -228h-90zM61 946v78h101q63 0 91 -28t28 -91v-782q0 -45 45 -45h88v-78h-101q-63 0 -90.5 28t-27.5 91v782q0 45 -45 45h-89z" />
<glyph unicode="&#xed;" horiz-adv-x="471" d="M61 946v78h101q63 0 91 -28t28 -91v-782q0 -45 45 -45h88v-78h-101q-63 0 -90.5 28t-27.5 91v782q0 45 -45 45h-89zM178 1206l137 228h115l-162 -228h-90z" />
<glyph unicode="&#xee;" horiz-adv-x="471" d="M6 1206l164 228h106l164 -228h-100l-115 164h-4l-115 -164h-100zM61 946v78h101q63 0 91 -28t28 -91v-782q0 -45 45 -45h88v-78h-101q-63 0 -90.5 28t-27.5 91v782q0 45 -45 45h-89z" />
<glyph unicode="&#xef;" horiz-adv-x="471" d="M57 1284v150h95v-150h-95zM61 946v78h101q63 0 91 -28t28 -91v-782q0 -45 45 -45h88v-78h-101q-63 0 -90.5 28t-27.5 91v782q0 45 -45 45h-89zM287 1284v150h94v-150h-94z" />
<glyph unicode="&#xf1;" horiz-adv-x="1214" d="M49 946v78h101q63 0 90.5 -27t27.5 -86v-57l-4 -84h4q11 31 33 66t60 73.5t84.5 69t113 50.5t139.5 20q97 0 164.5 -27.5t104.5 -82.5t53 -124.5t16 -165.5v-526q0 -45 45 -45h88v-78h-100q-63 0 -91 28t-28 91v499q0 61 -4 105t-19 93t-41 79t-74 50t-114 20 q-144 0 -259.5 -91.5t-153.5 -234.5q-17 -61 -17 -139v-500h-86v901q0 45 -45 45h-88zM336 1212q0 222 170 222q38 0 69.5 -15.5t53.5 -38t41.5 -45t43.5 -38t50 -15.5q25 0 43 15.5t25.5 40.5t10.5 46t3 43h82q0 -221 -170 -221q-38 0 -69.5 15.5t-53.5 38t-41.5 45 t-43.5 38t-50 15.5q-33 0 -53 -28.5t-24.5 -57.5t-4.5 -60h-82z" />
<glyph unicode="&#xf2;" horiz-adv-x="1241" d="M90 518q0 147 71 269t193 192t267 70t266.5 -70t192.5 -192t71 -269q0 -150 -71 -275t-192.5 -196.5t-266.5 -71.5q-108 0 -206 42.5t-169.5 114.5t-113.5 173t-42 213zM180 518q0 -194 128.5 -326.5t312.5 -132.5t312 132.5t128 326.5q0 189 -128 318t-312 129 t-312.5 -129t-128.5 -318zM414 1434h114l138 -228h-91z" />
<glyph unicode="&#xf3;" horiz-adv-x="1241" d="M90 518q0 147 71 269t193 192t267 70t266.5 -70t192.5 -192t71 -269q0 -150 -71 -275t-192.5 -196.5t-266.5 -71.5q-108 0 -206 42.5t-169.5 114.5t-113.5 173t-42 213zM180 518q0 -194 128.5 -326.5t312.5 -132.5t312 132.5t128 326.5q0 189 -128 318t-312 129 t-312.5 -129t-128.5 -318zM575 1206l138 228h114l-161 -228h-91z" />
<glyph unicode="&#xf4;" horiz-adv-x="1241" d="M90 518q0 147 71 269t193 192t267 70t266.5 -70t192.5 -192t71 -269q0 -150 -71 -275t-192.5 -196.5t-266.5 -71.5q-108 0 -206 42.5t-169.5 114.5t-113.5 173t-42 213zM180 518q0 -194 128.5 -326.5t312.5 -132.5t312 132.5t128 326.5q0 189 -128 318t-312 129 t-312.5 -129t-128.5 -318zM403 1206l164 228h107l164 -228h-101l-114 164h-5l-114 -164h-101z" />
<glyph unicode="&#xf5;" horiz-adv-x="1241" d="M90 518q0 147 71 269t193 192t267 70t266.5 -70t192.5 -192t71 -269q0 -150 -71 -275t-192.5 -196.5t-266.5 -71.5q-108 0 -206 42.5t-169.5 114.5t-113.5 173t-42 213zM180 518q0 -194 128.5 -326.5t312.5 -132.5t312 132.5t128 326.5q0 189 -128 318t-312 129 t-312.5 -129t-128.5 -318zM319 1212q0 222 170 222q46 0 84.5 -24t60.5 -52t52 -52t62 -24q25 0 42.5 15.5t25 40.5t10.5 46t3 43h82q0 -221 -170 -221q-38 0 -69.5 15.5t-53.5 38t-41.5 45t-43.5 38t-50 15.5q-33 0 -53 -28.5t-24.5 -57.5t-4.5 -60h-82z" />
<glyph unicode="&#xf6;" horiz-adv-x="1241" d="M90 518q0 147 71 269t193 192t267 70t266.5 -70t192.5 -192t71 -269q0 -150 -71 -275t-192.5 -196.5t-266.5 -71.5q-108 0 -206 42.5t-169.5 114.5t-113.5 173t-42 213zM180 518q0 -194 128.5 -326.5t312.5 -132.5t312 132.5t128 326.5q0 189 -128 318t-312 129 t-312.5 -129t-128.5 -318zM434 1284v150h94v-150h-94zM715 1284v150h94v-150h-94z" />
<glyph unicode="&#xf8;" horiz-adv-x="1241" d="M90 518q0 147 71 269t193 192t267 70q153 0 282 -80l78 108l70 -53l-78 -109q84 -74 131 -176.5t47 -220.5q0 -150 -71 -275t-192.5 -196.5t-266.5 -71.5q-148 0 -267 72l-75 -106l-70 53l74 104q-91 75 -142 184t-51 236zM180 518q0 -105 40.5 -195t111.5 -155l522 731 q-109 66 -233 66q-184 0 -312.5 -129t-128.5 -318zM403 117q99 -58 218 -58q184 0 312 132.5t128 326.5q0 97 -36.5 181t-102.5 145z" />
<glyph unicode="&#xf9;" horiz-adv-x="1204" d="M45 946v78h100q63 0 91 -27t28 -86v-505q0 -61 4 -105t19 -93t41 -79t74 -50t114 -20q124 0 221.5 66.5t148 172t50.5 226.5v500h86v-901q0 -45 45 -45h88v-78h-100q-63 0 -91 27t-28 86v57l4 84h-4q-11 -31 -33 -66t-59 -73.5t-82.5 -69t-110 -50.5t-135.5 -20 q-183 0 -260.5 98.5t-77.5 301.5v526q0 45 -45 45h-88zM381 1434h115l137 -228h-90z" />
<glyph unicode="&#xfa;" horiz-adv-x="1204" d="M45 946v78h100q63 0 91 -27t28 -86v-505q0 -61 4 -105t19 -93t41 -79t74 -50t114 -20q124 0 221.5 66.5t148 172t50.5 226.5v500h86v-901q0 -45 45 -45h88v-78h-100q-63 0 -91 27t-28 86v57l4 84h-4q-11 -31 -33 -66t-59 -73.5t-82.5 -69t-110 -50.5t-135.5 -20 q-183 0 -260.5 98.5t-77.5 301.5v526q0 45 -45 45h-88zM543 1206l137 228h115l-162 -228h-90z" />
<glyph unicode="&#xfb;" horiz-adv-x="1204" d="M45 946v78h100q63 0 91 -27t28 -86v-505q0 -61 4 -105t19 -93t41 -79t74 -50t114 -20q124 0 221.5 66.5t148 172t50.5 226.5v500h86v-901q0 -45 45 -45h88v-78h-100q-63 0 -91 27t-28 86v57l4 84h-4q-11 -31 -33 -66t-59 -73.5t-82.5 -69t-110 -50.5t-135.5 -20 q-183 0 -260.5 98.5t-77.5 301.5v526q0 45 -45 45h-88zM371 1206l164 228h106l164 -228h-100l-115 164h-4l-115 -164h-100z" />
<glyph unicode="&#xfc;" horiz-adv-x="1204" d="M45 946v78h100q63 0 91 -27t28 -86v-505q0 -61 4 -105t19 -93t41 -79t74 -50t114 -20q124 0 221.5 66.5t148 172t50.5 226.5v500h86v-901q0 -45 45 -45h88v-78h-100q-63 0 -91 27t-28 86v57l4 84h-4q-11 -31 -33 -66t-59 -73.5t-82.5 -69t-110 -50.5t-135.5 -20 q-183 0 -260.5 98.5t-77.5 301.5v526q0 45 -45 45h-88zM401 1284v150h95v-150h-95zM682 1284v150h94v-150h-94z" />
<glyph unicode="&#xfd;" horiz-adv-x="1089" d="M23 -334l51 66q0 -1 7 -9t21.5 -20t32.5 -23.5t42.5 -19.5t49.5 -8q122 0 201 184l74 170l-371 891q-12 28 -29.5 38.5t-48.5 10.5h-16v78h14q76 0 106.5 -22t61.5 -97l291 -698l35 -96h4q15 47 35 96l288 698q31 75 61.5 97t106.5 22h15v-78h-17q-31 0 -48 -10.5 t-29 -38.5l-474 -1137q-36 -85 -102 -137.5t-158 -52.5q-37 0 -72 10t-58 24t-40.5 28t-25.5 24zM494 1206l137 228h114l-161 -228h-90z" />
<glyph unicode="&#xff;" horiz-adv-x="1089" d="M23 -334l51 66q0 -1 7 -9t21.5 -20t32.5 -23.5t42.5 -19.5t49.5 -8q122 0 201 184l74 170l-371 891q-12 28 -29.5 38.5t-48.5 10.5h-16v78h14q76 0 106.5 -22t61.5 -97l291 -698l35 -96h4q15 47 35 96l288 698q31 75 61.5 97t106.5 22h15v-78h-17q-31 0 -48 -10.5 t-29 -38.5l-474 -1137q-36 -85 -102 -137.5t-158 -52.5q-37 0 -72 10t-58 24t-40.5 28t-25.5 24zM352 1284v150h94v-150h-94zM633 1284v150h94v-150h-94z" />
<glyph unicode="&#x102;" horiz-adv-x="1329" d="M27 0v82h22q32 0 50 9t28 36l489 1307h97l489 -1307q10 -27 28 -36t50 -9h23v-82h-25q-77 0 -108.5 22t-59.5 97l-141 377h-609l-141 -377q-28 -75 -59.5 -97t-108.5 -22h-24zM391 578h549l-219 581q-10 27 -24 70t-23 73l-8 29h-4q-31 -111 -54 -172zM459 1731v32h82 v-28q0 -64 35 -95.5t90 -31.5q54 0 89.5 32t35.5 97v26h81v-32q0 -96 -61 -148.5t-145 -52.5q-85 0 -146 52.5t-61 148.5z" />
<glyph unicode="&#x103;" d="M88 272q0 56 16.5 103.5t42 81.5t66 61t79.5 44.5t92 30t93 18.5t93 9.5t82.5 4t70.5 0.5h68v14q0 182 -68 256t-229 74q-26 0 -59 -4t-74 -14t-68 -31.5t-27 -51.5v-69h-86v94q0 42 36.5 74.5t91 49t103 24.5t85.5 8q113 0 190.5 -29t118 -84.5t56.5 -120.5t16 -153 v-539q0 -45 45 -45h88v-78h-101q-64 0 -91 28.5t-27 96.5l4 92h-4q2 0 -10 -25t-38.5 -60.5t-65.5 -71t-103 -60.5t-138 -25q-64 0 -124.5 18t-111.5 53t-81.5 93.5t-30.5 132.5zM178 279q0 -89 69.5 -156.5t192.5 -67.5q80 0 148 39t111.5 102t67.5 139.5t24 153.5v56h-66 q-41 0 -65.5 -0.5t-73 -2.5t-81 -6.5t-79.5 -14t-78 -22t-66 -33t-55.5 -46.5t-34.5 -62t-14 -79zM315 1401v33h82v-29q0 -64 35 -95.5t90 -31.5q54 0 89.5 32t35.5 97v27h82v-33q0 -96 -61 -148.5t-146 -52.5t-146 52.5t-61 148.5z" />
<glyph unicode="&#x104;" horiz-adv-x="1329" d="M27 0v82h22q32 0 50 9t28 36l489 1307h97l489 -1307q10 -27 28 -36t50 -9h23v-82q-164 -122 -164 -223q0 -29 14.5 -51t35 -33.5t40.5 -19t35 -9.5l14 -2l-18 -80q-9 1 -23 2.5t-51 13.5t-65 30t-51 55t-23 86q0 75 44 135.5t101 101.5v4q-29 10 -45.5 33t-36.5 76 l-141 377h-609l-141 -377q-28 -75 -59.5 -97t-108.5 -22h-24zM391 578h549l-219 581q-10 27 -24 70t-23 73l-8 29h-4q-31 -111 -54 -172z" />
<glyph unicode="&#x105;" d="M88 272q0 56 16.5 103.5t42 81.5t66 61t79.5 44.5t92 30t93 18.5t93 9.5t82.5 4t70.5 0.5h68v14q0 180 -68 255t-229 75q-26 0 -59.5 -4.5t-74 -14.5t-67.5 -31.5t-27 -50.5v-69h-86v94q0 42 36.5 74.5t91 49t103 24.5t85.5 8q113 0 190.5 -29t118 -84.5t56.5 -120.5 t16 -153v-539q0 -45 45 -45h88v-78q-164 -122 -164 -223q0 -29 14.5 -51t35 -33.5t40.5 -19t34 -9.5l15 -2l-18 -80q-9 1 -23 2.5t-51 13.5t-65 30t-51 55t-23 86q0 70 41 129.5t94 97.5v4h-8q-53 0 -71.5 32t-18.5 87v14l4 84h-4q-3 -10 -10.5 -26t-36.5 -58t-65.5 -74 t-100.5 -58t-138 -26q-67 0 -129.5 19t-112.5 54.5t-80 93.5t-30 130zM178 279q0 -89 69.5 -156.5t192.5 -67.5q80 0 148 39t111.5 102t67.5 139.5t24 153.5v56h-66q-41 0 -65.5 -0.5t-73 -2.5t-81 -6.5t-79.5 -14t-78 -22t-66 -33t-55.5 -46.5t-34.5 -62t-14 -79z" />
<glyph unicode="&#x106;" horiz-adv-x="1409" d="M84 727q0 205 91.5 372.5t252 263t356.5 95.5q84 0 173.5 -18t171.5 -52t135 -93t53 -132v-102h-88v82q0 69 -73.5 123.5t-173 80t-196.5 25.5q-171 0 -310.5 -83.5t-219.5 -231.5t-80 -330q0 -137 47 -260t128.5 -212.5t196.5 -141.5t245 -52q86 0 167.5 21t136.5 51.5 t98 60.5t63 51l20 21l55 -63q-8 -9 -23 -24.5t-67 -55t-110 -69.5t-150.5 -54.5t-189.5 -24.5q-202 0 -365 101t-253.5 273t-90.5 378zM735 1536l137 227h115l-162 -227h-90z" />
<glyph unicode="&#x107;" horiz-adv-x="1073" d="M90 510q0 119 42.5 221t114.5 171t168.5 108t202.5 39q48 0 104.5 -10.5t116.5 -33t100 -67t40 -102.5v-78h-86v59q0 35 -29 65t-72.5 47t-89 26.5t-84.5 9.5q-185 0 -311.5 -126.5t-126.5 -328.5q0 -200 127 -325.5t311 -125.5q63 0 121.5 15t97 37t68 44t43.5 37l13 15 l45 -72q-5 -7 -16 -17.5t-47.5 -38t-78 -48.5t-108.5 -38.5t-138 -17.5q-145 0 -264.5 65t-191.5 188t-72 282zM551 1206l137 228h115l-162 -228h-90z" />
<glyph unicode="&#x10c;" horiz-adv-x="1409" d="M84 727q0 205 91.5 372.5t252 263t356.5 95.5q84 0 173.5 -18t171.5 -52t135 -93t53 -132v-102h-88v82q0 69 -73.5 123.5t-173 80t-196.5 25.5q-171 0 -310.5 -83.5t-219.5 -231.5t-80 -330q0 -137 47 -260t128.5 -212.5t196.5 -141.5t245 -52q86 0 167.5 21t136.5 51.5 t98 60.5t63 51l20 21l55 -63q-8 -9 -23 -24.5t-67 -55t-110 -69.5t-150.5 -54.5t-189.5 -24.5q-202 0 -365 101t-253.5 273t-90.5 378zM563 1763h101l114 -164h4l115 164h100l-163 -227h-107z" />
<glyph unicode="&#x10d;" horiz-adv-x="1073" d="M90 510q0 119 42.5 221t114.5 171t168.5 108t202.5 39q48 0 104.5 -10.5t116.5 -33t100 -67t40 -102.5v-78h-86v59q0 35 -29 65t-72.5 47t-89 26.5t-84.5 9.5q-185 0 -311.5 -126.5t-126.5 -328.5q0 -200 127 -325.5t311 -125.5q63 0 121.5 15t97 37t68 44t43.5 37l13 15 l45 -72q-5 -7 -16 -17.5t-47.5 -38t-78 -48.5t-108.5 -38.5t-138 -17.5q-145 0 -264.5 65t-191.5 188t-72 282zM379 1434h100l115 -164h4l115 164h100l-164 -228h-106z" />
<glyph unicode="&#x10e;" horiz-adv-x="1464" d="M92 1352v82h574q324 0 519 -190.5t195 -526.5q0 -225 -90 -388t-250 -246t-374 -83h-322q-63 0 -91 28t-28 91v1233h-133zM313 127q0 -45 45 -45h293q292 0 464.5 166t172.5 469q0 302 -173 468.5t-464 166.5h-338v-1225zM512 1763h100l115 -164h4l115 164h100l-164 -227 h-106z" />
<glyph unicode="&#x10f;" horiz-adv-x="1310" d="M94 512q0 242 128 389.5t331 147.5q72 0 134.5 -23t100.5 -55.5t65.5 -65t38.5 -55.5l11 -23h4q-4 37 -4 84v400q0 45 -45 45h-88v78h100q63 0 91 -28t28 -91v-1192q0 -45 45 -45h88v-78h-100q-63 0 -91 28t-28 91l4 78h-4q-3 -9 -10.5 -24t-37 -53.5t-67 -67.5t-105 -53 t-146.5 -24q-203 0 -323 148.5t-120 388.5zM184 512q0 -205 99.5 -329t257.5 -124q73 0 136.5 26.5t115.5 79.5t82 142.5t30 206.5q0 87 -22.5 167t-65 144.5t-112 103t-156.5 38.5q-156 0 -260.5 -123t-104.5 -332zM1114 1159q37 95 37 160q0 53 -23 115h99q12 -53 12 -97 q0 -76 -45 -178h-80z" />
<glyph unicode="&#x110;" horiz-adv-x="1464" d="M92 1352v82h574q324 0 519 -190.5t195 -526.5q0 -225 -90 -388t-250 -246t-374 -83h-322q-63 0 -91 28t-28 91v563h-102v82h102v588h-133zM313 127q0 -45 45 -45h293q292 0 464.5 166t172.5 469q0 302 -173 468.5t-464 166.5h-338v-588h375v-82h-375v-555z" />
<glyph unicode="&#x111;" horiz-adv-x="1173" d="M94 512q0 242 128 389.5t331 147.5q72 0 134.5 -23t100.5 -55.5t65.5 -65t38.5 -55.5l11 -23h4q-4 37 -4 84v254h-272v82h272v187h86v-187h170v-82h-170v-1042q0 -45 45 -45h88v-78h-100q-63 0 -91 28t-28 91l4 78h-4q-3 -9 -10.5 -24t-37 -53.5t-67 -67.5t-105 -53 t-146.5 -24q-203 0 -323 148.5t-120 388.5zM184 512q0 -205 99.5 -329t257.5 -124q73 0 136.5 26.5t115.5 79.5t82 142.5t30 206.5q0 87 -22.5 167t-65 144.5t-112 103t-156.5 38.5q-156 0 -260.5 -123t-104.5 -332z" />
<glyph unicode="&#x118;" horiz-adv-x="1124" d="M92 1352v82h799q63 0 91 -28t28 -91v-109h-86v101q0 45 -45 45h-566v-588h572v-82h-572v-555q0 -45 45 -45h582q45 0 45 45v100h86v-108q0 -67 -37 -99q-9 -7 -38 -29.5t-44 -35t-39.5 -37t-37.5 -43.5t-23 -45.5t-10 -52.5q0 -29 14.5 -51t35 -33.5t40.5 -19t34 -9.5 l15 -2l-18 -80q-9 1 -23 2.5t-51 13.5t-65 30t-51 55t-23 86q0 126 133 227v4h-539q-63 0 -91 28t-28 91v1233h-133z" />
<glyph unicode="&#x119;" horiz-adv-x="1114" d="M90 510q0 126 41 229.5t110 170.5t158.5 103t188.5 36q101 0 182.5 -38t132 -103t77 -148t26.5 -178l-5 -56h-821q0 -108 35 -197t95 -147.5t139 -90.5t169 -32q55 0 108 13.5t89.5 32.5t65 37.5t41.5 31.5l14 14l47 -71q-22 -21 -66.5 -53t-84 -61t-78.5 -64.5 t-62.5 -77t-23.5 -84.5q0 -29 14.5 -51t35 -33.5t40.5 -19t34 -9.5l15 -2l-19 -80q-9 1 -23 2.5t-51 13.5t-65 30t-51 55t-23 86q0 103 109 208v5q-35 -7 -66 -7q-145 0 -264.5 65t-191.5 188t-72 282zM186 606h729q-7 178 -100 270.5t-229 92.5q-148 0 -260.5 -95 t-139.5 -268z" />
<glyph unicode="&#x11a;" horiz-adv-x="1124" d="M92 1352v82h799q63 0 91 -28t28 -91v-109h-86v101q0 45 -45 45h-566v-588h572v-82h-572v-555q0 -45 45 -45h582q45 0 45 45v100h86v-108q0 -63 -28 -91t-91 -28h-608q-63 0 -91 28t-28 91v1233h-133zM383 1763h100l115 -164h4l115 164h100l-164 -227h-106z" />
<glyph unicode="&#x11b;" horiz-adv-x="1114" d="M90 510q0 126 41 229.5t110 170.5t158.5 103t188.5 36q101 0 182.5 -38t132 -103t77 -148t26.5 -178l-5 -56h-821q0 -215 126 -341t312 -126q55 0 108 13.5t89.5 32.5t65 37.5t41.5 31.5l14 14l47 -71q-6 -6 -17 -15.5t-47.5 -34t-76.5 -43t-101 -34t-123 -15.5 q-145 0 -264.5 65t-191.5 188t-72 282zM186 606h729q-7 178 -100 270.5t-229 92.5q-148 0 -260.5 -95t-139.5 -268zM367 1434h100l115 -164h4l114 164h101l-164 -228h-107z" />
<glyph unicode="&#x11e;" horiz-adv-x="1482" d="M88 717q0 204 93.5 374t256.5 268.5t359 98.5q91 0 175 -17.5t139 -43t97 -51t61 -42.5l19 -18l-53 -69q-7 6 -19.5 16.5t-55.5 37.5t-90.5 47t-121.5 37t-151 17q-174 0 -315.5 -86.5t-221.5 -236.5t-80 -332q0 -184 78.5 -334t218.5 -236t314 -86q86 0 168 24.5t138 59 t99.5 69t64.5 58.5l21 25v209q0 45 -45 45h-88v82h102q63 0 91 -28t28 -91v-514h-88v125l2 61h-4q-7 -9 -20.5 -23t-60.5 -50.5t-99 -64t-136 -50.5t-173 -23q-196 0 -357.5 98t-253.5 268.5t-92 375.5zM586 1731v32h82v-28q0 -64 35 -95.5t90 -31.5q54 0 89.5 32t35.5 97 v26h81v-32q0 -96 -61 -148.5t-145 -52.5q-85 0 -146 52.5t-61 148.5z" />
<glyph unicode="&#x11f;" horiz-adv-x="1157" d="M94 528q0 238 120.5 379.5t320.5 141.5q59 0 110.5 -10.5t86.5 -27.5t63.5 -37t45 -40.5t27.5 -37.5t15 -28l4 -10h4q-2 22 -2 47q0 63 28 91t91 28h100v-78h-88q-45 0 -45 -45v-895q0 -113 -38.5 -199.5t-105 -136.5t-148.5 -75t-177 -25q-165 0 -322 80l41 76 q14 -8 39.5 -20t98 -32t137.5 -20q175 0 282 87.5t107 264.5v109l4 84h-4q-97 -199 -340 -199q-201 0 -328 145.5t-127 382.5zM184 528q0 -205 102.5 -324.5t268.5 -119.5q71 0 129 23.5t106 73.5t74.5 138.5t26.5 208.5q0 437 -356 437q-165 0 -258 -115.5t-93 -321.5z M365 1401v33h81v-29q0 -64 35 -95.5t90 -31.5q54 0 89.5 32t35.5 97v27h82v-33q0 -96 -61 -148.5t-146 -52.5q-84 0 -145 52.5t-61 148.5z" />
<glyph unicode="&#x130;" horiz-adv-x="555" d="M102 0v82h131v1270h-131v82h351v-82h-131v-1270h131v-82h-351zM229 1614v149h95v-149h-95z" />
<glyph unicode="&#x131;" horiz-adv-x="471" d="M61 946v78h101q63 0 91 -28t28 -91v-782q0 -45 45 -45h88v-78h-101q-63 0 -90.5 28t-27.5 91v782q0 45 -45 45h-89z" />
<glyph unicode="&#x139;" horiz-adv-x="1058" d="M92 1352v82h103q63 0 90.5 -28t27.5 -91v-1188q0 -45 45 -45h549q45 0 45 45v100h86v-108q0 -63 -27.5 -91t-90.5 -28h-576q-63 0 -91 28t-28 91v1188q0 45 -45 45h-88zM223 1536l137 227h115l-162 -227h-90z" />
<glyph unicode="&#x13a;" horiz-adv-x="458" d="M49 1356v78h101q63 0 90.5 -28t27.5 -91v-1192q0 -45 45 -45h88v-78h-100q-63 0 -91 28t-28 91v1192q0 45 -45 45h-88zM164 1536l137 227h115l-162 -227h-90z" />
<glyph unicode="&#x13d;" horiz-adv-x="1058" d="M92 1352v82h103q63 0 90.5 -28t27.5 -91v-1188q0 -45 45 -45h549q45 0 45 45v100h86v-108q0 -63 -27.5 -91t-90.5 -28h-576q-63 0 -91 28t-28 91v1188q0 45 -45 45h-88zM498 1159q37 95 37 160q0 53 -23 115h98q13 -57 13 -97q0 -76 -45 -178h-80z" />
<glyph unicode="&#x13e;" horiz-adv-x="585" d="M49 1356v78h101q63 0 90.5 -28t27.5 -91v-1192q0 -45 45 -45h88v-78h-100q-63 0 -91 28t-28 91v1192q0 45 -45 45h-88zM389 1159q37 95 37 160q0 53 -23 115h99q12 -53 12 -97q0 -76 -45 -178h-80z" />
<glyph unicode="&#x141;" horiz-adv-x="1058" d="M92 682v96l133 76v453q0 45 -45 45h-88v82h103q63 0 90.5 -28t27.5 -91v-410l236 137v-98l-236 -135v-682q0 -45 45 -45h549q45 0 45 45v100h86v-108q0 -63 -27.5 -91t-90.5 -28h-576q-63 0 -91 28t-28 91v639z" />
<glyph unicode="&#x142;" horiz-adv-x="514" d="M29 682v96l190 111v422q0 45 -45 45h-88v78h100q63 0 91 -28t28 -91v-377l180 104v-98l-180 -104v-717q0 -45 45 -45h88v-78h-100q-63 0 -91 28t-28 91v672z" />
<glyph unicode="&#x143;" horiz-adv-x="1548" d="M92 0v82h88q45 0 45 45v1307h82l817 -1125q21 -29 50 -74t48 -75l19 -31h4q-10 108 -10 180v1006q0 63 28 91t91 28h102v-82h-88q-45 0 -45 -45v-1307h-82l-817 1124q-21 29 -50 74.5t-48 75.5l-19 31h-4q10 -109 10 -181v-1005q0 -63 -27.5 -91t-90.5 -28h-103z M754 1536l137 227h115l-162 -227h-90z" />
<glyph unicode="&#x144;" horiz-adv-x="1214" d="M49 946v78h101q63 0 90.5 -27t27.5 -86v-57l-4 -84h4q11 31 33 66t60 73.5t84.5 69t113 50.5t139.5 20q97 0 164.5 -27.5t104.5 -82.5t53 -124.5t16 -165.5v-526q0 -45 45 -45h88v-78h-100q-63 0 -91 28t-28 91v499q0 61 -4 105t-19 93t-41 79t-74 50t-114 20 q-144 0 -259.5 -91.5t-153.5 -234.5q-17 -61 -17 -139v-500h-86v901q0 45 -45 45h-88zM592 1206l137 228h115l-162 -228h-90z" />
<glyph unicode="&#x147;" horiz-adv-x="1548" d="M92 0v82h88q45 0 45 45v1307h82l817 -1125q21 -29 50 -74t48 -75l19 -31h4q-10 108 -10 180v1006q0 63 28 91t91 28h102v-82h-88q-45 0 -45 -45v-1307h-82l-817 1124q-21 29 -50 74.5t-48 75.5l-19 31h-4q10 -109 10 -181v-1005q0 -63 -27.5 -91t-90.5 -28h-103z M582 1763h100l115 -164h4l114 164h101l-164 -227h-107z" />
<glyph unicode="&#x148;" horiz-adv-x="1214" d="M49 946v78h101q63 0 90.5 -27t27.5 -86v-57l-4 -84h4q11 31 33 66t60 73.5t84.5 69t113 50.5t139.5 20q97 0 164.5 -27.5t104.5 -82.5t53 -124.5t16 -165.5v-526q0 -45 45 -45h88v-78h-100q-63 0 -91 28t-28 91v499q0 61 -4 105t-19 93t-41 79t-74 50t-114 20 q-144 0 -259.5 -91.5t-153.5 -234.5q-17 -61 -17 -139v-500h-86v901q0 45 -45 45h-88zM420 1434h100l115 -164h4l115 164h100l-164 -228h-106z" />
<glyph unicode="&#x152;" horiz-adv-x="1826" d="M84 717q0 205 86 373.5t242 266t352 97.5q41 0 148 -10t141 -10h540q63 0 91 -28t28 -91v-109h-86v101q0 45 -45 45h-545v-588h551v-82h-551v-600h606q46 0 46 45v100h86v-108q0 -62 -26 -90.5t-81 -28.5h-612q-33 0 -141 -10t-150 -10q-196 0 -352 97t-242 265.5 t-86 374.5zM176 717q0 -185 72.5 -332.5t207 -233t308.5 -85.5q109 0 184 16v1270q-75 16 -184 16q-173 0 -308 -85.5t-207.5 -233.5t-72.5 -332z" />
<glyph unicode="&#x153;" horiz-adv-x="2082" d="M90 510q0 119 42.5 221t114.5 171t168.5 108t202.5 39q157 0 287 -82.5t193 -223.5h4q59 146 181 226t273 80q101 0 182.5 -38t132 -103t77 -148t26.5 -178l-4 -56h-821q6 -221 131 -344t307 -123q55 0 108 13.5t89.5 32.5t65 37.5t42.5 31.5l13 14l47 -71 q-6 -6 -17 -15.5t-47.5 -34t-76.5 -43t-101 -34t-123 -15.5q-162 0 -292 82t-191 226h-4q-63 -144 -192.5 -226t-289.5 -82q-143 0 -262.5 64.5t-192.5 188.5t-73 282zM180 510q0 -200 127 -325.5t311 -125.5q90 0 170 32.5t140.5 91.5t95.5 146t35 191q0 131 -62 234 t-162 157t-217 54q-184 0 -311 -127.5t-127 -327.5zM1155 606h729q-7 178 -100 270.5t-230 92.5q-148 0 -260 -95t-139 -268z" />
<glyph unicode="&#x154;" horiz-adv-x="1214" d="M92 1352v82h594q173 0 284 -110t111 -288q0 -152 -80.5 -254.5t-214.5 -130.5v-4q23 -14 41 -49l234 -469q14 -30 36 -38.5t68 -8.5h29v-82h-29q-92 0 -126.5 19t-69.5 90l-215 432q-31 61 -59.5 77.5t-90.5 16.5h-291v-635h-88v1352h-133zM313 717h369q141 0 224 86.5 t83 232.5t-83 231t-224 85h-369v-635zM526 1536l138 227h114l-162 -227h-90z" />
<glyph unicode="&#x155;" horiz-adv-x="696" d="M49 946v78h101q63 0 90.5 -27t27.5 -86v-71l-4 -84h4q40 125 123.5 200.5t200.5 75.5l59 -6v-86q-24 4 -47 4q-113 0 -190.5 -81t-114.5 -206q-31 -97 -31 -215v-442h-86v901q0 45 -45 45h-88zM309 1206l137 228h115l-162 -228h-90z" />
<glyph unicode="&#x158;" horiz-adv-x="1214" d="M92 1352v82h594q173 0 284 -110t111 -288q0 -152 -80.5 -254.5t-214.5 -130.5v-4q23 -14 41 -49l234 -469q14 -30 36 -38.5t68 -8.5h29v-82h-29q-92 0 -126.5 19t-69.5 90l-215 432q-31 61 -59.5 77.5t-90.5 16.5h-291v-635h-88v1352h-133zM313 717h369q141 0 224 86.5 t83 232.5t-83 231t-224 85h-369v-635zM354 1763h101l114 -164h4l115 164h100l-163 -227h-107z" />
<glyph unicode="&#x159;" horiz-adv-x="696" d="M49 946v78h101q63 0 90.5 -27t27.5 -86v-71l-4 -84h4q40 125 123.5 200.5t200.5 75.5l59 -6v-86q-24 4 -47 4q-113 0 -190.5 -81t-114.5 -206q-31 -97 -31 -215v-442h-86v901q0 45 -45 45h-88zM137 1434h101l114 -164h4l115 164h100l-163 -228h-107z" />
<glyph unicode="&#x15a;" horiz-adv-x="1032" d="M80 170l59 68q6 -7 17 -19t49 -42.5t79.5 -54t106 -42.5t131.5 -19q135 0 227.5 83t92.5 210q0 64 -24.5 116.5t-66.5 89.5t-96.5 68.5t-114.5 58.5t-119.5 54.5t-114 62t-96.5 75.5t-66.5 99.5t-24.5 129.5q0 144 116 247t304 103q41 0 86.5 -6.5t97.5 -23t92.5 -41.5 t67 -66t26.5 -92v-90h-88v69q0 69 -83 116.5t-197 47.5q-153 0 -241.5 -77t-88.5 -185q0 -59 24.5 -108t66.5 -83t96.5 -64t114.5 -56.5t119.5 -54t114 -63.5t96.5 -79t66.5 -105.5t24.5 -138.5q0 -160 -114.5 -271.5t-301.5 -111.5q-79 0 -153.5 20t-124 48.5t-87.5 57.5 t-55 49zM483 1536l138 227h114l-162 -227h-90z" />
<glyph unicode="&#x15b;" horiz-adv-x="874" d="M63 152l62 63q4 -6 12.5 -16.5t38 -37.5t63.5 -47.5t89 -37.5t114 -17q105 0 178.5 51t73.5 142q0 46 -25.5 83.5t-67 62t-94.5 48.5t-108 43.5t-108 47.5t-94.5 59t-67 79t-25.5 107q0 128 96.5 197.5t254.5 69.5q38 0 83 -9t93 -27.5t80 -55t32 -83.5v-77h-86v49 q0 40 -35.5 68.5t-78.5 39.5t-84 11q-126 0 -195 -45t-69 -132q0 -53 32.5 -94t84.5 -68t114.5 -52t125.5 -52.5t115 -61t84.5 -86.5t32.5 -122q0 -122 -98 -199.5t-246 -77.5q-72 0 -137.5 18t-107.5 44t-73 52.5t-45 44.5zM393 1206l137 228h115l-162 -228h-90z" />
<glyph unicode="&#x15e;" horiz-adv-x="1032" d="M80 170l59 68q6 -7 17 -19t49 -42.5t79.5 -54t106 -42.5t131.5 -19q135 0 227.5 83t92.5 210q0 64 -24.5 116.5t-66.5 89.5t-96.5 68.5t-114.5 58.5t-119.5 54.5t-114 62t-96.5 75.5t-66.5 99.5t-24.5 129.5q0 144 116 247t304 103q41 0 86.5 -6.5t97.5 -23t92.5 -41.5 t67 -66t26.5 -92v-90h-88v69q0 69 -83 116.5t-197 47.5q-153 0 -241.5 -77t-88.5 -185q0 -59 24.5 -108t66.5 -83t96.5 -64t114.5 -56.5t119.5 -54t114 -63.5t96.5 -79t66.5 -105.5t24.5 -138.5q0 -155 -107 -265.5t-284 -117.5l-19 -98q64 -9 103 -46.5t39 -92.5 q0 -79 -53.5 -117.5t-133.5 -38.5q-24 0 -46.5 2t-32.5 4l-11 2v78q37 -10 84 -10q111 0 111 76q0 36 -33 57t-92 21l-25 -2l35 167q-71 6 -137 27.5t-109.5 49t-77.5 54t-49 44.5z" />
<glyph unicode="&#x15f;" horiz-adv-x="874" d="M63 152l62 63q4 -6 12.5 -16.5t38 -37.5t63.5 -47.5t89 -37.5t114 -17q105 0 178.5 51t73.5 142q0 46 -25.5 83.5t-67 62t-94.5 48.5t-108 43.5t-108 47.5t-94.5 59t-67 79t-25.5 107q0 128 96.5 197.5t254.5 69.5q38 0 83 -9t93 -27.5t80 -55t32 -83.5v-77h-86v49 q0 40 -35.5 68.5t-78.5 39.5t-84 11q-126 0 -195 -45t-69 -132q0 -53 32.5 -94t84.5 -68t114.5 -52t125.5 -52.5t115 -61t84.5 -86.5t32.5 -122q0 -120 -94 -196t-237 -81l-19 -98q64 -9 102.5 -46.5t38.5 -92.5q0 -79 -53 -117.5t-133 -38.5q-24 0 -46.5 2t-32.5 4l-11 2 v78q37 -10 84 -10q111 0 111 76q0 36 -33 57t-92 21l-25 -2l37 170q-61 6 -116 26.5t-90 44.5t-62 47t-39 38z" />
<glyph unicode="&#x160;" horiz-adv-x="1032" d="M80 170l59 68q6 -7 17 -19t49 -42.5t79.5 -54t106 -42.5t131.5 -19q135 0 227.5 83t92.5 210q0 64 -24.5 116.5t-66.5 89.5t-96.5 68.5t-114.5 58.5t-119.5 54.5t-114 62t-96.5 75.5t-66.5 99.5t-24.5 129.5q0 144 116 247t304 103q41 0 86.5 -6.5t97.5 -23t92.5 -41.5 t67 -66t26.5 -92v-90h-88v69q0 69 -83 116.5t-197 47.5q-153 0 -241.5 -77t-88.5 -185q0 -59 24.5 -108t66.5 -83t96.5 -64t114.5 -56.5t119.5 -54t114 -63.5t96.5 -79t66.5 -105.5t24.5 -138.5q0 -160 -114.5 -271.5t-301.5 -111.5q-79 0 -153.5 20t-124 48.5t-87.5 57.5 t-55 49zM311 1763h101l114 -164h4l115 164h100l-163 -227h-107z" />
<glyph unicode="&#x161;" horiz-adv-x="874" d="M63 152l62 63q4 -6 12.5 -16.5t38 -37.5t63.5 -47.5t89 -37.5t114 -17q105 0 178.5 51t73.5 142q0 46 -25.5 83.5t-67 62t-94.5 48.5t-108 43.5t-108 47.5t-94.5 59t-67 79t-25.5 107q0 128 96.5 197.5t254.5 69.5q38 0 83 -9t93 -27.5t80 -55t32 -83.5v-77h-86v49 q0 40 -35.5 68.5t-78.5 39.5t-84 11q-126 0 -195 -45t-69 -132q0 -53 32.5 -94t84.5 -68t114.5 -52t125.5 -52.5t115 -61t84.5 -86.5t32.5 -122q0 -122 -98 -199.5t-246 -77.5q-72 0 -137.5 18t-107.5 44t-73 52.5t-45 44.5zM221 1434h101l114 -164h4l115 164h100l-163 -228 h-107z" />
<glyph unicode="&#x162;" horiz-adv-x="1239" d="M31 1206v117q0 63 23.5 87t86.5 24h957q63 0 86.5 -24t23.5 -87v-117h-86v101q0 24 -10.5 34.5t-34.5 10.5h-413v-1352h-9l-22 -123q64 -9 102.5 -46.5t38.5 -92.5q0 -79 -53 -117.5t-133 -38.5q-24 0 -46.5 2t-33.5 4l-10 2v78q37 -10 84 -10q110 0 110 76q0 36 -33 57 t-92 21l-24 -2l41 190h-9v1352h-413q-24 0 -34.5 -10.5t-10.5 -34.5v-101h-86z" />
<glyph unicode="&#x163;" horiz-adv-x="655" d="M61 946v78h136v285h86v-285h268v-78h-268v-569q0 -77 18 -135t43.5 -89.5t61 -50.5t63.5 -24.5t57 -5.5l47 4v-80q-20 -4 -51 -4q-48 0 -92 10l-22 -125q64 -9 102.5 -46.5t38.5 -92.5q0 -79 -53.5 -117.5t-133.5 -38.5q-24 0 -46.5 2t-33.5 4l-10 2v78q37 -10 84 -10 q111 0 111 76q0 36 -33 57t-92 21l-25 -2l48 217q-168 82 -168 344v575h-136z" />
<glyph unicode="&#x164;" horiz-adv-x="1239" d="M31 1206v117q0 63 23.5 87t86.5 24h957q63 0 86.5 -24t23.5 -87v-117h-86v101q0 24 -10.5 34.5t-34.5 10.5h-413v-1352h-89v1352h-413q-24 0 -34.5 -10.5t-10.5 -34.5v-101h-86zM406 1763h100l115 -164h4l114 164h101l-164 -227h-107z" />
<glyph unicode="&#x165;" horiz-adv-x="655" d="M61 946v78h136v285h86v-285h268v-78h-268v-569q0 -77 18 -135t43.5 -89.5t61 -50.5t63.5 -24.5t57 -5.5l47 4v-80q-20 -4 -51 -4q-39 0 -75.5 6.5t-84 29.5t-82 62t-59 111.5t-24.5 169.5v575h-136zM418 1159q37 95 37 160q0 53 -23 115h98q13 -57 13 -97q0 -76 -45 -178 h-80z" />
<glyph unicode="&#x16e;" horiz-adv-x="1447" d="M76 1352v82h102q63 0 91 -28t28 -91v-828q0 -195 115.5 -310.5t310.5 -115.5t311.5 116.5t116.5 314.5v823q0 63 28 91t91 28h102v-82h-88q-45 0 -45 -45v-826q0 -228 -142 -367t-372 -139t-373 139t-143 367v826q0 45 -45 45h-88zM590 1653q0 59 39 98t98 39t98 -39 t39 -98t-39 -98t-98 -39t-98 39t-39 98zM662 1653q0 -29 18 -47.5t47 -18.5t47.5 18.5t18.5 47.5q0 31 -18.5 49t-47.5 18t-47 -18t-18 -49z" />
<glyph unicode="&#x16f;" horiz-adv-x="1204" d="M45 946v78h100q63 0 91 -27t28 -86v-505q0 -61 4 -105t19 -93t41 -79t74 -50t114 -20q124 0 221.5 66.5t148 172t50.5 226.5v500h86v-901q0 -45 45 -45h88v-78h-100q-63 0 -91 27t-28 86v57l4 84h-4q-11 -31 -33 -66t-59 -73.5t-82.5 -69t-110 -50.5t-135.5 -20 q-183 0 -260.5 98.5t-77.5 301.5v526q0 45 -45 45h-88zM451 1323q0 59 39.5 98t97.5 39t97.5 -39t39.5 -98t-39.5 -98t-97.5 -39t-97.5 39t-39.5 98zM522 1323q0 -29 18.5 -47.5t47.5 -18.5t47 18.5t18 47.5q0 31 -18 49.5t-47 18.5t-47.5 -18.5t-18.5 -49.5z" />
<glyph unicode="&#x178;" horiz-adv-x="1191" d="M20 1352v82h19q78 0 115.5 -21.5t83.5 -97.5l268 -447l88 -161h4q45 91 88 161l268 447q46 76 83.5 97.5t115.5 21.5h18v-82h-26q-68 0 -101 -56l-403 -673v-623h-88v623l-406 673q-33 56 -100 56h-27zM412 1614v149h94v-149h-94zM692 1614v149h94v-149h-94z" />
<glyph unicode="&#x179;" horiz-adv-x="1165" d="M41 0v70l823 1151q23 32 49 64.5t41 49.5l15 17v4q-33 -4 -105 -4h-669q-45 0 -45 -45v-101h-87v109q0 63 28 91t91 28h893v-70l-823 -1151q-23 -32 -49 -65t-41 -50l-15 -16v-4q33 4 105 4h719q45 0 45 45v100h86v-108q0 -63 -28 -91t-91 -28h-942zM547 1536l137 227 h115l-162 -227h-90z" />
<glyph unicode="&#x17a;" horiz-adv-x="1009" d="M92 0v70l621 780l80 94v4q-37 -4 -105 -4h-461q-45 0 -45 -45v-88h-84v94q0 63 28 91t91 28h692v-70l-622 -780q-16 -21 -36.5 -44.5t-32.5 -36.5l-13 -13v-4q38 4 106 4h512q45 0 45 45v88h84v-94q0 -63 -27.5 -91t-90.5 -28h-742zM479 1206l137 228h115l-162 -228h-90z " />
<glyph unicode="&#x17b;" horiz-adv-x="1165" d="M41 0v70l823 1151q23 32 49 64.5t41 49.5l15 17v4q-33 -4 -105 -4h-669q-45 0 -45 -45v-101h-87v109q0 63 28 91t91 28h893v-70l-823 -1151q-23 -32 -49 -65t-41 -50l-15 -16v-4q33 4 105 4h719q45 0 45 45v100h86v-108q0 -63 -28 -91t-91 -28h-942zM545 1614v149h94 v-149h-94z" />
<glyph unicode="&#x17c;" horiz-adv-x="1009" d="M92 0v70l621 780l80 94v4q-37 -4 -105 -4h-461q-45 0 -45 -45v-88h-84v94q0 63 28 91t91 28h692v-70l-622 -780q-16 -21 -36.5 -44.5t-32.5 -36.5l-13 -13v-4q38 4 106 4h512q45 0 45 45v88h84v-94q0 -63 -27.5 -91t-90.5 -28h-742zM477 1284v150h94v-150h-94z" />
<glyph unicode="&#x17d;" horiz-adv-x="1165" d="M41 0v70l823 1151q23 32 49 64.5t41 49.5l15 17v4q-33 -4 -105 -4h-669q-45 0 -45 -45v-101h-87v109q0 63 28 91t91 28h893v-70l-823 -1151q-23 -32 -49 -65t-41 -50l-15 -16v-4q33 4 105 4h719q45 0 45 45v100h86v-108q0 -63 -28 -91t-91 -28h-942zM375 1763h100 l115 -164h4l115 164h100l-164 -227h-106z" />
<glyph unicode="&#x17e;" horiz-adv-x="1009" d="M92 0v70l621 780l80 94v4q-37 -4 -105 -4h-461q-45 0 -45 -45v-88h-84v94q0 63 28 91t91 28h692v-70l-622 -780q-16 -21 -36.5 -44.5t-32.5 -36.5l-13 -13v-4q38 4 106 4h512q45 0 45 45v88h84v-94q0 -63 -27.5 -91t-90.5 -28h-742zM307 1434h101l114 -164h4l115 164h100 l-163 -228h-107z" />
<glyph unicode="&#x218;" horiz-adv-x="1032" d="M80 170l59 68q6 -7 17 -19t49 -42.5t79.5 -54t106 -42.5t131.5 -19q135 0 227.5 83t92.5 210q0 64 -24.5 116.5t-66.5 89.5t-96.5 68.5t-114.5 58.5t-119.5 54.5t-114 62t-96.5 75.5t-66.5 99.5t-24.5 129.5q0 144 116 247t304 103q41 0 86.5 -6.5t97.5 -23t92.5 -41.5 t67 -66t26.5 -92v-90h-88v69q0 69 -83 116.5t-197 47.5q-153 0 -241.5 -77t-88.5 -185q0 -59 24.5 -108t66.5 -83t96.5 -64t114.5 -56.5t119.5 -54t114 -63.5t96.5 -79t66.5 -105.5t24.5 -138.5q0 -160 -114.5 -271.5t-301.5 -111.5q-79 0 -153.5 20t-124 48.5t-87.5 57.5 t-55 49zM455 -410q37 95 37 160q0 53 -23 115h98q13 -57 13 -96q0 -77 -45 -179h-80z" />
<glyph unicode="&#x219;" horiz-adv-x="874" d="M63 152l62 63q4 -6 12.5 -16.5t38 -37.5t63.5 -47.5t89 -37.5t114 -17q105 0 178.5 51t73.5 142q0 46 -25.5 83.5t-67 62t-94.5 48.5t-108 43.5t-108 47.5t-94.5 59t-67 79t-25.5 107q0 128 96.5 197.5t254.5 69.5q38 0 83 -9t93 -27.5t80 -55t32 -83.5v-77h-86v49 q0 40 -35.5 68.5t-78.5 39.5t-84 11q-126 0 -195 -45t-69 -132q0 -53 32.5 -94t84.5 -68t114.5 -52t125.5 -52.5t115 -61t84.5 -86.5t32.5 -122q0 -122 -98 -199.5t-246 -77.5q-72 0 -137.5 18t-107.5 44t-73 52.5t-45 44.5zM373 -410q37 95 37 160q0 53 -23 115h98 q13 -57 13 -96q0 -77 -45 -179h-80z" />
<glyph unicode="&#x21a;" horiz-adv-x="1239" d="M31 1206v117q0 63 23.5 87t86.5 24h957q63 0 86.5 -24t23.5 -87v-117h-86v101q0 24 -10.5 34.5t-34.5 10.5h-413v-1352h-89v1352h-413q-24 0 -34.5 -10.5t-10.5 -34.5v-101h-86zM557 -410q37 95 37 160q0 53 -23 115h99q12 -53 12 -96q0 -77 -45 -179h-80z" />
<glyph unicode="&#x21b;" horiz-adv-x="655" d="M61 946v78h136v285h86v-285h268v-78h-268v-569q0 -77 18 -135t43.5 -89.5t61 -50.5t63.5 -24.5t57 -5.5l47 4v-80q-20 -4 -51 -4q-39 0 -75.5 6.5t-84 29.5t-82 62t-59 111.5t-24.5 169.5v575h-136zM315 -410q37 95 37 160q0 56 -22 115h98q12 -52 12 -96q0 -77 -45 -179 h-80z" />
<glyph unicode="&#x2c6;" horiz-adv-x="933" d="M250 1536l164 227h106l164 -227h-100l-115 164h-4l-115 -164h-100z" />
<glyph unicode="&#x2da;" horiz-adv-x="761" d="M244 1653q0 59 39 98t98 39t98 -39t39 -98t-39 -98t-98 -39t-98 39t-39 98zM315 1653q0 -29 18.5 -47.5t47.5 -18.5t47 18.5t18 47.5q0 31 -18 49t-47 18t-47.5 -18t-18.5 -49z" />
<glyph unicode="&#x2dc;" horiz-adv-x="956" d="M176 1542q0 221 170 221q38 0 69.5 -15.5t53.5 -37.5t41.5 -44.5t43.5 -38t50 -15.5q25 0 43 15.5t25.5 40.5t10.5 46t3 43h82q0 -221 -170 -221q-38 0 -69.5 15.5t-53.5 38t-41.5 45t-43.5 38t-50 15.5q-33 0 -53 -28.5t-24.5 -57.5t-4.5 -60h-82z" />
<glyph unicode="&#x1e9e;" horiz-adv-x="1236" d="M76 0v82h88q45 0 45 45v948q0 149 104.5 254t253.5 105h525v-62l-355 -495l-55 -74v-4h74q164 0 279.5 -116.5t115.5 -281.5t-115.5 -283t-279.5 -118h-197v82h193q132 0 219.5 93.5t87.5 225.5t-87 224t-216 92h-191v65l320 451q28 40 50.5 70t30.5 39l9 10v4 q-12 -4 -86 -4h-309q-123 0 -203 -80t-80 -197v-956q0 -63 -28 -91t-91 -28h-102z" />
<glyph unicode="&#x2000;" horiz-adv-x="895" />
<glyph unicode="&#x2001;" horiz-adv-x="1790" />
<glyph unicode="&#x2002;" horiz-adv-x="895" />
<glyph unicode="&#x2003;" horiz-adv-x="1790" />
<glyph unicode="&#x2004;" horiz-adv-x="596" />
<glyph unicode="&#x2005;" horiz-adv-x="447" />
<glyph unicode="&#x2006;" horiz-adv-x="298" />
<glyph unicode="&#x2007;" horiz-adv-x="298" />
<glyph unicode="&#x2008;" horiz-adv-x="223" />
<glyph unicode="&#x2009;" horiz-adv-x="358" />
<glyph unicode="&#x200a;" horiz-adv-x="99" />
<glyph unicode="&#x2010;" horiz-adv-x="884" d="M160 539v82h565v-82h-565z" />
<glyph unicode="&#x2011;" horiz-adv-x="884" d="M160 539v82h565v-82h-565z" />
<glyph unicode="&#x2012;" horiz-adv-x="884" d="M160 539v82h565v-82h-565z" />
<glyph unicode="&#x2013;" horiz-adv-x="1294" d="M160 539v82h975v-82h-975z" />
<glyph unicode="&#x2014;" horiz-adv-x="1703" d="M160 539v82h1384v-82h-1384z" />
<glyph unicode="&#x2018;" horiz-adv-x="403" d="M113 1139l98 309h80l-72 -309h-106z" />
<glyph unicode="&#x2019;" horiz-adv-x="403" d="M113 1143l71 309h107l-98 -309h-80z" />
<glyph unicode="&#x201a;" horiz-adv-x="403" d="M113 -184l71 309h107l-98 -309h-80z" />
<glyph unicode="&#x201c;" horiz-adv-x="608" d="M113 1139l98 309h80l-72 -309h-106zM317 1139l99 309h80l-72 -309h-107z" />
<glyph unicode="&#x201d;" horiz-adv-x="608" d="M113 1143l71 309h107l-98 -309h-80zM317 1143l72 309h107l-99 -309h-80z" />
<glyph unicode="&#x201e;" horiz-adv-x="608" d="M113 -184l71 309h107l-98 -309h-80zM317 -184l72 309h107l-99 -309h-80z" />
<glyph unicode="&#x2022;" horiz-adv-x="872" d="M166 596q0 112 79 191t191 79q113 0 192 -79t79 -191t-79 -191t-192 -79q-112 0 -191 79t-79 191z" />
<glyph unicode="&#x2026;" horiz-adv-x="1513" d="M262 0v121h117v-121h-117zM698 0v121h117v-121h-117zM1135 0v121h116v-121h-116z" />
<glyph unicode="&#x202f;" horiz-adv-x="358" />
<glyph unicode="&#x2039;" horiz-adv-x="657" d="M70 578l336 421h108l-336 -421l336 -420h-108z" />
<glyph unicode="&#x203a;" horiz-adv-x="657" d="M143 158l336 420l-336 421h109l336 -421l-336 -420h-109z" />
<glyph unicode="&#x205f;" horiz-adv-x="447" />
<glyph unicode="&#x20ac;" horiz-adv-x="1187" d="M82 559v82h111q-5 39 -5 76l7 106h-113v82h127q58 245 244.5 399t437.5 154q47 0 92.5 -5.5t67.5 -10.5l22 -6l-20 -86q-74 22 -162 22q-217 0 -375 -128.5t-213 -338.5h672l-17 -82h-671q-8 -43 -8 -102l4 -80h643l-15 -82h-616q46 -222 208.5 -360t387.5 -138 q46 0 91 6.5t67 13.5l22 7l25 -84q-88 -29 -205 -29q-259 0 -448.5 163.5t-239.5 420.5h-121z" />
<glyph unicode="&#x2122;" horiz-adv-x="1986" d="M96 1272v65q0 55 21 76t76 21h544q55 0 76 -21t21 -76v-65h-80v61q0 23 -23 23h-227v-815h-80v815h-225q-23 0 -23 -23v-61h-80zM850 541v75h53q22 0 25 23l61 795h72l258 -553q8 -18 15.5 -38.5t10.5 -32.5l3 -11h4q10 41 28 82l258 553h72l62 -795q3 -23 24 -23h53v-75 h-59q-54 0 -72.5 19.5t-23.5 76.5l-47 575l2 58h-4l-261 -561h-69l-260 561h-4l2 -58l-47 -575q-5 -57 -24 -76.5t-73 -19.5h-59z" />
<glyph unicode="&#x25fc;" horiz-adv-x="1024" d="M0 0v1024h1024v-1024h-1024z" />
<glyph horiz-adv-x="1146" d="M90 717q0 129 15 236.5t50 202.5t90 160.5t138 103.5t190 38t190.5 -38t138 -103.5t90 -160.5t50.5 -202.5t15 -236.5q0 -163 -25 -292.5t-79.5 -233t-150.5 -160t-229 -56.5q-107 0 -190 37.5t-138 103t-90 161t-50 203.5t-15 237zM182 717q0 -147 19 -260.5t62 -205.5 t121 -141t189 -49q89 0 157.5 33t112.5 90.5t71.5 142t39 179.5t11.5 211t-11.5 210.5t-39 179t-71.5 142t-112.5 90.5t-157.5 33t-157.5 -33t-112 -90.5t-71.5 -142t-39 -179t-11 -210.5z" />
<glyph horiz-adv-x="1126" d="M215 0v82h326v1167l2 72h-4q-15 -27 -76 -88l-170 -170l-62 59l310 312h88v-1352h317v-82h-731z" />
<glyph horiz-adv-x="1126" d="M98 119q0 86 27 159t72.5 125.5t104 98t124 83t130.5 74t123.5 77.5t104 86.5t72.5 107.5t27 135q0 133 -90 220t-242 87q-117 0 -201 -51.5t-84 -122.5v-70h-88v91q0 63 39.5 112t100 75t121 39t114.5 13q103 0 185 -32.5t133 -87.5t77.5 -125t26.5 -148q0 -81 -27 -151 t-72.5 -121t-105 -96t-125 -83t-130.5 -75.5t-124.5 -79t-105 -88t-72.5 -109t-27 -135.5q0 -45 45 -45h680q45 0 45 45v100h86v-108q0 -63 -27.5 -91t-90.5 -28h-707q-63 0 -91 28t-28 91z" />
<glyph horiz-adv-x="1126" d="M92 174l66 66q6 -7 17.5 -19t50 -43t80 -54.5t106.5 -43t131 -19.5q142 0 250 100t108 253q0 107 -56 186.5t-141.5 117.5t-185.5 38h-98l-25 61l402 469q14 16 29.5 32.5t24.5 25.5l9 8v4q-38 -4 -110 -4h-459q-45 0 -45 -45v-101h-86v109q0 63 28 91t91 28h704v-62 l-463 -534q57 0 116 -11t124.5 -41.5t116 -76t83.5 -122t33 -173.5q0 -183 -133.5 -311t-320.5 -128q-76 0 -150 20.5t-125.5 49.5t-92 58.5t-59.5 50.5z" />
<glyph horiz-adv-x="1126" d="M31 410v61l743 963h82v-942h231v-82h-231v-410h-88v410h-737zM145 485q58 7 115 7h508v671l6 129h-4q-35 -51 -72 -98l-477 -616l-76 -89v-4z" />
<glyph horiz-adv-x="1126" d="M106 182l72 56q4 -7 12 -19t37.5 -42.5t64.5 -54t94 -42.5t124 -19q168 0 282.5 107.5t114.5 267.5q0 162 -114.5 270.5t-282.5 108.5q-73 0 -142.5 -21.5t-103.5 -43.5l-33 -21l-65 23l65 563q8 65 33 92t86 27h447q61 0 88.5 -28t27.5 -91v-109h-86v101q0 45 -45 45 h-417q-40 0 -46 -45l-45 -383l-14 -88h4q11 7 32 18t85.5 29t128.5 18q205 0 347 -135.5t142 -329.5q0 -127 -65.5 -233t-178 -167t-245.5 -61q-78 0 -148.5 21.5t-115 52t-78 60.5t-48.5 51z" />
<glyph horiz-adv-x="1126" d="M92 625q0 112 21 224.5t69.5 223t118 195.5t175.5 137.5t233 52.5q65 0 127.5 -14t91.5 -28l30 -15l-43 -80q-10 6 -27.5 14.5t-72.5 22.5t-110 14q-97 0 -180.5 -39t-142.5 -104.5t-103 -153.5t-67.5 -184t-29.5 -197h4q55 98 166 151.5t242 53.5q192 0 316 -122.5 t124 -323.5q0 -113 -35.5 -205t-96 -151t-140 -90.5t-168.5 -31.5q-154 0 -269.5 89t-174 235.5t-58.5 325.5zM193 528q0 -59 17.5 -123.5t53 -125.5t82.5 -110t111.5 -78.5t134.5 -29.5q163 0 256.5 109t93.5 283q0 165 -97.5 262.5t-254.5 97.5q-159 0 -278 -91.5 t-119 -193.5z" />
<glyph horiz-adv-x="1126" d="M100 1206v109q0 63 28 91t91 28h825v-62l-720 -1372h-103l639 1219q16 32 35 65.5t30 50.5l11 17v4q-41 -4 -113 -4h-592q-45 0 -45 -45v-101h-86z" />
<glyph horiz-adv-x="1126" d="M86 399q0 73 28 140t67.5 110.5t79 76.5t67.5 48l28 14v5q-9 4 -23 11t-51 34t-65 59t-51 85t-23 112q0 73 28.5 138.5t81 116t133.5 80t179 29.5q197 0 311.5 -103t114.5 -270q0 -64 -21.5 -125t-51.5 -103t-60.5 -75t-51.5 -49l-22 -16v-4q119 -58 181.5 -132.5 t62.5 -197.5q0 -111 -63 -205t-170.5 -148.5t-233.5 -54.5q-91 0 -175 28t-151.5 80t-108 134t-40.5 182zM178 399q0 -102 56 -181t142.5 -118t184.5 -39q94 0 179.5 40t140.5 114.5t55 165.5q0 61 -22 108t-68.5 82.5t-92 58.5t-120.5 52q-156 61 -184 61q-23 0 -66.5 -26 t-90 -69t-80.5 -110.5t-34 -138.5zM236 1094q0 -42 10.5 -77t34 -63t48 -48.5t66 -40.5t72 -32.5t82.5 -31.5q114 -43 141 -43q21 0 56 28t69 72t59 106t25 121q0 131 -93 209t-241 78q-152 0 -240.5 -78t-88.5 -200z" />
<glyph horiz-adv-x="1126" d="M92 981q0 113 35.5 205t96 150.5t140 90t168.5 31.5q154 0 269.5 -89t174 -235t58.5 -325q0 -79 -10.5 -159t-34.5 -162.5t-58.5 -157t-85 -140t-112 -113t-142.5 -75t-173 -27.5q-65 0 -127.5 14.5t-92.5 28.5l-30 15l43 80q10 -6 28 -14.5t73 -23t110 -14.5 q97 0 180.5 39t142.5 105t102.5 154t67 184.5t29.5 197.5h-4q-55 -98 -166.5 -152t-241.5 -54q-192 0 -316 122.5t-124 323.5zM184 981q0 -165 98 -262.5t255 -97.5q159 0 278 91t119 193q0 59 -17.5 123.5t-53 125.5t-82.5 110t-111.5 78.5t-134.5 29.5q-163 0 -257 -108.5 t-94 -282.5z" />
<glyph horiz-adv-x="2220" d="M31 1206v117q0 63 23.5 87t86.5 24h1014q63 0 91 -27t28 -86v-467l-4 -84h4q11 31 33 66t60 73.5t84.5 69t113 50.5t139.5 20q97 0 164.5 -27.5t104.5 -82.5t53 -124.5t16 -165.5v-526q0 -45 45 -45h88v-78h-100q-63 0 -91 28t-28 91v499q0 62 -4 105.5t-18.5 92.5 t-41 79t-74 50t-114.5 20q-183 0 -306.5 -134t-123.5 -331v-500h-86v1307q0 45 -45 45h-479v-1352h-89v1352h-413q-24 0 -34.5 -10.5t-10.5 -34.5v-101h-86z" />
<glyph horiz-adv-x="1218" d="M31 1206v117q0 63 23.5 87t86.5 24h1047v-82h-524v-1352h-89v1352h-413q-24 0 -34.5 -10.5t-10.5 -34.5v-101h-86z" />
<glyph horiz-adv-x="1218" d="M31 1206v117q0 63 23.5 87t86.5 24h1047v-82h-524v-1352h-9l-22 -123q64 -9 102.5 -46.5t38.5 -92.5q0 -79 -53 -117.5t-133 -38.5q-24 0 -46.5 2t-33.5 4l-10 2v78q37 -10 84 -10q110 0 110 76q0 36 -33 57t-92 21l-24 -2l41 190h-9v1352h-413q-24 0 -34.5 -10.5 t-10.5 -34.5v-101h-86z" />
<glyph horiz-adv-x="1218" d="M31 1206v117q0 63 23.5 87t86.5 24h1047v-82h-524v-1352h-89v1352h-413q-24 0 -34.5 -10.5t-10.5 -34.5v-101h-86zM406 1763h100l115 -164h4l114 164h101l-164 -227h-107z" />
<glyph horiz-adv-x="1218" d="M31 1206v117q0 63 23.5 87t86.5 24h1047v-82h-524v-1352h-89v1352h-413q-24 0 -34.5 -10.5t-10.5 -34.5v-101h-86zM557 -410q37 95 37 160q0 53 -23 115h99q12 -53 12 -96q0 -77 -45 -179h-80z" />
<glyph horiz-adv-x="884" d="M160 674v82h565v-82h-565z" />
<glyph horiz-adv-x="593" d="M178 748q0 443 213 798h90q-219 -369 -219 -792q0 -230 60 -457t176 -430h-90q-107 188 -168.5 417.5t-61.5 463.5z" />
<glyph horiz-adv-x="593" d="M96 -133q116 203 176 430t60 457q0 423 -219 792h90q213 -355 213 -798q0 -234 -61.5 -463.5t-168.5 -417.5h-90z" />
<glyph horiz-adv-x="577" d="M215 -14v1441q0 63 28 91t91 28h102v-82h-88q-45 0 -45 -45v-1425q0 -45 45 -45h88v-82h-102q-63 0 -91 28t-28 91z" />
<glyph horiz-adv-x="577" d="M141 -51h88q45 0 45 45v1425q0 45 -45 45h-88v82h103q63 0 90.5 -28t27.5 -91v-1441q0 -63 -27.5 -91t-90.5 -28h-103v82z" />
<glyph horiz-adv-x="645" d="M76 678v82q7 1 19 4t42 19t52.5 40t41.5 72t19 109v165q0 99 23.5 172.5t55 110.5t74 59.5t70.5 27.5t55 5h19v-80h-12q-19 0 -39 -4t-50 -21.5t-52.5 -46.5t-39 -86.5t-16.5 -134.5v-190q0 -56 -16.5 -103t-40.5 -75t-48 -47.5t-41 -27.5l-16 -7v-4q7 -2 17.5 -7 t38.5 -25t49.5 -46.5t39 -75t17.5 -106.5v-217q0 -77 16.5 -134.5t39 -86.5t52.5 -46.5t50 -21.5t39 -4h12v-80q-7 -2 -19 -2q-27 0 -55 5t-70.5 27.5t-74 60t-55 111.5t-23.5 173v192q0 61 -18 109t-43.5 72t-51 39.5t-43.5 19.5z" />
<glyph horiz-adv-x="645" d="M98 -53h13q19 0 39 4t50 21.5t52 46.5t38.5 86.5t16.5 134.5v217q0 58 16.5 106t40.5 75.5t48 46.5t40 25l17 7v4q-7 2 -17.5 7.5t-38.5 27t-49.5 48t-39 74t-17.5 103.5v190q0 77 -16.5 134.5t-38.5 86.5t-52 46.5t-50 21.5t-39 4h-13v80h19q27 0 55 -5t70.5 -27.5 t74 -59.5t55 -110.5t23.5 -172.5v-165q0 -61 18 -109t43.5 -72t51 -39.5t43.5 -19.5l18 -4v-82q-7 -1 -19 -4t-42 -19t-52.5 -40t-41.5 -72t-19 -109v-192q0 -99 -23.5 -173t-55 -111.5t-74 -60t-70.5 -27.5t-55 -5l-19 2v80z" />
<glyph horiz-adv-x="1507" d="M88 717q0 152 57 290.5t152 238.5t226 159t274 59q127 0 222 -30.5t148.5 -83t79 -114.5t25.5 -134v-705h143v-82h-543q-164 0 -279.5 116.5t-115.5 281.5t115.5 283t279.5 118h308q-2 54 -23 100t-63 85t-115 61t-170 22q-130 0 -247 -52.5t-200.5 -141.5t-132.5 -212 t-49 -259q0 -183 83 -335t227.5 -239.5t318.5 -87.5v-86q-196 0 -362 99.5t-262.5 271.5t-96.5 377zM569 713q0 -131 92 -223.5t222 -92.5h297v635h-293q-133 0 -225.5 -94t-92.5 -225z" />
<glyph horiz-adv-x="985" d="M70 700l336 422h108l-336 -422l336 -419h-108zM397 700l336 422h109l-336 -422l336 -419h-109z" />
<glyph horiz-adv-x="985" d="M143 281l336 419l-336 422h109l336 -422l-336 -419h-109zM471 281l336 419l-336 422h109l335 -422l-335 -419h-109z" />
<glyph horiz-adv-x="657" d="M70 700l336 422h108l-336 -422l336 -419h-108z" />
<glyph horiz-adv-x="657" d="M143 281l336 419l-336 422h109l336 -422l-336 -419h-109z" />
<glyph horiz-adv-x="1294" d="M160 662v81h975v-81h-975z" />
<glyph horiz-adv-x="1703" d="M160 662v81h1384v-81h-1384z" />
<glyph horiz-adv-x="841" d="M61 328q0 69 20.5 127.5t53 100.5t72 80.5t79.5 74.5t72.5 74.5t53 89.5t20.5 110v90h88v-90q0 -68 -20 -127t-52.5 -102.5t-71.5 -83t-78 -76.5t-71.5 -75.5t-52.5 -88.5t-20 -106q0 -112 84 -188.5t215 -76.5q67 0 132 21.5t97 43.5l31 21l47 -69q-5 -4 -14 -11 t-40 -25t-64.5 -31.5t-84 -24.5t-102.5 -11q-175 0 -284.5 100t-109.5 253zM418 1313v121h117v-121h-117z" />
<glyph horiz-adv-x="575" d="M227 1313v121h117v-121h-117zM244 0v1075h88v-1075h-88z" />
<glyph horiz-adv-x="872" d="M166 719q0 113 79 191.5t191 78.5q113 0 192 -79t79 -191t-79 -191t-192 -79q-112 0 -191 78.5t-79 191.5z" />
</font>
</defs>
</svg>
