<?xml version="1.0" standalone="no"?>
<!DOCTYPE svg PUBLIC "-//W3C//DTD SVG 1.1//EN" "http://www.w3.org/Graphics/SVG/1.1/DTD/svg11.dtd" >
<svg xmlns="http://www.w3.org/2000/svg" xmlns:xlink="http://www.w3.org/1999/xlink" version="1.1">
<metadata></metadata>
<defs>
<font id="museo300" horiz-adv-x="1234" >
<font-face units-per-em="2048" ascent="1536" descent="-512" />
<missing-glyph horiz-adv-x="557" />
<glyph unicode="&#xfb00;" horiz-adv-x="1228" d="M51 913v117h129v37q0 81 18 146t49 105t66.5 67.5t78.5 41t76 18.5t67 5l63 -4v-125q-18 4 -49 4q-28 0 -54.5 -4.5t-60 -21t-57.5 -43t-41 -76t-17 -115.5v-35h465v37q0 81 18 146t49 105t66.5 67.5t78.5 41t76 18.5t67 5l63 -4v-125q-18 4 -49 4q-28 0 -54 -4.5 t-59.5 -21t-57.5 -43t-41 -76t-17 -115.5v-35h262v-117h-262v-913h-140v913h-465v-913h-139v913h-129z" />
<glyph unicode="&#xfb01;" horiz-adv-x="1118" d="M51 913v117h129v37q0 81 18 146t49 105t66.5 67.5t78.5 41t76 18.5t67 5l63 -4v-125q-20 4 -51 4q-23 0 -44.5 -3.5t-49 -12.5t-50 -27.5t-42.5 -45.5t-31 -70.5t-11 -98.5v-37h488q66 0 95.5 -29.5t29.5 -95.5v-739q0 -45 45 -45h86v-121h-145q-66 0 -95.5 29.5 t-29.5 95.5v743q0 45 -45 45h-429v-913h-139v913h-129zM788 1264v176h136v-176h-136z" />
<glyph unicode="&#xfb02;" horiz-adv-x="1105" d="M51 913v117h129v37q0 70 14 127.5t36 95.5t54 66.5t63 44t68 25t64 12t56 2.5h260q66 0 95.5 -29.5t29.5 -95.5v-1149q0 -45 45 -45h86v-121h-146q-66 0 -95.5 29.5t-29.5 95.5v1149q0 45 -45 45h-186q-29 0 -54.5 -4t-59.5 -19t-58 -41t-41 -74.5t-17 -113.5v-37h263 v-117h-263v-913h-139v913h-129z" />
<glyph unicode="&#xfb03;" horiz-adv-x="1722" d="M51 913v117h129v37q0 81 18 146t49 105t66.5 67.5t78.5 41t76 18.5t67 5l63 -4v-125q-20 4 -49 4t-55.5 -4.5t-59.5 -21t-57.5 -43t-41 -76t-16.5 -115.5v-35h465v37q0 81 18 146t49 105t66.5 67.5t78.5 41t76 18.5t67 5l63 -4v-125q-20 4 -49 4t-55 -4.5t-59.5 -21 t-57.5 -43t-40.5 -76t-16.5 -115.5v-35h487q66 0 95.5 -29.5t29.5 -95.5v-739q0 -45 45 -45h86v-121h-145q-66 0 -95.5 29.5t-29.5 95.5v743q0 45 -45 45h-428v-913h-140v913h-465v-913h-139v913h-129zM1393 1264v176h135v-176h-135z" />
<glyph unicode="&#xfb04;" horiz-adv-x="1708" d="M51 913v117h129v43q0 80 17 143.5t47.5 103t65.5 67t77 40.5t75 18t68 5l68 -4v-125q-22 4 -53 4q-29 0 -55.5 -4.5t-59 -21t-56 -42.5t-39.5 -74t-16 -112v-41h465v37q0 70 14 127.5t36 95.5t54 66.5t63 44t68 25t64 12t56 2.5h260q66 0 95.5 -29.5t29.5 -95.5v-1149 q0 -45 45 -45h86v-121h-146q-66 0 -95.5 29.5t-29.5 95.5v1149q0 45 -45 45h-186q-29 0 -54.5 -4t-59.5 -19t-57.5 -41t-40.5 -74.5t-17 -113.5v-37h262v-117h-262v-913h-140v913h-465v-913h-139v913h-129z" />
<glyph unicode="fj" horiz-adv-x="1163" d="M51 913v117h129v37q0 81 18 146t49 105t66.5 67.5t78.5 41t76 18.5t67 5l63 -4v-125q-20 4 -49 4t-55.5 -4.5t-59.5 -21t-57.5 -43t-41 -76t-16.5 -115.5v-35h535q66 0 95.5 -29.5t29.5 -95.5v-944q0 -97 -26.5 -170.5t-65 -112.5t-91 -63t-93 -30.5t-82.5 -6.5 q-16 0 -31 1.5t-22 2.5l-7 2v121q18 -2 45 -2q28 0 54.5 4.5t61 21t59 43.5t42 77.5t17.5 117.5v901q0 45 -45 45h-476v-913h-139v913h-129zM838 1264v176h135v-176h-135z" />
<glyph horiz-adv-x="0" />
<glyph horiz-adv-x="682" />
<glyph unicode=" "  horiz-adv-x="557" />
<glyph unicode="&#x09;" horiz-adv-x="557" />
<glyph unicode="&#xa0;" horiz-adv-x="557" />
<glyph unicode="!" horiz-adv-x="608" d="M227 0v158h158v-158h-158zM231 1440h144l-6 -1063h-131z" />
<glyph unicode="&#x22;" horiz-adv-x="638" d="M135 1114v346h121v-346h-121zM383 1114v346h121v-346h-121z" />
<glyph unicode="#" horiz-adv-x="1460" d="M84 399l20 115h289l72 401h-289l19 115h290l72 410h125l-72 -410h355l71 410h125l-71 -410h286l-20 -115h-287l-70 -401h285l-18 -115h-287l-70 -399h-125l70 399h-354l-70 -399h-125l70 399h-291zM520 514h352l72 401h-354z" />
<glyph unicode="$" horiz-adv-x="1089" d="M94 246l107 86q5 -9 14.5 -24t43 -53.5t72 -68t102 -53.5t132.5 -24q128 0 206.5 73.5t78.5 182.5q0 57 -24.5 104t-65.5 80.5t-94.5 63t-112.5 56.5t-117.5 55t-112 64t-94.5 79t-65.5 104t-24.5 135q0 135 101 233.5t266 118.5v195h117v-191q57 -5 111 -20t107 -42.5 t85 -75t32 -107.5v-103h-135v68q0 64 -70 106.5t-171 42.5q-135 0 -215 -64.5t-80 -158.5q0 -69 39 -123t102 -90t138.5 -69t151 -72t138.5 -86.5t102 -123t39 -173.5q0 -149 -102.5 -261.5t-271.5 -129.5v-191h-117v191q-58 6 -112 24t-94.5 41.5t-75.5 51t-58 54t-40 48 t-24 34.5z" />
<glyph unicode="%" horiz-adv-x="1521" d="M127 1180q0 117 83.5 200.5t203.5 83.5t204 -83.5t84 -200.5q0 -119 -84 -202t-204 -83t-203.5 83t-83.5 202zM139 0l1098 1440h145l-1095 -1440h-148zM248 1180q0 -71 48 -120.5t118 -49.5t119 49.5t49 120.5q0 70 -49 120t-119 50t-118 -50t-48 -120zM819 258 q0 119 83.5 203t203.5 84t204.5 -84t84.5 -203q0 -117 -84.5 -200t-204.5 -83t-203.5 83t-83.5 200zM942 260q0 -71 47 -120.5t117 -49.5t119 49.5t49 120.5q0 70 -49 120t-119 50t-117 -50t-47 -120z" />
<glyph unicode="&#x26;" horiz-adv-x="1277" d="M94 401q0 127 69 233.5t191 141.5v4q-8 3 -21.5 8.5t-47.5 30.5t-60 57.5t-47.5 92t-21.5 131.5q0 162 116 263t310 101q35 0 77 -5.5t67 -10.5l24 -6l-41 -117q-68 14 -119 14q-126 0 -206.5 -68t-80.5 -179q0 -33 6 -64.5t26 -68.5t52 -64t90 -45.5t135 -18.5h299v199 h142v-199h190v-126h-190v-211q0 -253 -126.5 -386t-346.5 -133q-213 0 -349.5 121.5t-136.5 304.5zM240 406q0 -126 92 -211.5t248 -85.5t243.5 95t87.5 294v207h-295q-184 0 -280 -80t-96 -219z" />
<glyph unicode="'" horiz-adv-x="391" d="M135 1114v346h121v-346h-121z" />
<glyph unicode="(" horiz-adv-x="632" d="M174 680q0 461 221 815h131q-223 -375 -223 -805q0 -474 236 -885h-129q-112 184 -174 412t-62 463z" />
<glyph unicode=")" horiz-adv-x="632" d="M94 -195q236 411 236 885q0 429 -224 805h132q221 -361 221 -815q0 -235 -62 -463t-174 -412h-129z" />
<glyph unicode="*" horiz-adv-x="976" d="M94 1104l41 129l295 -109l-12 316h139l-14 -316l299 107l41 -125l-303 -88v-4l192 -246l-106 -80l-177 260h-4l-174 -258l-108 78l192 246v4z" />
<glyph unicode="+" horiz-adv-x="1241" d="M86 522v119h473v522h125v-522h471v-119h-471v-522h-125v522h-473z" />
<glyph unicode="," horiz-adv-x="440" d="M47 -199l117 367h149l-149 -367h-117z" />
<glyph unicode="-" horiz-adv-x="884" d="M152 518v127h581v-127h-581z" />
<glyph unicode="." horiz-adv-x="440" d="M141 0v164h158v-164h-158z" />
<glyph unicode="/" horiz-adv-x="665" d="M6 -86l520 1606h129l-518 -1606h-131z" />
<glyph unicode="0" horiz-adv-x="1232" d="M121 721q0 129 15 237t51.5 203t92 161t141 104t195.5 38t195.5 -38t142 -104t93 -161t52 -203t15.5 -237q0 -130 -15.5 -238.5t-52 -204t-93 -161.5t-142 -104t-195.5 -38t-195.5 38t-141 104t-92 161.5t-51.5 204t-15 238.5zM266 721q0 -108 10 -196.5t35 -167.5 t64 -132.5t100 -84.5t141 -31q99 0 169 46t109 132t56 192t17 242q0 135 -17 240.5t-56 191.5t-109 132t-169 46q-80 0 -141 -31t-100 -84.5t-64 -132.5t-35 -167t-10 -195z" />
<glyph unicode="1" horiz-adv-x="974" d="M131 0v127h322v1057l2 80h-4q-15 -31 -72 -86l-154 -154l-90 92l326 324h135v-1313h315v-127h-780z" />
<glyph unicode="2" horiz-adv-x="1155" d="M86 141q0 86 26 158t70 124.5t101.5 98t120.5 82.5t126 72.5t120.5 74.5t101.5 82t70 100.5t26 125.5q0 118 -80.5 194t-214.5 76q-106 0 -181 -46.5t-75 -108.5v-68h-135v106q0 64 40.5 115.5t102.5 79.5t127.5 42.5t124.5 14.5q200 0 319 -115t119 -288 q0 -81 -26 -150.5t-70 -120.5t-101.5 -96t-120.5 -82.5t-126 -73t-120.5 -74t-101.5 -80.5t-70 -97t-26 -119q0 -41 48 -41h602q45 0 45 45v96h133v-143q0 -66 -29.5 -95.5t-95.5 -29.5h-721q-72 0 -100.5 32.5t-28.5 108.5z" />
<glyph unicode="3" horiz-adv-x="1081" d="M53 176l86 107q6 -7 17.5 -18.5t49 -41t79 -52.5t104.5 -41.5t127 -18.5q132 0 229 88.5t97 222.5q0 140 -103 221.5t-247 81.5h-101l-33 84l355 426q16 21 34 41t29 30l10 9v4q-40 -6 -116 -6h-375q-45 0 -45 -45v-97h-133v144q0 67 28 96t93 29h731v-94l-424 -498 q58 -3 115.5 -18t118 -47t106.5 -78.5t75 -119t29 -161.5q0 -121 -61.5 -224t-171 -164t-242.5 -61q-80 0 -156.5 20.5t-129.5 50t-94 59.5t-61 51z" />
<glyph unicode="4" horiz-adv-x="1150" d="M31 397v95l700 948h154v-916h229v-127h-229v-397h-144v397h-710zM197 518q57 6 118 6h428v588l7 139h-5q-34 -59 -73 -110l-400 -529q-17 -23 -36 -45.5t-29 -33.5l-10 -11v-4z" />
<glyph unicode="5" horiz-adv-x="1165" d="M111 180l90 101q4 -7 13 -18.5t40 -40.5t66.5 -51.5t93.5 -41t121 -18.5q153 0 255.5 96t102.5 239q0 147 -108 242.5t-265 95.5q-72 0 -141 -20t-102 -40l-33 -19l-74 30l61 580q6 68 33.5 96.5t91.5 28.5h473q65 0 94 -29.5t29 -95.5v-144h-133v97q0 45 -45 45h-364 q-21 0 -31.5 -10.5t-13.5 -34.5l-37 -326l-13 -82h4q10 6 28.5 15t76 23.5t113.5 14.5q217 0 360 -136t143 -333q0 -127 -64.5 -234.5t-181 -171t-259.5 -63.5q-80 0 -153.5 21t-120.5 51t-82.5 60.5t-51.5 51.5z" />
<glyph unicode="6" horiz-adv-x="1146" d="M88 633q0 114 22.5 227.5t73 223t122.5 193.5t179.5 135.5t235.5 51.5q70 0 136 -15t97 -29l31 -15l-53 -125q-10 6 -28.5 14.5t-73 22.5t-107.5 14q-87 0 -162.5 -34t-129.5 -90.5t-94.5 -133.5t-63.5 -160.5t-31 -173.5h4q50 82 150 128t216 46q197 0 323 -127.5 t126 -328.5q0 -219 -129.5 -350.5t-323.5 -131.5q-154 0 -273 85.5t-183 235t-64 337.5zM242 541q0 -97 45 -195.5t131 -167.5t188 -69q143 0 226 96.5t83 249.5q0 151 -88.5 241t-236.5 90q-140 0 -244 -77t-104 -168z" />
<glyph unicode="7" horiz-adv-x="1048" d="M61 1171v144q0 66 28.5 95.5t94.5 29.5h850v-99l-712 -1341h-160l626 1180q18 35 38 68t31 49l11 16v4q-36 -4 -108 -4h-518q-45 0 -45 -45v-97h-136z" />
<glyph unicode="8" horiz-adv-x="1167" d="M96 406q0 71 26.5 136t64 107.5t75 75t64.5 47.5l26 14v5q-8 4 -21 11t-47 34t-60 58t-47 83.5t-21 109.5q0 75 29 143t83 120t137 83t185 31q201 0 320.5 -106.5t119.5 -276.5q0 -61 -20 -120.5t-48 -100t-56 -72.5t-48 -48l-20 -15v-4q112 -58 171.5 -135t59.5 -195 q0 -171 -140 -293.5t-343 -122.5q-129 0 -239.5 50t-180.5 150t-70 231zM244 412q0 -91 49 -161.5t126.5 -106t166.5 -35.5q133 0 234.5 81t101.5 203q0 54 -20 96t-62.5 74t-83.5 53t-109 48q-40 18 -98 37.5t-70 19.5q-22 0 -60 -24t-77.5 -63t-68.5 -99.5t-29 -122.5z M299 1087q0 -44 15.5 -80.5t37.5 -61.5t62 -48.5t73.5 -37.5t87.5 -34q107 -39 130 -39q19 0 50 25t60.5 64t50.5 94t21 108q0 116 -82.5 185t-214.5 69q-133 0 -212 -70t-79 -174z" />
<glyph unicode="9" horiz-adv-x="1146" d="M88 983q0 219 128.5 350t322.5 131q154 0 273 -85.5t183 -234.5t64 -337q0 -114 -22.5 -227.5t-72.5 -223.5t-122 -194t-179.5 -135.5t-236.5 -51.5q-70 0 -136 15t-97 30l-31 15l53 125q10 -6 28.5 -14.5t73 -22.5t107.5 -14q108 0 197.5 51t147 137t92 189t44.5 216h-4 q-50 -83 -150 -129.5t-216 -46.5q-197 0 -322 128t-125 329zM231 985q0 -151 89 -241.5t237 -90.5q140 0 244 77.5t104 168.5q0 97 -45 195.5t-131 167.5t-188 69q-143 0 -226.5 -96.5t-83.5 -249.5z" />
<glyph unicode=":" horiz-adv-x="579" d="M211 0v164h158v-164h-158zM211 866v164h158v-164h-158z" />
<glyph unicode=";" horiz-adv-x="579" d="M111 -199l98 367h149l-131 -367h-116zM211 866v164h158v-164h-158z" />
<glyph unicode="&#x3c;" horiz-adv-x="1241" d="M141 530v103l926 414v-138l-752 -325v-4l752 -326v-137z" />
<glyph unicode="=" horiz-adv-x="1241" d="M143 344v119h955v-119h-955zM143 700v119h955v-119h-955z" />
<glyph unicode="&#x3e;" horiz-adv-x="1241" d="M158 117v137l751 326v4l-751 325v138l925 -414v-103z" />
<glyph unicode="?" horiz-adv-x="882" d="M80 1350q5 5 15 12.5t42.5 27.5t68.5 35.5t91.5 28t112.5 12.5q176 0 292.5 -101.5t116.5 -260.5q0 -69 -20 -128t-52.5 -101t-71.5 -80t-78 -73t-71.5 -71t-52.5 -83.5t-20 -102.5v-88h-140v92q0 66 20 123.5t51.5 99.5t69.5 80t76.5 73.5t70 71.5t51.5 82.5t20 98.5 q0 99 -76 167t-193 68q-62 0 -123.5 -22t-92.5 -44l-31 -22zM305 0v158h158v-158h-158z" />
<glyph unicode="@" horiz-adv-x="1513" d="M84 496q0 154 58 293.5t156 239.5t232.5 159t282.5 59q134 0 234 -32t157 -87.5t84 -122.5t27 -145v-645h145v-115h-551q-174 0 -291.5 116t-117.5 278q0 161 117 277t292 116h267q-3 103 -92 171t-261 68q-165 0 -302.5 -85.5t-215.5 -230t-78 -314.5q0 -172 78 -315.5 t217.5 -227.5t311.5 -84v-123q-157 0 -296.5 59t-238.5 159.5t-157 239t-58 292.5zM643 496q0 -118 80.5 -199.5t198.5 -81.5h254v563h-250q-120 0 -201.5 -82.5t-81.5 -199.5z" />
<glyph unicode="A" horiz-adv-x="1345" d="M25 0v127h26q31 0 47.5 9t26.5 36l471 1268h154l471 -1268q10 -28 25.5 -36.5t47.5 -8.5h25v-127h-66q-77 0 -109.5 23t-60.5 96l-125 340h-571l-127 -340q-28 -74 -60 -96.5t-108 -22.5h-67zM426 584h494l-191 514q-11 30 -25 76.5t-22 77.5l-8 32h-4q-31 -118 -56 -186 z" />
<glyph unicode="B" horiz-adv-x="1241" d="M82 1313v127h612q172 0 280.5 -98.5t108.5 -264.5q0 -113 -50.5 -192.5t-133.5 -120.5v-4q110 -31 176 -128.5t66 -228.5q0 -187 -121.5 -295t-308.5 -108h-371q-66 0 -95.5 29.5t-29.5 95.5v1188h-133zM358 172q0 -45 45 -45h308q130 0 205 76t75 205q0 128 -77.5 206 t-204.5 78h-351v-520zM358 815h334q109 0 176.5 70t67.5 182q0 111 -66.5 178.5t-179.5 67.5h-332v-498z" />
<glyph unicode="C" horiz-adv-x="1421" d="M78 731q0 205 92 373t255 264t363 96q82 0 171.5 -18t174 -52.5t139 -96t54.5 -138.5v-119h-135v80q0 64 -66.5 113.5t-155.5 72.5t-177 23q-118 0 -222.5 -45t-180 -123t-119.5 -190t-44 -240q0 -170 74 -312t205.5 -225t292.5 -83q61 0 119.5 11t104 29t86.5 39.5 t69.5 43t50 39.5t31.5 29l10 11l82 -104q-8 -10 -23.5 -25.5t-69 -56t-113.5 -71t-154.5 -56t-194.5 -25.5q-155 0 -290 59.5t-228.5 161t-147 240.5t-53.5 295z" />
<glyph unicode="D" horiz-adv-x="1464" d="M86 1313v127h578q330 0 526 -191t196 -528q0 -340 -196 -530.5t-526 -190.5h-320q-66 0 -95.5 29.5t-29.5 95.5v1188h-133zM362 172q0 -45 46 -45h241q271 0 429.5 155t158.5 439q0 282 -159.5 437t-428.5 155h-287v-1141z" />
<glyph unicode="E" horiz-adv-x="1142" d="M86 1313v127h823q66 0 95.5 -29.5t29.5 -95.5v-144h-135v97q0 45 -45 45h-492v-525h541v-126h-541v-490q0 -45 46 -45h505q45 0 45 45v96h134v-143q0 -66 -29.5 -95.5t-95.5 -29.5h-623q-66 0 -95.5 29.5t-29.5 95.5v1188h-133z" />
<glyph unicode="F" horiz-adv-x="1021" d="M86 1313v127h766q66 0 94.5 -29.5t28.5 -95.5v-144h-133v97q0 45 -45 45h-435v-541h523v-127h-523v-645h-143v1313h-133z" />
<glyph unicode="G" horiz-adv-x="1495" d="M80 723q0 204 94 374t259 268.5t366 98.5q94 0 180 -18t142.5 -44t99.5 -52t63 -44l19 -18l-84 -106q-7 6 -19 16t-53.5 35t-87 44.5t-116 35.5t-142.5 16q-160 0 -291 -79t-206 -218t-75 -309q0 -174 74 -314.5t204.5 -219t291.5 -78.5q80 0 156 21.5t127.5 52.5 t92 62.5t59.5 52.5l19 22v178q0 45 -45 45h-88v127h144q66 0 95.5 -29.5t29.5 -95.5v-547h-132v109l3 61h-5q-7 -8 -20 -21t-58.5 -46.5t-96 -59.5t-131 -47t-165.5 -21q-146 0 -275.5 56.5t-224 155t-149.5 238t-55 298.5z" />
<glyph unicode="H" horiz-adv-x="1550" d="M86 1313v127h152q66 0 95 -29.5t29 -95.5v-531h828v531q0 66 29 95.5t94 29.5h153v-127h-88q-45 0 -45 -45v-1268h-143v657h-828v-657h-143v1268q0 45 -45 45h-88z" />
<glyph unicode="I" horiz-adv-x="600" d="M94 0v127h135v1186h-135v127h412v-127h-137v-1186h137v-127h-412z" />
<glyph unicode="J" horiz-adv-x="1034" d="M49 403v58h144v-49q0 -82 22.5 -142.5t61.5 -94t84 -49t96 -15.5q50 0 94.5 16t82.5 49t60.5 93t22.5 139v860q0 45 -45 45h-357v127h420q66 0 95.5 -29.5t29.5 -95.5v-912q0 -90 -23 -163.5t-62 -122t-91.5 -81t-109.5 -47t-119 -14.5q-78 0 -148 24t-129 73t-94 134.5 t-35 196.5z" />
<glyph unicode="K" horiz-adv-x="1208" d="M86 1313v127h152q66 0 95 -29.5t29 -95.5v-500h173q89 0 120 51l349 574h163l-370 -604q-16 -26 -34.5 -46t-28.5 -27l-11 -7v-4q4 -1 10.5 -5t25 -25t34.5 -52l249 -496q14 -30 37 -38.5t68 -8.5h41v-127h-76q-90 0 -127.5 19.5t-71.5 89.5l-262 526q-16 32 -47 42.5 t-84 10.5h-158v-688h-143v1268q0 45 -45 45h-88z" />
<glyph unicode="L" horiz-adv-x="1085" d="M86 1313v127h152q66 0 95 -29.5t29 -95.5v-1143q0 -45 46 -45h477q45 0 45 45v96h135v-143q0 -66 -29.5 -95.5t-95.5 -29.5h-596q-66 0 -95.5 29.5t-29.5 95.5v1143q0 45 -45 45h-88z" />
<glyph unicode="M" horiz-adv-x="1730" d="M45 0v127h76q42 0 45 45l100 1268h146l381 -838q16 -33 33.5 -75.5t27.5 -68.5l10 -26h4q37 96 70 170l381 838h145l101 -1268q3 -45 45 -45h78v-127h-140q-65 0 -92.5 29t-32.5 96l-67 874q-3 35 -4.5 85t-1.5 83v33h-4q-39 -127 -74 -201l-342 -731h-129l-340 731 q-15 32 -34 83.5t-31 86.5l-11 35h-4q0 -127 -6 -205l-68 -874q-5 -67 -32.5 -96t-92.5 -29h-137z" />
<glyph unicode="N" horiz-adv-x="1556" d="M86 0v127h88q45 0 45 45v1268h131l735 -1026q22 -32 51 -79.5t48 -78.5l18 -31h4q-10 113 -10 189v901q0 66 29.5 95.5t95.5 29.5h152v-127h-89q-45 0 -45 -45v-1268h-131l-735 1026q-23 31 -52.5 77.5t-48.5 77.5l-18 31h-4q12 -110 12 -186v-901q0 -66 -29 -95.5 t-95 -29.5h-152z" />
<glyph unicode="O" horiz-adv-x="1619" d="M78 729q0 153 57.5 289.5t155 234t233.5 154.5t287 57t286.5 -57t233.5 -154.5t155.5 -234.5t57.5 -289q0 -155 -57.5 -295t-155.5 -240.5t-234 -159.5t-286 -59q-202 0 -370.5 100t-265.5 273t-97 381zM227 729q0 -128 46 -243t124 -197t186 -130t228 -48q119 0 227 48 t186 130t124.5 197t46.5 243q0 167 -78.5 305t-212.5 216.5t-293 78.5q-160 0 -294 -78.5t-212 -216.5t-78 -305z" />
<glyph unicode="P" horiz-adv-x="1185" d="M86 1313v127h608q195 0 320 -118.5t125 -315.5q0 -198 -125 -319.5t-320 -121.5h-332v-565h-143v1313h-133zM362 692h314q144 0 229.5 84t85.5 230q0 144 -85 225.5t-228 81.5h-316v-621z" />
<glyph unicode="Q" horiz-adv-x="1619" d="M78 729q0 153 57 289.5t154 234t232 154.5t286 57q153 0 289.5 -57t234.5 -155t155.5 -234t57.5 -289q0 -139 -47.5 -267.5t-132.5 -228.5l176 -176l-88 -92l-176 178q-196 -168 -469 -168q-150 0 -285.5 59t-232.5 160t-154 240.5t-57 294.5zM227 729q0 -170 76.5 -312 t210 -224t293.5 -82q64 0 125 13.5t103.5 32.5t75.5 38.5t49 32.5l16 14l-172 174l88 92l170 -176q63 79 98 182.5t35 214.5q0 167 -77.5 304.5t-212 215.5t-298.5 78q-161 0 -294 -78t-209.5 -215.5t-76.5 -304.5z" />
<glyph unicode="R" horiz-adv-x="1239" d="M86 1313v127h610q183 0 298.5 -112t115.5 -298q0 -157 -81.5 -258.5t-197.5 -126.5v-4q30 -16 50 -57l206 -410q14 -30 36.5 -38.5t66.5 -8.5h29v-127h-64q-89 0 -126.5 20t-72.5 89l-206 411q-28 55 -56 70.5t-90 15.5h-242v-606h-143v1313h-133zM362 733h320 q129 0 204 79t75 214q0 133 -74.5 210t-202.5 77h-322v-580z" />
<glyph unicode="S" horiz-adv-x="1060" d="M76 180l88 105q6 -7 17 -19t48.5 -42.5t78 -53.5t103 -42t126.5 -19q121 0 202.5 71.5t81.5 184.5q0 57 -24.5 104t-65.5 81t-94 63.5t-112 56.5t-118 54.5t-112 63t-94 77t-65.5 101t-24.5 130.5q0 155 122.5 261.5t317.5 106.5q58 0 120.5 -13t125 -39.5t103 -77.5 t40.5 -117v-103h-135v68q0 63 -75 106t-177 43q-135 0 -215 -67.5t-80 -163.5q0 -53 24.5 -97t65.5 -75t94.5 -59t112.5 -53.5t117.5 -53.5t112 -64t94.5 -80t65.5 -106.5t24.5 -138.5q0 -108 -52 -198t-153 -145t-232 -55q-83 0 -160 21t-128.5 51t-91 60.5t-58.5 51.5z " />
<glyph unicode="T" horiz-adv-x="1269" d="M31 1171v152q0 66 25 91.5t91 25.5h975q66 0 91.5 -25.5t25.5 -91.5v-152h-133v97q0 24 -10.5 34.5t-34.5 10.5h-354v-1313h-144v1313h-356q-45 0 -45 -45v-97h-131z" />
<glyph unicode="U" horiz-adv-x="1468" d="M70 1313v127h151q66 0 95.5 -29.5t29.5 -95.5v-815q0 -180 105 -284.5t282 -104.5q178 0 283.5 105.5t105.5 287.5v811q0 66 29.5 95.5t95.5 29.5h152v-127h-88q-45 0 -45 -45v-774q0 -233 -146.5 -376t-384.5 -143t-385 143t-147 376v774q0 45 -45 45h-88z" />
<glyph unicode="V" horiz-adv-x="1337" d="M25 1313v127h63q77 0 109.5 -23t58.5 -96l354 -969q12 -33 26 -79.5t22 -76.5l8 -30h4q28 112 55 186l354 969q27 74 60 96.5t110 22.5h62v-127h-19q-32 0 -47.5 -8.5t-25.5 -36.5l-474 -1268h-153l-473 1268q-10 28 -26 36.5t-48 8.5h-20z" />
<glyph unicode="W" horiz-adv-x="1935" d="M35 1313v127h63q81 0 118.5 -23.5t55.5 -95.5l250 -993l31 -154h4q19 80 39 154l317 1106h142l288 -1106q9 -33 17 -71.5t12 -60.5l4 -22h4q15 80 33 154l250 993q18 72 55.5 95.5t118.5 23.5h64v-127h-23q-34 0 -51.5 -9t-24.5 -36l-332 -1268h-170l-268 1001 q-11 41 -23 94t-18 86l-6 33h-4q-24 -118 -51 -210l-295 -1004h-170l-330 1268q-7 27 -25 36t-51 9h-24z" />
<glyph unicode="X" horiz-adv-x="1167" d="M31 0l458 752l-311 508q-20 32 -43.5 42.5t-58.5 10.5h-43v127h76q77 0 116.5 -22t81.5 -93l185 -309l92 -164h4q43 90 88 164l184 309q42 70 82 92.5t117 22.5h76v-127h-43q-36 0 -59.5 -10.5t-43.5 -42.5l-313 -508l461 -752h-164l-299 496l-92 157h-4 q-41 -85 -86 -159l-297 -494h-164z" />
<glyph unicode="Y" horiz-adv-x="1212" d="M20 1313v127h56q76 0 114 -21t82 -94l244 -407q20 -34 42 -74.5t34 -63.5l12 -24h4q43 86 88 162l244 407q44 73 82.5 94t114.5 21h55v-127h-33q-33 0 -54.5 -11t-39.5 -42l-387 -633v-627h-143v627l-385 633q-19 31 -41 42t-56 11h-33z" />
<glyph unicode="Z" horiz-adv-x="1177" d="M39 0v100l772 1082q24 34 50 66.5t40 48.5l14 16v4q-34 -4 -104 -4h-573q-45 0 -45 -45v-97h-134v144q0 66 29.5 95.5t95.5 29.5h908v-101l-770 -1081q-24 -34 -50.5 -66.5t-41.5 -48.5l-15 -16v-4q35 4 107 4h620q45 0 45 45v96h133v-143q0 -66 -29.5 -95.5t-95.5 -29.5 h-956z" />
<glyph unicode="[" horiz-adv-x="620" d="M207 -70v1440q0 66 29.5 95.5t95.5 29.5h151v-115h-102q-45 0 -45 -45v-1370q0 -45 45 -45h102v-115h-151q-66 0 -95.5 29.5t-29.5 95.5z" />
<glyph unicode="\" horiz-adv-x="649" d="M10 1520h131l518 -1606h-129z" />
<glyph unicode="]" horiz-adv-x="620" d="M137 -80h103q45 0 45 45v1370q0 45 -45 45h-103v115h152q66 0 95.5 -29.5t29.5 -95.5v-1440q0 -66 -29.5 -95.5t-95.5 -29.5h-152v115z" />
<glyph unicode="^" horiz-adv-x="1241" d="M150 512l405 928h96l406 -928h-133l-320 758l-319 -758h-135z" />
<glyph unicode="_" horiz-adv-x="1077" d="M10 0h1057v-119h-1057v119z" />
<glyph unicode="`" horiz-adv-x="737" d="M190 1784h156l143 -244h-120z" />
<glyph unicode="a" horiz-adv-x="1083" d="M82 281q0 354 631 354h57v12q0 159 -61.5 225t-204.5 66q-24 0 -53.5 -3.5t-65 -12.5t-59 -28t-23.5 -46v-66h-133v99q0 41 26.5 73t65.5 50.5t87.5 30.5t87 16t69.5 4q95 0 166.5 -20.5t116 -55t72 -86t38 -108t10.5 -126.5v-493q0 -45 45 -45h86v-121h-141 q-65 0 -94 29.5t-29 93.5l2 76h-4q2 0 -9 -23t-37 -56t-63 -66t-99 -56t-134 -23q-52 0 -102.5 12t-95 37t-78.5 60.5t-54 86t-20 110.5zM225 289q0 -78 60.5 -136.5t169.5 -58.5q94 0 168 59.5t110.5 145.5t36.5 178v47h-59q-47 0 -79 -1t-87.5 -5.5t-94 -13t-84.5 -26 t-74 -41.5t-47.5 -62t-19.5 -86z" />
<glyph unicode="b" horiz-adv-x="1196" d="M41 1319v121h145q66 0 95.5 -29.5t29.5 -95.5v-373l-4 -84h4q4 8 11 21.5t36.5 47.5t66 59.5t100 47t137.5 21.5q205 0 326.5 -149.5t121.5 -391.5t-130 -390.5t-335 -148.5q-69 0 -129 20.5t-96.5 49.5t-63.5 58.5t-38 50.5l-11 20h-4q4 -35 4 -84v-90h-135v1274 q0 45 -45 45h-86zM307 512q0 -79 20.5 -152t60 -132t103.5 -94.5t144 -35.5q141 0 236.5 112.5t95.5 303.5q0 187 -91 300.5t-235 113.5q-67 0 -125.5 -24.5t-106 -73t-75 -130.5t-27.5 -188z" />
<glyph unicode="c" horiz-adv-x="1081" d="M82 514q0 155 71.5 279t195.5 193t276 69q39 0 83.5 -6t95.5 -22t92 -40t68 -63.5t27 -87.5v-93h-131v60q0 58 -78.5 92.5t-156.5 34.5q-169 0 -284.5 -116t-115.5 -300q0 -123 56 -218.5t147.5 -144.5t200.5 -49q59 0 115 15t93.5 36.5t67 43t43.5 36.5l13 15l65 -105 q-6 -7 -17 -18t-49 -40t-81 -51.5t-112.5 -40.5t-143.5 -18q-152 0 -275.5 67.5t-194.5 191t-71 280.5z" />
<glyph unicode="d" horiz-adv-x="1204" d="M86 516q0 242 129.5 390.5t333.5 148.5q70 0 130.5 -20t96.5 -48t62 -56.5t36 -48.5l11 -20h4q-4 35 -4 78v334q0 45 -45 45h-86v121h145q66 0 95.5 -29.5t29.5 -95.5v-1149q0 -45 45 -45h86v-121h-143q-123 0 -123 115l4 65h-4q-3 -8 -10.5 -22t-36.5 -49.5t-65.5 -62.5 t-101 -49t-140.5 -22q-205 0 -327 149.5t-122 391.5zM229 516q0 -189 90 -302.5t236 -113.5q67 0 125.5 24.5t106 73t75 130.5t27.5 188q0 80 -20.5 153t-60 132t-103.5 94t-144 35q-141 0 -236.5 -112.5t-95.5 -301.5z" />
<glyph unicode="e" horiz-adv-x="1122" d="M82 514q0 124 40.5 227t110 171t161.5 105.5t196 37.5q138 0 237.5 -66t147 -172t47.5 -237l-4 -70h-791q3 -188 118.5 -299t281.5 -111q53 0 104 13t86.5 32t63.5 37.5t41 31.5l14 13l68 -104q-6 -6 -17.5 -16t-50 -35.5t-80 -45t-106 -35.5t-129.5 -16q-151 0 -274 68 t-194 191.5t-71 279.5zM233 621h646q-6 153 -88 235t-203 82q-132 0 -231 -83.5t-124 -233.5z" />
<glyph unicode="f" horiz-adv-x="624" d="M51 913v117h129v37q0 81 18 146t49 105t66.5 67.5t78.5 41t76 18.5t67 5l63 -4v-125q-18 4 -49 4q-28 0 -54.5 -4.5t-60 -20.5t-57.5 -42.5t-41 -76t-17 -114.5v-37h263v-117h-263v-913h-139v913h-129z" />
<glyph unicode="g" horiz-adv-x="1185" d="M86 535q0 234 120.5 377t325.5 143q77 0 141 -18t99.5 -44t60 -52t33.5 -44l8 -18h5v39q0 57 27 84.5t89 27.5h144v-121h-84q-45 0 -45 -45v-839q0 -95 -27.5 -172.5t-74 -129.5t-110.5 -87t-135 -50.5t-149 -15.5q-175 0 -336 82l53 117q14 -8 39.5 -20t98.5 -32 t141 -20q161 0 260.5 80t99.5 243v91l2 73h-4q-96 -178 -323 -178q-206 0 -332.5 148t-126.5 381zM229 537q0 -184 92 -295t244 -111q64 0 117.5 21t97 66.5t68 126t24.5 190.5q0 393 -325 393q-151 0 -234.5 -103t-83.5 -288z" />
<glyph unicode="h" horiz-adv-x="1239" d="M41 1319v121h145q66 0 95.5 -29t29.5 -92v-436l-4 -84h4q12 31 34.5 64t59.5 68t81.5 62t105.5 44.5t127 17.5q185 0 265.5 -100.5t80.5 -299.5v-489q0 -45 45 -45h86v-121h-145q-66 0 -95.5 29.5t-29.5 95.5v493q0 55 -4 95t-18 82t-37.5 68.5t-66 43.5t-100.5 17 q-130 0 -233.5 -82t-138.5 -211q-17 -58 -17 -137v-494h-139v1274q0 45 -45 45h-86z" />
<glyph unicode="i" horiz-adv-x="514" d="M57 909v121h146q66 0 95.5 -29.5t29.5 -95.5v-739q0 -45 45 -45h86v-121h-146q-66 0 -95.5 29.5t-29.5 95.5v739q0 45 -45 45h-86zM184 1264v176h135v-176h-135z" />
<glyph unicode="j" horiz-adv-x="548" d="M-43 -295q18 -2 45 -2q29 0 55.5 4.5t61 21t59 43.5t41.5 77.5t17 117.5v897q0 45 -46 45h-86v121h146q66 0 95.5 -29.5t29.5 -95.5v-944q0 -97 -27 -170.5t-65 -112.5t-90.5 -63t-93.5 -30.5t-83 -6.5q-16 0 -31 1.5t-21 2.5l-7 2v121zM233 1264v176h134v-176h-134z" />
<glyph unicode="k" horiz-adv-x="1019" d="M41 1319v121h145q67 0 96 -27t29 -92v-684h107q79 0 117 49l264 344h170l-297 -377q-23 -28 -42.5 -46.5t-27.5 -22.5l-8 -4v-5q30 -14 63 -75l187 -334q13 -26 33 -35.5t61 -9.5h55v-121h-96q-77 0 -110 19t-68 83l-205 369q-25 45 -108 45h-95v-516h-139v1274 q0 45 -45 45h-86z" />
<glyph unicode="l" horiz-adv-x="501" d="M45 1319v121h145q66 0 95.5 -29.5t29.5 -95.5v-1149q0 -45 45 -45h86v-121h-145q-66 0 -95.5 29.5t-29.5 95.5v1149q0 45 -45 45h-86z" />
<glyph unicode="m" horiz-adv-x="1906" d="M47 909v121h143q64 0 94.5 -28t30.5 -87v-47l-4 -73h4q39 106 147 183t226 77q141 0 218.5 -64.5t101.5 -193.5h4q43 108 148 183t231 75q181 0 261.5 -101t80.5 -299v-489q0 -45 45 -45h86v-121h-146q-66 0 -95.5 29.5t-29.5 95.5v496q0 69 -9 119.5t-31.5 95.5 t-68.5 68.5t-114 23.5q-112 0 -203 -85.5t-123 -205.5q-18 -58 -18 -150v-487h-139v621q0 44 -2.5 77.5t-10 71t-23 64t-38.5 49t-59.5 34t-83.5 11.5q-120 0 -211 -88.5t-125 -214.5q-17 -61 -17 -138v-487h-139v864q0 45 -45 45h-86z" />
<glyph unicode="n" horiz-adv-x="1245" d="M47 909v121h143q64 0 94.5 -28t30.5 -87v-47l-4 -73h4q16 40 47 81t80 83.5t123.5 69t159.5 26.5q185 0 265.5 -100.5t80.5 -299.5v-489q0 -45 45 -45h86v-121h-145q-66 0 -95.5 29.5t-29.5 95.5v493q0 55 -4 95t-17.5 82t-37 68.5t-65 43.5t-99.5 17 q-131 0 -235.5 -81.5t-139.5 -209.5q-17 -61 -17 -139v-494h-139v864q0 45 -45 45h-86z" />
<glyph unicode="o" horiz-adv-x="1251" d="M82 520q0 149 73 272.5t197.5 193t272.5 69.5q149 0 273.5 -69.5t197.5 -192.5t73 -273q0 -152 -73 -278t-197 -196.5t-272 -70.5q-111 0 -211.5 42t-174 113.5t-116.5 173.5t-43 216zM225 520q0 -178 117.5 -299t284.5 -121q166 0 282.5 121t116.5 299 q0 173 -116.5 290.5t-282.5 117.5q-167 0 -284.5 -117.5t-117.5 -290.5z" />
<glyph unicode="p" horiz-adv-x="1202" d="M47 909v121h141q65 0 94 -26.5t29 -81.5l-2 -70h4q3 8 10.5 22t36.5 49t65.5 61.5t101.5 48.5t141 22q205 0 326.5 -149.5t121.5 -391.5t-129.5 -390.5t-331.5 -148.5q-71 0 -131.5 20t-97 48.5t-62.5 57.5t-36 49l-11 20h-4q4 -37 4 -90v-490h-139v1274q0 45 -45 45h-86 zM313 512q0 -79 21.5 -152.5t61.5 -132t103.5 -94t141.5 -35.5q141 0 236.5 112.5t95.5 303.5q0 188 -90 301t-236 113q-67 0 -125.5 -24.5t-106 -73t-75 -130.5t-27.5 -188z" />
<glyph unicode="q" horiz-adv-x="1204" d="M88 516q0 242 129.5 390.5t333.5 148.5q71 0 132 -20.5t97.5 -50t63 -58.5t36.5 -50l11 -20h4q-2 29 -2 68q0 54 29.5 80t93.5 26h141v-121h-86q-45 0 -45 -45v-1274h-139v494l4 90h-4q-4 -8 -11 -21.5t-36 -48t-65.5 -60.5t-100 -47.5t-137.5 -21.5q-205 0 -327 149.5 t-122 391.5zM229 516q0 -189 91 -302.5t237 -113.5q67 0 125.5 24.5t106 73t75 130.5t27.5 188q0 80 -21 153t-60.5 132t-103.5 94t-143 35q-142 0 -238 -112.5t-96 -301.5z" />
<glyph unicode="r" horiz-adv-x="741" d="M47 909v121h143q65 0 95 -28t30 -89v-69l-4 -78h4q38 122 123.5 198t202.5 76l55 -6v-137q-24 4 -51 4q-105 0 -184.5 -74t-114.5 -192q-29 -96 -29 -201v-434h-139v864q0 45 -45 45h-86z" />
<glyph unicode="s" horiz-adv-x="901" d="M59 156l80 96q5 -6 14 -16.5t39.5 -37.5t65 -47.5t88.5 -37.5t111 -17q92 0 154.5 43t62.5 121q0 45 -32 81.5t-83 61.5t-112.5 49.5t-123 52.5t-112.5 62.5t-83 88t-32 120.5q0 135 102.5 207t264.5 72q44 0 93.5 -9.5t101 -29t85 -58.5t33.5 -90v-88h-131v49 q0 51 -57.5 78t-120.5 27q-109 0 -169 -38t-60 -112q0 -47 32 -83.5t82.5 -61.5t112 -48.5t123.5 -51.5t112.5 -62.5t82.5 -89t32 -123.5q0 -128 -102.5 -208.5t-257.5 -80.5q-75 0 -143.5 18.5t-112.5 45t-77 53.5t-48 46z" />
<glyph unicode="t" horiz-adv-x="686" d="M55 913v117h138v285h137v-285h258v-117h-258v-524q0 -69 17 -121t41.5 -80t58 -45t60 -21.5t54.5 -4.5l47 4v-125q-24 -4 -59 -4q-29 0 -57.5 3t-65.5 13t-68.5 26.5t-63.5 46t-54 68t-36 97t-14 129.5v538h-135z" />
<glyph unicode="u" d="M43 909v121h145q66 0 95.5 -29t29.5 -92v-497q0 -54 4 -94.5t18 -82.5t38 -68.5t66 -43.5t100 -17q85 0 157 36t120 96t75 137.5t27 161.5v493h139v-864q0 -45 45 -45h86v-121h-141q-64 0 -94.5 28t-30.5 87v47l4 74h-4q-17 -41 -49.5 -83.5t-81.5 -84t-120 -67.5 t-151 -26q-181 0 -263.5 98t-82.5 302v489q0 45 -45 45h-86z" />
<glyph unicode="v" horiz-adv-x="1060" d="M29 909v121h55q74 0 106 -21.5t58 -90.5l248 -644q8 -23 16.5 -53t13.5 -49l4 -18h5q16 69 34 120l248 644q26 69 58 90.5t104 21.5h53v-121h-18q-57 0 -72 -47l-336 -862h-151l-336 862q-10 27 -26.5 37t-45.5 10h-18z" />
<glyph unicode="w" horiz-adv-x="1708" d="M20 909v121h72q75 0 107 -22t55 -93l211 -653l31 -110h4q16 61 32 110l252 764h140l252 -764l32 -110h4q13 59 29 110l213 653q23 71 55 93t107 22h72v-121h-29q-57 0 -72 -47l-295 -862h-153l-252 733l-31 111h-4q-15 -60 -33 -111l-250 -733h-155l-295 862 q-15 47 -72 47h-27z" />
<glyph unicode="x" horiz-adv-x="976" d="M37 909v121h76q78 0 112 -20t80 -92l148 -230l34 -61h5q18 34 32 61l150 230q47 72 80.5 92t111.5 20h74v-121h-41q-36 0 -58 -8t-38 -33l-223 -331l360 -537h-164l-252 383l-32 57h-5q-16 -28 -34 -57l-252 -383h-162l358 537l-223 329q-18 25 -39.5 34t-54.5 9h-43z " />
<glyph unicode="y" horiz-adv-x="1103" d="M16 -330l66 103q0 -3 19 -21t57.5 -37.5t77.5 -19.5q120 0 190 168l61 141l-362 858q-12 27 -27.5 37t-44.5 10h-20v121h63q69 0 99.5 -21.5t58.5 -90.5l264 -644l37 -110h4q15 59 35 110l254 644q26 69 57.5 90.5t102.5 21.5h63v-121h-20q-29 0 -45.5 -10t-26.5 -37 l-444 -1077q-41 -100 -117.5 -157.5t-177.5 -57.5q-40 0 -78 10.5t-63 25t-45 29t-29 25.5z" />
<glyph unicode="z" horiz-adv-x="1021" d="M80 0v90l579 723q17 22 37.5 45.5t32.5 35.5l12 13v4q-34 -4 -102 -4h-377q-45 0 -45 -45v-80h-131v123q0 66 29.5 95.5t95.5 29.5h715v-92l-578 -721q-18 -22 -39.5 -45.5t-34.5 -35.5l-12 -13v-4q37 4 105 4h426q45 0 45 45v80h131v-123q0 -66 -29.5 -95.5t-95.5 -29.5 h-764z" />
<glyph unicode="{" horiz-adv-x="667" d="M68 598v127q7 1 19 3.5t42 18t52.5 38.5t41.5 69.5t19 106.5v167q0 70 13 126.5t33 94t48.5 65.5t55.5 43t58.5 24t53.5 11.5t43 2.5h31v-115h-19q-20 0 -39.5 -3.5t-48 -18.5t-49.5 -40.5t-36 -75.5t-15 -118v-200q0 -56 -17 -103.5t-41 -75t-48 -47t-41 -26.5l-17 -8 v-5q7 -2 18 -6.5t39 -25t50 -46.5t39.5 -74.5t17.5 -107.5v-225q0 -67 15 -117t36 -75.5t49.5 -41t48 -19t39.5 -3.5h19v-115q-13 -2 -31 -2q-32 0 -64 5t-78 27.5t-80 59.5t-58.5 109t-24.5 168v195q0 60 -18 106t-43.5 68.5t-51 37t-43.5 17.5z" />
<glyph unicode="|" horiz-adv-x="583" d="M227 -322v1936h129v-1936h-129z" />
<glyph unicode="}" horiz-adv-x="667" d="M90 -82h21q19 0 38.5 3.5t47.5 19t49 41t36 75.5t15 117v225q0 59 17 107t41 75t48 46t41 25l17 7v5q-7 2 -18 7.5t-39 26.5t-50 47.5t-39.5 74.5t-17.5 104v200q0 57 -10 101.5t-27.5 71t-36.5 44.5t-42 26t-38.5 10.5t-31.5 2.5h-21v115h33q31 0 62.5 -5t77.5 -27 t80 -59t58.5 -108.5t24.5 -167.5v-167q0 -60 18 -106.5t43.5 -70t51 -38t43.5 -18.5l18 -3v-127q-7 -1 -19 -3.5t-42 -17.5t-52.5 -37.5t-41.5 -68.5t-19 -106v-195q0 -96 -24.5 -168t-58.5 -109t-80 -59.5t-77 -27.5t-63 -5l-33 2v115z" />
<glyph unicode="~" horiz-adv-x="1241" d="M137 428q0 162 69.5 239.5t190.5 77.5q62 0 111 -22t81 -53.5t61 -62.5t68 -53t87 -22q43 0 74 20.5t45 54.5t20 65.5t6 64.5h121q0 -162 -69.5 -239.5t-190.5 -77.5q-62 0 -111 22t-81 53t-61 62.5t-68 53.5t-87 22q-43 0 -74 -20.5t-45 -54.5t-20 -65.5t-6 -64.5h-121z " />
<glyph unicode="&#xa1;" horiz-adv-x="608" d="M223 872v158h158v-158h-158zM231 -410l7 1063h131l6 -1063h-144z" />
<glyph unicode="&#xa2;" horiz-adv-x="1116" d="M113 721q0 231 108 389.5t303 181.5v228h117v-228q126 -15 218.5 -94t148.5 -209l-131 -49q-94 221 -287 221q-109 0 -185.5 -59.5t-111.5 -157t-35 -223.5q0 -128 35 -225.5t111 -156t186 -58.5q194 0 287 221l131 -51q-57 -128 -149 -210.5t-218 -93.5v-227h-117v227 q-195 23 -303 182.5t-108 391.5z" />
<glyph unicode="&#xa3;" horiz-adv-x="1191" d="M111 0v127h129v541h-93v112h93v305q0 162 119.5 270.5t302.5 108.5q55 0 108 -12t90 -29t66 -34t43 -29l14 -12l-88 -103q-4 3 -11.5 9t-31.5 21t-49.5 26t-64 20.5t-76.5 9.5q-129 0 -204 -73.5t-75 -180.5v-297h391v-112h-391v-541h539q45 0 45 45v96h133v-143 q0 -66 -29.5 -95.5t-95.5 -29.5h-864z" />
<glyph unicode="&#xa5;" horiz-adv-x="1243" d="M35 1313v127h49q77 0 118.5 -22t84.5 -93l243 -407l88 -160h5q43 84 88 160l245 407q41 71 83 93t120 22h47v-127h-24q-71 0 -99 -45l-266 -439v-4h205v-104h-272l-56 -94v-84h328v-107h-328v-436h-143v436h-332v107h332v84l-59 94h-281v104h215v4l-268 439 q-28 45 -99 45h-24z" />
<glyph unicode="&#xa7;" horiz-adv-x="849" d="M123 -41l72 98q8 -7 22.5 -17t58 -27t86.5 -17q97 0 160.5 60t63.5 163q0 35 -8 66l-134 878h123l140 -889q8 -54 8 -71q0 -144 -98.5 -237t-256.5 -93q-63 0 -122 21.5t-87 43.5zM150 1135q0 143 97 236t255 93q63 0 122 -21.5t87 -42.5l28 -22l-71 -96q-8 7 -22 16.5 t-57.5 26t-86.5 16.5q-97 0 -161.5 -59t-64.5 -160q0 -28 9 -63l135 -885h-123l-139 889q-8 33 -8 72z" />
<glyph unicode="&#xa8;" horiz-adv-x="1009" d="M322 1608v176h120v-176h-120zM629 1608v176h121v-176h-121z" />
<glyph unicode="&#xa9;" horiz-adv-x="1624" d="M84 721q0 152 57.5 290t154 237t230.5 157.5t281 58.5q150 0 286 -58.5t234 -157.5t155.5 -236.5t57.5 -290.5q0 -154 -57.5 -292.5t-155.5 -238t-233.5 -157.5t-286.5 -58q-147 0 -281 58.5t-230.5 157.5t-154 237.5t-57.5 292.5zM205 721q0 -176 79 -322t217.5 -229.5 t305.5 -83.5q171 0 312 83.5t221.5 229t80.5 322.5q0 175 -80.5 320t-221.5 229t-312 84q-167 0 -305.5 -84t-217.5 -229t-79 -320zM406 717q0 82 28.5 157t80.5 134.5t133 95t179 35.5q63 0 120.5 -19.5t95 -47.5t65.5 -56.5t40 -47.5l13 -20l-94 -63q-3 6 -10 15.5 t-29.5 33.5t-48 43t-65.5 34t-83 15q-142 0 -223.5 -90.5t-81.5 -216.5q0 -127 81 -217t224 -90q43 0 83 14.5t67 35t47 41.5t30 35l9 15l94 -64q-5 -8 -13.5 -20.5t-40 -45.5t-67 -58t-93.5 -45.5t-120 -20.5q-98 0 -179 35t-133 93.5t-80.5 133.5t-28.5 156z" />
<glyph unicode="&#xaa;" horiz-adv-x="847" d="M119 541v96h620v-96h-620zM123 979q0 225 389 225h27q-1 87 -35 122.5t-111 35.5q-20 0 -40.5 -2t-43 -12t-22.5 -27v-49h-109v80q0 31 25 54t63 34t70 15.5t59 4.5q75 0 127 -19t79 -55t38.5 -78.5t11.5 -99.5v-290q0 -19 19 -19h59v-104h-96q-83 0 -86 79v25h-4 q-2 -5 -6.5 -13t-21.5 -28t-37.5 -35.5t-55.5 -28t-74 -12.5q-93 0 -159 53t-66 144zM240 985q0 -43 32 -73.5t90 -30.5q81 0 128.5 68t50.5 165h-25q-37 0 -65 -1t-71 -8.5t-70.5 -20t-48.5 -38t-21 -61.5z" />
<glyph unicode="&#xab;" horiz-adv-x="1069" d="M78 578l336 421h149l-336 -421l336 -420h-149zM444 578l336 421h152l-336 -421l336 -420h-152z" />
<glyph unicode="&#xac;" horiz-adv-x="1241" d="M143 700v119h955v-495h-125v376h-830z" />
<glyph unicode="&#xad;" horiz-adv-x="884" d="M152 518v127h581v-127h-581z" />
<glyph unicode="&#xae;" horiz-adv-x="1624" d="M84 721q0 152 57.5 290t154 237t230.5 157.5t281 58.5q150 0 286 -58.5t234 -157.5t155.5 -236.5t57.5 -290.5q0 -154 -57.5 -292.5t-155.5 -238t-233.5 -157.5t-286.5 -58q-147 0 -281 58.5t-230.5 157.5t-154 237.5t-57.5 292.5zM205 721q0 -176 79 -322t217.5 -229.5 t305.5 -83.5q171 0 312 83.5t221.5 229t80.5 322.5q0 175 -80.5 320t-221.5 229t-312 84q-167 0 -305.5 -84t-217.5 -229t-79 -320zM492 1024v96h358q106 0 173 -65t67 -172q0 -84 -44.5 -140t-105.5 -71v-4q23 -8 41 -43l92 -185q12 -26 55 -26h21v-92h-59q-48 0 -71 11 t-44 50l-111 217q-14 28 -29.5 36.5t-43.5 8.5h-111v-323h-115v702h-73zM680 735h149q65 0 103.5 39.5t38.5 108.5q0 67 -38.5 104t-103.5 37h-149v-289z" />
<glyph unicode="&#xaf;" horiz-adv-x="944" d="M229 1608v110h504v-110h-504z" />
<glyph unicode="&#xb0;" horiz-adv-x="784" d="M104 1178q0 117 83.5 200.5t203.5 83.5t204.5 -83.5t84.5 -200.5q0 -118 -84.5 -201.5t-204.5 -83.5t-203.5 83t-83.5 202zM227 1178q0 -71 47 -120.5t117 -49.5t119 49.5t49 120.5q0 70 -49 120t-119 50t-117 -50t-47 -120z" />
<glyph unicode="&#xb1;" horiz-adv-x="1241" d="M86 522v119h473v522h125v-522h471v-119h-471v-522h-125v522h-473zM123 -213h995v-119h-995v119z" />
<glyph unicode="&#xb2;" horiz-adv-x="837" d="M104 645q0 37 8.5 70.5t20 59t34.5 51.5t40 42t49.5 38t51 33t54.5 32q39 22 61 35t53 36.5t47 44t28 49.5t12 62q0 64 -44 106t-118 42q-58 0 -98.5 -24.5t-40.5 -57.5v-54h-110v80q0 42 26 75.5t66 52.5t80.5 28.5t76.5 9.5q130 0 205.5 -73t75.5 -185 q0 -59 -19 -106.5t-63.5 -86.5t-74.5 -59t-93 -56q-8 -5 -12 -7q-50 -30 -75.5 -46.5t-59.5 -45.5t-49 -60.5t-15 -68.5q0 -13 19 -13h358q12 0 12 15v71h111v-102q0 -47 -21.5 -68.5t-68.5 -21.5h-434q-52 0 -72.5 22t-20.5 80z" />
<glyph unicode="&#xb3;" horiz-adv-x="837" d="M102 674l82 80q4 -5 11 -13t30 -28t47.5 -35.5t61.5 -28t74 -12.5q72 0 126 50t54 126q0 75 -57 120.5t-136 45.5h-71l-21 70l197 239q9 11 20.5 23.5t19.5 18.5l7 7v4q-35 -6 -74 -6h-194q-21 0 -21 -22v-58h-111v88q0 54 21 75.5t76 21.5h452v-80l-241 -283 q44 -4 87.5 -22.5t81 -50t60.5 -82t23 -111.5q0 -122 -88.5 -203.5t-212.5 -81.5q-50 0 -100 15t-85 37t-63 44t-42 37z" />
<glyph unicode="&#xb4;" horiz-adv-x="759" d="M236 1540l143 244h156l-179 -244h-120z" />
<glyph unicode="&#xb5;" d="M43 909v121h145q66 0 95.5 -29t29.5 -92v-497q0 -54 4 -94.5t18 -82.5t38 -68.5t66 -43.5t100 -17q85 0 157 36t120 96t75 137.5t27 161.5v493h139v-864q0 -45 45 -45h86v-121h-141q-65 0 -95 28t-30 87v47l4 74h-6q-2 -5 -6.5 -14.5t-20.5 -36.5t-36 -52t-54 -55 t-73 -51.5t-94 -36.5t-116 -15q-48 0 -89 9t-65.5 21.5t-42 25t-23.5 21.5l-7 9h-4q14 -104 14 -155v-316h-129v1274q0 45 -45 45h-86z" />
<glyph unicode="&#xb6;" horiz-adv-x="1175" d="M88 969q0 130 66.5 239t178 170.5t242.5 61.5h490v-127h-371v-1415h-116v596q-130 0 -243 62.5t-180 172.5t-67 240zM821 -102v1292h119v-1292h-119z" />
<glyph unicode="&#xb7;" horiz-adv-x="440" d="M141 508v164h158v-164h-158z" />
<glyph unicode="&#xb8;" horiz-adv-x="845" d="M227 -311q39 -13 86 -13q105 0 105 70q0 33 -31 51.5t-86 18.5l-31 -2l54 227l82 -14v-17l-25 -123q65 -9 105 -47t40 -98q0 -83 -57 -122.5t-141 -39.5q-26 0 -51.5 2.5t-37.5 5.5l-12 2v99z" />
<glyph unicode="&#xb9;" horiz-adv-x="837" d="M162 1231l209 209h104v-791h191v-106h-502v106h192v563l2 70h-4q-10 -21 -26 -37l-92 -90z" />
<glyph unicode="&#xba;" horiz-adv-x="933" d="M125 1126q0 142 100 239t242 97t242 -97t100 -239q0 -145 -100 -243.5t-242 -98.5t-242 98.5t-100 243.5zM160 541v96h620v-96h-620zM238 1126q0 -102 66.5 -169.5t162.5 -67.5t162.5 67.5t66.5 169.5q0 100 -66.5 167t-162.5 67t-162.5 -67t-66.5 -167z" />
<glyph unicode="&#xbb;" horiz-adv-x="1069" d="M135 158l336 420l-336 421h152l336 -421l-336 -420h-152zM504 158l336 420l-336 421h151l336 -421l-336 -420h-151z" />
<glyph unicode="&#xbc;" horiz-adv-x="1822" d="M158 1231l209 209h102v-791h188v-106h-497v106h192v563l2 70h-4q-10 -21 -26 -37l-93 -90zM551 0l608 1440h127l-606 -1440h-129zM1016 240v75l426 582h123v-551h137v-106h-137v-240h-117v240h-432zM1155 344q29 2 43 2h252v313l2 80h-4q-15 -28 -33 -55l-231 -305 l-29 -33v-2z" />
<glyph unicode="&#xbd;" horiz-adv-x="1822" d="M158 1231l209 209h102v-791h188v-106h-497v106h192v563l2 70h-4q-10 -21 -26 -37l-93 -90zM528 0l609 1440h127l-607 -1440h-129zM1063 102q0 51 16 96t37.5 75t61 62t67.5 49t76 44q39 22 61 35t53 36.5t47 44t28 49.5t12 62q0 64 -44 106t-118 42q-58 0 -98.5 -24.5 t-40.5 -57.5v-51h-111v78q0 43 26 76.5t66.5 52t81 27.5t76.5 9q130 0 205 -73t75 -185q0 -31 -5.5 -59t-19 -53t-25 -43.5t-36.5 -40t-38.5 -33.5t-46 -32t-44 -27t-47.5 -27q-39 -23 -60 -36.5t-51 -36.5t-45.5 -42.5t-27.5 -46.5t-12 -57q0 -15 16 -15h358q13 0 13 15v72 h110v-103q0 -46 -21.5 -68t-68.5 -22h-434q-51 0 -71.5 22t-20.5 80z" />
<glyph unicode="&#xbe;" horiz-adv-x="1822" d="M127 674l82 80q4 -5 11 -13t30 -28t47 -35.5t61 -28t74 -12.5q72 0 126 50t54 126q0 75 -56.5 120.5t-135.5 45.5h-72l-20 70l196 239q9 11 20.5 23.5t19.5 18.5l7 7v4q-34 -6 -73 -6h-195q-20 0 -20 -22v-58h-111v88q0 55 20.5 76t75.5 21h453v-80l-242 -283 q44 -4 87.5 -22.5t81 -50t60.5 -82t23 -111.5q0 -122 -88.5 -203.5t-212.5 -81.5q-50 0 -100 15t-85 37t-63 44t-42 37zM549 0l608 1440h127l-606 -1440h-129zM1016 240v75l426 582h123v-551h137v-106h-137v-240h-117v240h-432zM1155 344q29 2 43 2h252v313l2 80h-4 q-15 -28 -33 -55l-231 -305l-29 -33v-2z" />
<glyph unicode="&#xbf;" horiz-adv-x="882" d="M63 -68q0 69 20 127.5t52.5 100.5t71.5 80t78.5 73t72 71.5t52.5 84t20 102.5v82h137v-88q0 -66 -19.5 -123t-51 -98.5t-69.5 -79.5t-76 -73t-69.5 -71t-51 -82.5t-19.5 -98.5q0 -100 75.5 -168t192.5 -68q62 0 124 21.5t93 43.5l31 21l76 -102q-5 -5 -15 -13t-42.5 -28 t-68.5 -35.5t-91.5 -28t-112.5 -12.5q-176 0 -293 102t-117 260zM420 872v158h158v-158h-158z" />
<glyph unicode="&#xc0;" horiz-adv-x="1345" d="M25 0v127h26q31 0 47.5 9t26.5 36l471 1268h154l471 -1268q10 -28 25.5 -36.5t47.5 -8.5h25v-127h-66q-77 0 -109.5 23t-60.5 96l-125 340h-571l-127 -340q-28 -74 -60 -96.5t-108 -22.5h-67zM426 584h494l-191 514q-11 30 -25 76.5t-22 77.5l-8 32h-4q-31 -118 -56 -186 zM434 1784h156l143 -244h-121z" />
<glyph unicode="&#xc1;" horiz-adv-x="1345" d="M25 0v127h26q31 0 47.5 9t26.5 36l471 1268h154l471 -1268q10 -28 25.5 -36.5t47.5 -8.5h25v-127h-66q-77 0 -109.5 23t-60.5 96l-125 340h-571l-127 -340q-28 -74 -60 -96.5t-108 -22.5h-67zM426 584h494l-191 514q-11 30 -25 76.5t-22 77.5l-8 32h-4q-31 -118 -56 -186 zM612 1540l144 244h155l-178 -244h-121z" />
<glyph unicode="&#xc2;" horiz-adv-x="1345" d="M25 0v127h26q31 0 47.5 9t26.5 36l471 1268h154l471 -1268q10 -28 25.5 -36.5t47.5 -8.5h25v-127h-66q-77 0 -109.5 23t-60.5 96l-125 340h-571l-127 -340q-28 -74 -60 -96.5t-108 -22.5h-67zM426 584h494l-191 514q-11 30 -25 76.5t-22 77.5l-8 32h-4q-31 -118 -56 -186 zM432 1540l170 244h143l170 -244h-129l-110 166h-4l-111 -166h-129z" />
<glyph unicode="&#xc3;" horiz-adv-x="1345" d="M25 0v127h26q31 0 47.5 9t26.5 36l471 1268h154l471 -1268q10 -28 25.5 -36.5t47.5 -8.5h25v-127h-66q-77 0 -109.5 23t-60.5 96l-125 340h-571l-127 -340q-28 -74 -60 -96.5t-108 -22.5h-67zM350 1546q0 240 191 240q38 0 70 -15t54 -37t42 -44t43.5 -37t48.5 -15 q24 0 41 14t25.5 37.5t12 45.5t3.5 45h108q0 -240 -190 -240q-47 0 -86 23t-61 50t-52 50t-61 23q-45 0 -63.5 -43.5t-18.5 -96.5h-107zM426 584h494l-191 514q-11 30 -25 76.5t-22 77.5l-8 32h-4q-31 -118 -56 -186z" />
<glyph unicode="&#xc4;" horiz-adv-x="1345" d="M25 0v127h26q31 0 47.5 9t26.5 36l471 1268h154l471 -1268q10 -28 25.5 -36.5t47.5 -8.5h25v-127h-66q-77 0 -109.5 23t-60.5 96l-125 340h-571l-127 -340q-28 -74 -60 -96.5t-108 -22.5h-67zM426 584h494l-191 514q-11 30 -25 76.5t-22 77.5l-8 32h-4q-31 -118 -56 -186 zM461 1608v176h121v-176h-121zM768 1608v176h121v-176h-121z" />
<glyph unicode="&#xc5;" horiz-adv-x="1345" d="M25 0v127h26q31 0 47.5 9t26.5 36l471 1268h154l471 -1268q10 -28 25.5 -36.5t47.5 -8.5h25v-127h-66q-77 0 -109.5 23t-60.5 96l-125 340h-571l-127 -340q-28 -74 -60 -96.5t-108 -22.5h-67zM426 584h494l-191 514q-11 30 -25 76.5t-22 77.5l-8 32h-4q-31 -118 -56 -186 zM522 1663q0 63 44.5 104t107.5 41t107 -41t44 -104t-44 -104t-107 -41t-107.5 41t-44.5 104zM606 1663q0 -30 19 -49t49 -19q29 0 48 19.5t19 48.5q0 31 -19 50.5t-48 19.5t-48.5 -19.5t-19.5 -50.5z" />
<glyph unicode="&#xc6;" horiz-adv-x="1685" d="M25 0v127h18q31 0 47.5 9t26.5 36l487 1268h848q66 0 95.5 -29.5t29.5 -95.5v-144h-135v97q0 45 -45 45h-475v-525h524v-126h-524v-490q0 -28 12.5 -36.5t44.5 -8.5h477q45 0 45 45v96h135v-143q0 -66 -29.5 -95.5t-95.5 -29.5h-589q-80 0 -112 25.5t-32 99.5v537h-325 l-205 -543q-26 -73 -58.5 -96t-109.5 -23h-55zM500 788h278v525h-82z" />
<glyph unicode="&#xc7;" horiz-adv-x="1421" d="M78 731q0 205 92 373t255 264t363 96q82 0 171.5 -18t174 -52.5t139 -96t54.5 -138.5v-119h-135v80q0 64 -66.5 113.5t-155.5 72.5t-177 23q-118 0 -222.5 -45t-180 -123t-119.5 -190t-44 -240q0 -171 72.5 -312.5t202.5 -224.5t291 -83q83 0 163 20.5t134 50t96.5 59 t63.5 49.5l20 21l82 -102q-8 -9 -23 -24.5t-67.5 -55t-111 -70t-151.5 -56.5t-192 -28l-19 -88q65 -9 104.5 -47t39.5 -98q0 -83 -56.5 -122.5t-140.5 -39.5q-26 0 -51 2.5t-37 5.5l-12 2v99q39 -13 86 -13q102 0 102 70q0 34 -30 52t-86 18l-29 -2l39 166 q-188 17 -334.5 120.5t-225.5 268.5t-79 362z" />
<glyph unicode="&#xc8;" horiz-adv-x="1142" d="M86 1313v127h823q66 0 95.5 -29.5t29.5 -95.5v-144h-135v97q0 45 -45 45h-492v-525h541v-126h-541v-490q0 -45 46 -45h505q45 0 45 45v96h134v-143q0 -66 -29.5 -95.5t-95.5 -29.5h-623q-66 0 -95.5 29.5t-29.5 95.5v1188h-133zM362 1784h156l144 -244h-121z" />
<glyph unicode="&#xc9;" horiz-adv-x="1142" d="M86 1313v127h823q66 0 95.5 -29.5t29.5 -95.5v-144h-135v97q0 45 -45 45h-492v-525h541v-126h-541v-490q0 -45 46 -45h505q45 0 45 45v96h134v-143q0 -66 -29.5 -95.5t-95.5 -29.5h-623q-66 0 -95.5 29.5t-29.5 95.5v1188h-133zM541 1540l143 244h156l-178 -244h-121z " />
<glyph unicode="&#xca;" horiz-adv-x="1142" d="M86 1313v127h823q66 0 95.5 -29.5t29.5 -95.5v-144h-135v97q0 45 -45 45h-492v-525h541v-126h-541v-490q0 -45 46 -45h505q45 0 45 45v96h134v-143q0 -66 -29.5 -95.5t-95.5 -29.5h-623q-66 0 -95.5 29.5t-29.5 95.5v1188h-133zM360 1540l170 244h144l170 -244h-129 l-111 166h-4l-111 -166h-129z" />
<glyph unicode="&#xcb;" horiz-adv-x="1142" d="M86 1313v127h823q66 0 95.5 -29.5t29.5 -95.5v-144h-135v97q0 45 -45 45h-492v-525h541v-126h-541v-490q0 -45 46 -45h505q45 0 45 45v96h134v-143q0 -66 -29.5 -95.5t-95.5 -29.5h-623q-66 0 -95.5 29.5t-29.5 95.5v1188h-133zM389 1608v176h121v-176h-121zM696 1608 v176h121v-176h-121z" />
<glyph unicode="&#xcc;" horiz-adv-x="600" d="M59 1784h156l143 -244h-120zM94 0v127h135v1186h-135v127h412v-127h-137v-1186h137v-127h-412z" />
<glyph unicode="&#xcd;" horiz-adv-x="600" d="M94 0v127h135v1186h-135v127h412v-127h-137v-1186h137v-127h-412zM238 1540l143 244h156l-179 -244h-120z" />
<glyph unicode="&#xce;" horiz-adv-x="600" d="M57 1540l170 244h144l170 -244h-129l-111 166h-4l-111 -166h-129zM94 0v127h135v1186h-135v127h412v-127h-137v-1186h137v-127h-412z" />
<glyph unicode="&#xcf;" horiz-adv-x="600" d="M86 1608v176h121v-176h-121zM94 0v127h135v1186h-135v127h412v-127h-137v-1186h137v-127h-412zM393 1608v176h121v-176h-121z" />
<glyph unicode="&#xd0;" horiz-adv-x="1464" d="M86 1313v127h578q330 0 526 -191t196 -528q0 -340 -196 -530.5t-526 -190.5h-320q-66 0 -95.5 29.5t-29.5 95.5v537h-102v122h102v529h-133zM362 172q0 -45 46 -45h241q271 0 429.5 155t158.5 439q0 282 -159.5 437t-428.5 155h-287v-529h336v-122h-336v-490z" />
<glyph unicode="&#xd1;" horiz-adv-x="1556" d="M86 0v127h88q45 0 45 45v1268h131l735 -1026q22 -32 51 -79.5t48 -78.5l18 -31h4q-10 113 -10 189v901q0 66 29.5 95.5t95.5 29.5h152v-127h-89q-45 0 -45 -45v-1268h-131l-735 1026q-23 31 -52.5 77.5t-48.5 77.5l-18 31h-4q12 -110 12 -186v-901q0 -66 -29 -95.5 t-95 -29.5h-152zM477 1546q0 240 191 240q38 0 70 -15t54 -37t42 -44t43.5 -37t48.5 -15q24 0 41 14t25.5 37.5t12 45.5t3.5 45h108q0 -240 -190 -240q-47 0 -86 23t-61 50t-52 50t-61 23q-45 0 -63.5 -43.5t-18.5 -96.5h-107z" />
<glyph unicode="&#xd2;" horiz-adv-x="1619" d="M78 729q0 153 57.5 289.5t155 234t233.5 154.5t287 57t286.5 -57t233.5 -154.5t155.5 -234.5t57.5 -289q0 -155 -57.5 -295t-155.5 -240.5t-234 -159.5t-286 -59q-202 0 -370.5 100t-265.5 273t-97 381zM227 729q0 -128 46 -243t124 -197t186 -130t228 -48q119 0 227 48 t186 130t124.5 197t46.5 243q0 167 -78.5 305t-212.5 216.5t-293 78.5q-160 0 -294 -78.5t-212 -216.5t-78 -305zM565 1784h156l143 -244h-121z" />
<glyph unicode="&#xd3;" horiz-adv-x="1619" d="M78 729q0 153 57.5 289.5t155 234t233.5 154.5t287 57t286.5 -57t233.5 -154.5t155.5 -234.5t57.5 -289q0 -155 -57.5 -295t-155.5 -240.5t-234 -159.5t-286 -59q-202 0 -370.5 100t-265.5 273t-97 381zM227 729q0 -128 46 -243t124 -197t186 -130t228 -48q119 0 227 48 t186 130t124.5 197t46.5 243q0 167 -78.5 305t-212.5 216.5t-293 78.5q-160 0 -294 -78.5t-212 -216.5t-78 -305zM743 1540l144 244h155l-178 -244h-121z" />
<glyph unicode="&#xd4;" horiz-adv-x="1619" d="M78 729q0 153 57.5 289.5t155 234t233.5 154.5t287 57t286.5 -57t233.5 -154.5t155.5 -234.5t57.5 -289q0 -155 -57.5 -295t-155.5 -240.5t-234 -159.5t-286 -59q-202 0 -370.5 100t-265.5 273t-97 381zM227 729q0 -128 46 -243t124 -197t186 -130t228 -48q119 0 227 48 t186 130t124.5 197t46.5 243q0 167 -78.5 305t-212.5 216.5t-293 78.5q-160 0 -294 -78.5t-212 -216.5t-78 -305zM563 1540l170 244h144l170 -244h-129l-111 166h-4l-111 -166h-129z" />
<glyph unicode="&#xd5;" horiz-adv-x="1619" d="M78 729q0 153 57.5 289.5t155 234t233.5 154.5t287 57t286.5 -57t233.5 -154.5t155.5 -234.5t57.5 -289q0 -155 -57.5 -295t-155.5 -240.5t-234 -159.5t-286 -59q-202 0 -370.5 100t-265.5 273t-97 381zM227 729q0 -128 46 -243t124 -197t186 -130t228 -48q119 0 227 48 t186 130t124.5 197t46.5 243q0 167 -78.5 305t-212.5 216.5t-293 78.5q-160 0 -294 -78.5t-212 -216.5t-78 -305zM481 1546q0 240 191 240q38 0 70 -15t54 -37t42 -44t43.5 -37t48.5 -15q24 0 41 14t25.5 37.5t12 45.5t3.5 45h108q0 -240 -190 -240q-47 0 -86 23t-61 50 t-52 50t-61 23q-45 0 -63.5 -43.5t-18.5 -96.5h-107z" />
<glyph unicode="&#xd6;" horiz-adv-x="1619" d="M78 729q0 153 57.5 289.5t155 234t233.5 154.5t287 57t286.5 -57t233.5 -154.5t155.5 -234.5t57.5 -289q0 -155 -57.5 -295t-155.5 -240.5t-234 -159.5t-286 -59q-202 0 -370.5 100t-265.5 273t-97 381zM227 729q0 -128 46 -243t124 -197t186 -130t228 -48q119 0 227 48 t186 130t124.5 197t46.5 243q0 167 -78.5 305t-212.5 216.5t-293 78.5q-160 0 -294 -78.5t-212 -216.5t-78 -305zM592 1608v176h121v-176h-121zM899 1608v176h121v-176h-121z" />
<glyph unicode="&#xd7;" horiz-adv-x="1241" d="M98 84l443 498l-443 497l84 84l439 -493l438 493l84 -84l-445 -497l445 -498l-84 -84l-438 494l-439 -494z" />
<glyph unicode="&#xd8;" horiz-adv-x="1626" d="M80 729q0 152 57.5 289t155.5 234.5t233.5 154.5t286.5 57q209 0 387 -110l98 137l84 -61l-96 -136q122 -104 191 -250t69 -315q0 -155 -57.5 -295t-155.5 -240.5t-234 -159.5t-286 -59q-215 0 -391 115l-98 -139l-86 59l100 142q-121 105 -189.5 255t-68.5 322zM229 729 q0 -138 51.5 -257t143.5 -204l696 973q-144 88 -307 88q-159 0 -293 -78.5t-212.5 -216.5t-78.5 -305zM504 203q145 -92 309 -92q120 0 228 48t186 130t124 197t46 243q0 133 -52.5 249.5t-144.5 197.5z" />
<glyph unicode="&#xd9;" horiz-adv-x="1468" d="M70 1313v127h151q66 0 95.5 -29.5t29.5 -95.5v-815q0 -180 105 -284.5t282 -104.5q178 0 283.5 105.5t105.5 287.5v811q0 66 29.5 95.5t95.5 29.5h152v-127h-88q-45 0 -45 -45v-774q0 -233 -146.5 -376t-384.5 -143t-385 143t-147 376v774q0 45 -45 45h-88zM498 1784h155 l144 -244h-121z" />
<glyph unicode="&#xda;" horiz-adv-x="1468" d="M70 1313v127h151q66 0 95.5 -29.5t29.5 -95.5v-815q0 -180 105 -284.5t282 -104.5q178 0 283.5 105.5t105.5 287.5v811q0 66 29.5 95.5t95.5 29.5h152v-127h-88q-45 0 -45 -45v-774q0 -233 -146.5 -376t-384.5 -143t-385 143t-147 376v774q0 45 -45 45h-88zM676 1540 l143 244h156l-178 -244h-121z" />
<glyph unicode="&#xdb;" horiz-adv-x="1468" d="M70 1313v127h151q66 0 95.5 -29.5t29.5 -95.5v-815q0 -180 105 -284.5t282 -104.5q178 0 283.5 105.5t105.5 287.5v811q0 66 29.5 95.5t95.5 29.5h152v-127h-88q-45 0 -45 -45v-774q0 -233 -146.5 -376t-384.5 -143t-385 143t-147 376v774q0 45 -45 45h-88zM496 1540 l170 244h143l170 -244h-129l-111 166h-4l-110 -166h-129z" />
<glyph unicode="&#xdc;" horiz-adv-x="1468" d="M70 1313v127h151q66 0 95.5 -29.5t29.5 -95.5v-815q0 -180 105 -284.5t282 -104.5q178 0 283.5 105.5t105.5 287.5v811q0 66 29.5 95.5t95.5 29.5h152v-127h-88q-45 0 -45 -45v-774q0 -233 -146.5 -376t-384.5 -143t-385 143t-147 376v774q0 45 -45 45h-88zM524 1608v176 h121v-176h-121zM831 1608v176h121v-176h-121z" />
<glyph unicode="&#xdd;" horiz-adv-x="1212" d="M20 1313v127h56q76 0 114 -21t82 -94l244 -407q20 -34 42 -74.5t34 -63.5l12 -24h4q43 86 88 162l244 407q44 73 82.5 94t114.5 21h55v-127h-33q-33 0 -54.5 -11t-39.5 -42l-387 -633v-627h-143v627l-385 633q-19 31 -41 42t-56 11h-33zM547 1540l143 244h156l-178 -244 h-121z" />
<glyph unicode="&#xde;" horiz-adv-x="1196" d="M86 1313v127h152q66 0 95 -29.5t29 -95.5v-131h332q195 0 320 -119t125 -317q0 -197 -126 -318t-323 -121h-328v-309h-143v1268q0 45 -45 45h-88zM362 436h314q144 0 229.5 83.5t85.5 228.5q0 146 -85 227.5t-228 81.5h-316v-621z" />
<glyph unicode="&#xdf;" horiz-adv-x="1142" d="M41 0v121h84q45 0 45 45v921q0 89 35.5 162t94 119t131.5 71t151 25q159 0 258.5 -90t99.5 -215q0 -56 -23.5 -105.5t-57 -84t-66.5 -65.5t-56.5 -65t-23.5 -67q0 -35 29.5 -70.5t74 -65.5t96 -69t96 -79t74 -97.5t29.5 -122.5q0 -94 -48 -162.5t-121.5 -99.5t-162.5 -31 q-55 0 -108 12.5t-89 30t-64.5 34.5t-42.5 30l-13 12l51 109q5 -4 13.5 -11t35.5 -25t55.5 -31.5t70 -24.5t81.5 -11q85 0 143 43.5t58 128.5q0 47 -30 91.5t-74.5 77t-96.5 70.5t-96.5 72.5t-74.5 83t-30 101.5q0 47 23.5 89.5t57 76t67 66.5t57 73.5t23.5 83.5 q0 71 -59 125.5t-163 54.5q-107 0 -186.5 -69.5t-79.5 -190.5v-952q0 -66 -29.5 -95.5t-95.5 -29.5h-143z" />
<glyph unicode="&#xe0;" horiz-adv-x="1083" d="M82 281q0 354 631 354h57v12q0 159 -61.5 225t-204.5 66q-24 0 -53.5 -3.5t-65 -12.5t-59 -28t-23.5 -46v-66h-133v99q0 41 26.5 73t65.5 50.5t87.5 30.5t87 16t69.5 4q95 0 166.5 -20.5t116 -55t72 -86t38 -108t10.5 -126.5v-493q0 -45 45 -45h86v-121h-141 q-65 0 -94 29.5t-29 93.5l2 76h-4q2 0 -9 -23t-37 -56t-63 -66t-99 -56t-134 -23q-52 0 -102.5 12t-95 37t-78.5 60.5t-54 86t-20 110.5zM225 289q0 -78 60.5 -136.5t169.5 -58.5q94 0 168 59.5t110.5 145.5t36.5 178v47h-59q-47 0 -79 -1t-87.5 -5.5t-94 -13t-84.5 -26 t-74 -41.5t-47.5 -62t-19.5 -86zM293 1440h156l143 -244h-121z" />
<glyph unicode="&#xe1;" horiz-adv-x="1083" d="M82 281q0 354 631 354h57v12q0 159 -61.5 225t-204.5 66q-24 0 -53.5 -3.5t-65 -12.5t-59 -28t-23.5 -46v-66h-133v99q0 41 26.5 73t65.5 50.5t87.5 30.5t87 16t69.5 4q95 0 166.5 -20.5t116 -55t72 -86t38 -108t10.5 -126.5v-493q0 -45 45 -45h86v-121h-141 q-65 0 -94 29.5t-29 93.5l2 76h-4q2 0 -9 -23t-37 -56t-63 -66t-99 -56t-134 -23q-52 0 -102.5 12t-95 37t-78.5 60.5t-54 86t-20 110.5zM225 289q0 -78 60.5 -136.5t169.5 -58.5q94 0 168 59.5t110.5 145.5t36.5 178v47h-59q-47 0 -79 -1t-87.5 -5.5t-94 -13t-84.5 -26 t-74 -41.5t-47.5 -62t-19.5 -86zM471 1196l143 244h156l-178 -244h-121z" />
<glyph unicode="&#xe2;" horiz-adv-x="1083" d="M82 281q0 354 631 354h57v12q0 159 -61.5 225t-204.5 66q-24 0 -53.5 -3.5t-65 -12.5t-59 -28t-23.5 -46v-66h-133v99q0 41 26.5 73t65.5 50.5t87.5 30.5t87 16t69.5 4q95 0 166.5 -20.5t116 -55t72 -86t38 -108t10.5 -126.5v-493q0 -45 45 -45h86v-121h-141 q-65 0 -94 29.5t-29 93.5l2 76h-4q2 0 -9 -23t-37 -56t-63 -66t-99 -56t-134 -23q-52 0 -102.5 12t-95 37t-78.5 60.5t-54 86t-20 110.5zM225 289q0 -78 60.5 -136.5t169.5 -58.5q94 0 168 59.5t110.5 145.5t36.5 178v47h-59q-47 0 -79 -1t-87.5 -5.5t-94 -13t-84.5 -26 t-74 -41.5t-47.5 -62t-19.5 -86zM291 1196l170 244h143l170 -244h-129l-110 166h-5l-110 -166h-129z" />
<glyph unicode="&#xe3;" horiz-adv-x="1083" d="M82 281q0 354 631 354h57v12q0 159 -61.5 225t-204.5 66q-24 0 -53.5 -3.5t-65 -12.5t-59 -28t-23.5 -46v-66h-133v99q0 41 26.5 73t65.5 50.5t87.5 30.5t87 16t69.5 4q95 0 166.5 -20.5t116 -55t72 -86t38 -108t10.5 -126.5v-493q0 -45 45 -45h86v-121h-141 q-65 0 -94 29.5t-29 93.5l2 76h-4q2 0 -9 -23t-37 -56t-63 -66t-99 -56t-134 -23q-52 0 -102.5 12t-95 37t-78.5 60.5t-54 86t-20 110.5zM209 1202q0 240 190 240q38 0 70 -15t54 -37t42 -44t43.5 -37t48.5 -15q24 0 41 14t25.5 37.5t12 45.5t3.5 45h109q0 -118 -48.5 -179 t-142.5 -61q-38 0 -70.5 15t-54.5 36t-42 42.5t-43.5 36.5t-49.5 15q-45 0 -63.5 -43t-18.5 -96h-106zM225 289q0 -78 60.5 -136.5t169.5 -58.5q94 0 168 59.5t110.5 145.5t36.5 178v47h-59q-47 0 -79 -1t-87.5 -5.5t-94 -13t-84.5 -26t-74 -41.5t-47.5 -62t-19.5 -86z" />
<glyph unicode="&#xe4;" horiz-adv-x="1083" d="M82 281q0 354 631 354h57v12q0 159 -61.5 225t-204.5 66q-24 0 -53.5 -3.5t-65 -12.5t-59 -28t-23.5 -46v-66h-133v99q0 41 26.5 73t65.5 50.5t87.5 30.5t87 16t69.5 4q95 0 166.5 -20.5t116 -55t72 -86t38 -108t10.5 -126.5v-493q0 -45 45 -45h86v-121h-141 q-65 0 -94 29.5t-29 93.5l2 76h-4q2 0 -9 -23t-37 -56t-63 -66t-99 -56t-134 -23q-52 0 -102.5 12t-95 37t-78.5 60.5t-54 86t-20 110.5zM225 289q0 -78 60.5 -136.5t169.5 -58.5q94 0 168 59.5t110.5 145.5t36.5 178v47h-59q-47 0 -79 -1t-87.5 -5.5t-94 -13t-84.5 -26 t-74 -41.5t-47.5 -62t-19.5 -86zM319 1264v176h121v-176h-121zM627 1264v176h121v-176h-121z" />
<glyph unicode="&#xe5;" horiz-adv-x="1083" d="M82 281q0 354 631 354h57v12q0 159 -61.5 225t-204.5 66q-24 0 -53.5 -3.5t-65 -12.5t-59 -28t-23.5 -46v-66h-133v99q0 41 26.5 73t65.5 50.5t87.5 30.5t87 16t69.5 4q95 0 166.5 -20.5t116 -55t72 -86t38 -108t10.5 -126.5v-493q0 -45 45 -45h86v-121h-141 q-65 0 -94 29.5t-29 93.5l2 76h-4q2 0 -9 -23t-37 -56t-63 -66t-99 -56t-134 -23q-52 0 -102.5 12t-95 37t-78.5 60.5t-54 86t-20 110.5zM225 289q0 -78 60.5 -136.5t169.5 -58.5q94 0 168 59.5t110.5 145.5t36.5 178v47h-59q-47 0 -79 -1t-87.5 -5.5t-94 -13t-84.5 -26 t-74 -41.5t-47.5 -62t-19.5 -86zM381 1319q0 63 44 104t107 41t107.5 -41t44.5 -104t-44.5 -104t-107.5 -41t-107 41t-44 104zM465 1319q0 -30 18.5 -49t48.5 -19q29 0 48.5 19.5t19.5 48.5q0 31 -19.5 50.5t-48.5 19.5t-48 -19.5t-19 -50.5z" />
<glyph unicode="&#xe6;" horiz-adv-x="1783" d="M82 281q0 54 14 99.5t37 78.5t59 59.5t71.5 43.5t85 29.5t89 18.5t92.5 10t87.5 4.5t82.5 0.5h68v22q0 159 -62 225t-202 66q-25 0 -54.5 -3.5t-65 -12.5t-58.5 -28t-23 -46v-66h-133v99q0 45 32 79.5t83 54.5t107.5 30t113.5 10q157 0 240 -54.5t116 -158.5h4 q63 105 162.5 159t226.5 54q82 0 151.5 -24.5t119 -67.5t84.5 -100t52 -122.5t17 -134.5l-4 -92h-772q4 -196 111.5 -305t273.5 -109q52 0 103 13t86.5 32t63.5 37.5t42 31.5l14 13l66 -104q-6 -6 -17.5 -16t-49.5 -35.5t-79.5 -45t-105.5 -35.5t-129 -16 q-157 0 -276.5 76.5t-176.5 210.5h-4q-7 -22 -20 -50.5t-45 -72.5t-73 -78.5t-107.5 -60t-143.5 -25.5q-149 0 -251.5 81.5t-102.5 224.5zM225 289q0 -81 61 -138t171 -57q94 0 167.5 59.5t109.5 146t36 179.5v35h-121q-53 0 -93 -2t-93.5 -9t-92 -22.5t-73.5 -39 t-53.5 -62.5t-18.5 -90zM913 625h625q-6 151 -89 231t-200 80q-131 0 -222 -80.5t-114 -230.5z" />
<glyph unicode="&#xe7;" horiz-adv-x="1081" d="M82 514q0 155 71.5 279t195.5 193t276 69q39 0 83.5 -6t95.5 -22t92 -40t68 -63.5t27 -87.5v-93h-131v60q0 58 -78.5 92.5t-156.5 34.5q-169 0 -284.5 -116t-115.5 -300q0 -123 56 -218.5t147.5 -144.5t200.5 -49q59 0 115 15t93.5 36.5t67 43t43.5 36.5l13 15l65 -105 q-6 -7 -17 -18t-49.5 -40t-82 -51t-114 -40t-145.5 -19l-16 -88q65 -9 104 -47t39 -98q0 -83 -56 -122.5t-140 -39.5q-26 0 -52 2.5t-39 5.5l-12 2v99q39 -13 86 -13q105 0 105 70q0 33 -31 51.5t-86 18.5l-31 -2l39 170q-197 28 -321.5 173t-124.5 357z" />
<glyph unicode="&#xe8;" horiz-adv-x="1122" d="M82 514q0 124 40.5 227t110 171t161.5 105.5t196 37.5q138 0 237.5 -66t147 -172t47.5 -237l-4 -70h-791q3 -188 118.5 -299t281.5 -111q53 0 104 13t86.5 32t63.5 37.5t41 31.5l14 13l68 -104q-6 -6 -17.5 -16t-50 -35.5t-80 -45t-106 -35.5t-129.5 -16q-151 0 -274 68 t-194 191.5t-71 279.5zM233 621h646q-6 153 -88 235t-203 82q-132 0 -231 -83.5t-124 -233.5zM346 1440h156l143 -244h-121z" />
<glyph unicode="&#xe9;" horiz-adv-x="1122" d="M82 514q0 124 40.5 227t110 171t161.5 105.5t196 37.5q138 0 237.5 -66t147 -172t47.5 -237l-4 -70h-791q3 -188 118.5 -299t281.5 -111q53 0 104 13t86.5 32t63.5 37.5t41 31.5l14 13l68 -104q-6 -6 -17.5 -16t-50 -35.5t-80 -45t-106 -35.5t-129.5 -16q-151 0 -274 68 t-194 191.5t-71 279.5zM233 621h646q-6 153 -88 235t-203 82q-132 0 -231 -83.5t-124 -233.5zM524 1196l144 244h155l-178 -244h-121z" />
<glyph unicode="&#xea;" horiz-adv-x="1122" d="M82 514q0 124 40.5 227t110 171t161.5 105.5t196 37.5q138 0 237.5 -66t147 -172t47.5 -237l-4 -70h-791q3 -188 118.5 -299t281.5 -111q53 0 104 13t86.5 32t63.5 37.5t41 31.5l14 13l68 -104q-6 -6 -17.5 -16t-50 -35.5t-80 -45t-106 -35.5t-129.5 -16q-151 0 -274 68 t-194 191.5t-71 279.5zM233 621h646q-6 153 -88 235t-203 82q-132 0 -231 -83.5t-124 -233.5zM344 1196l170 244h143l170 -244h-129l-110 166h-4l-111 -166h-129z" />
<glyph unicode="&#xeb;" horiz-adv-x="1122" d="M82 514q0 124 40.5 227t110 171t161.5 105.5t196 37.5q138 0 237.5 -66t147 -172t47.5 -237l-4 -70h-791q3 -188 118.5 -299t281.5 -111q53 0 104 13t86.5 32t63.5 37.5t41 31.5l14 13l68 -104q-6 -6 -17.5 -16t-50 -35.5t-80 -45t-106 -35.5t-129.5 -16q-151 0 -274 68 t-194 191.5t-71 279.5zM233 621h646q-6 153 -88 235t-203 82q-132 0 -231 -83.5t-124 -233.5zM373 1264v176h121v-176h-121zM680 1264v176h121v-176h-121z" />
<glyph unicode="&#xec;" horiz-adv-x="516" d="M6 1440h156l141 -244h-121zM59 909v121h146q66 0 95.5 -29.5t29.5 -95.5v-739q0 -45 45 -45h86v-121h-146q-66 0 -95.5 29.5t-29.5 95.5v739q0 45 -45 45h-86z" />
<glyph unicode="&#xed;" horiz-adv-x="516" d="M59 909v121h146q66 0 95.5 -29.5t29.5 -95.5v-739q0 -45 45 -45h86v-121h-146q-66 0 -95.5 29.5t-29.5 95.5v739q0 45 -45 45h-86zM182 1196l144 244h155l-178 -244h-121z" />
<glyph unicode="&#xee;" horiz-adv-x="516" d="M2 1196l172 244h141l172 -244h-129l-110 166h-4l-113 -166h-129zM59 909v121h146q66 0 95.5 -29.5t29.5 -95.5v-739q0 -45 45 -45h86v-121h-146q-66 0 -95.5 29.5t-29.5 95.5v739q0 45 -45 45h-86z" />
<glyph unicode="&#xef;" horiz-adv-x="516" d="M51 1264v176h123v-176h-123zM59 909v121h146q66 0 95.5 -29.5t29.5 -95.5v-739q0 -45 45 -45h86v-121h-146q-66 0 -95.5 29.5t-29.5 95.5v739q0 45 -45 45h-86zM309 1264v176h121v-176h-121z" />
<glyph unicode="&#xf0;" horiz-adv-x="1157" d="M76 475q0 93 32 178.5t91.5 153.5t154 108.5t211.5 40.5q55 0 106 -11.5t83.5 -27.5t57.5 -32t36 -27l12 -12h4q-69 198 -254 325l-360 -163l-27 98l277 129q-126 64 -291 104l41 119q237 -60 401 -158l269 121l26 -98l-198 -92q142 -111 225.5 -280.5t83.5 -391.5 q0 -85 -18 -166.5t-58 -157.5t-98 -133.5t-144 -92t-190 -34.5q-109 0 -200 42.5t-150 113t-91 160t-32 184.5zM219 473q0 -96 37.5 -180t115.5 -138.5t181 -54.5q73 0 134.5 26t102.5 69t69.5 100t41 116.5t12.5 120.5q0 134 -92 220t-241 86q-89 0 -159.5 -31 t-113.5 -83.5t-65.5 -116.5t-22.5 -134z" />
<glyph unicode="&#xf1;" horiz-adv-x="1245" d="M47 909v121h143q64 0 94.5 -28t30.5 -87v-47l-4 -73h4q16 40 47 81t80 83.5t123.5 69t159.5 26.5q185 0 265.5 -100.5t80.5 -299.5v-489q0 -45 45 -45h86v-121h-145q-66 0 -95.5 29.5t-29.5 95.5v493q0 55 -4 95t-17.5 82t-37 68.5t-65 43.5t-99.5 17 q-131 0 -235.5 -81.5t-139.5 -209.5q-17 -61 -17 -139v-494h-139v864q0 45 -45 45h-86zM326 1202q0 240 190 240q38 0 70 -15t54 -37t42 -44t43.5 -37t48.5 -15q24 0 41 14t25.5 37.5t12 45.5t3.5 45h109q0 -118 -48.5 -179t-142.5 -61q-38 0 -70.5 15t-54.5 36t-42 42.5 t-43.5 36.5t-49.5 15q-45 0 -63.5 -43t-18.5 -96h-106z" />
<glyph unicode="&#xf2;" horiz-adv-x="1251" d="M82 520q0 149 73 272.5t197.5 193t272.5 69.5q149 0 273.5 -69.5t197.5 -192.5t73 -273q0 -152 -73 -278t-197 -196.5t-272 -70.5q-111 0 -211.5 42t-174 113.5t-116.5 173.5t-43 216zM225 520q0 -178 117.5 -299t284.5 -121q166 0 282.5 121t116.5 299 q0 173 -116.5 290.5t-282.5 117.5q-167 0 -284.5 -117.5t-117.5 -290.5zM387 1440h156l143 -244h-121z" />
<glyph unicode="&#xf3;" horiz-adv-x="1251" d="M82 520q0 149 73 272.5t197.5 193t272.5 69.5q149 0 273.5 -69.5t197.5 -192.5t73 -273q0 -152 -73 -278t-197 -196.5t-272 -70.5q-111 0 -211.5 42t-174 113.5t-116.5 173.5t-43 216zM225 520q0 -178 117.5 -299t284.5 -121q166 0 282.5 121t116.5 299 q0 173 -116.5 290.5t-282.5 117.5q-167 0 -284.5 -117.5t-117.5 -290.5zM565 1196l144 244h155l-178 -244h-121z" />
<glyph unicode="&#xf4;" horiz-adv-x="1251" d="M82 520q0 149 73 272.5t197.5 193t272.5 69.5q149 0 273.5 -69.5t197.5 -192.5t73 -273q0 -152 -73 -278t-197 -196.5t-272 -70.5q-111 0 -211.5 42t-174 113.5t-116.5 173.5t-43 216zM225 520q0 -178 117.5 -299t284.5 -121q166 0 282.5 121t116.5 299 q0 173 -116.5 290.5t-282.5 117.5q-167 0 -284.5 -117.5t-117.5 -290.5zM385 1196l170 244h143l170 -244h-129l-110 166h-4l-111 -166h-129z" />
<glyph unicode="&#xf5;" horiz-adv-x="1251" d="M82 520q0 149 73 272.5t197.5 193t272.5 69.5q149 0 273.5 -69.5t197.5 -192.5t73 -273q0 -152 -73 -278t-197 -196.5t-272 -70.5q-111 0 -211.5 42t-174 113.5t-116.5 173.5t-43 216zM225 520q0 -178 117.5 -299t284.5 -121q166 0 282.5 121t116.5 299 q0 173 -116.5 290.5t-282.5 117.5q-167 0 -284.5 -117.5t-117.5 -290.5zM303 1202q0 240 191 240q38 0 70 -15t54 -37t42 -44t43.5 -37t48.5 -15q24 0 41 14t25.5 37.5t12 45.5t3.5 45h108q0 -240 -190 -240q-38 0 -70.5 15t-54.5 36t-42 42.5t-43.5 36.5t-49.5 15 q-45 0 -63.5 -43t-18.5 -96h-107z" />
<glyph unicode="&#xf6;" horiz-adv-x="1251" d="M82 520q0 149 73 272.5t197.5 193t272.5 69.5q149 0 273.5 -69.5t197.5 -192.5t73 -273q0 -152 -73 -278t-197 -196.5t-272 -70.5q-111 0 -211.5 42t-174 113.5t-116.5 173.5t-43 216zM225 520q0 -178 117.5 -299t284.5 -121q166 0 282.5 121t116.5 299 q0 173 -116.5 290.5t-282.5 117.5q-167 0 -284.5 -117.5t-117.5 -290.5zM414 1264v176h121v-176h-121zM721 1264v176h121v-176h-121z" />
<glyph unicode="&#xf7;" horiz-adv-x="1241" d="M102 522v119h1004v-119h-1004zM526 125v151h154v-151h-154zM526 887v151h154v-151h-154z" />
<glyph unicode="&#xf8;" horiz-adv-x="1251" d="M82 520q0 149 73 272.5t197.5 193t272.5 69.5q153 0 280 -76l80 113l84 -62l-80 -110q85 -73 132.5 -177t47.5 -223q0 -152 -73 -278t-197 -196.5t-272 -70.5q-145 0 -265 66l-77 -109l-84 62l75 104q-91 75 -142.5 184.5t-51.5 237.5zM225 520q0 -185 129 -311l475 663 q-94 56 -202 56q-167 0 -284.5 -117.5t-117.5 -290.5zM438 150q89 -50 189 -50q166 0 282.5 121t116.5 299q0 171 -119 287z" />
<glyph unicode="&#xf9;" d="M43 909v121h145q66 0 95.5 -29t29.5 -92v-497q0 -54 4 -94.5t18 -82.5t38 -68.5t66 -43.5t100 -17q85 0 157 36t120 96t75 137.5t27 161.5v493h139v-864q0 -45 45 -45h86v-121h-141q-64 0 -94.5 28t-30.5 87v47l4 74h-4q-17 -41 -49.5 -83.5t-81.5 -84t-120 -67.5 t-151 -26q-181 0 -263.5 98t-82.5 302v489q0 45 -45 45h-86zM365 1440h155l144 -244h-121z" />
<glyph unicode="&#xfa;" d="M43 909v121h145q66 0 95.5 -29t29.5 -92v-497q0 -54 4 -94.5t18 -82.5t38 -68.5t66 -43.5t100 -17q85 0 157 36t120 96t75 137.5t27 161.5v493h139v-864q0 -45 45 -45h86v-121h-141q-64 0 -94.5 28t-30.5 87v47l4 74h-4q-17 -41 -49.5 -83.5t-81.5 -84t-120 -67.5 t-151 -26q-181 0 -263.5 98t-82.5 302v489q0 45 -45 45h-86zM543 1196l143 244h156l-178 -244h-121z" />
<glyph unicode="&#xfb;" d="M43 909v121h145q66 0 95.5 -29t29.5 -92v-497q0 -54 4 -94.5t18 -82.5t38 -68.5t66 -43.5t100 -17q85 0 157 36t120 96t75 137.5t27 161.5v493h139v-864q0 -45 45 -45h86v-121h-141q-64 0 -94.5 28t-30.5 87v47l4 74h-4q-17 -41 -49.5 -83.5t-81.5 -84t-120 -67.5 t-151 -26q-181 0 -263.5 98t-82.5 302v489q0 45 -45 45h-86zM362 1196l170 244h144l170 -244h-129l-111 166h-4l-110 -166h-130z" />
<glyph unicode="&#xfc;" d="M43 909v121h145q66 0 95.5 -29t29.5 -92v-497q0 -54 4 -94.5t18 -82.5t38 -68.5t66 -43.5t100 -17q85 0 157 36t120 96t75 137.5t27 161.5v493h139v-864q0 -45 45 -45h86v-121h-141q-64 0 -94.5 28t-30.5 87v47l4 74h-4q-17 -41 -49.5 -83.5t-81.5 -84t-120 -67.5 t-151 -26q-181 0 -263.5 98t-82.5 302v489q0 45 -45 45h-86zM391 1264v176h121v-176h-121zM698 1264v176h121v-176h-121z" />
<glyph unicode="&#xfd;" horiz-adv-x="1103" d="M16 -330l66 103q0 -3 19 -21t57.5 -37.5t77.5 -19.5q120 0 190 168l61 141l-362 858q-12 27 -27.5 37t-44.5 10h-20v121h63q69 0 99.5 -21.5t58.5 -90.5l264 -644l37 -110h4q15 59 35 110l254 644q26 69 57.5 90.5t102.5 21.5h63v-121h-20q-29 0 -45.5 -10t-26.5 -37 l-444 -1077q-41 -100 -117.5 -157.5t-177.5 -57.5q-40 0 -78 10.5t-63 25t-45 29t-29 25.5zM487 1196l144 244h155l-178 -244h-121z" />
<glyph unicode="&#xfe;" horiz-adv-x="1196" d="M41 1319v121h145q66 0 95.5 -29.5t29.5 -95.5v-367l-4 -90h4q99 197 346 197q208 0 330.5 -149t122.5 -390q0 -242 -122.5 -391.5t-330.5 -149.5q-73 0 -136 20t-100 48.5t-63.5 56.5t-36.5 48l-10 20h-4q4 -37 4 -90v-488h-139v1684q0 45 -45 45h-86zM307 514 q0 -109 28 -191t76 -129.5t106.5 -70.5t125.5 -23q146 0 235 114t89 302q0 186 -89 299t-235 113q-70 0 -129 -22.5t-106.5 -70t-74 -129.5t-26.5 -192z" />
<glyph unicode="&#xff;" horiz-adv-x="1103" d="M16 -330l66 103q0 -3 19 -21t57.5 -37.5t77.5 -19.5q120 0 190 168l61 141l-362 858q-12 27 -27.5 37t-44.5 10h-20v121h63q69 0 99.5 -21.5t58.5 -90.5l264 -644l37 -110h4q15 59 35 110l254 644q26 69 57.5 90.5t102.5 21.5h63v-121h-20q-29 0 -45.5 -10t-26.5 -37 l-444 -1077q-41 -100 -117.5 -157.5t-177.5 -57.5q-40 0 -78 10.5t-63 25t-45 29t-29 25.5zM336 1264v176h121v-176h-121zM643 1264v176h121v-176h-121z" />
<glyph unicode="&#x100;" horiz-adv-x="1345" d="M25 0v127h26q31 0 47.5 9t26.5 36l471 1268h154l471 -1268q10 -28 25.5 -36.5t47.5 -8.5h25v-127h-66q-77 0 -109.5 23t-60.5 96l-125 340h-571l-127 -340q-28 -74 -60 -96.5t-108 -22.5h-67zM422 1608v110h504v-110h-504zM426 584h494l-191 514q-11 30 -25 76.5 t-22 77.5l-8 32h-4q-31 -118 -56 -186z" />
<glyph unicode="&#x101;" horiz-adv-x="1083" d="M82 281q0 354 631 354h57v12q0 159 -61.5 225t-204.5 66q-24 0 -53.5 -3.5t-65 -12.5t-59 -28t-23.5 -46v-66h-133v99q0 41 26.5 73t65.5 50.5t87.5 30.5t87 16t69.5 4q95 0 166.5 -20.5t116 -55t72 -86t38 -108t10.5 -126.5v-493q0 -45 45 -45h86v-121h-141 q-65 0 -94 29.5t-29 93.5l2 76h-4q2 0 -9 -23t-37 -56t-63 -66t-99 -56t-134 -23q-52 0 -102.5 12t-95 37t-78.5 60.5t-54 86t-20 110.5zM225 289q0 -78 60.5 -136.5t169.5 -58.5q94 0 168 59.5t110.5 145.5t36.5 178v47h-59q-47 0 -79 -1t-87.5 -5.5t-94 -13t-84.5 -26 t-74 -41.5t-47.5 -62t-19.5 -86zM281 1264v110h503v-110h-503z" />
<glyph unicode="&#x102;" horiz-adv-x="1345" d="M25 0v127h26q31 0 47.5 9t26.5 36l471 1268h154l471 -1268q10 -28 25.5 -36.5t47.5 -8.5h25v-127h-66q-77 0 -109.5 23t-60.5 96l-125 340h-571l-127 -340q-28 -74 -60 -96.5t-108 -22.5h-67zM426 584h494l-191 514q-11 30 -25 76.5t-22 77.5l-8 32h-4q-31 -118 -56 -186 zM440 1753v31h107v-27q0 -64 36 -95.5t91 -31.5q52 0 88.5 32t36.5 95v27h106v-31q0 -103 -69 -161t-162 -58q-95 0 -164.5 58t-69.5 161z" />
<glyph unicode="&#x103;" horiz-adv-x="1083" d="M82 281q0 354 631 354h57v12q0 159 -61.5 225t-204.5 66q-24 0 -53.5 -3.5t-65 -12.5t-59 -28t-23.5 -46v-66h-133v99q0 41 26.5 73t65.5 50.5t87.5 30.5t87 16t69.5 4q95 0 166.5 -20.5t116 -55t72 -86t38 -108t10.5 -126.5v-493q0 -45 45 -45h86v-121h-141 q-65 0 -94 29.5t-29 93.5l2 76h-4q2 0 -9 -23t-37 -56t-63 -66t-99 -56t-134 -23q-52 0 -102.5 12t-95 37t-78.5 60.5t-54 86t-20 110.5zM225 289q0 -78 60.5 -136.5t169.5 -58.5q94 0 168 59.5t110.5 145.5t36.5 178v47h-59q-47 0 -79 -1t-87.5 -5.5t-94 -13t-84.5 -26 t-74 -41.5t-47.5 -62t-19.5 -86zM299 1409v31h107v-27q0 -64 35.5 -95.5t90.5 -31.5q52 0 88.5 32t36.5 95v27h107v-31q0 -103 -69.5 -161t-162.5 -58q-95 0 -164 58t-69 161z" />
<glyph unicode="&#x104;" horiz-adv-x="1345" d="M25 0v127h26q31 0 47.5 9t26.5 36l471 1268h154l471 -1268q10 -28 25.5 -36.5t47.5 -8.5h25v-127q-148 -120 -148 -203q0 -26 13 -46t31.5 -30t37.5 -16.5t32 -8.5l13 -1l-32 -115q-9 1 -24 3t-54 14t-68.5 30t-53.5 55.5t-24 86.5q0 128 142 235v4q-38 9 -59 32.5 t-42 78.5l-125 340h-571l-127 -340q-28 -74 -60 -96.5t-108 -22.5h-67zM426 584h494l-191 514q-11 30 -25 76.5t-22 77.5l-8 32h-4q-31 -118 -56 -186z" />
<glyph unicode="&#x105;" horiz-adv-x="1083" d="M82 281q0 354 631 354h57v12q0 158 -62 224.5t-204 66.5q-24 0 -54.5 -4t-65.5 -13t-58 -28t-23 -45v-66h-133v99q0 50 38.5 87t96.5 54.5t108.5 25t92.5 7.5q95 0 166.5 -20.5t116 -55t72 -86t38 -108t10.5 -126.5v-493q0 -45 45 -45h86v-121q-149 -116 -149 -203 q0 -26 13 -46t31.5 -30t37.5 -16.5t32 -8.5l13 -1l-31 -115q-5 0 -13 1t-31.5 6t-44.5 12.5t-47 22t-44.5 33.5t-31.5 48.5t-13 65.5q0 125 135 227v4h-23q-100 0 -100 115v14l4 70h-4q-1 -5 -4.5 -13t-16.5 -31t-29.5 -44.5t-46 -47t-64 -44.5t-86 -31.5t-109.5 -12.5 q-139 0 -237.5 85t-98.5 221zM225 289q0 -78 60.5 -136.5t169.5 -58.5q94 0 168 59.5t110.5 145.5t36.5 178v47h-59q-47 0 -79 -1t-87.5 -5.5t-94 -13t-84.5 -26t-74 -41.5t-47.5 -62t-19.5 -86z" />
<glyph unicode="&#x106;" horiz-adv-x="1421" d="M78 731q0 205 92 373t255 264t363 96q82 0 171.5 -18t174 -52.5t139 -96t54.5 -138.5v-119h-135v80q0 64 -66.5 113.5t-155.5 72.5t-177 23q-118 0 -222.5 -45t-180 -123t-119.5 -190t-44 -240q0 -170 74 -312t205.5 -225t292.5 -83q61 0 119.5 11t104 29t86.5 39.5 t69.5 43t50 39.5t31.5 29l10 11l82 -104q-8 -10 -23.5 -25.5t-69 -56t-113.5 -71t-154.5 -56t-194.5 -25.5q-155 0 -290 59.5t-228.5 161t-147 240.5t-53.5 295zM723 1540l143 244h156l-178 -244h-121z" />
<glyph unicode="&#x107;" horiz-adv-x="1081" d="M82 514q0 155 71.5 279t195.5 193t276 69q39 0 83.5 -6t95.5 -22t92 -40t68 -63.5t27 -87.5v-93h-131v60q0 58 -78.5 92.5t-156.5 34.5q-169 0 -284.5 -116t-115.5 -300q0 -123 56 -218.5t147.5 -144.5t200.5 -49q59 0 115 15t93.5 36.5t67 43t43.5 36.5l13 15l65 -105 q-6 -7 -17 -18t-49 -40t-81 -51.5t-112.5 -40.5t-143.5 -18q-152 0 -275.5 67.5t-194.5 191t-71 280.5zM535 1196l143 244h156l-179 -244h-120z" />
<glyph unicode="&#x108;" horiz-adv-x="1421" d="M78 731q0 205 92 373t255 264t363 96q82 0 171.5 -18t174 -52.5t139 -96t54.5 -138.5v-119h-135v80q0 64 -66.5 113.5t-155.5 72.5t-177 23q-118 0 -222.5 -45t-180 -123t-119.5 -190t-44 -240q0 -170 74 -312t205.5 -225t292.5 -83q61 0 119.5 11t104 29t86.5 39.5 t69.5 43t50 39.5t31.5 29l10 11l82 -104q-8 -10 -23.5 -25.5t-69 -56t-113.5 -71t-154.5 -56t-194.5 -25.5q-155 0 -290 59.5t-228.5 161t-147 240.5t-53.5 295zM543 1540l170 244h143l170 -244h-129l-111 166h-4l-110 -166h-129z" />
<glyph unicode="&#x109;" horiz-adv-x="1081" d="M82 514q0 155 71.5 279t195.5 193t276 69q39 0 83.5 -6t95.5 -22t92 -40t68 -63.5t27 -87.5v-93h-131v60q0 58 -78.5 92.5t-156.5 34.5q-169 0 -284.5 -116t-115.5 -300q0 -123 56 -218.5t147.5 -144.5t200.5 -49q59 0 115 15t93.5 36.5t67 43t43.5 36.5l13 15l65 -105 q-6 -7 -17 -18t-49 -40t-81 -51.5t-112.5 -40.5t-143.5 -18q-152 0 -275.5 67.5t-194.5 191t-71 280.5zM354 1196l170 244h144l170 -244h-129l-111 166h-4l-111 -166h-129z" />
<glyph unicode="&#x10a;" horiz-adv-x="1421" d="M78 731q0 205 92 373t255 264t363 96q82 0 171.5 -18t174 -52.5t139 -96t54.5 -138.5v-119h-135v80q0 64 -66.5 113.5t-155.5 72.5t-177 23q-118 0 -222.5 -45t-180 -123t-119.5 -190t-44 -240q0 -170 74 -312t205.5 -225t292.5 -83q61 0 119.5 11t104 29t86.5 39.5 t69.5 43t50 39.5t31.5 29l10 11l82 -104q-8 -10 -23.5 -25.5t-69 -56t-113.5 -71t-154.5 -56t-194.5 -25.5q-155 0 -290 59.5t-228.5 161t-147 240.5t-53.5 295zM717 1608v176h135v-176h-135z" />
<glyph unicode="&#x10b;" horiz-adv-x="1081" d="M82 514q0 155 71.5 279t195.5 193t276 69q39 0 83.5 -6t95.5 -22t92 -40t68 -63.5t27 -87.5v-93h-131v60q0 58 -78.5 92.5t-156.5 34.5q-169 0 -284.5 -116t-115.5 -300q0 -123 56 -218.5t147.5 -144.5t200.5 -49q59 0 115 15t93.5 36.5t67 43t43.5 36.5l13 15l65 -105 q-6 -7 -17 -18t-49 -40t-81 -51.5t-112.5 -40.5t-143.5 -18q-152 0 -275.5 67.5t-194.5 191t-71 280.5zM528 1264v176h136v-176h-136z" />
<glyph unicode="&#x10c;" horiz-adv-x="1421" d="M78 731q0 205 92 373t255 264t363 96q82 0 171.5 -18t174 -52.5t139 -96t54.5 -138.5v-119h-135v80q0 64 -66.5 113.5t-155.5 72.5t-177 23q-118 0 -222.5 -45t-180 -123t-119.5 -190t-44 -240q0 -170 74 -312t205.5 -225t292.5 -83q61 0 119.5 11t104 29t86.5 39.5 t69.5 43t50 39.5t31.5 29l10 11l82 -104q-8 -10 -23.5 -25.5t-69 -56t-113.5 -71t-154.5 -56t-194.5 -25.5q-155 0 -290 59.5t-228.5 161t-147 240.5t-53.5 295zM541 1784h131l110 -164h4l111 164h129l-172 -244h-141z" />
<glyph unicode="&#x10d;" horiz-adv-x="1081" d="M82 514q0 155 71.5 279t195.5 193t276 69q39 0 83.5 -6t95.5 -22t92 -40t68 -63.5t27 -87.5v-93h-131v60q0 58 -78.5 92.5t-156.5 34.5q-169 0 -284.5 -116t-115.5 -300q0 -123 56 -218.5t147.5 -144.5t200.5 -49q59 0 115 15t93.5 36.5t67 43t43.5 36.5l13 15l65 -105 q-6 -7 -17 -18t-49 -40t-81 -51.5t-112.5 -40.5t-143.5 -18q-152 0 -275.5 67.5t-194.5 191t-71 280.5zM352 1440h131l111 -164h4l111 164h129l-172 -244h-142z" />
<glyph unicode="&#x10e;" horiz-adv-x="1464" d="M86 1313v127h578q330 0 526 -191t196 -528q0 -340 -196 -530.5t-526 -190.5h-320q-66 0 -95.5 29.5t-29.5 95.5v1188h-133zM362 172q0 -45 46 -45h241q271 0 429.5 155t158.5 439q0 282 -159.5 437t-428.5 155h-287v-1141zM473 1784h131l111 -164h4l110 164h129 l-172 -244h-141z" />
<glyph unicode="&#x10f;" horiz-adv-x="1359" d="M86 516q0 242 129.5 390.5t333.5 148.5q70 0 130.5 -20t96.5 -48t62 -56.5t36 -48.5l11 -20h4q-4 35 -4 78v334q0 45 -45 45h-86v121h145q66 0 95.5 -29.5t29.5 -95.5v-1149q0 -45 45 -45h86v-121h-143q-123 0 -123 115l4 65h-4q-3 -8 -10.5 -22t-36.5 -49.5t-65.5 -62.5 t-101 -49t-140.5 -22q-205 0 -327 149.5t-122 391.5zM229 516q0 -189 90 -302.5t236 -113.5q67 0 125.5 24.5t106 73t75 130.5t27.5 188q0 80 -20.5 153t-60 132t-103.5 94t-144 35q-141 0 -236.5 -112.5t-95.5 -301.5zM1135 1159q39 95 39 164q0 55 -23 117h127 q14 -49 14 -99q0 -75 -49 -182h-108z" />
<glyph unicode="&#x110;" horiz-adv-x="1464" d="M86 1313v127h578q330 0 526 -191t196 -528q0 -340 -196 -530.5t-526 -190.5h-320q-66 0 -95.5 29.5t-29.5 95.5v537h-102v122h102v529h-133zM362 172q0 -45 46 -45h241q271 0 429.5 155t158.5 439q0 282 -159.5 437t-428.5 155h-287v-529h336v-122h-336v-490z" />
<glyph unicode="&#x111;" horiz-adv-x="1204" d="M86 516q0 242 129.5 390.5t333.5 148.5q70 0 130.5 -20t96.5 -48t62 -56.5t36 -48.5l11 -20h4q-4 35 -4 78v219h-269v105h269v176h139v-176h164v-105h-164v-993q0 -45 45 -45h86v-121h-143q-123 0 -123 115l4 65h-4q-3 -8 -10.5 -22t-36.5 -49.5t-65.5 -62.5t-101 -49 t-140.5 -22q-205 0 -327 149.5t-122 391.5zM229 516q0 -189 90 -302.5t236 -113.5q67 0 125.5 24.5t106 73t75 130.5t27.5 188q0 80 -20.5 153t-60 132t-103.5 94t-144 35q-141 0 -236.5 -112.5t-95.5 -301.5z" />
<glyph unicode="&#x112;" horiz-adv-x="1142" d="M86 1313v127h823q66 0 95.5 -29.5t29.5 -95.5v-144h-135v97q0 45 -45 45h-492v-525h541v-126h-541v-490q0 -45 46 -45h505q45 0 45 45v96h134v-143q0 -66 -29.5 -95.5t-95.5 -29.5h-623q-66 0 -95.5 29.5t-29.5 95.5v1188h-133zM350 1608v110h504v-110h-504z" />
<glyph unicode="&#x113;" horiz-adv-x="1122" d="M82 514q0 124 40.5 227t110 171t161.5 105.5t196 37.5q138 0 237.5 -66t147 -172t47.5 -237l-4 -70h-791q3 -188 118.5 -299t281.5 -111q53 0 104 13t86.5 32t63.5 37.5t41 31.5l14 13l68 -104q-6 -6 -17.5 -16t-50 -35.5t-80 -45t-106 -35.5t-129.5 -16q-151 0 -274 68 t-194 191.5t-71 279.5zM233 621h646q-6 153 -88 235t-203 82q-132 0 -231 -83.5t-124 -233.5zM334 1264v110h504v-110h-504z" />
<glyph unicode="&#x114;" horiz-adv-x="1142" d="M86 1313v127h823q66 0 95.5 -29.5t29.5 -95.5v-144h-135v97q0 45 -45 45h-492v-525h541v-126h-541v-490q0 -45 46 -45h505q45 0 45 45v96h134v-143q0 -66 -29.5 -95.5t-95.5 -29.5h-623q-66 0 -95.5 29.5t-29.5 95.5v1188h-133zM371 1753v31h106v-27q0 -64 36 -95.5 t91 -31.5q52 0 88.5 32t36.5 95v27h107v-31q0 -103 -69.5 -161t-162.5 -58q-95 0 -164 58t-69 161z" />
<glyph unicode="&#x115;" horiz-adv-x="1122" d="M82 514q0 124 40.5 227t110 171t161.5 105.5t196 37.5q138 0 237.5 -66t147 -172t47.5 -237l-4 -70h-791q3 -188 118.5 -299t281.5 -111q53 0 104 13t86.5 32t63.5 37.5t41 31.5l14 13l68 -104q-6 -6 -17.5 -16t-50 -35.5t-80 -45t-106 -35.5t-129.5 -16q-151 0 -274 68 t-194 191.5t-71 279.5zM233 621h646q-6 153 -88 235t-203 82q-132 0 -231 -83.5t-124 -233.5zM352 1409v31h107v-27q0 -64 36 -95.5t91 -31.5q52 0 88.5 32t36.5 95v27h106v-31q0 -103 -69 -161t-162 -58q-95 0 -164.5 58t-69.5 161z" />
<glyph unicode="&#x116;" horiz-adv-x="1142" d="M86 1313v127h823q66 0 95.5 -29.5t29.5 -95.5v-144h-135v97q0 45 -45 45h-492v-525h541v-126h-541v-490q0 -45 46 -45h505q45 0 45 45v96h134v-143q0 -66 -29.5 -95.5t-95.5 -29.5h-623q-66 0 -95.5 29.5t-29.5 95.5v1188h-133zM535 1608v176h135v-176h-135z" />
<glyph unicode="&#x117;" horiz-adv-x="1122" d="M82 514q0 124 40.5 227t110 171t161.5 105.5t196 37.5q138 0 237.5 -66t147 -172t47.5 -237l-4 -70h-791q3 -188 118.5 -299t281.5 -111q53 0 104 13t86.5 32t63.5 37.5t41 31.5l14 13l68 -104q-6 -6 -17.5 -16t-50 -35.5t-80 -45t-106 -35.5t-129.5 -16q-151 0 -274 68 t-194 191.5t-71 279.5zM233 621h646q-6 153 -88 235t-203 82q-132 0 -231 -83.5t-124 -233.5zM518 1264v176h135v-176h-135z" />
<glyph unicode="&#x118;" horiz-adv-x="1142" d="M86 1313v127h823q66 0 95.5 -29.5t29.5 -95.5v-144h-135v97q0 45 -45 45h-492v-525h541v-126h-541v-490q0 -45 46 -45h505q45 0 45 45v96h134v-143q0 -69 -41 -107q-3 -3 -29.5 -23.5t-35 -28t-31 -27.5t-32 -33t-22.5 -32.5t-18.5 -38.5t-5.5 -38q0 -26 13 -46t31.5 -30 t37.5 -16.5t32 -8.5l13 -1l-31 -115q-5 0 -13 1t-31.5 6t-44.5 12.5t-47 22t-44.5 33.5t-31.5 48.5t-13 65.5q0 129 133 227v4h-537q-66 0 -95.5 29.5t-29.5 95.5v1188h-133z" />
<glyph unicode="&#x119;" horiz-adv-x="1122" d="M82 514q0 124 40.5 227t110 171t161.5 105.5t196 37.5q138 0 237.5 -66t147 -172t47.5 -237l-4 -70h-791q3 -187 118.5 -298.5t281.5 -111.5q53 0 104 13t86.5 32t63.5 37.5t41 31.5l14 13l68 -104q-23 -22 -81 -64.5t-101 -76.5t-79 -84.5t-36 -100.5q0 -26 13 -46 t31.5 -30t37.5 -16.5t32 -8.5l13 -1l-31 -115q-5 0 -13 1t-31.5 6t-44.5 12.5t-47 22t-44.5 33.5t-31.5 48.5t-13 65.5q0 106 110 208v5q-35 -7 -67 -7q-151 0 -274 68t-194 191.5t-71 279.5zM233 621h646q-7 153 -89 235t-202 82q-132 0 -231 -83.5t-124 -233.5z" />
<glyph unicode="&#x11a;" horiz-adv-x="1142" d="M86 1313v127h823q66 0 95.5 -29.5t29.5 -95.5v-144h-135v97q0 45 -45 45h-492v-525h541v-126h-541v-490q0 -45 46 -45h505q45 0 45 45v96h134v-143q0 -66 -29.5 -95.5t-95.5 -29.5h-623q-66 0 -95.5 29.5t-29.5 95.5v1188h-133zM358 1784h131l111 -164h4l111 164h129 l-172 -244h-142z" />
<glyph unicode="&#x11b;" horiz-adv-x="1122" d="M82 514q0 124 40.5 227t110 171t161.5 105.5t196 37.5q138 0 237.5 -66t147 -172t47.5 -237l-4 -70h-791q3 -188 118.5 -299t281.5 -111q53 0 104 13t86.5 32t63.5 37.5t41 31.5l14 13l68 -104q-6 -6 -17.5 -16t-50 -35.5t-80 -45t-106 -35.5t-129.5 -16q-151 0 -274 68 t-194 191.5t-71 279.5zM233 621h646q-6 153 -88 235t-203 82q-132 0 -231 -83.5t-124 -233.5zM342 1440h131l111 -164h4l110 164h129l-172 -244h-141z" />
<glyph unicode="&#x11c;" horiz-adv-x="1495" d="M80 723q0 204 94 374t259 268.5t366 98.5q94 0 180 -18t142.5 -44t99.5 -52t63 -44l19 -18l-84 -106q-7 6 -19 16t-53.5 35t-87 44.5t-116 35.5t-142.5 16q-160 0 -291 -79t-206 -218t-75 -309q0 -174 74 -314.5t204.5 -219t291.5 -78.5q80 0 156 21.5t127.5 52.5 t92 62.5t59.5 52.5l19 22v178q0 45 -45 45h-88v127h144q66 0 95.5 -29.5t29.5 -95.5v-547h-132v109l3 61h-5q-7 -8 -20 -21t-58.5 -46.5t-96 -59.5t-131 -47t-165.5 -21q-146 0 -275.5 56.5t-224 155t-149.5 238t-55 298.5zM551 1540l170 244h143l170 -244h-129l-110 166h-4 l-111 -166h-129z" />
<glyph unicode="&#x11d;" horiz-adv-x="1185" d="M86 535q0 234 120.5 377t325.5 143q77 0 141 -18t99.5 -44t60 -52t33.5 -44l8 -18h5v39q0 57 27 84.5t89 27.5h144v-121h-84q-45 0 -45 -45v-839q0 -95 -27.5 -172.5t-74 -129.5t-110.5 -87t-135 -50.5t-149 -15.5q-175 0 -336 82l53 117q14 -8 39.5 -20t98.5 -32 t141 -20q161 0 260.5 80t99.5 243v91l2 73h-4q-96 -178 -323 -178q-206 0 -332.5 148t-126.5 381zM229 537q0 -184 92 -295t244 -111q64 0 117.5 21t97 66.5t68 126t24.5 190.5q0 393 -325 393q-151 0 -234.5 -103t-83.5 -288zM350 1196l170 244h144l170 -244h-129l-111 166 h-4l-111 -166h-129z" />
<glyph unicode="&#x11e;" horiz-adv-x="1495" d="M80 723q0 204 94 374t259 268.5t366 98.5q94 0 180 -18t142.5 -44t99.5 -52t63 -44l19 -18l-84 -106q-7 6 -19 16t-53.5 35t-87 44.5t-116 35.5t-142.5 16q-160 0 -291 -79t-206 -218t-75 -309q0 -174 74 -314.5t204.5 -219t291.5 -78.5q80 0 156 21.5t127.5 52.5 t92 62.5t59.5 52.5l19 22v178q0 45 -45 45h-88v127h144q66 0 95.5 -29.5t29.5 -95.5v-547h-132v109l3 61h-5q-7 -8 -20 -21t-58.5 -46.5t-96 -59.5t-131 -47t-165.5 -21q-146 0 -275.5 56.5t-224 155t-149.5 238t-55 298.5zM561 1753v31h107v-27q0 -64 36 -95.5t91 -31.5 q52 0 88.5 32t36.5 95v27h106v-31q0 -103 -69 -161t-162 -58q-95 0 -164.5 58t-69.5 161z" />
<glyph unicode="&#x11f;" horiz-adv-x="1185" d="M86 535q0 234 120.5 377t325.5 143q77 0 141 -18t99.5 -44t60 -52t33.5 -44l8 -18h5v39q0 57 27 84.5t89 27.5h144v-121h-84q-45 0 -45 -45v-839q0 -95 -27.5 -172.5t-74 -129.5t-110.5 -87t-135 -50.5t-149 -15.5q-175 0 -336 82l53 117q14 -8 39.5 -20t98.5 -32 t141 -20q161 0 260.5 80t99.5 243v91l2 73h-4q-96 -178 -323 -178q-206 0 -332.5 148t-126.5 381zM229 537q0 -184 92 -295t244 -111q64 0 117.5 21t97 66.5t68 126t24.5 190.5q0 393 -325 393q-151 0 -234.5 -103t-83.5 -288zM360 1409v31h107v-27q0 -64 36 -95.5t91 -31.5 q52 0 88.5 32t36.5 95v27h106v-31q0 -103 -69 -161t-162 -58q-95 0 -164.5 58t-69.5 161z" />
<glyph unicode="&#x120;" horiz-adv-x="1495" d="M80 723q0 204 94 374t259 268.5t366 98.5q94 0 180 -18t142.5 -44t99.5 -52t63 -44l19 -18l-84 -106q-7 6 -19 16t-53.5 35t-87 44.5t-116 35.5t-142.5 16q-160 0 -291 -79t-206 -218t-75 -309q0 -174 74 -314.5t204.5 -219t291.5 -78.5q80 0 156 21.5t127.5 52.5 t92 62.5t59.5 52.5l19 22v178q0 45 -45 45h-88v127h144q66 0 95.5 -29.5t29.5 -95.5v-547h-132v109l3 61h-5q-7 -8 -20 -21t-58.5 -46.5t-96 -59.5t-131 -47t-165.5 -21q-146 0 -275.5 56.5t-224 155t-149.5 238t-55 298.5zM727 1608v176h135v-176h-135z" />
<glyph unicode="&#x121;" horiz-adv-x="1185" d="M86 535q0 234 120.5 377t325.5 143q77 0 141 -18t99.5 -44t60 -52t33.5 -44l8 -18h5v39q0 57 27 84.5t89 27.5h144v-121h-84q-45 0 -45 -45v-839q0 -95 -27.5 -172.5t-74 -129.5t-110.5 -87t-135 -50.5t-149 -15.5q-175 0 -336 82l53 117q14 -8 39.5 -20t98.5 -32 t141 -20q161 0 260.5 80t99.5 243v91l2 73h-4q-96 -178 -323 -178q-206 0 -332.5 148t-126.5 381zM229 537q0 -184 92 -295t244 -111q64 0 117.5 21t97 66.5t68 126t24.5 190.5q0 393 -325 393q-151 0 -234.5 -103t-83.5 -288zM524 1264v176h135v-176h-135z" />
<glyph unicode="&#x122;" horiz-adv-x="1495" d="M80 723q0 204 94 374t259 268.5t366 98.5q94 0 180 -18t142.5 -44t99.5 -52t63 -44l19 -18l-84 -106q-7 6 -19 16t-53.5 35t-87 44.5t-116 35.5t-142.5 16q-160 0 -291 -79t-206 -218t-75 -309q0 -174 74 -314.5t204.5 -219t291.5 -78.5q80 0 156 21.5t127.5 52.5 t92 62.5t59.5 52.5l19 22v178q0 45 -45 45h-88v127h144q66 0 95.5 -29.5t29.5 -95.5v-547h-132v109l3 61h-5q-7 -8 -20 -21t-58.5 -46.5t-96 -59.5t-131 -47t-165.5 -21q-146 0 -275.5 56.5t-224 155t-149.5 238t-55 298.5zM694 -410q39 95 39 164q0 58 -22 117h127 q14 -49 14 -98q0 -76 -49 -183h-109z" />
<glyph unicode="&#x123;" horiz-adv-x="1185" d="M86 535q0 234 120.5 377t325.5 143q77 0 141 -18t99.5 -44t60 -52t33.5 -44l8 -18h5v39q0 57 27 84.5t89 27.5h144v-121h-84q-45 0 -45 -45v-839q0 -95 -27.5 -172.5t-74 -129.5t-110.5 -87t-135 -50.5t-149 -15.5q-175 0 -336 82l53 117q14 -8 39.5 -20t98.5 -32 t141 -20q161 0 260.5 80t99.5 243v91l2 73h-4q-96 -178 -323 -178q-206 0 -332.5 148t-126.5 381zM229 537q0 -184 92 -295t244 -111q64 0 117.5 21t97 66.5t68 126t24.5 190.5q0 393 -325 393q-151 0 -234.5 -103t-83.5 -288zM496 1257q0 76 49 183h108q-39 -95 -39 -164 q0 -55 23 -117h-127q-14 49 -14 98z" />
<glyph unicode="&#x124;" horiz-adv-x="1550" d="M86 1313v127h152q66 0 95 -29.5t29 -95.5v-531h828v531q0 66 29 95.5t94 29.5h153v-127h-88q-45 0 -45 -45v-1268h-143v657h-828v-657h-143v1268q0 45 -45 45h-88zM535 1540l170 244h143l170 -244h-129l-111 166h-4l-110 -166h-129z" />
<glyph unicode="&#x125;" horiz-adv-x="1239" d="M41 1319v121h145q66 0 95.5 -29t29.5 -92v-436l-4 -84h4q12 31 34.5 64t59.5 68t81.5 62t105.5 44.5t127 17.5q185 0 265.5 -100.5t80.5 -299.5v-489q0 -45 45 -45h86v-121h-145q-66 0 -95.5 29.5t-29.5 95.5v493q0 55 -4 95t-18 82t-37.5 68.5t-66 43.5t-100.5 17 q-130 0 -233.5 -82t-138.5 -211q-17 -58 -17 -137v-494h-139v1274q0 45 -45 45h-86zM410 1540l170 244h143l170 -244h-129l-111 166h-4l-110 -166h-129z" />
<glyph unicode="&#x126;" horiz-adv-x="1550" d="M84 1049v110h135v281h143v-281h828v281h143v-281h133v-110h-133v-1049h-143v657h-828v-657h-143v1049h-135zM362 784h828v265h-828v-265z" />
<glyph unicode="&#x127;" horiz-adv-x="1239" d="M10 1159v105h162v176h139v-176h269v-105h-269v-276l-4 -84h4q9 26 28 56t55 66.5t80 65.5t108.5 48.5t136.5 19.5q185 0 265.5 -100.5t80.5 -299.5v-489q0 -45 45 -45h86v-121h-145q-66 0 -95.5 29.5t-29.5 95.5v493q0 54 -4 94t-18 82t-37.5 69t-66 44t-100.5 17 q-168 0 -278.5 -123.5t-110.5 -306.5v-494h-139v1159h-162z" />
<glyph unicode="&#x128;" horiz-adv-x="600" d="M-25 1546q0 240 191 240q38 0 70 -15t54 -37t42 -44t43.5 -37t48.5 -15q24 0 41 14t25.5 37.5t12 45.5t3.5 45h108q0 -240 -190 -240q-47 0 -86 23t-61 50t-52 50t-61 23q-45 0 -63.5 -43.5t-18.5 -96.5h-107zM94 0v127h135v1186h-135v127h412v-127h-137v-1186h137v-127 h-412z" />
<glyph unicode="&#x129;" horiz-adv-x="516" d="M-33 1202q0 120 41 180t129 60q32 0 59 -15t45.5 -36t34.5 -42t32.5 -36t33.5 -15q70 0 70 138h102q0 -121 -40.5 -180.5t-129.5 -59.5q-32 0 -59 14.5t-45.5 36t-34 42.5t-32 35.5t-32.5 14.5q-69 0 -69 -137h-105zM59 909v121h146q66 0 95.5 -29.5t29.5 -95.5v-739 q0 -45 45 -45h86v-121h-146q-66 0 -95.5 29.5t-29.5 95.5v739q0 45 -45 45h-86z" />
<glyph unicode="&#x12a;" horiz-adv-x="600" d="M47 1608v110h504v-110h-504zM94 0v127h135v1186h-135v127h412v-127h-137v-1186h137v-127h-412z" />
<glyph unicode="&#x12b;" horiz-adv-x="516" d="M27 1264v110h438v-110h-438zM59 909v121h146q66 0 95.5 -29.5t29.5 -95.5v-739q0 -45 45 -45h86v-121h-146q-66 0 -95.5 29.5t-29.5 95.5v739q0 45 -45 45h-86z" />
<glyph unicode="&#x12c;" horiz-adv-x="600" d="M66 1753v31h106v-27q0 -64 36 -95.5t91 -31.5q52 0 88.5 32t36.5 95v27h106v-31q0 -103 -69 -161t-162 -58q-95 0 -164 58t-69 161zM94 0v127h135v1186h-135v127h412v-127h-137v-1186h137v-127h-412z" />
<glyph unicode="&#x12d;" horiz-adv-x="516" d="M12 1409v31h107v-27q0 -64 36 -95.5t91 -31.5q52 0 88.5 32t36.5 95v27h106v-31q0 -103 -69 -161t-162 -58q-95 0 -164.5 58t-69.5 161zM59 909v121h146q66 0 95.5 -29.5t29.5 -95.5v-739q0 -45 45 -45h86v-121h-146q-66 0 -95.5 29.5t-29.5 95.5v739q0 45 -45 45h-86z " />
<glyph unicode="&#x12e;" horiz-adv-x="600" d="M94 0v127h135v1186h-135v127h412v-127h-137v-1186h137v-127q-150 -117 -150 -203q0 -41 32 -66.5t64 -30.5l31 -5l-30 -115q-5 0 -13 1t-31.5 6t-45 12.5t-47.5 22t-44.5 33.5t-31.5 48.5t-13 65.5q0 129 133 227v4h-266z" />
<glyph unicode="&#x12f;" horiz-adv-x="514" d="M57 909v121h146q66 0 95.5 -29.5t29.5 -95.5v-739q0 -45 45 -45h86v-121q-148 -120 -148 -203q0 -26 13 -46t31.5 -30t37.5 -16.5t32 -8.5l13 -1l-32 -115q-9 1 -24 3t-54 14t-68.5 30t-53.5 55.5t-24 86.5q0 126 133 227v4h-22q-60 0 -82.5 43t-22.5 127v694 q0 45 -45 45h-86zM184 1264v176h135v-176h-135z" />
<glyph unicode="&#x130;" horiz-adv-x="600" d="M94 0v127h135v1186h-135v127h412v-127h-137v-1186h137v-127h-412zM231 1608v176h136v-176h-136z" />
<glyph unicode="&#x131;" horiz-adv-x="516" d="M59 909v121h146q66 0 95.5 -29.5t29.5 -95.5v-739q0 -45 45 -45h86v-121h-146q-66 0 -95.5 29.5t-29.5 95.5v739q0 45 -45 45h-86z" />
<glyph unicode="&#x132;" horiz-adv-x="1314" d="M94 0v127h135v1186h-135v127h412v-127h-137v-1186h137v-127h-412zM698 -10v133q301 0 301 344v801q0 45 -45 45h-243v127h307q66 0 95.5 -29.5t29.5 -95.5v-848q0 -83 -14 -152t-38.5 -117.5t-59 -85.5t-72.5 -60t-84 -37t-88 -19.5t-89 -5.5z" />
<glyph unicode="&#x133;" horiz-adv-x="1044" d="M57 909v121h146q66 0 95.5 -29.5t29.5 -95.5v-739q0 -45 45 -45h86v-121h-146q-66 0 -95.5 29.5t-29.5 95.5v739q0 45 -45 45h-86zM184 1264v176h135v-176h-135zM451 -295q18 -2 45 -2q29 0 55.5 4.5t61 21t59 43.5t42 77.5t17.5 117.5v897q0 45 -45 45h-86v121h145 q66 0 95.5 -29.5t29.5 -95.5v-944q0 -97 -27 -170.5t-65.5 -112.5t-91 -63t-93.5 -30.5t-83 -6.5q-16 0 -30.5 1.5t-21.5 2.5l-7 2v121zM727 1264v176h135v-176h-135z" />
<glyph unicode="&#x134;" horiz-adv-x="1034" d="M49 403v58h144v-49q0 -82 22.5 -142.5t61.5 -94t84 -49t96 -15.5q50 0 94.5 16t82.5 49t60.5 93t22.5 139v860q0 45 -45 45h-357v127h420q66 0 95.5 -29.5t29.5 -95.5v-912q0 -90 -23 -163.5t-62 -122t-91.5 -81t-109.5 -47t-119 -14.5q-78 0 -148 24t-129 73t-94 134.5 t-35 196.5zM332 1540l170 244h143l170 -244h-129l-111 166h-4l-110 -166h-129z" />
<glyph unicode="&#x135;" horiz-adv-x="546" d="M-43 -295q18 -4 45 -4q29 0 55.5 4.5t61 21t59 43.5t41.5 77.5t17 117.5v901q0 45 -48 45h-84v119h144q67 0 96 -27t29 -92v-950q0 -97 -26.5 -170.5t-64.5 -112.5t-90.5 -63t-93 -30.5t-82.5 -6.5q-16 0 -31 1.5t-21 2.5l-7 2v121zM12 1196l172 244h142l172 -244h-129 l-115 168l-113 -168h-129z" />
<glyph unicode="&#x136;" horiz-adv-x="1208" d="M86 1313v127h152q66 0 95 -29.5t29 -95.5v-500h173q89 0 120 51l349 574h163l-370 -604q-16 -26 -34.5 -46t-28.5 -27l-11 -7v-4q4 -1 10.5 -5t25 -25t34.5 -52l249 -496q14 -30 37 -38.5t68 -8.5h41v-127h-76q-90 0 -127.5 19.5t-71.5 89.5l-262 526q-16 32 -47 42.5 t-84 10.5h-158v-688h-143v1268q0 45 -45 45h-88zM557 -410q39 95 39 164q0 55 -23 117h127q15 -53 15 -98q0 -76 -49 -183h-109z" />
<glyph unicode="&#x137;" horiz-adv-x="1019" d="M41 1319v121h145q67 0 96 -27t29 -92v-684h107q79 0 117 49l264 344h170l-297 -377q-23 -28 -42.5 -46.5t-27.5 -22.5l-8 -4v-5q30 -14 63 -75l187 -334q13 -26 33 -35.5t61 -9.5h55v-121h-96q-77 0 -110 19t-68 83l-205 369q-25 45 -108 45h-95v-516h-139v1274 q0 45 -45 45h-86zM457 -410q39 95 39 164q0 55 -23 117h127q14 -49 14 -98q0 -76 -49 -183h-108z" />
<glyph unicode="&#x138;" horiz-adv-x="1019" d="M41 909v121h145q67 0 96 -27t29 -92v-321h107q79 0 117 49l280 391h168l-313 -422q-22 -29 -40.5 -47.5t-25.5 -22.5l-8 -3v-5q26 -12 61 -75l162 -289q13 -26 33 -35.5t61 -9.5h66v-121h-107q-77 0 -110 19t-68 83l-180 322q-24 45 -108 45h-95v-469h-139v864 q0 45 -45 45h-86z" />
<glyph unicode="&#x139;" horiz-adv-x="1085" d="M86 1313v127h152q66 0 95 -29.5t29 -95.5v-1143q0 -45 46 -45h477q45 0 45 45v96h135v-143q0 -66 -29.5 -95.5t-95.5 -29.5h-596q-66 0 -95.5 29.5t-29.5 95.5v1143q0 45 -45 45h-88zM236 1540l143 244h156l-179 -244h-120z" />
<glyph unicode="&#x13a;" horiz-adv-x="501" d="M45 1319v121h145q66 0 95.5 -29.5t29.5 -95.5v-1149q0 -45 45 -45h86v-121h-145q-66 0 -95.5 29.5t-29.5 95.5v1149q0 45 -45 45h-86zM154 1540l143 244h156l-179 -244h-120z" />
<glyph unicode="&#x13b;" horiz-adv-x="1085" d="M86 1313v127h152q66 0 95 -29.5t29 -95.5v-1143q0 -45 46 -45h477q45 0 45 45v96h135v-143q0 -66 -29.5 -95.5t-95.5 -29.5h-596q-66 0 -95.5 29.5t-29.5 95.5v1143q0 45 -45 45h-88zM555 -410q39 95 39 164q0 55 -23 117h127q15 -53 15 -98q0 -76 -49 -183h-109z" />
<glyph unicode="&#x13c;" horiz-adv-x="501" d="M45 1319v121h145q66 0 95.5 -29.5t29.5 -95.5v-1149q0 -45 45 -45h86v-121h-145q-66 0 -95.5 29.5t-29.5 95.5v1149q0 45 -45 45h-86zM195 -410q38 93 38 164q0 58 -22 117h127q14 -49 14 -98q0 -76 -49 -183h-108z" />
<glyph unicode="&#x13d;" horiz-adv-x="1085" d="M86 1313v127h152q66 0 95 -29.5t29 -95.5v-1143q0 -45 46 -45h477q45 0 45 45v96h135v-143q0 -66 -29.5 -95.5t-95.5 -29.5h-596q-66 0 -95.5 29.5t-29.5 95.5v1143q0 45 -45 45h-88zM532 1159q39 95 39 164q0 58 -22 117h127q14 -49 14 -99q0 -75 -49 -182h-109z" />
<glyph unicode="&#x13e;" horiz-adv-x="651" d="M45 1319v121h145q66 0 95.5 -29.5t29.5 -95.5v-1149q0 -45 45 -45h86v-121h-145q-66 0 -95.5 29.5t-29.5 95.5v1149q0 45 -45 45h-86zM426 1159q39 95 39 164q0 55 -23 117h127q15 -53 15 -99q0 -75 -49 -182h-109z" />
<glyph unicode="&#x13f;" horiz-adv-x="1085" d="M86 1313v127h152q66 0 95 -29.5t29 -95.5v-1143q0 -45 46 -45h477q45 0 45 45v96h135v-143q0 -66 -29.5 -95.5t-95.5 -29.5h-596q-66 0 -95.5 29.5t-29.5 95.5v1143q0 45 -45 45h-88zM616 680v164h158v-164h-158z" />
<glyph unicode="&#x140;" horiz-adv-x="624" d="M45 1319v121h145q66 0 95.5 -29.5t29.5 -95.5v-1149q0 -45 45 -45h86v-121h-145q-66 0 -95.5 29.5t-29.5 95.5v1149q0 45 -45 45h-86zM457 680v164h157v-164h-157z" />
<glyph unicode="&#x141;" horiz-adv-x="1085" d="M86 618v144l133 76v430q0 45 -45 45h-88v127h152q66 0 95 -29.5t29 -95.5v-395l224 131v-148l-224 -129v-602q0 -45 46 -45h477q45 0 45 45v96h135v-143q0 -66 -29.5 -95.5t-95.5 -29.5h-596q-66 0 -95.5 29.5t-29.5 95.5v567z" />
<glyph unicode="&#x142;" horiz-adv-x="546" d="M33 629v145l174 100v400q0 45 -45 45h-86v121h145q66 0 95.5 -29.5t29.5 -95.5v-361l170 99v-148l-170 -98v-641q0 -45 45 -45h86v-121h-145q-66 0 -95.5 29.5t-29.5 95.5v602z" />
<glyph unicode="&#x143;" horiz-adv-x="1556" d="M86 0v127h88q45 0 45 45v1268h131l735 -1026q22 -32 51 -79.5t48 -78.5l18 -31h4q-10 113 -10 189v901q0 66 29.5 95.5t95.5 29.5h152v-127h-89q-45 0 -45 -45v-1268h-131l-735 1026q-23 31 -52.5 77.5t-48.5 77.5l-18 31h-4q12 -110 12 -186v-901q0 -66 -29 -95.5 t-95 -29.5h-152zM739 1540l144 244h155l-178 -244h-121z" />
<glyph unicode="&#x144;" horiz-adv-x="1245" d="M47 909v121h143q64 0 94.5 -28t30.5 -87v-47l-4 -73h4q16 40 47 81t80 83.5t123.5 69t159.5 26.5q185 0 265.5 -100.5t80.5 -299.5v-489q0 -45 45 -45h86v-121h-145q-66 0 -95.5 29.5t-29.5 95.5v493q0 55 -4 95t-17.5 82t-37 68.5t-65 43.5t-99.5 17 q-131 0 -235.5 -81.5t-139.5 -209.5q-17 -61 -17 -139v-494h-139v864q0 45 -45 45h-86zM588 1196l143 244h156l-178 -244h-121z" />
<glyph unicode="&#x145;" horiz-adv-x="1556" d="M86 0v127h88q45 0 45 45v1268h131l735 -1026q22 -32 51 -79.5t48 -78.5l18 -31h4q-10 113 -10 189v901q0 66 29.5 95.5t95.5 29.5h152v-127h-89q-45 0 -45 -45v-1268h-131l-735 1026q-23 31 -52.5 77.5t-48.5 77.5l-18 31h-4q12 -110 12 -186v-901q0 -66 -29 -95.5 t-95 -29.5h-152zM688 -410q39 95 39 164q0 58 -22 117h126q15 -53 15 -98q0 -76 -49 -183h-109z" />
<glyph unicode="&#x146;" horiz-adv-x="1245" d="M47 909v121h143q64 0 94.5 -28t30.5 -87v-47l-4 -73h4q16 40 47 81t80 83.5t123.5 69t159.5 26.5q185 0 265.5 -100.5t80.5 -299.5v-489q0 -45 45 -45h86v-121h-145q-66 0 -95.5 29.5t-29.5 95.5v493q0 55 -4 95t-17.5 82t-37 68.5t-65 43.5t-99.5 17 q-131 0 -235.5 -81.5t-139.5 -209.5q-17 -61 -17 -139v-494h-139v864q0 45 -45 45h-86zM571 -410q39 95 39 164q0 58 -22 117h127q14 -49 14 -98q0 -76 -49 -183h-109z" />
<glyph unicode="&#x147;" horiz-adv-x="1556" d="M86 0v127h88q45 0 45 45v1268h131l735 -1026q22 -32 51 -79.5t48 -78.5l18 -31h4q-10 113 -10 189v901q0 66 29.5 95.5t95.5 29.5h152v-127h-89q-45 0 -45 -45v-1268h-131l-735 1026q-23 31 -52.5 77.5t-48.5 77.5l-18 31h-4q12 -110 12 -186v-901q0 -66 -29 -95.5 t-95 -29.5h-152zM557 1784h131l111 -164h4l110 164h129l-172 -244h-141z" />
<glyph unicode="&#x148;" horiz-adv-x="1245" d="M47 909v121h143q64 0 94.5 -28t30.5 -87v-47l-4 -73h4q16 40 47 81t80 83.5t123.5 69t159.5 26.5q185 0 265.5 -100.5t80.5 -299.5v-489q0 -45 45 -45h86v-121h-145q-66 0 -95.5 29.5t-29.5 95.5v493q0 55 -4 95t-17.5 82t-37 68.5t-65 43.5t-99.5 17 q-131 0 -235.5 -81.5t-139.5 -209.5q-17 -61 -17 -139v-494h-139v864q0 45 -45 45h-86zM406 1440h131l110 -164h4l111 164h129l-172 -244h-141z" />
<glyph unicode="&#x149;" horiz-adv-x="1294" d="M-18 1159q38 93 38 164q0 58 -22 117h127q14 -49 14 -99q0 -75 -49 -182h-108zM96 909v121h144q64 0 94.5 -28t30.5 -87v-47l-5 -73h5q12 31 33 63.5t57.5 68.5t80.5 64t106.5 46t131.5 18q185 0 265.5 -100.5t80.5 -299.5v-489q0 -45 45 -45h86v-121h-145 q-66 0 -95.5 29.5t-29.5 95.5v493q0 55 -4 95t-17.5 82t-37 68.5t-65 43.5t-99.5 17q-131 0 -235.5 -81.5t-139.5 -209.5q-16 -57 -16 -139v-494h-140v864q0 45 -45 45h-86z" />
<glyph unicode="&#x14a;" horiz-adv-x="1556" d="M86 0v127h88q45 0 45 45v1268h131l735 -1026q22 -32 51 -79.5t48 -78.5l18 -31h4q-10 113 -10 189v901q0 66 29.5 95.5t95.5 29.5h152v-127h-89q-45 0 -45 -45v-1243q0 -98 -25.5 -176.5t-66.5 -127.5t-98 -81.5t-115.5 -46t-122.5 -13.5v133q40 0 78.5 9.5t76.5 31.5 t66.5 55t46 83.5t17.5 113.5v14l-723 1006q-23 31 -52.5 77.5t-48.5 77.5l-18 31h-4q12 -110 12 -186v-901q0 -66 -29 -95.5t-95 -29.5h-152z" />
<glyph unicode="&#x14b;" d="M47 909v121h143q64 0 94.5 -28t30.5 -87v-47l-4 -73h4q16 40 47 81t80 83.5t123.5 69t159.5 26.5q185 0 265.5 -100.5t80.5 -299.5v-702q0 -97 -26.5 -170.5t-65 -112.5t-91 -63t-93 -30.5t-82.5 -6.5q-16 0 -31 1.5t-22 2.5l-7 2v121q18 -2 45 -2q29 0 55.5 4.5t61 21 t59 43.5t41.5 77.5t17 117.5v659q0 55 -4 95t-17.5 82t-37 68.5t-65 43.5t-99.5 17q-131 0 -235.5 -81.5t-139.5 -211.5q-17 -58 -17 -137v-494h-139v864q0 45 -45 45h-86z" />
<glyph unicode="&#x14c;" horiz-adv-x="1619" d="M78 729q0 153 57.5 289.5t155 234t233.5 154.5t287 57t286.5 -57t233.5 -154.5t155.5 -234.5t57.5 -289q0 -155 -57.5 -295t-155.5 -240.5t-234 -159.5t-286 -59q-202 0 -370.5 100t-265.5 273t-97 381zM227 729q0 -128 46 -243t124 -197t186 -130t228 -48q119 0 227 48 t186 130t124.5 197t46.5 243q0 167 -78.5 305t-212.5 216.5t-293 78.5q-160 0 -294 -78.5t-212 -216.5t-78 -305zM553 1608v110h504v-110h-504z" />
<glyph unicode="&#x14d;" horiz-adv-x="1251" d="M82 520q0 149 73 272.5t197.5 193t272.5 69.5q149 0 273.5 -69.5t197.5 -192.5t73 -273q0 -152 -73 -278t-197 -196.5t-272 -70.5q-111 0 -211.5 42t-174 113.5t-116.5 173.5t-43 216zM225 520q0 -178 117.5 -299t284.5 -121q166 0 282.5 121t116.5 299 q0 173 -116.5 290.5t-282.5 117.5q-167 0 -284.5 -117.5t-117.5 -290.5zM375 1264v110h504v-110h-504z" />
<glyph unicode="&#x14e;" horiz-adv-x="1619" d="M78 729q0 153 57.5 289.5t155 234t233.5 154.5t287 57t286.5 -57t233.5 -154.5t155.5 -234.5t57.5 -289q0 -155 -57.5 -295t-155.5 -240.5t-234 -159.5t-286 -59q-202 0 -370.5 100t-265.5 273t-97 381zM227 729q0 -128 46 -243t124 -197t186 -130t228 -48q119 0 227 48 t186 130t124.5 197t46.5 243q0 167 -78.5 305t-212.5 216.5t-293 78.5q-160 0 -294 -78.5t-212 -216.5t-78 -305zM571 1753v31h107v-27q0 -64 36 -95.5t91 -31.5q52 0 88.5 32t36.5 95v27h106v-31q0 -103 -69 -161t-162 -58q-95 0 -164.5 58t-69.5 161z" />
<glyph unicode="&#x14f;" horiz-adv-x="1251" d="M82 520q0 149 73 272.5t197.5 193t272.5 69.5q149 0 273.5 -69.5t197.5 -192.5t73 -273q0 -152 -73 -278t-197 -196.5t-272 -70.5q-111 0 -211.5 42t-174 113.5t-116.5 173.5t-43 216zM225 520q0 -178 117.5 -299t284.5 -121q166 0 282.5 121t116.5 299 q0 173 -116.5 290.5t-282.5 117.5q-167 0 -284.5 -117.5t-117.5 -290.5zM393 1409v31h107v-27q0 -64 36 -95.5t91 -31.5q52 0 88.5 32t36.5 95v27h106v-31q0 -103 -69 -161t-162 -58q-95 0 -164.5 58t-69.5 161z" />
<glyph unicode="&#x150;" horiz-adv-x="1619" d="M78 729q0 153 57.5 289.5t155 234t233.5 154.5t287 57t286.5 -57t233.5 -154.5t155.5 -234.5t57.5 -289q0 -155 -57.5 -295t-155.5 -240.5t-234 -159.5t-286 -59q-202 0 -370.5 100t-265.5 273t-97 381zM227 729q0 -128 46 -243t124 -197t186 -130t228 -48q119 0 227 48 t186 130t124.5 197t46.5 243q0 167 -78.5 305t-212.5 216.5t-293 78.5q-160 0 -294 -78.5t-212 -216.5t-78 -305zM604 1540l135 244h133l-137 -244h-131zM877 1540l143 244h156l-179 -244h-120z" />
<glyph unicode="&#x151;" horiz-adv-x="1251" d="M82 520q0 149 73 272.5t197.5 193t272.5 69.5q149 0 273.5 -69.5t197.5 -192.5t73 -273q0 -152 -73 -278t-197 -196.5t-272 -70.5q-111 0 -211.5 42t-174 113.5t-116.5 173.5t-43 216zM225 520q0 -178 117.5 -299t284.5 -121q166 0 282.5 121t116.5 299 q0 173 -116.5 290.5t-282.5 117.5q-167 0 -284.5 -117.5t-117.5 -290.5zM426 1196l135 244h133l-137 -244h-131zM698 1196l144 244h155l-178 -244h-121z" />
<glyph unicode="&#x152;" horiz-adv-x="1863" d="M78 721q0 205 89 374t248.5 267t356.5 98q50 0 153 -10t138 -10h565q66 0 95.5 -29.5t29.5 -95.5v-144h-133v97q0 45 -45 45h-477v-525h524v-126h-524v-535h536q45 0 45 45v96h133v-143q0 -66 -27.5 -95.5t-86.5 -29.5h-633q-34 0 -138 -10t-155 -10q-148 0 -277.5 57.5 t-220.5 156t-143.5 235.5t-52.5 292zM227 721q0 -171 67 -308.5t192 -216.5t286 -79q119 0 182 14v1176q-72 16 -182 16q-161 0 -286 -79t-192 -216t-67 -307z" />
<glyph unicode="&#x153;" horiz-adv-x="2068" d="M82 512q0 160 74.5 285t197.5 191.5t271 66.5q154 0 277 -74t190 -203h4q60 132 175.5 204.5t264.5 72.5q138 0 237.5 -66t147 -172t47.5 -237l-4 -70h-790q4 -98 37.5 -177t88.5 -129t125 -77t148 -27q53 0 104 13t86.5 32t63.5 37.5t41 31.5l14 13l68 -104 q-6 -6 -17.5 -16t-50 -35.5t-80 -45t-106 -35.5t-129.5 -16q-159 0 -282 75t-187 206h-4q-65 -132 -188.5 -206.5t-280.5 -74.5q-110 0 -209 38.5t-173 107t-117.5 170.5t-43.5 221zM225 512q0 -182 116 -297t284 -115q167 0 283 116.5t116 303.5q0 182 -117 295t-282 113 q-168 0 -284 -116t-116 -300zM1180 621h645q-7 153 -88.5 235t-202.5 82q-132 0 -230.5 -83.5t-123.5 -233.5z" />
<glyph unicode="&#x154;" horiz-adv-x="1239" d="M86 1313v127h610q183 0 298.5 -112t115.5 -298q0 -157 -81.5 -258.5t-197.5 -126.5v-4q30 -16 50 -57l206 -410q14 -30 36.5 -38.5t66.5 -8.5h29v-127h-64q-89 0 -126.5 20t-72.5 89l-206 411q-28 55 -56 70.5t-90 15.5h-242v-606h-143v1313h-133zM362 733h320 q129 0 204 79t75 214q0 133 -74.5 210t-202.5 77h-322v-580zM518 1540l144 244h155l-178 -244h-121z" />
<glyph unicode="&#x155;" horiz-adv-x="739" d="M47 909v121h143q65 0 95 -28t30 -89v-69l-4 -78h4q38 122 123.5 198t202.5 76l55 -6v-137q-24 4 -51 4q-105 0 -184.5 -74t-114.5 -192q-29 -96 -29 -201v-434h-139v864q0 45 -45 45h-86zM317 1196l144 244h155l-178 -244h-121z" />
<glyph unicode="&#x156;" horiz-adv-x="1239" d="M86 1313v127h610q183 0 298.5 -112t115.5 -298q0 -157 -81.5 -258.5t-197.5 -126.5v-4q30 -16 50 -57l206 -410q14 -30 36.5 -38.5t66.5 -8.5h29v-127h-64q-89 0 -126.5 20t-72.5 89l-206 411q-28 55 -56 70.5t-90 15.5h-242v-606h-143v1313h-133zM362 733h320 q129 0 204 79t75 214q0 133 -74.5 210t-202.5 77h-322v-580zM594 -410q39 95 39 164q0 55 -23 117h127q15 -53 15 -98q0 -73 -50 -183h-108z" />
<glyph unicode="&#x157;" horiz-adv-x="739" d="M47 909v121h143q65 0 95 -28t30 -89v-69l-4 -78h4q38 122 123.5 198t202.5 76l55 -6v-137q-24 4 -51 4q-105 0 -184.5 -74t-114.5 -192q-29 -96 -29 -201v-434h-139v864q0 45 -45 45h-86zM174 -410q39 95 39 164q0 55 -23 117h127q15 -52 15 -98q0 -76 -49 -183h-109z " />
<glyph unicode="&#x158;" horiz-adv-x="1239" d="M86 1313v127h610q183 0 298.5 -112t115.5 -298q0 -157 -81.5 -258.5t-197.5 -126.5v-4q30 -16 50 -57l206 -410q14 -30 36.5 -38.5t66.5 -8.5h29v-127h-64q-89 0 -126.5 20t-72.5 89l-206 411q-28 55 -56 70.5t-90 15.5h-242v-606h-143v1313h-133zM336 1784h131l111 -164 h4l110 164h129l-172 -244h-141zM362 733h320q129 0 204 79t75 214q0 133 -74.5 210t-202.5 77h-322v-580z" />
<glyph unicode="&#x159;" horiz-adv-x="739" d="M47 909v121h143q65 0 95 -28t30 -89v-69l-4 -78h4q38 122 123.5 198t202.5 76l55 -6v-137q-24 4 -51 4q-105 0 -184.5 -74t-114.5 -192q-29 -96 -29 -201v-434h-139v864q0 45 -45 45h-86zM137 1440h131l111 -164h4l111 164h129l-172 -244h-142z" />
<glyph unicode="&#x15a;" horiz-adv-x="1060" d="M76 180l88 105q6 -7 17 -19t48.5 -42.5t78 -53.5t103 -42t126.5 -19q121 0 202.5 71.5t81.5 184.5q0 57 -24.5 104t-65.5 81t-94 63.5t-112 56.5t-118 54.5t-112 63t-94 77t-65.5 101t-24.5 130.5q0 155 122.5 261.5t317.5 106.5q58 0 120.5 -13t125 -39.5t103 -77.5 t40.5 -117v-103h-135v68q0 63 -75 106t-177 43q-135 0 -215 -67.5t-80 -163.5q0 -53 24.5 -97t65.5 -75t94.5 -59t112.5 -53.5t117.5 -53.5t112 -64t94.5 -80t65.5 -106.5t24.5 -138.5q0 -108 -52 -198t-153 -145t-232 -55q-83 0 -160 21t-128.5 51t-91 60.5t-58.5 51.5z M481 1540l144 244h155l-178 -244h-121z" />
<glyph unicode="&#x15b;" horiz-adv-x="901" d="M59 156l80 96q5 -6 14 -16.5t39.5 -37.5t65 -47.5t88.5 -37.5t111 -17q92 0 154.5 43t62.5 121q0 45 -32 81.5t-83 61.5t-112.5 49.5t-123 52.5t-112.5 62.5t-83 88t-32 120.5q0 135 102.5 207t264.5 72q44 0 93.5 -9.5t101 -29t85 -58.5t33.5 -90v-88h-131v49 q0 51 -57.5 78t-120.5 27q-109 0 -169 -38t-60 -112q0 -47 32 -83.5t82.5 -61.5t112 -48.5t123.5 -51.5t112.5 -62.5t82.5 -89t32 -123.5q0 -128 -102.5 -208.5t-257.5 -80.5q-75 0 -143.5 18.5t-112.5 45t-77 53.5t-48 46zM387 1196l143 244h156l-178 -244h-121z" />
<glyph unicode="&#x15c;" horiz-adv-x="1060" d="M76 180l88 105q6 -7 17 -19t48.5 -42.5t78 -53.5t103 -42t126.5 -19q121 0 202.5 71.5t81.5 184.5q0 57 -24.5 104t-65.5 81t-94 63.5t-112 56.5t-118 54.5t-112 63t-94 77t-65.5 101t-24.5 130.5q0 155 122.5 261.5t317.5 106.5q58 0 120.5 -13t125 -39.5t103 -77.5 t40.5 -117v-103h-135v68q0 63 -75 106t-177 43q-135 0 -215 -67.5t-80 -163.5q0 -53 24.5 -97t65.5 -75t94.5 -59t112.5 -53.5t117.5 -53.5t112 -64t94.5 -80t65.5 -106.5t24.5 -138.5q0 -108 -52 -198t-153 -145t-232 -55q-83 0 -160 21t-128.5 51t-91 60.5t-58.5 51.5z M301 1540l170 244h143l170 -244h-129l-110 166h-4l-111 -166h-129z" />
<glyph unicode="&#x15d;" horiz-adv-x="901" d="M59 156l80 96q5 -6 14 -16.5t39.5 -37.5t65 -47.5t88.5 -37.5t111 -17q92 0 154.5 43t62.5 121q0 45 -32 81.5t-83 61.5t-112.5 49.5t-123 52.5t-112.5 62.5t-83 88t-32 120.5q0 135 102.5 207t264.5 72q44 0 93.5 -9.5t101 -29t85 -58.5t33.5 -90v-88h-131v49 q0 51 -57.5 78t-120.5 27q-109 0 -169 -38t-60 -112q0 -47 32 -83.5t82.5 -61.5t112 -48.5t123.5 -51.5t112.5 -62.5t82.5 -89t32 -123.5q0 -128 -102.5 -208.5t-257.5 -80.5q-75 0 -143.5 18.5t-112.5 45t-77 53.5t-48 46zM207 1196l170 244h143l170 -244h-129l-110 166h-5 l-110 -166h-129z" />
<glyph unicode="&#x15e;" horiz-adv-x="1060" d="M76 180l88 105q6 -7 17 -19t48.5 -42.5t78 -53.5t103 -42t126.5 -19q121 0 202.5 71.5t81.5 184.5q0 57 -24.5 104t-65.5 81t-94 63.5t-112 56.5t-118 54.5t-112 63t-94 77t-65.5 101t-24.5 130.5q0 155 122.5 261.5t317.5 106.5q58 0 120.5 -13t125 -39.5t103 -77.5 t40.5 -117v-103h-135v68q0 63 -75 106t-177 43q-135 0 -215 -67.5t-80 -163.5q0 -53 24.5 -97t65.5 -75t94.5 -59t112.5 -53.5t117.5 -53.5t112 -64t94.5 -80t65.5 -106.5t24.5 -138.5q0 -160 -110 -274t-294 -124l-16 -88q65 -9 104 -47t39 -98q0 -83 -56 -122.5 t-140 -39.5q-26 0 -51.5 2.5t-37.5 5.5l-12 2v99q39 -13 84 -13q105 0 105 70q0 33 -31 51.5t-86 18.5l-31 -2l39 166q-72 6 -140 29t-113 51.5t-79.5 55.5t-50.5 46z" />
<glyph unicode="&#x15f;" horiz-adv-x="901" d="M59 156l80 96q5 -6 14 -16.5t39.5 -37.5t65 -47.5t88.5 -37.5t111 -17q92 0 154.5 43t62.5 121q0 45 -32 81.5t-83 61.5t-112.5 49.5t-123 52.5t-112.5 62.5t-83 88t-32 120.5q0 135 102.5 207t264.5 72q44 0 93.5 -9.5t101 -29t85 -58.5t33.5 -90v-88h-131v49 q0 51 -57.5 78t-120.5 27q-109 0 -169 -38t-60 -112q0 -47 32 -83.5t82.5 -61.5t112 -48.5t123.5 -51.5t112.5 -62.5t82.5 -89t32 -123.5q0 -125 -96.5 -204t-247.5 -85l-16 -88q65 -9 104 -47t39 -98q0 -83 -56.5 -122.5t-140.5 -39.5q-26 0 -51 2.5t-37 5.5l-12 2v99 q39 -13 84 -13q104 0 104 70q0 33 -31 51.5t-85 18.5l-31 -2l39 168q-61 7 -116.5 27.5t-91 44.5t-63 47.5t-39.5 38.5z" />
<glyph unicode="&#x160;" horiz-adv-x="1060" d="M76 180l88 105q6 -7 17 -19t48.5 -42.5t78 -53.5t103 -42t126.5 -19q121 0 202.5 71.5t81.5 184.5q0 57 -24.5 104t-65.5 81t-94 63.5t-112 56.5t-118 54.5t-112 63t-94 77t-65.5 101t-24.5 130.5q0 155 122.5 261.5t317.5 106.5q58 0 120.5 -13t125 -39.5t103 -77.5 t40.5 -117v-103h-135v68q0 63 -75 106t-177 43q-135 0 -215 -67.5t-80 -163.5q0 -53 24.5 -97t65.5 -75t94.5 -59t112.5 -53.5t117.5 -53.5t112 -64t94.5 -80t65.5 -106.5t24.5 -138.5q0 -108 -52 -198t-153 -145t-232 -55q-83 0 -160 21t-128.5 51t-91 60.5t-58.5 51.5z M301 1784h131l111 -164h4l110 164h129l-172 -244h-141z" />
<glyph unicode="&#x161;" horiz-adv-x="901" d="M59 156l80 96q5 -6 14 -16.5t39.5 -37.5t65 -47.5t88.5 -37.5t111 -17q92 0 154.5 43t62.5 121q0 45 -32 81.5t-83 61.5t-112.5 49.5t-123 52.5t-112.5 62.5t-83 88t-32 120.5q0 135 102.5 207t264.5 72q44 0 93.5 -9.5t101 -29t85 -58.5t33.5 -90v-88h-131v49 q0 51 -57.5 78t-120.5 27q-109 0 -169 -38t-60 -112q0 -47 32 -83.5t82.5 -61.5t112 -48.5t123.5 -51.5t112.5 -62.5t82.5 -89t32 -123.5q0 -128 -102.5 -208.5t-257.5 -80.5q-75 0 -143.5 18.5t-112.5 45t-77 53.5t-48 46zM207 1440h131l111 -164h4l110 164h129l-172 -244 h-141z" />
<glyph unicode="&#x162;" horiz-adv-x="1269" d="M31 1171v152q0 66 25 91.5t91 25.5h975q66 0 91.5 -25.5t25.5 -91.5v-152h-133v97q0 45 -45 45h-354v-1313h-29l-21 -113q65 -9 104.5 -47t39.5 -98q0 -83 -56.5 -122.5t-140.5 -39.5q-26 0 -51.5 2.5t-38.5 5.5l-12 2v99q39 -13 86 -13q104 0 104 70q0 33 -31 51.5 t-86 18.5l-30 -2l43 186h-25v1313h-356q-45 0 -45 -45v-97h-131z" />
<glyph unicode="&#x163;" horiz-adv-x="686" d="M55 913v117h138v285h137v-285h258v-117h-258v-524q0 -69 17 -121t41.5 -80t58 -45t60 -21.5t54.5 -4.5l47 4v-125q-24 -4 -59 -4q-51 0 -100 10l-21 -115q65 -9 104 -47t39 -98q0 -83 -56 -122.5t-140 -39.5q-26 0 -51.5 2.5t-37.5 5.5l-12 2v99q39 -13 84 -13 q105 0 105 70q0 33 -31 51.5t-86 18.5l-31 -2l52 215q-177 85 -177 346v538h-135z" />
<glyph unicode="&#x164;" horiz-adv-x="1269" d="M31 1171v152q0 66 25 91.5t91 25.5h975q66 0 91.5 -25.5t25.5 -91.5v-152h-133v97q0 24 -10.5 34.5t-34.5 10.5h-354v-1313h-144v1313h-356q-45 0 -45 -45v-97h-131zM393 1784h131l111 -164h4l111 164h129l-172 -244h-142z" />
<glyph unicode="&#x165;" horiz-adv-x="712" d="M57 913v117h138v285h137v-285h258v-117h-258v-524q0 -69 17 -121t41.5 -80t58 -45t60 -21.5t54.5 -4.5l47 4v-125q-24 -4 -59 -4q-43 0 -83.5 6.5t-93 30t-90.5 62.5t-64.5 112.5t-26.5 171.5v538h-136zM455 1159q39 95 39 164q0 55 -23 117h127q14 -49 14 -99 q0 -75 -49 -182h-108z" />
<glyph unicode="&#x166;" horiz-adv-x="1269" d="M31 1171v152q0 66 25 91.5t91 25.5h975q66 0 91.5 -25.5t25.5 -91.5v-152h-133v97q0 24 -10.5 34.5t-34.5 10.5h-354v-533h337v-116h-337v-664h-144v664h-330v116h330v533h-356q-45 0 -45 -45v-97h-131z" />
<glyph unicode="&#x167;" horiz-adv-x="686" d="M55 569v109h135v235h-135v117h138v285h137v-285h258v-117h-258v-235h258v-109h-258v-184q0 -67 17 -118t41.5 -78.5t58 -44.5t60 -22t54.5 -5l47 4v-125q-24 -4 -59 -4q-29 0 -57.5 3t-65.5 13t-68.5 26.5t-63.5 46t-54 68t-36 97t-14 129.5v194h-135z" />
<glyph unicode="&#x168;" horiz-adv-x="1468" d="M70 1313v127h151q66 0 95.5 -29.5t29.5 -95.5v-815q0 -180 105 -284.5t282 -104.5q178 0 283.5 105.5t105.5 287.5v811q0 66 29.5 95.5t95.5 29.5h152v-127h-88q-45 0 -45 -45v-774q0 -233 -146.5 -376t-384.5 -143t-385 143t-147 376v774q0 45 -45 45h-88zM414 1546 q0 240 190 240q38 0 70 -15t54 -37t42 -44t43.5 -37t48.5 -15q24 0 41 14t25.5 37.5t12 45.5t3.5 45h109q0 -118 -48.5 -179t-142.5 -61q-47 0 -86 23t-61 50t-52 50t-61 23q-45 0 -63.5 -43.5t-18.5 -96.5h-106z" />
<glyph unicode="&#x169;" d="M43 909v121h145q66 0 95.5 -29t29.5 -92v-497q0 -54 4 -94.5t18 -82.5t38 -68.5t66 -43.5t100 -17q85 0 157 36t120 96t75 137.5t27 161.5v493h139v-864q0 -45 45 -45h86v-121h-141q-64 0 -94.5 28t-30.5 87v47l4 74h-4q-17 -41 -49.5 -83.5t-81.5 -84t-120 -67.5 t-151 -26q-181 0 -263.5 98t-82.5 302v489q0 45 -45 45h-86zM281 1202q0 240 190 240q38 0 70 -15t54 -37t42 -44t43.5 -37t48.5 -15q24 0 41 14t25.5 37.5t12 45.5t3.5 45h109q0 -118 -48.5 -179t-142.5 -61q-38 0 -70.5 15t-54.5 36t-42 42.5t-43.5 36.5t-49.5 15 q-45 0 -63.5 -43t-18.5 -96h-106z" />
<glyph unicode="&#x16a;" horiz-adv-x="1468" d="M70 1313v127h151q66 0 95.5 -29.5t29.5 -95.5v-815q0 -180 105 -284.5t282 -104.5q178 0 283.5 105.5t105.5 287.5v811q0 66 29.5 95.5t95.5 29.5h152v-127h-88q-45 0 -45 -45v-774q0 -233 -146.5 -376t-384.5 -143t-385 143t-147 376v774q0 45 -45 45h-88zM485 1608v110 h504v-110h-504z" />
<glyph unicode="&#x16b;" d="M43 909v121h145q66 0 95.5 -29t29.5 -92v-497q0 -54 4 -94.5t18 -82.5t38 -68.5t66 -43.5t100 -17q85 0 157 36t120 96t75 137.5t27 161.5v493h139v-864q0 -45 45 -45h86v-121h-141q-64 0 -94.5 28t-30.5 87v47l4 74h-4q-17 -41 -49.5 -83.5t-81.5 -84t-120 -67.5 t-151 -26q-181 0 -263.5 98t-82.5 302v489q0 45 -45 45h-86zM352 1264v110h504v-110h-504z" />
<glyph unicode="&#x16c;" horiz-adv-x="1468" d="M70 1313v127h151q66 0 95.5 -29.5t29.5 -95.5v-815q0 -180 105 -284.5t282 -104.5q178 0 283.5 105.5t105.5 287.5v811q0 66 29.5 95.5t95.5 29.5h152v-127h-88q-45 0 -45 -45v-774q0 -233 -146.5 -376t-384.5 -143t-385 143t-147 376v774q0 45 -45 45h-88zM504 1753v31 h106v-27q0 -64 36 -95.5t91 -31.5q52 0 88.5 32t36.5 95v27h107v-31q0 -103 -69.5 -161t-162.5 -58q-95 0 -164 58t-69 161z" />
<glyph unicode="&#x16d;" d="M43 909v121h145q66 0 95.5 -29t29.5 -92v-497q0 -54 4 -94.5t18 -82.5t38 -68.5t66 -43.5t100 -17q85 0 157 36t120 96t75 137.5t27 161.5v493h139v-864q0 -45 45 -45h86v-121h-141q-64 0 -94.5 28t-30.5 87v47l4 74h-4q-17 -41 -49.5 -83.5t-81.5 -84t-120 -67.5 t-151 -26q-181 0 -263.5 98t-82.5 302v489q0 45 -45 45h-86zM371 1409v31h106v-27q0 -64 36 -95.5t91 -31.5q52 0 88.5 32t36.5 95v27h107v-31q0 -103 -69.5 -161t-162.5 -58q-95 0 -164 58t-69 161z" />
<glyph unicode="&#x16e;" horiz-adv-x="1468" d="M70 1313v127h151q66 0 95.5 -29.5t29.5 -95.5v-815q0 -180 105 -284.5t282 -104.5q178 0 283.5 105.5t105.5 287.5v811q0 66 29.5 95.5t95.5 29.5h152v-127h-88q-45 0 -45 -45v-774q0 -233 -146.5 -376t-384.5 -143t-385 143t-147 376v774q0 45 -45 45h-88zM586 1663 q0 63 44 104t107 41t107.5 -41t44.5 -104t-44.5 -104t-107.5 -41t-107 41t-44 104zM670 1663q0 -30 18.5 -49t48.5 -19q29 0 48.5 19.5t19.5 48.5q0 31 -19.5 50.5t-48.5 19.5t-48 -19.5t-19 -50.5z" />
<glyph unicode="&#x16f;" d="M43 909v121h145q66 0 95.5 -29t29.5 -92v-497q0 -54 4 -94.5t18 -82.5t38 -68.5t66 -43.5t100 -17q85 0 157 36t120 96t75 137.5t27 161.5v493h139v-864q0 -45 45 -45h86v-121h-141q-64 0 -94.5 28t-30.5 87v47l4 74h-4q-17 -41 -49.5 -83.5t-81.5 -84t-120 -67.5 t-151 -26q-181 0 -263.5 98t-82.5 302v489q0 45 -45 45h-86zM453 1319q0 63 44 104t107 41t107.5 -41t44.5 -104t-44.5 -104t-107.5 -41t-107 41t-44 104zM537 1319q0 -30 18.5 -49t48.5 -19q29 0 48.5 19.5t19.5 48.5q0 31 -19.5 50.5t-48.5 19.5t-48 -19.5t-19 -50.5z" />
<glyph unicode="&#x170;" horiz-adv-x="1468" d="M70 1313v127h151q66 0 95.5 -29.5t29.5 -95.5v-815q0 -180 105 -284.5t282 -104.5q178 0 283.5 105.5t105.5 287.5v811q0 66 29.5 95.5t95.5 29.5h152v-127h-88q-45 0 -45 -45v-774q0 -233 -146.5 -376t-384.5 -143t-385 143t-147 376v774q0 45 -45 45h-88zM537 1540 l135 244h133l-137 -244h-131zM809 1540l143 244h156l-178 -244h-121z" />
<glyph unicode="&#x171;" d="M43 909v121h145q66 0 95.5 -29t29.5 -92v-497q0 -54 4 -94.5t18 -82.5t38 -68.5t66 -43.5t100 -17q85 0 157 36t120 96t75 137.5t27 161.5v493h139v-864q0 -45 45 -45h86v-121h-141q-64 0 -94.5 28t-30.5 87v47l4 74h-4q-17 -41 -49.5 -83.5t-81.5 -84t-120 -67.5 t-151 -26q-181 0 -263.5 98t-82.5 302v489q0 45 -45 45h-86zM403 1196l136 244h133l-137 -244h-132zM676 1196l143 244h156l-178 -244h-121z" />
<glyph unicode="&#x172;" horiz-adv-x="1468" d="M70 1313v127h151q66 0 95.5 -29.5t29.5 -95.5v-815q0 -180 105 -284.5t282 -104.5q178 0 283.5 105.5t105.5 287.5v811q0 66 29.5 95.5t95.5 29.5h152v-127h-88q-45 0 -45 -45v-787q0 -298 -279 -454q-81 -47 -137.5 -106t-56.5 -124q0 -26 13 -46t31.5 -30t37.5 -16.5 t32 -8.5l13 -1l-33 -115q-5 0 -13 1t-31.5 6t-44.5 12.5t-47 22t-44.5 33.5t-31.5 48.5t-13 65.5q0 108 106 206v5q-23 -3 -41 -3q-233 0 -378.5 143.5t-145.5 373.5v774q0 45 -45 45h-88z" />
<glyph unicode="&#x173;" d="M43 909v121h145q81 0 103 -38t22 -140v-440q0 -54 4 -94.5t18 -82.5t38 -68.5t66 -43.5t100 -17q85 0 157 36t120 96t75 137.5t27 161.5v493h139v-864q0 -45 45 -45h86v-121q-148 -120 -148 -203q0 -41 32 -66.5t64 -30.5l31 -5l-30 -115q-5 0 -13 1t-31.5 6t-45 12.5 t-47.5 22t-44.5 33.5t-31.5 48.5t-13 65.5q0 70 42 130t96 99v4h-23q-104 0 -104 113v47l4 71h-6q-2 -5 -6.5 -14.5t-20.5 -36.5t-36 -51t-54 -54t-73 -51.5t-94 -36t-116 -14.5q-181 0 -263.5 98t-82.5 302v489q0 45 -45 45h-86z" />
<glyph unicode="&#x174;" horiz-adv-x="1935" d="M35 1313v127h63q81 0 118.5 -23.5t55.5 -95.5l250 -993l31 -154h4q19 80 39 154l317 1106h142l288 -1106q9 -33 17 -71.5t12 -60.5l4 -22h4q15 80 33 154l250 993q18 72 55.5 95.5t118.5 23.5h64v-127h-23q-34 0 -51.5 -9t-24.5 -36l-332 -1268h-170l-268 1001 q-11 41 -23 94t-18 86l-6 33h-4q-24 -118 -51 -210l-295 -1004h-170l-330 1268q-7 27 -25 36t-51 9h-24zM741 1540l170 244h144l170 -244h-129l-111 166h-4l-111 -166h-129z" />
<glyph unicode="&#x175;" horiz-adv-x="1708" d="M20 909v121h72q75 0 107 -22t55 -93l211 -653l31 -110h4q16 61 32 110l252 764h140l252 -764l32 -110h4q13 59 29 110l213 653q23 71 55 93t107 22h72v-121h-29q-57 0 -72 -47l-295 -862h-153l-252 733l-31 111h-4q-15 -60 -33 -111l-250 -733h-155l-295 862 q-15 47 -72 47h-27zM612 1196l170 244h144l170 -244h-129l-111 166h-4l-111 -166h-129z" />
<glyph unicode="&#x176;" horiz-adv-x="1212" d="M20 1313v127h56q76 0 114 -21t82 -94l244 -407q20 -34 42 -74.5t34 -63.5l12 -24h4q43 86 88 162l244 407q44 73 82.5 94t114.5 21h55v-127h-33q-33 0 -54.5 -11t-39.5 -42l-387 -633v-627h-143v627l-385 633q-19 31 -41 42t-56 11h-33zM367 1540l170 244h143l170 -244 h-129l-111 166h-4l-110 -166h-129z" />
<glyph unicode="&#x177;" horiz-adv-x="1103" d="M16 -330l66 103q0 -3 19 -21t57.5 -37.5t77.5 -19.5q120 0 190 168l61 141l-362 858q-12 27 -27.5 37t-44.5 10h-20v121h63q69 0 99.5 -21.5t58.5 -90.5l264 -644l37 -110h4q15 59 35 110l254 644q26 69 57.5 90.5t102.5 21.5h63v-121h-20q-29 0 -45.5 -10t-26.5 -37 l-444 -1077q-41 -100 -117.5 -157.5t-177.5 -57.5q-40 0 -78 10.5t-63 25t-45 29t-29 25.5zM307 1196l170 244h144l170 -244h-129l-111 166h-4l-111 -166h-129z" />
<glyph unicode="&#x178;" horiz-adv-x="1212" d="M20 1313v127h56q76 0 114 -21t82 -94l244 -407q20 -34 42 -74.5t34 -63.5l12 -24h4q43 86 88 162l244 407q44 73 82.5 94t114.5 21h55v-127h-33q-33 0 -54.5 -11t-39.5 -42l-387 -633v-627h-143v627l-385 633q-19 31 -41 42t-56 11h-33zM395 1608v176h121v-176h-121z M702 1608v176h121v-176h-121z" />
<glyph unicode="&#x179;" horiz-adv-x="1177" d="M39 0v100l772 1082q24 34 50 66.5t40 48.5l14 16v4q-34 -4 -104 -4h-573q-45 0 -45 -45v-97h-134v144q0 66 29.5 95.5t95.5 29.5h908v-101l-770 -1081q-24 -34 -50.5 -66.5t-41.5 -48.5l-15 -16v-4q35 4 107 4h620q45 0 45 45v96h133v-143q0 -66 -29.5 -95.5t-95.5 -29.5 h-956zM537 1540l143 244h156l-179 -244h-120z" />
<glyph unicode="&#x17a;" horiz-adv-x="1021" d="M80 0v90l579 723q17 22 37.5 45.5t32.5 35.5l12 13v4q-34 -4 -102 -4h-377q-45 0 -45 -45v-80h-131v123q0 66 29.5 95.5t95.5 29.5h715v-92l-578 -721q-18 -22 -39.5 -45.5t-34.5 -35.5l-12 -13v-4q37 4 105 4h426q45 0 45 45v80h131v-123q0 -66 -29.5 -95.5t-95.5 -29.5 h-764zM467 1196l143 244h156l-178 -244h-121z" />
<glyph unicode="&#x17b;" horiz-adv-x="1177" d="M39 0v100l772 1082q24 34 50 66.5t40 48.5l14 16v4q-34 -4 -104 -4h-573q-45 0 -45 -45v-97h-134v144q0 66 29.5 95.5t95.5 29.5h908v-101l-770 -1081q-24 -34 -50.5 -66.5t-41.5 -48.5l-15 -16v-4q35 4 107 4h620q45 0 45 45v96h133v-143q0 -66 -29.5 -95.5t-95.5 -29.5 h-956zM530 1608v176h136v-176h-136z" />
<glyph unicode="&#x17c;" horiz-adv-x="1021" d="M80 0v90l579 723q17 22 37.5 45.5t32.5 35.5l12 13v4q-34 -4 -102 -4h-377q-45 0 -45 -45v-80h-131v123q0 66 29.5 95.5t95.5 29.5h715v-92l-578 -721q-18 -22 -39.5 -45.5t-34.5 -35.5l-12 -13v-4q37 4 105 4h426q45 0 45 45v80h131v-123q0 -66 -29.5 -95.5t-95.5 -29.5 h-764zM461 1264v176h135v-176h-135z" />
<glyph unicode="&#x17d;" horiz-adv-x="1177" d="M39 0v100l772 1082q24 34 50 66.5t40 48.5l14 16v4q-34 -4 -104 -4h-573q-45 0 -45 -45v-97h-134v144q0 66 29.5 95.5t95.5 29.5h908v-101l-770 -1081q-24 -34 -50.5 -66.5t-41.5 -48.5l-15 -16v-4q35 4 107 4h620q45 0 45 45v96h133v-143q0 -66 -29.5 -95.5t-95.5 -29.5 h-956zM356 1784h131l111 -164h4l111 164h129l-172 -244h-142z" />
<glyph unicode="&#x17e;" horiz-adv-x="1021" d="M80 0v90l579 723q17 22 37.5 45.5t32.5 35.5l12 13v4q-34 -4 -102 -4h-377q-45 0 -45 -45v-80h-131v123q0 66 29.5 95.5t95.5 29.5h715v-92l-578 -721q-18 -22 -39.5 -45.5t-34.5 -35.5l-12 -13v-4q37 4 105 4h426q45 0 45 45v80h131v-123q0 -66 -29.5 -95.5t-95.5 -29.5 h-764zM285 1440h131l110 -164h4l111 164h129l-172 -244h-141z" />
<glyph unicode="&#x17f;" horiz-adv-x="624" d="M51 913v117h129v37q0 81 18 146t49 105t66.5 67.5t78.5 41t76 18.5t67 5l63 -4v-125q-18 4 -49 4q-28 0 -54.5 -4.5t-60 -20.5t-57.5 -42.5t-41 -76t-17 -114.5v-1067h-139v913h-129z" />
<glyph unicode="&#x192;" horiz-adv-x="708" d="M-109 -111l13 123q18 -4 47 -4q28 0 54.5 4.5t61.5 21.5t61.5 44t47.5 77.5t27 116.5l41 473h-162v119h174l18 203q8 97 41 170t74 112.5t95 63.5t95 30.5t83 6.5l63 -4l-12 -125q-18 4 -47 4t-56 -4.5t-62 -21t-61 -43.5t-47 -77.5t-28 -117.5l-19 -197h223v-119h-233 l-41 -479q-9 -97 -42 -169.5t-74 -112t-95 -63t-95 -30t-83 -6.5z" />
<glyph unicode="&#x218;" horiz-adv-x="1060" d="M76 180l88 105q6 -7 17 -19t48.5 -42.5t78 -53.5t103 -42t126.5 -19q121 0 202.5 71.5t81.5 184.5q0 57 -24.5 104t-65.5 81t-94 63.5t-112 56.5t-118 54.5t-112 63t-94 77t-65.5 101t-24.5 130.5q0 155 122.5 261.5t317.5 106.5q58 0 120.5 -13t125 -39.5t103 -77.5 t40.5 -117v-103h-135v68q0 63 -75 106t-177 43q-135 0 -215 -67.5t-80 -163.5q0 -53 24.5 -97t65.5 -75t94.5 -59t112.5 -53.5t117.5 -53.5t112 -64t94.5 -80t65.5 -106.5t24.5 -138.5q0 -108 -52 -198t-153 -145t-232 -55q-83 0 -160 21t-128.5 51t-91 60.5t-58.5 51.5z M453 -410q39 95 39 164q0 55 -23 117h127q14 -49 14 -98q0 -76 -49 -183h-108z" />
<glyph unicode="&#x219;" horiz-adv-x="901" d="M59 156l80 96q5 -6 14 -16.5t39.5 -37.5t65 -47.5t88.5 -37.5t111 -17q92 0 154.5 43t62.5 121q0 45 -32 81.5t-83 61.5t-112.5 49.5t-123 52.5t-112.5 62.5t-83 88t-32 120.5q0 135 102.5 207t264.5 72q44 0 93.5 -9.5t101 -29t85 -58.5t33.5 -90v-88h-131v49 q0 51 -57.5 78t-120.5 27q-109 0 -169 -38t-60 -112q0 -47 32 -83.5t82.5 -61.5t112 -48.5t123.5 -51.5t112.5 -62.5t82.5 -89t32 -123.5q0 -128 -102.5 -208.5t-257.5 -80.5q-75 0 -143.5 18.5t-112.5 45t-77 53.5t-48 46zM367 -410q39 95 39 164q0 55 -23 117h127 q14 -49 14 -98q0 -76 -49 -183h-108z" />
<glyph unicode="&#x21a;" horiz-adv-x="1269" d="M31 1171v152q0 66 25 91.5t91 25.5h975q66 0 91.5 -25.5t25.5 -91.5v-152h-133v97q0 24 -10.5 34.5t-34.5 10.5h-354v-1313h-144v1313h-356q-45 0 -45 -45v-97h-131zM551 -410q39 95 39 164q0 55 -23 117h127q15 -53 15 -98q0 -73 -50 -183h-108z" />
<glyph unicode="&#x21b;" horiz-adv-x="686" d="M55 913v117h138v285h137v-285h258v-117h-258v-524q0 -69 17 -121t41.5 -80t58 -45t60 -21.5t54.5 -4.5l47 4v-125q-24 -4 -59 -4q-29 0 -57.5 3t-65.5 13t-68.5 26.5t-63.5 46t-54 68t-36 97t-14 129.5v538h-135zM311 -410q39 95 39 164q0 58 -22 117h127q14 -49 14 -98 q0 -76 -49 -183h-109z" />
<glyph unicode="&#x2c6;" horiz-adv-x="962" d="M240 1540l170 244h143l170 -244h-129l-111 166h-4l-110 -166h-129z" />
<glyph unicode="&#x2c7;" horiz-adv-x="970" d="M238 1784h131l110 -164h4l111 164h129l-172 -244h-141z" />
<glyph unicode="&#x2d8;" horiz-adv-x="993" d="M244 1753v31h106v-27q0 -64 36 -95.5t91 -31.5q52 0 88.5 32t36.5 95v27h107v-31q0 -103 -69.5 -161t-162.5 -58q-95 0 -164 58t-69 161z" />
<glyph unicode="&#x2d9;" horiz-adv-x="456" d="M160 1608v176h135v-176h-135z" />
<glyph unicode="&#x2da;" horiz-adv-x="770" d="M233 1663q0 63 44.5 104t107.5 41t107.5 -41t44.5 -104t-44.5 -104t-107.5 -41t-107.5 41t-44.5 104zM317 1663q0 -30 19 -49t49 -19q29 0 48.5 19.5t19.5 48.5q0 31 -19.5 50.5t-48.5 19.5t-48.5 -19.5t-19.5 -50.5z" />
<glyph unicode="&#x2db;" horiz-adv-x="702" d="M215 -231q0 45 19.5 89.5t48 76t56.5 56t47 36.5l20 12l108 -23q-7 -5 -18.5 -13t-40.5 -33.5t-51.5 -50.5t-41 -59t-18.5 -63q0 -41 32 -66.5t64 -30.5l31 -5l-31 -115q-5 0 -13 1t-31.5 6t-44.5 12.5t-47 22t-44.5 33.5t-31.5 48.5t-13 65.5z" />
<glyph unicode="&#x2dc;" horiz-adv-x="1007" d="M182 1546q0 240 191 240q38 0 70 -15t54 -37t42 -44t43.5 -37t48.5 -15q24 0 41 14t25.5 37.5t12 45.5t3.5 45h108q0 -240 -190 -240q-47 0 -86 23t-61 50t-52 50t-61 23q-45 0 -63.5 -43.5t-18.5 -96.5h-107z" />
<glyph unicode="&#x2dd;" horiz-adv-x="1056" d="M215 1540l135 244h133l-137 -244h-131zM487 1540l144 244h155l-178 -244h-121z" />
<glyph unicode="&#x1e9e;" horiz-adv-x="1271" d="M70 0v127h88q45 0 45 45v885q0 163 110.5 273t274.5 110h540v-99l-321 -456l-53 -72v-4h63q157 -6 264 -123.5t107 -275.5q0 -169 -121 -289.5t-291 -120.5h-194v127h186q119 0 195.5 83t76.5 200t-75.5 198.5t-192.5 81.5h-186v101l278 401q27 41 49.5 71t31.5 40l9 10 v4q-14 -4 -88 -4h-268q-111 0 -181.5 -73t-70.5 -181v-934q0 -66 -29.5 -95.5t-95.5 -29.5h-151z" />
<glyph unicode="&#x2000;" horiz-adv-x="904" />
<glyph unicode="&#x2001;" horiz-adv-x="1808" />
<glyph unicode="&#x2002;" horiz-adv-x="904" />
<glyph unicode="&#x2003;" horiz-adv-x="1808" />
<glyph unicode="&#x2004;" horiz-adv-x="602" />
<glyph unicode="&#x2005;" horiz-adv-x="452" />
<glyph unicode="&#x2006;" horiz-adv-x="301" />
<glyph unicode="&#x2007;" horiz-adv-x="301" />
<glyph unicode="&#x2008;" horiz-adv-x="226" />
<glyph unicode="&#x2009;" horiz-adv-x="361" />
<glyph unicode="&#x200a;" horiz-adv-x="100" />
<glyph unicode="&#x2010;" horiz-adv-x="884" d="M152 518v127h581v-127h-581z" />
<glyph unicode="&#x2011;" horiz-adv-x="884" d="M152 518v127h581v-127h-581z" />
<glyph unicode="&#x2012;" horiz-adv-x="884" d="M152 518v127h581v-127h-581z" />
<glyph unicode="&#x2013;" horiz-adv-x="1314" d="M145 522v119h1024v-119h-1024z" />
<glyph unicode="&#x2014;" horiz-adv-x="1724" d="M145 522v119h1434v-119h-1434z" />
<glyph unicode="&#x2018;" horiz-adv-x="434" d="M104 1106l115 352h111l-80 -352h-146z" />
<glyph unicode="&#x2019;" horiz-adv-x="434" d="M104 1108l80 352h146l-115 -352h-111z" />
<glyph unicode="&#x201a;" horiz-adv-x="434" d="M104 -184l80 352h146l-115 -352h-111z" />
<glyph unicode="&#x201c;" horiz-adv-x="675" d="M104 1106l115 352h111l-80 -352h-146zM346 1106l115 352h110l-79 -352h-146z" />
<glyph unicode="&#x201d;" horiz-adv-x="675" d="M104 1108l80 352h146l-115 -352h-111zM346 1108l80 352h145l-114 -352h-111z" />
<glyph unicode="&#x201e;" horiz-adv-x="675" d="M104 -184l80 352h146l-115 -352h-111zM346 -184l80 352h145l-114 -352h-111z" />
<glyph unicode="&#x2020;" horiz-adv-x="743" d="M59 911v119h240v410h137v-410h248v-119h-248v-1013h-137v1013h-240z" />
<glyph unicode="&#x2021;" horiz-adv-x="743" d="M59 367v118h240v426h-240v119h240v410h137v-410h248v-119h-248v-426h248v-118h-248v-469h-137v469h-240z" />
<glyph unicode="&#x2022;" horiz-adv-x="899" d="M158 596q0 122 86 207.5t207 85.5t205.5 -85.5t84.5 -207.5t-84.5 -207.5t-205.5 -85.5t-207 85.5t-86 207.5z" />
<glyph unicode="&#x2026;" horiz-adv-x="1673" d="M276 0v164h158v-164h-158zM758 0v164h157v-164h-157zM1239 0v164h158v-164h-158z" />
<glyph unicode="&#x202f;" horiz-adv-x="361" />
<glyph unicode="&#x2039;" horiz-adv-x="702" d="M78 578l336 421h149l-336 -421l336 -420h-149z" />
<glyph unicode="&#x203a;" horiz-adv-x="702" d="M135 158l336 420l-336 421h152l336 -421l-336 -420h-152z" />
<glyph unicode="&#x205f;" horiz-adv-x="452" />
<glyph unicode="&#x20ac;" horiz-adv-x="1208" d="M80 545v104h117q-4 37 -4 72l4 94h-117v105h135q61 241 249.5 392.5t438.5 151.5q48 0 95.5 -6t70.5 -12l23 -6l-33 -133q-74 22 -158 22q-194 0 -336.5 -111.5t-195.5 -297.5h620l-20 -105h-623q-8 -41 -8 -90l4 -76h596l-18 -104h-553q46 -194 192.5 -314t345.5 -120 q46 0 92.5 7t69.5 14l23 7l32 -131q-94 -33 -219 -33q-258 0 -447.5 158.5t-244.5 411.5h-131z" />
<glyph unicode="&#x2122;" horiz-adv-x="1998" d="M88 1251v95q0 54 20.5 74t75.5 20h566q55 0 75.5 -20t20.5 -74v-95h-107v62q0 20 -20 20h-195v-790h-116v790h-193q-20 0 -20 -20v-62h-107zM858 543v104h51q20 0 23 21l59 772h107l235 -514q8 -17 15.5 -38t10.5 -34l3 -12h4q11 45 29 84l235 514h107l59 -772 q3 -21 23 -21h51v-104h-88q-55 0 -74.5 19t-24.5 75l-41 514q-1 16 0 29t2 22l1 8h-5l-229 -499h-94l-230 499h-4l2 -59l-41 -514q-5 -56 -24 -75t-74 -19h-88z" />
<glyph unicode="&#x25fc;" horiz-adv-x="1034" d="M0 0v1034h1034v-1034h-1034z" />
<glyph horiz-adv-x="1163" d="M86 721q0 129 15.5 237t51.5 203t92 161t141.5 104t195.5 38t195.5 -38t141.5 -104t92.5 -161t52 -203t15.5 -237q0 -130 -15.5 -238.5t-52 -204t-92.5 -161.5t-141.5 -104t-195.5 -38t-195.5 38t-141.5 104t-92 161.5t-51.5 204t-15.5 238.5zM231 721q0 -136 17 -242 t56 -192t109 -132t169 -46q80 0 141 31t100 84.5t64 132.5t35 167.5t10 196.5q0 107 -10 195t-35 167t-64 132.5t-100 84.5t-141 31q-99 0 -169 -46t-109 -132t-56 -191.5t-17 -240.5z" />
<glyph horiz-adv-x="1146" d="M205 0v127h321v1057l2 80h-4q-14 -31 -71 -86l-154 -154l-90 92l326 324h135v-1313h315v-127h-780z" />
<glyph horiz-adv-x="1146" d="M92 141q0 86 26 158t70 124.5t101.5 98t120.5 82.5t126 72.5t120.5 74.5t101.5 82t70 100.5t26 125.5q0 118 -80.5 194t-214.5 76q-106 0 -181 -46.5t-75 -108.5v-68h-135v106q0 64 40.5 115.5t102.5 79.5t127.5 42.5t124.5 14.5q200 0 319 -115t119 -288 q0 -81 -26 -150.5t-70 -120.5t-101 -96t-120.5 -82.5t-126.5 -73t-120 -74t-101 -80.5t-70 -97t-26 -119q0 -41 47 -41h602q45 0 45 45v96h133v-143q0 -66 -29.5 -95.5t-95.5 -29.5h-721q-72 0 -100.5 32.5t-28.5 108.5z" />
<glyph horiz-adv-x="1146" d="M88 176l86 107q6 -7 17.5 -18.5t49 -41t79 -52.5t104.5 -41.5t127 -18.5q132 0 229 88.5t97 222.5q0 94 -50.5 164.5t-129 104.5t-171.5 34h-100l-33 84l355 426q16 21 34 41t28 30l11 9v4q-40 -6 -116 -6h-375q-45 0 -45 -45v-97h-133v144q0 67 27.5 96t92.5 29h732v-94 l-424 -498q58 -3 115.5 -18t118 -47t106.5 -78.5t75 -119t29 -161.5q0 -121 -61.5 -224t-171 -164t-242.5 -61q-80 0 -156.5 20.5t-129.5 50t-94 59.5t-61 51z" />
<glyph horiz-adv-x="1146" d="M29 397v95l700 948h154v-916h229v-127h-229v-397h-144v397h-710zM195 518q57 6 118 6h428v588l7 139h-5q-34 -59 -73 -110l-400 -529q-17 -23 -36 -45.5t-29 -33.5l-10 -11v-4z" />
<glyph horiz-adv-x="1146" d="M98 180l90 101q4 -7 13 -18.5t40 -40.5t66.5 -51.5t93.5 -41t121 -18.5q154 0 256.5 96t102.5 239q0 147 -108 242.5t-265 95.5q-72 0 -141.5 -20t-102.5 -40l-33 -19l-73 30l61 580q6 68 33.5 96.5t91.5 28.5h473q65 0 94 -29.5t29 -95.5v-144h-133v97q0 45 -45 45h-365 q-21 0 -31.5 -10.5t-13.5 -34.5l-37 -326l-12 -82h4q10 6 28.5 15t75.5 23.5t113 14.5q217 0 360.5 -136t143.5 -333q0 -95 -38.5 -181t-104.5 -149.5t-160.5 -101t-202.5 -37.5q-80 0 -153.5 21t-120.5 51t-82.5 60.5t-51.5 51.5z" />
<glyph horiz-adv-x="1146" d="M88 633q0 114 22.5 227.5t73 223t122.5 193.5t179.5 135.5t235.5 51.5q70 0 136 -15t97 -29l31 -15l-53 -125q-10 6 -28.5 14.5t-73 22.5t-107.5 14q-87 0 -162.5 -34t-129.5 -90.5t-94.5 -133.5t-63.5 -160.5t-31 -173.5h4q50 82 150 128t216 46q197 0 323 -127.5 t126 -328.5q0 -219 -129.5 -350.5t-323.5 -131.5q-154 0 -273 85.5t-183 235t-64 337.5zM242 541q0 -97 45 -195.5t131 -167.5t188 -69q143 0 226 96.5t83 249.5q0 151 -88.5 241t-236.5 90q-140 0 -244 -77t-104 -168z" />
<glyph horiz-adv-x="1146" d="M96 1171v144q0 66 28.5 95.5t94.5 29.5h850v-99l-713 -1341h-159l626 1180q18 35 38 68t31 49l11 16v4q-36 -4 -108 -4h-519q-45 0 -45 -45v-97h-135z" />
<glyph horiz-adv-x="1146" d="M82 406q0 71 26.5 136t64 107.5t75 75t64.5 47.5l26 14v5q-8 4 -21.5 11t-47.5 34t-59.5 58t-47 83.5t-21.5 109.5q0 75 29 143t83 120t137 83t185 31q201 0 321 -106.5t120 -276.5q0 -61 -20 -120.5t-48 -100t-56.5 -72.5t-48.5 -48l-20 -15v-4q112 -58 172 -135 t60 -195q0 -171 -140.5 -293.5t-343.5 -122.5q-129 0 -239 50t-180 150t-70 231zM229 412q0 -91 49 -161.5t126.5 -106t166.5 -35.5q133 0 234.5 81t101.5 203q0 44 -15 80.5t-37 62t-61 50t-73.5 41t-87.5 37.5q-40 18 -98 37.5t-70 19.5q-22 0 -60.5 -24t-78 -63 t-68.5 -99.5t-29 -122.5zM285 1087q0 -44 15.5 -80.5t37.5 -61.5t62 -48.5t73.5 -37.5t87.5 -34q107 -39 129 -39q19 0 50 25t60.5 64t50.5 94t21 108q0 116 -82.5 185t-214.5 69q-133 0 -211.5 -69.5t-78.5 -174.5z" />
<glyph horiz-adv-x="1146" d="M88 983q0 219 128.5 350t322.5 131q154 0 273 -85.5t183 -234.5t64 -337q0 -114 -22.5 -227.5t-72.5 -223.5t-122 -194t-179.5 -135.5t-236.5 -51.5q-70 0 -136 15t-97 30l-31 15l53 125q10 -6 28.5 -14.5t73 -22.5t107.5 -14q108 0 197.5 51t147 137t92 189t44.5 216h-4 q-50 -83 -150 -129.5t-216 -46.5q-197 0 -322 128t-125 329zM231 985q0 -151 89 -241.5t237 -90.5q140 0 244 77.5t104 168.5q0 97 -45 195.5t-131 167.5t-188 69q-143 0 -226.5 -96.5t-83.5 -249.5z" />
<glyph horiz-adv-x="2279" d="M31 1171v152q0 66 25 91.5t91 25.5h1078q66 0 95.5 -29t29.5 -92v-436l-4 -84h4q10 26 29 56t54.5 66.5t79.5 65.5t109 48.5t137 19.5q184 0 265 -101t81 -299v-489q0 -45 45 -45h86v-121h-145q-66 0 -95.5 29.5t-29.5 95.5v493q0 55 -4 95t-17.5 82t-37.5 68.5t-66 43.5 t-100 17q-169 0 -280 -123.5t-111 -306.5v-494h-140v1268q0 45 -45 45h-450v-1313h-144v1313h-364q-45 0 -45 -45v-97h-131z" />
<glyph horiz-adv-x="1247" d="M31 1171v152q0 66 25 91.5t91 25.5h1070v-127h-504v-1313h-144v1313h-362q-45 0 -45 -45v-97h-131z" />
<glyph horiz-adv-x="1247" d="M31 1171v152q0 66 25 91.5t91 25.5h1070v-127h-504v-1313h-29l-22 -113q65 -9 105 -47t40 -98q0 -83 -56.5 -122.5t-140.5 -39.5q-27 0 -52.5 2.5t-37.5 5.5l-12 2v99q39 -13 86 -13q104 0 104 70q0 33 -31 51.5t-85 18.5l-31 -2l43 186h-25v1313h-362q-45 0 -45 -45v-97 h-131z" />
<glyph horiz-adv-x="1247" d="M31 1171v152q0 66 25 91.5t91 25.5h1070v-127h-504v-1313h-144v1313h-362q-45 0 -45 -45v-97h-131zM401 1784h129l111 -164h4l111 164h131l-172 -244h-144z" />
<glyph horiz-adv-x="1247" d="M31 1171v152q0 66 25 91.5t91 25.5h1070v-127h-504v-1313h-144v1313h-362q-45 0 -45 -45v-97h-131zM559 -410q37 98 37 164q0 55 -23 117h127q15 -53 15 -98q0 -76 -49 -183h-107z" />
<glyph horiz-adv-x="884" d="M152 651v127h581v-127h-581z" />
<glyph horiz-adv-x="632" d="M174 741q0 461 221 815h131q-223 -375 -223 -804q0 -474 236 -885h-129q-112 184 -174 411.5t-62 462.5z" />
<glyph horiz-adv-x="632" d="M94 -133q236 411 236 885q0 428 -224 804h132q221 -361 221 -815q0 -235 -62 -462.5t-174 -411.5h-129z" />
<glyph horiz-adv-x="620" d="M207 -8v1440q0 66 29.5 95t95.5 29h151v-114h-102q-45 0 -45 -45v-1370q0 -45 45 -45h102v-115h-151q-66 0 -95.5 29.5t-29.5 95.5z" />
<glyph horiz-adv-x="620" d="M137 -18h103q45 0 45 45v1370q0 45 -45 45h-103v114h152q66 0 95.5 -29t29.5 -95v-1440q0 -66 -29.5 -95.5t-95.5 -29.5h-152v115z" />
<glyph horiz-adv-x="667" d="M68 659v127q7 1 19 3.5t42 18t52.5 38.5t41.5 69.5t19 106.5v168q0 96 24.5 167.5t58.5 108t80 58.5t78 27t64 5h31v-114h-19q-20 0 -39.5 -3.5t-48 -18.5t-49.5 -40.5t-36 -75.5t-15 -118v-201q0 -56 -17 -103.5t-41 -75t-48 -47t-41 -27.5l-17 -7v-4q7 -2 18 -6.5 t39 -25t50 -46.5t39.5 -74.5t17.5 -107.5v-225q0 -67 15 -117t36 -75.5t49.5 -41t48 -19t39.5 -3.5h19v-115q-13 -2 -31 -2q-32 0 -64 5t-78 27t-80 59t-58.5 109t-24.5 168v195q0 60 -18 106t-43.5 68.5t-51 37t-43.5 18.5z" />
<glyph horiz-adv-x="667" d="M90 -20h21q19 0 38.5 3.5t47.5 19t49 41t36 75.5t15 117v225q0 59 17 107t41 75t48 46t41 25l17 7v4q-7 2 -18 7.5t-39 26.5t-50 47.5t-39.5 74.5t-17.5 104v201q0 57 -10 101.5t-27.5 71t-36.5 44.5t-42 26t-38.5 10.5t-31.5 2.5h-21v114h33q21 0 42 -2.5t52.5 -11.5 t58.5 -23.5t55.5 -42.5t48.5 -65.5t33 -94t13 -126.5v-168q0 -60 18 -106.5t43.5 -70t51 -38t43.5 -17.5l18 -4v-127q-7 -1 -19 -3.5t-42 -17.5t-52.5 -37.5t-41.5 -68.5t-19 -106v-195q0 -70 -13 -127t-33 -94.5t-48.5 -66t-55.5 -43t-58.5 -23.5t-52.5 -11.5t-42 -2.5 l-33 2v115z" />
<glyph horiz-adv-x="1550" d="M84 719q0 154 58 293.5t156 239.5t232.5 159t282.5 59q134 0 234 -32t157 -87.5t84 -122.5t27 -145v-645h145v-114h-551q-175 0 -292 115.5t-117 277.5q0 161 117 277t292 116h267q-3 103 -92.5 171.5t-260.5 68.5q-123 0 -234 -50.5t-190 -135.5t-125.5 -201.5 t-46.5 -243.5q0 -172 78 -315.5t217.5 -227.5t311.5 -84v-123q-209 0 -381.5 100t-270.5 272t-98 378zM643 717q0 -116 80.5 -197.5t198.5 -81.5h254v563h-250q-120 0 -201.5 -83t-81.5 -201z" />
<glyph horiz-adv-x="1069" d="M78 700l336 422h149l-336 -422l336 -419h-149zM444 700l336 422h152l-336 -422l336 -419h-152z" />
<glyph horiz-adv-x="1069" d="M135 281l336 419l-336 422h152l336 -422l-336 -419h-152zM504 281l336 419l-336 422h151l336 -422l-336 -419h-151z" />
<glyph horiz-adv-x="702" d="M78 700l336 422h149l-336 -422l336 -419h-149z" />
<glyph horiz-adv-x="702" d="M135 281l336 419l-336 422h152l336 -422l-336 -419h-152z" />
<glyph horiz-adv-x="1314" d="M145 645v119h1024v-119h-1024z" />
<glyph horiz-adv-x="1724" d="M145 645v119h1434v-119h-1434z" />
<glyph horiz-adv-x="440" d="M141 627v164h158v-164h-158z" />
<glyph horiz-adv-x="882" d="M63 338q0 69 20 127.5t52.5 100.5t71.5 80t78.5 73t72 71.5t52.5 84t20 102.5v86h137v-92q0 -66 -19.5 -123t-51 -98.5t-69.5 -79.5t-76 -73.5t-69.5 -71.5t-51 -82.5t-19.5 -98.5q0 -100 75.5 -167.5t192.5 -67.5q62 0 124 21.5t93 43.5l31 21l76 -103q-5 -5 -15 -13 t-42.5 -28t-68.5 -35.5t-91.5 -28t-112.5 -12.5q-176 0 -293 102t-117 261zM420 1282v158h158v-158h-158z" />
<glyph horiz-adv-x="608" d="M223 1282v158h158v-158h-158zM231 0l7 1063h131l6 -1063h-144z" />
<glyph horiz-adv-x="899" d="M158 721q0 121 86 207t207 86t205.5 -85.5t84.5 -207.5t-84.5 -207.5t-205.5 -85.5t-207 86t-86 207z" />
</font>
</defs>
</svg>
