<?xml version="1.0" standalone="no"?>
<!DOCTYPE svg PUBLIC "-//W3C//DTD SVG 1.1//EN" "http://www.w3.org/Graphics/SVG/1.1/DTD/svg11.dtd" >
<svg xmlns="http://www.w3.org/2000/svg" xmlns:xlink="http://www.w3.org/1999/xlink" version="1.1">
<metadata></metadata>
<defs>
<font id="museo700" horiz-adv-x="1306" >
<font-face units-per-em="2048" ascent="1536" descent="-512" />
<missing-glyph horiz-adv-x="542" />
<glyph unicode="&#xfb01;" horiz-adv-x="1298" d="M41 838v206h129v31q0 71 16.5 129t42.5 97.5t63.5 69.5t75 46.5t81 27t78 14t69.5 3.5q24 0 46 -1.5t32 -2.5l10 -2v-221q-24 4 -59 4q-26 0 -49 -3.5t-51 -14.5t-48 -29t-33.5 -51t-13.5 -76v-21h555q72 0 105.5 -33.5t33.5 -105.5v-641q0 -45 45 -45h80v-219h-245 q-74 0 -107 33t-33 106v654q0 45 -45 45h-389v-838h-260v838h-129zM877 1214v240h225v-240h-225z" />
<glyph unicode="&#xfb02;" horiz-adv-x="1282" d="M41 838v206h129v31q0 98 31.5 170.5t76 111t107 62t110.5 29.5t101 6h375q72 0 105.5 -33.5t33.5 -105.5v-1051q0 -45 45 -45h80v-219h-246q-73 0 -106 33t-33 106v1049q0 45 -45 45h-174q-201 0 -201 -164v-25h223v-206h-223v-838h-260v838h-129z" />
<glyph horiz-adv-x="0" />
<glyph horiz-adv-x="682" />
<glyph unicode=" "  horiz-adv-x="542" />
<glyph unicode="&#x09;" horiz-adv-x="542" />
<glyph unicode="&#xa0;" horiz-adv-x="542" />
<glyph unicode="!" horiz-adv-x="679" d="M205 1454h270l-20 -1034h-228zM215 0v242h252v-242h-252z" />
<glyph unicode="&#x22;" horiz-adv-x="755" d="M117 1053v428h192v-428h-192zM444 1053v428h193v-428h-193z" />
<glyph unicode="#" horiz-adv-x="1433" d="M66 383l30 186h244l51 287h-239l30 188h242l72 410h209l-72 -410h278l72 410h209l-72 -410h248l-33 -188h-245l-52 -287h244l-31 -186h-245l-66 -383h-209l68 383h-281l-65 -383h-209l65 383h-243zM549 569h280l52 287h-281z" />
<glyph unicode="$" horiz-adv-x="1146" d="M78 268l186 156q5 -8 14 -22t41.5 -50t68 -63t93 -49.5t117.5 -22.5q92 0 150.5 46t58.5 126q0 40 -23.5 74.5t-63 61.5t-91 52t-108 51t-113 55t-108 67.5t-91 84t-63 109.5t-23.5 139q0 151 107 255.5t278 131.5v191h182v-191q49 -6 95.5 -19.5t91.5 -36.5t78.5 -53.5 t54 -74t20.5 -94.5v-135h-242v65q0 50 -54 81.5t-128 31.5q-92 0 -152.5 -42t-60.5 -106q0 -41 23.5 -75.5t63 -60t91 -49t108 -48t113 -52t108 -65t91 -83.5t63 -112t23.5 -145q0 -155 -106.5 -271t-280.5 -142v-191h-182v189q-84 11 -159 45t-122.5 74t-82.5 78t-50 63z " />
<glyph unicode="%" horiz-adv-x="1689" d="M113 1155q0 133 98 228.5t235 95.5q138 0 237 -96t99 -228q0 -135 -99 -229.5t-237 -94.5t-235.5 94.5t-97.5 229.5zM164 0l1116 1454h240l-1117 -1454h-239zM311 1155q0 -57 39 -96t96 -39t97.5 39t40.5 96q0 56 -40.5 95.5t-97.5 39.5t-96 -39.5t-39 -95.5zM907 297 q0 133 97.5 228.5t236.5 95.5q138 0 236 -96t98 -228q0 -133 -98 -227.5t-236 -94.5q-139 0 -236.5 94t-97.5 228zM1106 299q0 -57 39 -96t96 -39t97 39t40 96q0 56 -40 95.5t-97 39.5t-96 -39.5t-39 -95.5z" />
<glyph unicode="&#x26;" horiz-adv-x="1333" d="M86 426q0 112 65 213.5t177 134.5v4q-7 3 -19 9.5t-43 32t-54.5 58t-42.5 91t-19 127.5q0 172 124.5 277.5t317.5 105.5q51 0 101.5 -6.5t74.5 -12.5l25 -6l-64 -209q-51 12 -98 12q-96 0 -155.5 -55.5t-59.5 -138.5q0 -34 10.5 -65.5t33.5 -61.5t68.5 -48t108.5 -18h219 v174h260v-174h174v-229h-174v-172q0 -225 -136.5 -359.5t-373.5 -134.5q-228 0 -374 129t-146 322zM356 428q0 -88 68.5 -149.5t181.5 -61.5q119 0 184.5 68t65.5 198v158h-219q-130 0 -205.5 -54.5t-75.5 -158.5z" />
<glyph unicode="'" horiz-adv-x="430" d="M117 1053v428h196v-428h-196z" />
<glyph unicode="(" horiz-adv-x="718" d="M166 668q0 491 240 850h221q-230 -383 -230 -832q0 -470 236 -881h-221q-120 176 -183 400.5t-63 462.5z" />
<glyph unicode=")" horiz-adv-x="718" d="M86 -195q236 411 236 881q0 449 -230 832h221q120 -179 181 -397t61 -453q0 -238 -63 -462.5t-183 -400.5h-223z" />
<glyph unicode="*" horiz-adv-x="989" d="M76 1065l69 221l248 -100l-18 268h235l-18 -268l248 100l73 -219l-262 -66v-4l172 -202l-186 -138l-141 226h-4l-142 -226l-186 136l170 204v4z" />
<glyph unicode="+" horiz-adv-x="1267" d="M86 483v203h442v485h211v-485h443v-203h-443v-483h-211v483h-442z" />
<glyph unicode="," horiz-adv-x="542" d="M45 -215l137 479h250l-196 -479h-191z" />
<glyph unicode="-" horiz-adv-x="882" d="M133 471v227h617v-227h-617z" />
<glyph unicode="." horiz-adv-x="542" d="M145 0v260h252v-260h-252z" />
<glyph unicode="/" horiz-adv-x="751" d="M-2 -86l520 1614h223l-522 -1614h-221z" />
<glyph unicode="0" horiz-adv-x="1253" d="M100 729q0 130 16.5 239t55 205t98 162.5t150.5 105t207 38.5t207 -38.5t150 -105t97.5 -162.5t55 -205t16.5 -239t-16.5 -239.5t-55 -206t-97.5 -164t-150 -106t-207 -38.5t-207 38.5t-150.5 106t-98 164t-55 206t-16.5 239.5zM371 729q0 -512 256 -512t256 512 q0 506 -256 506t-256 -506z" />
<glyph unicode="1" horiz-adv-x="1091" d="M106 1104l365 350h242v-1227h313v-227h-895v227h313v807l2 99h-4q-16 -35 -63 -82l-117 -111z" />
<glyph unicode="2" horiz-adv-x="1189" d="M68 193q0 84 24.5 155.5t65.5 123.5t94 96.5t112 79.5t118 68t112 67t94 71t65.5 85.5t24.5 104.5q0 86 -58.5 137.5t-152.5 51.5q-82 0 -136 -35.5t-54 -79.5v-63h-242v143q0 69 42.5 125t109.5 88.5t142 50t149 17.5q96 0 181 -29.5t149.5 -83.5t102.5 -136t38 -181 q0 -100 -39 -184t-101 -141.5t-136.5 -106.5t-149.5 -89t-137 -78.5t-101 -85.5t-39 -100q0 -20 13 -28.5t42 -8.5h426q45 0 45 45v88h242v-221q0 -73 -33 -106t-106 -33h-758q-91 0 -120 42t-29 151z" />
<glyph unicode="3" horiz-adv-x="1138" d="M53 180l135 201l16.5 -16.5t47 -37.5t75.5 -47.5t98.5 -37.5t119.5 -17q108 0 178 61t70 156t-78 154t-197 59h-102l-54 133l246 330q22 33 46 60.5t38 39.5l13 11v4q-46 -6 -130 -6h-182q-45 0 -45 -45v-88h-242v221q0 74 27.5 106.5t99.5 32.5h791v-166l-334 -418 q158 -25 266.5 -137t108.5 -287q0 -92 -35 -176t-99.5 -150t-164 -105.5t-219.5 -39.5q-88 0 -171.5 21t-139.5 51t-99 60.5t-63 51.5z" />
<glyph unicode="4" horiz-adv-x="1206" d="M37 367v170l602 917h315v-860h224v-227h-224v-367h-268v367h-649zM317 588q59 6 127 6h246v403q0 32 2.5 71.5t5.5 63.5l2 23h-4q-41 -78 -78 -131l-227 -336q-17 -24 -35.5 -48t-28.5 -36l-10 -12v-4z" />
<glyph unicode="5" horiz-adv-x="1218" d="M96 176l135 203q5 -6 14.5 -16.5t43 -37t70 -47t93.5 -37t117 -16.5q119 0 193 70t74 172q0 116 -91 182t-223 66q-71 0 -139.5 -16.5t-101.5 -32.5l-33 -17l-94 47l53 619q6 74 36.5 106.5t100.5 32.5h537q72 0 105.5 -33.5t33.5 -105.5v-221h-244v88q0 45 -45 45h-239 q-43 0 -46 -45l-18 -201l-10 -68h4q67 27 153 27q244 0 388.5 -136t144.5 -341q0 -96 -37 -184t-104.5 -156.5t-170.5 -109t-227 -40.5q-86 0 -166.5 21t-133.5 50.5t-94 59.5t-60 51z" />
<glyph unicode="6" horiz-adv-x="1177" d="M68 651q0 118 25.5 234.5t80.5 224t132 189.5t188.5 131t242.5 49q82 0 156.5 -15.5t108.5 -31.5l34 -15l-78 -227q-93 45 -204 45q-82 0 -150.5 -32.5t-114.5 -88.5t-76 -125t-44 -149h4q36 47 113.5 76.5t156.5 29.5q139 0 246.5 -67t163 -176t55.5 -240 q0 -207 -133 -347.5t-344 -140.5q-114 0 -216 46t-179 130t-122.5 213.5t-45.5 286.5zM344 571q0 -138 86 -246t199 -108q100 0 159.5 70t59.5 176q0 114 -70 190t-196 76q-97 0 -167.5 -46t-70.5 -112z" />
<glyph unicode="7" horiz-adv-x="1101" d="M45 1094v221q0 74 28.5 106.5t98.5 32.5h909v-184l-692 -1270h-293l600 1094q22 40 44 73t33 47l11 13v4q-26 -4 -100 -4h-350q-45 0 -45 -45v-88h-244z" />
<glyph unicode="8" horiz-adv-x="1193" d="M74 420q0 46 12.5 91t32 80t43.5 66.5t47.5 53.5t43 38.5t31.5 24.5l13 8v4q-7 4 -17.5 11.5t-38.5 34.5t-49.5 57.5t-39 81.5t-17.5 106q0 78 31 150t89 128.5t148 90t199 33.5q209 0 338 -114.5t129 -289.5q0 -57 -16.5 -112.5t-39.5 -93t-46 -67t-39 -43.5l-17 -14v-4 q201 -127 201 -333q0 -84 -37 -162t-103 -138t-164.5 -96.5t-213.5 -36.5q-221 0 -370.5 125.5t-149.5 319.5zM344 436q0 -98 71.5 -158.5t178.5 -60.5q103 0 175.5 57.5t72.5 145.5q0 37 -15 67t-46.5 54t-64.5 41.5t-83 38.5q-107 49 -131 49q-43 0 -100.5 -73.5 t-57.5 -160.5zM395 1071q0 -69 50 -110.5t147 -79.5q77 -31 96 -31q37 0 80 66t43 141q0 82 -57.5 130t-151.5 48q-95 0 -151 -47t-56 -117z" />
<glyph unicode="9" horiz-adv-x="1177" d="M68 991q0 134 58.5 245t169 177t251.5 66q114 0 215 -46t178.5 -130t122.5 -213.5t45 -286.5q0 -118 -26 -234.5t-80.5 -224t-132 -189.5t-189 -131t-242.5 -49q-82 0 -156.5 15.5t-108.5 31.5l-34 15l78 227q11 -5 29.5 -13t72.5 -21t103 -13q82 0 150.5 32.5 t114.5 89.5t76 126t44 149h-4q-35 -46 -113 -76t-158 -30q-139 0 -246.5 67t-162.5 176t-55 240zM328 991q0 -114 70.5 -190t197.5 -76q96 0 165.5 45.5t69.5 112.5q0 138 -85.5 245t-198.5 107q-100 0 -159.5 -69t-59.5 -175z" />
<glyph unicode=":" horiz-adv-x="626" d="M188 0v260h250v-260h-250zM188 784v260h250v-260h-250z" />
<glyph unicode=";" horiz-adv-x="626" d="M72 -215l112 479h248l-168 -479h-192zM190 784v260h250v-260h-250z" />
<glyph unicode="&#x3c;" horiz-adv-x="1267" d="M131 502v168l985 438v-227l-710 -293v-4l710 -293v-228z" />
<glyph unicode="=" horiz-adv-x="1267" d="M135 274v201h1000v-201h-1000zM135 694v201h1000v-201h-1000z" />
<glyph unicode="&#x3e;" horiz-adv-x="1267" d="M145 63v228l711 293v4l-711 293v227l985 -438v-168z" />
<glyph unicode="?" horiz-adv-x="974" d="M74 1335q6 6 17 16t48.5 35.5t79 45t107 35.5t133.5 16q117 0 217.5 -44.5t164.5 -134t64 -206.5q0 -69 -19.5 -127.5t-51 -100.5t-69.5 -79t-76 -69.5t-69.5 -65t-51 -72t-19.5 -84.5v-80h-252v98q0 82 35 150t84.5 114t99 88.5t84.5 93.5t35 109q0 72 -57 121t-142 49 q-52 0 -107 -21.5t-83 -43.5l-29 -21zM297 0v242h252v-242h-252z" />
<glyph unicode="@" horiz-adv-x="1607" d="M78 492q0 157 60 298.5t162 243.5t245 161.5t303 59.5q151 0 263.5 -36t176 -99.5t93.5 -140.5t30 -170v-512h150v-186h-568q-100 0 -184.5 32t-139.5 85t-85.5 121.5t-30.5 142.5q0 154 119 264t321 110h174q-3 79 -90 130t-221 51q-145 0 -266 -78t-188.5 -205 t-67.5 -272q0 -150 66.5 -274.5t194.5 -199.5t294 -75v-203q-179 0 -331.5 58.5t-257 159.5t-163.5 239.5t-59 294.5zM811 498q0 -85 55.5 -143t143.5 -58h157v401h-153q-90 0 -146.5 -58t-56.5 -142z" />
<glyph unicode="A" horiz-adv-x="1380" d="M23 0v227h32q27 0 41 9t23 36l432 1182h280l431 -1182q9 -27 22.5 -36t40.5 -9h33v-227h-160q-76 0 -111.5 25t-60.5 94l-90 254h-492l-90 -254q-25 -70 -59.5 -94.5t-110.5 -24.5h-161zM506 594h368l-124 364q-12 36 -26.5 90.5t-23.5 91.5l-8 36h-4q-30 -138 -57 -218z " />
<glyph unicode="B" horiz-adv-x="1288" d="M68 1227v227h628q201 0 326 -99.5t125 -275.5q0 -113 -51 -193t-125 -118v-4q113 -34 173 -129.5t60 -212.5q0 -85 -26.5 -155.5t-72.5 -119t-109.5 -82.5t-137.5 -49.5t-156 -15.5h-362q-72 0 -105.5 33t-33.5 106v1088h-133zM469 272q0 -45 45 -45h209q96 0 150.5 58.5 t54.5 152.5q0 93 -55 151t-150 58h-254v-375zM469 860h229q82 0 129 53t47 134t-46.5 130.5t-133.5 49.5h-225v-367z" />
<glyph unicode="C" horiz-adv-x="1452" d="M61 739q0 207 96 376.5t265 266.5t377 97q60 0 129 -9.5t145 -34t136.5 -60t100.5 -93.5t40 -129v-162h-244v82q0 50 -50 87t-116.5 53t-134.5 16q-200 0 -332.5 -134t-132.5 -356q0 -140 62.5 -258.5t171.5 -187t239 -68.5q77 0 150.5 20t123.5 48.5t89.5 56.5t57.5 48 l19 20l142 -193q-9 -10 -25.5 -27t-73 -60t-119.5 -76t-163 -60t-205 -27q-163 0 -303.5 59t-237.5 161.5t-152 243t-55 300.5z" />
<glyph unicode="D" horiz-adv-x="1464" d="M70 1227v227h592q340 0 540.5 -192t200.5 -533t-200.5 -535t-540.5 -194h-320q-74 0 -106.5 33t-32.5 106v1088h-133zM471 272q0 -45 45 -45h131q222 0 349.5 130t127.5 372q0 239 -128.5 368.5t-348.5 129.5h-176v-955z" />
<glyph unicode="E" horiz-adv-x="1183" d="M70 1227v227h878q72 0 105.5 -33.5t33.5 -105.5v-221h-243v88q0 45 -45 45h-328v-381h471v-228h-471v-346q0 -45 45 -45h336q45 0 45 45v88h244v-221q0 -73 -33.5 -106t-106.5 -33h-659q-74 0 -106.5 33t-32.5 106v1088h-133z" />
<glyph unicode="F" horiz-adv-x="1077" d="M70 1227v227h829q73 0 106 -33.5t33 -105.5v-221h-241v88q0 45 -45 45h-281v-412h465v-227h-465v-588h-268v1227h-133z" />
<glyph unicode="G" horiz-adv-x="1519" d="M63 735q0 154 56.5 292t154.5 237t235.5 157t293.5 58q100 0 191 -19t150 -46t104 -54.5t65 -46.5l20 -19l-151 -192q-6 5 -17.5 14t-50 31t-79 39t-102.5 31t-124 14q-94 0 -179 -36t-149 -100t-101.5 -157t-37.5 -201q0 -231 138 -371.5t339 -140.5q65 0 126.5 15.5 t103.5 38t75 45t48 38.5l16 15v108q0 45 -45 45h-88v228h235q74 0 107 -32.5t33 -104.5v-621h-230v70l2 61h-4q-6 -6 -18.5 -16.5t-54 -37.5t-87.5 -47.5t-119 -37.5t-149 -17q-143 0 -271.5 53.5t-225 150t-153.5 241t-57 315.5z" />
<glyph unicode="H" horiz-adv-x="1583" d="M70 1227v227h262q73 0 106 -33.5t33 -105.5v-477h641v477q0 72 33.5 105.5t105.5 33.5h262v-227h-88q-45 0 -45 -45v-1182h-268v610h-641v-610h-268v1182q0 45 -45 45h-88z" />
<glyph unicode="I" horiz-adv-x="700" d="M78 0v227h145v1000h-145v227h545v-227h-146v-1000h146v-227h-545z" />
<glyph unicode="J" horiz-adv-x="1103" d="M41 430v84h268v-59q0 -121 54.5 -175.5t136.5 -54.5q81 0 134.5 53t53.5 164v740q0 45 -45 45h-352v227h526q72 0 105.5 -33.5t33.5 -105.5v-885q0 -92 -26 -168.5t-70 -129t-103 -88.5t-124 -52.5t-135 -16.5q-69 0 -134.5 17t-124.5 53.5t-102.5 89t-69.5 128.5 t-26 167z" />
<glyph unicode="K" horiz-adv-x="1298" d="M70 1227v227h262q73 0 106 -33.5t33 -105.5v-453h102q46 0 73 8.5t44 38.5l293 545h295l-328 -598q-20 -36 -43 -62.5t-36 -35.5l-13 -8v-5q5 -1 14.5 -5.5t34.5 -30t45 -64.5l185 -371q14 -30 37.5 -38.5t64.5 -8.5h39v-227h-154q-86 0 -127 20.5t-75 88.5l-238 477 q-17 32 -46 40.5t-81 8.5h-86v-635h-268v1182q0 45 -45 45h-88z" />
<glyph unicode="L" horiz-adv-x="1142" d="M70 1227v227h262q73 0 106 -33.5t33 -105.5v-1043q0 -45 45 -45h318q45 0 45 45v88h243v-221q0 -73 -33 -106t-106 -33h-641q-74 0 -106.5 33t-32.5 106v1043q0 45 -45 45h-88z" />
<glyph unicode="M" horiz-adv-x="1781" d="M37 0v227h63q42 0 45 45l95 1182h278l299 -692q16 -37 34 -86t28 -79l10 -30h4q37 111 72 195l299 692h278l94 -1182q3 -45 45 -45h64v-227h-232q-71 0 -101 32t-36 107l-49 647q-5 44 -5 100v21q0 42 2 70l1 35h-4q-43 -144 -80 -226l-242 -536h-217l-241 536 q-16 36 -36 93t-32 96l-12 39h-4q3 -57 3 -107q0 -67 -5 -121l-47 -647q-6 -75 -37.5 -107t-102.5 -32h-231z" />
<glyph unicode="N" horiz-adv-x="1576" d="M70 0v227h88q45 0 45 45v1182h241l551 -805q25 -37 55.5 -88.5t47.5 -84.5l18 -32h4q-14 121 -14 205v666q0 72 33 105.5t106 33.5h262v-227h-88q-45 0 -45 -45v-1182h-239l-553 803q-25 36 -55.5 87.5t-48.5 84.5l-17 33h-4q14 -121 14 -205v-664q0 -73 -32.5 -106 t-106.5 -33h-262z" />
<glyph unicode="O" horiz-adv-x="1626" d="M61 737q0 154 58 291t157.5 236t239 157t297.5 58t297.5 -58t239 -157t157.5 -236t58 -291q0 -158 -58 -299t-157.5 -242.5t-239 -161t-297.5 -59.5t-297.5 59.5t-239 161t-157.5 242.5t-58 299zM340 737q0 -143 63.5 -261t172 -184.5t237.5 -66.5t237.5 66.5t172 184.5 t63.5 261q0 208 -137.5 350t-335.5 142t-335.5 -142t-137.5 -350z" />
<glyph unicode="P" horiz-adv-x="1239" d="M70 1227v227h665q205 0 334 -131t129 -342q0 -212 -129.5 -345.5t-333.5 -133.5h-264v-502h-268v1227h-133zM471 731h215q113 0 175.5 67.5t62.5 182.5q0 113 -62.5 179.5t-171.5 66.5h-219v-496z" />
<glyph unicode="Q" horiz-adv-x="1626" d="M61 735q0 154 57.5 291.5t157 236.5t239 156.5t296.5 57.5q159 0 299 -57.5t239.5 -156.5t157.5 -236.5t58 -291.5q0 -247 -160 -459l158 -143l-160 -174l-158 156q-183 -140 -434 -140q-209 0 -381.5 101t-270.5 275.5t-98 383.5zM340 735q0 -216 137 -363t334 -147 q68 0 128 17.5t86 35.5l26 17l-148 137l158 174l147 -147q78 124 78 276q0 210 -137.5 351t-337.5 141q-198 0 -334.5 -141.5t-136.5 -350.5z" />
<glyph unicode="R" horiz-adv-x="1294" d="M70 1227v227h651q203 0 328 -117.5t125 -320.5q0 -92 -28.5 -167.5t-70.5 -119t-79 -67.5t-64 -29v-4q5 -2 13 -7t27.5 -24t31.5 -43l141 -281q16 -30 39 -38.5t63 -8.5h27v-227h-141q-85 0 -127 21t-76 88l-187 366q-23 42 -50.5 55t-86.5 13h-135v-543h-268v1227h-133z M471 772h213q101 0 158 60t57 169q0 107 -56 166.5t-155 59.5h-217v-455z" />
<glyph unicode="S" horiz-adv-x="1124" d="M66 201l151 188q6 -7 17.5 -18.5t48 -41t75 -52.5t96.5 -41.5t115 -18.5q88 0 148.5 45.5t60.5 126.5q0 39 -23.5 73t-63 60.5t-91 52t-108 51.5t-113 54.5t-108 66t-91 82t-63 106t-23.5 134.5q0 177 137.5 293.5t348.5 116.5q68 0 140 -16.5t139 -49t110 -90t43 -131.5 v-135h-242v65q0 49 -58.5 81t-133.5 32q-93 0 -153 -43.5t-60 -112.5q0 -39 23.5 -72.5t63 -58.5t91 -48.5t108 -48t113 -52t108 -65t91 -82.5t63 -109t23.5 -140q0 -180 -131.5 -304t-352.5 -124q-66 0 -129 12.5t-111 32.5t-91 44t-73 48t-52 44t-33 32z" />
<glyph unicode="T" horiz-adv-x="1337" d="M31 1094v229q0 72 29 101.5t102 29.5h1014q73 0 102 -29.5t29 -101.5v-229h-236v88q0 45 -45 45h-223v-1227h-268v1227h-224q-45 0 -45 -45v-88h-235z" />
<glyph unicode="U" horiz-adv-x="1515" d="M53 1227v227h262q73 0 106.5 -33.5t33.5 -105.5v-789q0 -141 82.5 -221t220.5 -80q139 0 221 80t82 223v787q0 72 33 105.5t106 33.5h262v-227h-88q-45 0 -45 -45v-664q0 -242 -156.5 -392.5t-412.5 -150.5q-259 0 -416.5 150.5t-157.5 392.5v664q0 45 -45 45h-88z" />
<glyph unicode="V" horiz-adv-x="1400" d="M23 1227v227h170q76 0 111.5 -25t60.5 -94l278 -811q13 -36 26.5 -89.5t20.5 -88.5l8 -35h4q27 131 56 213l278 811q25 70 59.5 94.5t110.5 24.5h172v-227h-39q-27 0 -40.5 -9.5t-22.5 -35.5l-434 -1182h-283l-436 1182q-9 26 -23 35.5t-41 9.5h-36z" />
<glyph unicode="W" horiz-adv-x="2031" d="M33 1227v227h174q80 0 121.5 -25.5t58.5 -93.5l199 -866q8 -36 14 -74.5t8 -58.5l2 -21h4q8 70 31 154l264 981h228l249 -981q10 -37 17.5 -75.5t9.5 -58.5l2 -20h4q7 72 25 154l201 866q14 68 56 93.5t122 25.5h176v-227h-39q-29 0 -44.5 -10t-21.5 -35l-303 -1182h-309 l-221 823q-11 41 -20.5 86t-12.5 70l-4 25h-4q-12 -87 -39 -181l-231 -823h-312l-301 1182q-10 45 -65 45h-39z" />
<glyph unicode="X" horiz-adv-x="1255" d="M10 0l451 737l-271 441q-19 32 -35.5 40.5t-52.5 8.5h-61v227h168q74 0 111.5 -21.5t74.5 -84.5l140 -242l92 -176h4q39 92 88 176l141 242q36 63 75 84.5t114 21.5h165v-227h-61q-35 0 -51.5 -9t-36.5 -40l-272 -441l452 -737h-301l-225 383l-92 170h-4 q-39 -86 -88 -170l-224 -383h-301z" />
<glyph unicode="Y" horiz-adv-x="1259" d="M20 1227v227h138q74 0 112 -20t78 -86l193 -320q23 -37 45 -78t32 -64l11 -22h4q37 78 88 164l190 320q38 66 77 86t114 20h137v-227h-47q-33 0 -48.5 -9t-35.5 -40l-344 -543v-635h-268v635l-344 543q-20 31 -35.5 40t-48.5 9h-48z" />
<glyph unicode="Z" horiz-adv-x="1204" d="M35 0v170l653 926q26 36 54 69t42 47l15 15v4q-43 -4 -111 -4h-352q-45 0 -45 -45v-88h-244v221q0 72 33 105.5t106 33.5h944v-168l-653 -928q-26 -37 -53.5 -70t-41.5 -47l-15 -14v-4q42 4 110 4h397q46 0 46 45v88h241v-221q0 -73 -32.5 -106t-106.5 -33h-987z" />
<glyph unicode="[" horiz-adv-x="720" d="M188 -55v1433q0 74 33 107t107 33h264v-189h-137q-45 0 -45 -45v-1245q0 -45 45 -45h137v-189h-264q-74 0 -107 33.5t-33 106.5z" />
<glyph unicode="\" horiz-adv-x="745" d="M10 1528h223l523 -1614h-224z" />
<glyph unicode="]" horiz-adv-x="720" d="M129 -6h135q45 0 45 45v1245q0 45 -45 45h-135v189h264q73 0 106 -33t33 -107v-1433q0 -74 -33 -107t-106 -33h-264v189z" />
<glyph unicode="^" horiz-adv-x="1267" d="M133 502l412 952h164l411 -952h-225l-268 678l-269 -678h-225z" />
<glyph unicode="_" horiz-adv-x="1169" d="M10 0h1149v-201h-1149v201z" />
<glyph unicode="`" horiz-adv-x="817" d="M147 1829h250l156 -279h-193z" />
<glyph unicode="a" horiz-adv-x="1146" d="M68 301q0 68 26 123t66.5 91t98.5 63t113 41t119.5 23t108 11t88.5 2h33v9q0 111 -45.5 157.5t-147.5 46.5q-21 0 -42 -3t-44.5 -10t-38 -21.5t-14.5 -34.5v-56h-242v111q0 47 20 83.5t55.5 59t74.5 38t86 22.5t80.5 9.5t66.5 2.5q451 0 451 -416v-389q0 -45 45 -45h82 v-219h-234q-68 0 -100.5 32.5t-32.5 82.5l2 45h-4q-3 -8 -10 -20t-33 -44t-59 -56.5t-90 -44.5t-123 -20q-147 0 -251.5 88t-104.5 238zM330 313q0 -56 41 -95.5t116 -39.5q66 0 122 42.5t86 105.5t30 127v24h-45q-350 0 -350 -164z" />
<glyph unicode="b" horiz-adv-x="1265" d="M35 1233v221h248q72 0 105.5 -33.5t33.5 -105.5v-303l-4 -88h4q4 6 11.5 15.5t35 34.5t60.5 44.5t88.5 35t117.5 15.5q211 0 337 -151t126 -396q0 -246 -134.5 -396.5t-344.5 -150.5q-61 0 -115.5 15t-88.5 37t-59.5 44t-36.5 37l-11 15h-5q5 -29 5 -70v-53h-246v1188 q0 45 -45 45h-82zM414 516q0 -131 68.5 -226t191.5 -95q111 0 186.5 86.5t75.5 236.5q0 148 -72 238t-188 90q-111 0 -186.5 -83.5t-75.5 -246.5z" />
<glyph unicode="c" horiz-adv-x="1101" d="M66 522q0 149 67 272.5t199 199t305 75.5q56 0 117 -12t122 -37.5t100.5 -73.5t39.5 -112v-123h-230v57q0 39 -47 60.5t-102 21.5q-135 0 -222 -92.5t-87 -233.5q0 -77 27 -139.5t72.5 -101.5t103.5 -59.5t122 -20.5q50 0 100 14.5t86.5 35.5t65.5 41.5t43 35.5l15 14 l108 -180q-6 -8 -18.5 -20.5t-54.5 -45t-89 -57.5t-122.5 -45.5t-155.5 -20.5q-126 0 -233 43t-179 117t-112.5 174t-40.5 213z" />
<glyph unicode="d" horiz-adv-x="1273" d="M66 522q0 247 133 397t342 150q64 0 118 -13t86.5 -31.5t55.5 -37.5t32 -32l9 -13h4q-2 27 -2 62v184q0 45 -45 45h-82v221h248q72 0 105.5 -33.5t33.5 -105.5v-1051q0 -45 45 -45h80v-219h-240q-129 0 -129 106v39h-4q-4 -7 -11 -18.5t-35 -40.5t-61.5 -51.5t-92.5 -41 t-126 -18.5q-211 0 -337.5 151t-126.5 396zM330 522q0 -149 71 -238t187 -89q111 0 186.5 83t75.5 246q0 84 -27.5 155.5t-87.5 119t-143 47.5q-112 0 -187 -87t-75 -237z" />
<glyph unicode="e" horiz-adv-x="1140" d="M66 522q0 242 147.5 394.5t382.5 152.5q145 0 251.5 -67t159 -178t52.5 -251l-6 -96h-721q14 -133 101.5 -206.5t211.5 -73.5q47 0 94.5 12t81.5 29t61.5 34t41.5 29l14 12l109 -180q-7 -6 -19 -17t-53.5 -38t-87 -48t-116.5 -38t-144 -17q-168 0 -297.5 75t-196.5 199 t-67 273zM340 657h453q-3 92 -59.5 151.5t-137.5 59.5q-99 0 -166.5 -56t-89.5 -155z" />
<glyph unicode="f" horiz-adv-x="706" d="M41 838v206h129v31q0 71 16.5 129t42.5 97.5t63.5 69.5t75 46.5t81 27t78 14t69.5 3.5q24 0 46 -1.5t32 -2.5l10 -2v-221q-22 4 -53 4q-201 0 -201 -170v-25h223v-206h-223v-838h-260v838h-129z" />
<glyph unicode="g" horiz-adv-x="1253" d="M66 549q0 146 51.5 262t158 187t252.5 71q68 0 126 -15t92.5 -36.5t59.5 -43.5t34 -37l10 -15h4v26q0 39 29 67.5t86 28.5h241v-221h-80q-45 0 -45 -41v-719q0 -129 -47 -227t-127 -154.5t-174.5 -84t-201.5 -27.5q-96 0 -195 24.5t-176 65.5l80 205q14 -8 40 -19.5 t101.5 -31t146.5 -19.5q130 0 212.5 62t82.5 194v49l2 56h-4q-94 -136 -290 -136q-145 0 -253 73t-162 191.5t-54 264.5zM330 557q0 -141 68.5 -229t191.5 -88q50 0 91.5 15.5t77 49t55.5 95.5t20 147q0 301 -261 301q-117 0 -180 -78.5t-63 -212.5z" />
<glyph unicode="h" horiz-adv-x="1310" d="M35 1233v221h248q72 0 105.5 -33t33.5 -104v-367l-4 -88h4q41 84 136.5 145.5t221.5 61.5q365 0 365 -397v-408q0 -45 45 -45h82v-219h-248q-72 0 -104.5 33t-32.5 106v479q0 104 -36.5 158.5t-129.5 54.5q-101 0 -177 -60t-106 -157q-16 -55 -16 -135v-479h-260v1188 q0 45 -45 45h-82z" />
<glyph unicode="i" horiz-adv-x="612" d="M51 823v221h248q72 0 104.5 -33.5t32.5 -105.5v-641q0 -45 45 -45h82v-219h-248q-72 0 -104.5 33t-32.5 106v639q0 45 -45 45h-82zM190 1214v240h226v-240h-226z" />
<glyph unicode="j" horiz-adv-x="624" d="M-39 -199q18 -4 45 -4q26 0 50.5 3.5t54.5 15.5t52 32t37 56.5t15 85.5v788q0 45 -45 45h-82v221h248q73 0 106 -33.5t33 -105.5v-936q0 -100 -32.5 -175t-79 -115t-110 -65t-113 -31.5t-101.5 -6.5q-21 0 -40.5 1.5t-28.5 2.5l-9 2v219zM225 1214v240h228v-240h-228z " />
<glyph unicode="k" horiz-adv-x="1132" d="M35 1233v221h248q75 0 107 -25t32 -94v-659h78q71 0 98 39l213 329h289l-264 -393q-20 -29 -39.5 -49.5t-28.5 -26.5l-10 -6v-4q4 -2 11 -6t26.5 -25t35.5 -51l119 -225q12 -23 30.5 -31t55.5 -8h70v-219h-193q-68 0 -100.5 17t-62.5 73l-175 328q-21 39 -96 39h-57v-457 h-260v1188q0 45 -45 45h-82z" />
<glyph unicode="l" horiz-adv-x="595" d="M37 1233v221h248q72 0 105.5 -33.5t33.5 -105.5v-1051q0 -45 45 -45h80v-219h-246q-73 0 -106 33t-33 106v1049q0 45 -45 45h-82z" />
<glyph unicode="m" horiz-adv-x="1931" d="M43 823v221h240q137 0 137 -116v-31l-2 -45h4q41 86 132.5 151.5t205.5 65.5q236 0 305 -215h4q44 90 140.5 152.5t215.5 62.5q342 0 342 -397v-408q0 -45 45 -45h80v-219h-245q-74 0 -107 33t-33 106v484q0 49 -5.5 83.5t-20.5 64.5t-44 45t-73 15q-93 0 -160 -68 t-90 -171q-16 -55 -16 -133v-459h-260v623q0 38 -2.5 65.5t-11.5 56t-24 46.5t-41.5 29t-62.5 11q-94 0 -160 -67.5t-92 -173.5q-16 -66 -16 -131v-459h-258v778q0 45 -45 45h-82z" />
<glyph unicode="n" horiz-adv-x="1316" d="M43 823v221h240q137 0 137 -116v-31l-4 -45h4q15 29 35 56.5t53 57.5t72 52t93 36.5t115 14.5q365 0 365 -397v-408q0 -45 45 -45h82v-219h-248q-74 0 -106.5 33t-32.5 106v479q0 104 -36 158.5t-128 54.5q-102 0 -177 -58.5t-103 -154.5q-21 -64 -21 -139v-479h-258v778 q0 45 -45 45h-82z" />
<glyph unicode="o" horiz-adv-x="1275" d="M66 522q0 156 76.5 282t207 195.5t287.5 69.5q158 0 289 -69.5t207.5 -195.5t76.5 -282q0 -158 -76.5 -283.5t-207 -194.5t-289.5 -69q-158 0 -288 69t-206.5 194.5t-76.5 283.5zM328 522q0 -143 90 -234t219 -91q130 0 220.5 91t90.5 234q0 142 -90.5 234t-220.5 92 q-129 0 -219 -92t-90 -234z" />
<glyph unicode="p" horiz-adv-x="1271" d="M43 823v221h231q132 0 132 -100v-41h4q4 7 11 18t35.5 39.5t62.5 50.5t94 40t128 18q211 0 338 -151t127 -396q0 -246 -135 -396.5t-344 -150.5q-58 0 -110 14t-85 34.5t-58 41t-36 34.5l-10 14h-4q4 -37 4 -90v-433h-258v1188q0 45 -45 45h-82zM422 516q0 -131 68 -226 t190 -95q112 0 188 86.5t76 236.5q0 148 -72 238t-188 90q-111 0 -186.5 -83.5t-75.5 -246.5z" />
<glyph unicode="q" horiz-adv-x="1273" d="M68 522q0 247 132 397t341 150q67 0 124.5 -16t92.5 -38.5t60.5 -45t35.5 -38.5l10 -16h4v37q0 42 33 67t100 25h230v-221h-82q-45 0 -45 -45v-1188h-260v443l4 90h-4q-4 -6 -11 -16t-34.5 -35.5t-60.5 -45t-89 -35.5t-119 -16q-211 0 -336.5 151t-125.5 396zM330 522 q0 -148 72 -237.5t188 -89.5q111 0 186.5 83t75.5 246q0 84 -28 155.5t-88.5 119t-143.5 47.5q-111 0 -186.5 -87t-75.5 -237z" />
<glyph unicode="r" horiz-adv-x="843" d="M43 823v221h238q70 0 104.5 -30.5t34.5 -95.5v-62l-4 -65h4q37 117 126.5 192.5t205.5 75.5l47 -4v-256q-27 4 -64 4q-59 0 -113 -21.5t-101.5 -72.5t-69.5 -125q-23 -84 -23 -170v-414h-258v778q0 45 -45 45h-82z" />
<glyph unicode="s" horiz-adv-x="958" d="M51 162l123 170q5 -6 15 -16.5t43 -37t67 -47t85 -37t101 -16.5q63 0 102.5 26.5t39.5 76.5q0 29 -30.5 54.5t-79 46.5t-107 44t-117.5 53t-107.5 67t-79 93t-30.5 125q0 100 57 171t146.5 102.5t201.5 31.5q59 0 118 -10.5t117.5 -33.5t95 -68t36.5 -105v-109h-230v52 q0 34 -41 53.5t-90 19.5q-71 0 -113 -24.5t-42 -69.5q0 -33 30.5 -59.5t79.5 -46.5t108.5 -41t118.5 -49.5t108 -64t79.5 -91.5t30.5 -127q0 -145 -114 -232.5t-288 -87.5q-80 0 -154.5 19.5t-123 46.5t-85.5 54.5t-54 46.5z" />
<glyph unicode="t" horiz-adv-x="757" d="M39 838v206h141v285h254v-285h238v-206h-238v-422q0 -49 15 -86t37 -57.5t51.5 -33.5t54 -16.5t49.5 -3.5l47 4v-227q-33 -6 -80 -6q-36 0 -70 3t-79 13.5t-83 27.5t-76.5 47.5t-65 70.5t-43.5 99.5t-17 131.5v455h-135z" />
<glyph unicode="u" d="M39 823v221h248q72 0 104.5 -33t32.5 -104v-481q0 -104 35.5 -158.5t126.5 -54.5q135 0 214 102.5t79 249.5v479h260v-780q0 -45 45 -45h82v-219h-240q-67 0 -102 30.5t-35 86.5v28l2 48h-4q-40 -89 -137 -153.5t-224 -64.5q-360 0 -360 398v405q0 45 -45 45h-82z" />
<glyph unicode="v" horiz-adv-x="1116" d="M25 823v221h149q65 0 99.5 -22t54.5 -76l196 -549q10 -27 20 -64.5t14 -60.5l5 -24h4q17 88 37 149l197 549q20 54 55 76t98 22h140v-221h-25q-43 0 -57 -37l-299 -786h-310l-299 786q-14 37 -57 37h-22z" />
<glyph unicode="w" horiz-adv-x="1710" d="M20 823v221h179q65 0 98.5 -23.5t48.5 -82.5l154 -580q6 -24 11 -51.5t7 -42.5l2 -16h4q9 55 25 110l192 682h230l194 -682q7 -24 13 -51.5t8 -42.5l2 -16h4q6 55 20 110l152 580q15 59 48.5 82.5t98.5 23.5h179v-221h-29q-24 0 -36 -7.5t-21 -29.5l-250 -786h-293 l-178 596q-7 24 -13.5 52.5t-9.5 44.5l-2 16h-4q-11 -58 -27 -113l-176 -596h-295l-250 786q-7 22 -19.5 29.5t-37.5 7.5h-29z" />
<glyph unicode="x" horiz-adv-x="1048" d="M23 0l339 528l-172 260q-14 22 -29.5 28.5t-49.5 6.5h-76v221h182q66 0 100.5 -19.5t69.5 -78.5l102 -172l33 -67h4q19 40 33 67l103 172q35 59 68.5 78.5t100.5 19.5h181v-221h-74q-34 0 -50 -6.5t-30 -28.5l-174 -260l342 -528h-289l-182 291q-6 9 -13.5 22.5 t-11.5 22.5l-4 10h-4q-16 -32 -30 -55l-181 -291h-288z" />
<glyph unicode="y" horiz-adv-x="1132" d="M2 -324l100 185q7 -8 20 -20t52.5 -32t77.5 -20q117 0 172 133l35 80l-348 784q-9 22 -21 29.5t-35 7.5h-30v221h172q55 0 86 -22t51 -76l205 -522q9 -24 18 -58.5t13 -57.5l5 -23h5q16 86 34 139l179 522q18 53 51 75.5t88 22.5h176v-221h-31q-25 0 -37.5 -7.5 t-21.5 -29.5l-375 -944q-53 -136 -153.5 -204t-223.5 -68q-46 0 -90 11t-74 26.5t-53.5 31t-34.5 26.5z" />
<glyph unicode="z" horiz-adv-x="1046" d="M55 0v139l482 588q21 26 43 50t34 35l11 11v4q-31 -4 -97 -4h-188q-45 0 -45 -45v-59h-236v186q0 72 33.5 105.5t106.5 33.5h766v-141l-482 -588q-21 -25 -43 -49t-34 -36l-11 -11v-4q31 6 99 6h229q45 0 45 45v58h236v-185q0 -73 -33 -106t-105 -33h-811z" />
<glyph unicode="{" horiz-adv-x="720" d="M49 557v227q7 0 19 2t42 14.5t52.5 33.5t41.5 64.5t19 102.5v177q0 89 27.5 155t66 101.5t92 57t94 27t83.5 5.5l63 -2v-193q-17 2 -37 2t-39 -3t-43.5 -13.5t-42.5 -28.5t-30.5 -51.5t-12.5 -77.5v-223q0 -57 -17.5 -105t-42 -75.5t-49 -46.5t-41.5 -26l-18 -7v-4 q7 -2 18 -6.5t40 -24t51.5 -45.5t40.5 -74.5t18 -107.5v-246q0 -45 12.5 -78.5t30.5 -51t42.5 -28.5t43.5 -13.5t39 -2.5l37 2v-193q-26 -4 -63 -4q-43 0 -83.5 5.5t-94 27t-92 57t-66 102.5t-27.5 156v199q0 57 -18 100.5t-43.5 63.5t-51 32.5t-43.5 14.5z" />
<glyph unicode="|" horiz-adv-x="638" d="M209 -330v1960h221v-1960h-221z" />
<glyph unicode="}" horiz-adv-x="720" d="M72 -6q17 -2 37 -2t38.5 2.5t43 13.5t41.5 28.5t29.5 51t12.5 78.5v246q0 59 17.5 107.5t42.5 75t50 45t42 24.5l18 6v4q-7 2 -18.5 7t-40.5 25.5t-51.5 47t-41 75t-18.5 105.5v223q0 44 -12 77.5t-29.5 51.5t-42 28.5t-43 13.5t-38.5 3l-37 -2v193q26 2 63 2 q43 0 83.5 -5.5t94 -27t92 -57t66 -101.5t27.5 -155v-177q0 -59 18 -102.5t43.5 -64.5t51 -33.5t43.5 -14.5l18 -2v-227q-7 0 -19 -2t-42 -14.5t-52.5 -32.5t-41.5 -63.5t-19 -100.5v-199q0 -89 -27.5 -156t-66 -102.5t-92 -57t-94 -27t-83.5 -5.5l-63 4v193z" />
<glyph unicode="~" horiz-adv-x="1267" d="M115 408q0 186 81 279t234 93q57 0 104 -19t79 -46.5t60.5 -55t62.5 -46.5t71 -19q63 0 95 51t32 127h205q0 -187 -80.5 -280t-233.5 -93q-57 0 -104 19t-78.5 46.5t-60 54.5t-62.5 46t-71 19q-64 0 -95.5 -50.5t-31.5 -125.5h-207z" />
<glyph unicode="&#xa1;" horiz-adv-x="679" d="M205 -410l22 1033h228l20 -1033h-270zM215 801v241h250v-241h-250z" />
<glyph unicode="&#xa2;" horiz-adv-x="1198" d="M113 727q0 222 117 383t307 195v223h182v-223q132 -25 231.5 -112.5t147.5 -219.5l-234 -90q-32 81 -90 131.5t-139 50.5q-115 0 -187.5 -95t-72.5 -243q0 -154 70 -246t190 -92q81 0 139.5 50t89.5 132l234 -90q-23 -58 -56.5 -110.5t-80 -99.5t-109 -78.5t-133.5 -40.5 v-228h-182v228q-190 32 -307 192.5t-117 382.5z" />
<glyph unicode="&#xa3;" horiz-adv-x="1200" d="M96 0v227h119v410h-90v178h90v248q0 181 132 298.5t335 117.5q61 0 121.5 -15t102.5 -37t75 -44t49 -37l17 -15l-150 -180q-11 10 -30 24.5t-74.5 39t-106.5 24.5q-90 0 -146.5 -52.5t-56.5 -131.5v-240h363v-178h-363v-410h344q45 0 45 45v88h242v-221q0 -73 -32.5 -106 t-104.5 -33h-881z" />
<glyph unicode="&#xa5;" horiz-adv-x="1271" d="M27 1227v227h133q74 0 115 -20.5t81 -85.5l191 -320q23 -38 45 -78t32 -61l11 -21h4q37 74 88 160l191 320q38 65 79 85.5t115 20.5h133v-227h-43q-36 0 -52 -8t-34 -37l-188 -301v-4h168v-156h-271l-55 -86v-82h326v-156h-326v-397h-268v397h-328v156h328v82l-56 86 h-274v156h172v4l-188 301q-18 29 -34 37t-52 8h-43z" />
<glyph unicode="&#xa7;" horiz-adv-x="1030" d="M125 -2l111 176q4 -4 11.5 -10t32 -21.5t50 -27.5t63 -21.5t74.5 -9.5q92 0 151.5 52.5t59.5 154.5q0 46 -19 117l-137 661h205l145 -704q15 -77 15 -117q0 -166 -111.5 -270.5t-308.5 -104.5q-60 0 -117.5 13t-96.5 31.5t-69 36.5t-44 31zM164 1104q0 165 111.5 270 t308.5 105q60 0 117.5 -13t96.5 -31.5t69 -37.5t45 -32l14 -13l-117 -166q-11 9 -30 22.5t-77.5 35.5t-115.5 22q-95 0 -153 -47.5t-58 -145.5q0 -47 14 -102l141 -688h-202l-150 704q-14 68 -14 117z" />
<glyph unicode="&#xa8;" horiz-adv-x="1042" d="M260 1591v238h180v-238h-180zM627 1591v238h182v-238h-182z" />
<glyph unicode="&#xa9;" horiz-adv-x="1599" d="M66 727q0 153 58 292t156 239.5t233 159.5t284 59q151 0 287.5 -59t235 -159.5t156.5 -239.5t58 -292t-58 -292.5t-156.5 -240t-235 -160t-287.5 -59.5q-149 0 -284 59.5t-233 160t-156 240t-58 292.5zM248 727q0 -162 72.5 -296.5t198.5 -212t278 -77.5q155 0 283 77.5 t201 212t73 296.5q0 161 -73 295t-201 211.5t-283 77.5q-114 0 -216 -45.5t-175 -123.5t-115.5 -186.5t-42.5 -228.5zM424 723q0 166 108.5 282.5t274.5 116.5q51 0 96.5 -12t78 -31t60 -41.5t45 -45.5t30 -42t17.5 -31l5 -12l-156 -73q-2 5 -6.5 13t-20 28t-33.5 35.5 t-47.5 28.5t-62.5 13q-90 0 -145.5 -65.5t-55.5 -163.5q0 -101 54 -165t147 -64q33 0 63 12t48.5 29.5t32.5 35t20 29.5l6 12l156 -71q-2 -5 -5.5 -12.5t-17 -30t-30 -43t-45 -45.5t-60.5 -43t-77.5 -30.5t-96.5 -12.5q-166 0 -274.5 116.5t-108.5 282.5z" />
<glyph unicode="&#xaa;" horiz-adv-x="851" d="M100 993q0 46 18.5 83t50.5 59.5t68.5 38t81 23t79 10.5t69.5 3h29q-3 64 -25.5 88.5t-75.5 24.5q-69 0 -69 -31v-30h-176v86q0 38 27.5 65.5t70.5 39.5t79 17t68 5q287 0 287 -269v-221q0 -24 23 -24h53v-164h-140q-91 0 -104 71l-2 19h-4q-2 -4 -7 -11t-21.5 -25 t-36 -31.5t-51.5 -24.5t-68 -11q-92 0 -158 56t-66 153zM102 545v139h660v-139h-660zM291 1001q0 -30 19.5 -49.5t58.5 -19.5q56 0 89.5 45t39.5 113h-21q-186 0 -186 -89z" />
<glyph unicode="&#xab;" horiz-adv-x="1257" d="M94 578l336 421h248l-336 -421l336 -420h-248zM553 578l336 421h248l-336 -421l336 -420h-248z" />
<glyph unicode="&#xac;" horiz-adv-x="1267" d="M135 694v201h1000v-602h-209v401h-791z" />
<glyph unicode="&#xad;" horiz-adv-x="882" d="M133 471v227h617v-227h-617z" />
<glyph unicode="&#xae;" horiz-adv-x="1599" d="M66 727q0 153 58 292t156 239.5t233 159.5t284 59q151 0 287.5 -59t235 -159.5t156.5 -239.5t58 -292t-58 -292.5t-156.5 -240t-235 -160t-287.5 -59.5q-149 0 -284 59.5t-233 160t-156 240t-58 292.5zM248 727q0 -162 72.5 -296.5t198.5 -212t278 -77.5q155 0 283 77.5 t201 212t73 296.5q0 161 -73 295t-201 211.5t-283 77.5q-114 0 -216 -45.5t-175 -123.5t-115.5 -186.5t-42.5 -228.5zM475 979v127h377q110 0 178 -65.5t68 -172.5q0 -79 -42 -130t-91 -64v-4q27 -6 47 -41l65 -123q14 -25 45 -25h23v-125h-98q-43 0 -66 11.5t-41 44.5 l-100 188q-11 21 -26.5 27t-41.5 6h-57v-277h-174v623h-66zM715 756h96q51 0 80 30t29 82q0 53 -28.5 82t-78.5 29h-98v-223z" />
<glyph unicode="&#xaf;" horiz-adv-x="956" d="M213 1604v172h537v-172h-537z" />
<glyph unicode="&#xb0;" horiz-adv-x="839" d="M86 1157q0 133 97.5 228.5t236.5 95.5q138 0 236 -96t98 -228q0 -134 -97.5 -227.5t-236.5 -93.5q-140 0 -237 93t-97 228zM285 1157q0 -57 39 -96t96 -39t97 39t40 96q0 56 -40 95.5t-97 39.5t-96 -39.5t-39 -95.5z" />
<glyph unicode="&#xb1;" horiz-adv-x="1267" d="M86 483v203h442v485h211v-485h443v-203h-443v-483h-211v483h-442zM115 -174h1040v-201h-1040v201z" />
<glyph unicode="&#xb2;" horiz-adv-x="894" d="M106 686q0 51 16 95.5t37 74.5t59.5 62t65 48.5t72.5 43.5q86 48 130 88.5t44 97.5q0 44 -29 70t-77 26q-44 0 -71 -18t-27 -43v-45h-181v102q0 60 50 103.5t111.5 61t119.5 17.5q128 0 215.5 -72.5t87.5 -197.5q0 -30 -6 -58t-13.5 -50t-24.5 -45t-28.5 -38t-36.5 -35 l-37.5 -30t-42 -27.5t-40 -23.5t-41.5 -23q-75 -40 -113.5 -71t-38.5 -70q0 -12 23 -12h245q13 0 13 12v68h180v-150q0 -53 -24 -76.5t-76 -23.5h-459q-60 0 -81.5 27t-21.5 112z" />
<glyph unicode="&#xb3;" horiz-adv-x="894" d="M111 713l135 121q3 -5 9.5 -13t27.5 -29t43 -37t55 -29t65 -13q56 0 94 33t38 83q0 49 -39 79t-101 30h-71l-27 109l147 198q8 10 18 21t17 16l6 6v4q-30 -4 -63 -4h-115q-18 0 -18 -18v-49h-180v133q0 56 21 78t77 22h504v-133l-189 -234q95 -20 153 -94.5t58 -167.5 q0 -132 -97 -213.5t-230 -81.5q-57 0 -113 19t-95 45.5t-69.5 53.5t-45.5 46z" />
<glyph unicode="&#xb4;" horiz-adv-x="827" d="M252 1550l156 279h249l-215 -279h-190z" />
<glyph unicode="&#xb5;" d="M39 823v221h248q72 0 104.5 -33t32.5 -104v-481q0 -104 35.5 -158.5t126.5 -54.5q135 0 214 102.5t79 249.5v479h260v-780q0 -45 45 -45h82v-219h-240q-68 0 -102.5 30.5t-34.5 86.5v28l2 48h-6q-2 -5 -6 -12.5t-18.5 -30.5t-32.5 -43.5t-48.5 -45.5t-65 -43t-84 -30.5 t-104.5 -12.5q-46 0 -83 10.5t-51 21.5l-13 11h-4q14 -100 14 -170v-258h-223v1188q0 45 -45 45h-82z" />
<glyph unicode="&#xb6;" horiz-adv-x="1280" d="M80 975q0 201 141 340t340 139h625v-227h-436v-1329h-189v596q-199 0 -340 140t-141 341zM877 -102v1216h190v-1216h-190z" />
<glyph unicode="&#xb7;" horiz-adv-x="542" d="M145 469v258h252v-258h-252z" />
<glyph unicode="&#xb8;" horiz-adv-x="860" d="M231 -268q44 -17 91 -17q88 0 88 58q0 55 -99 55l-43 -4l64 227l119 -26v-15l-21 -100q66 -8 108 -48t42 -108q0 -49 -19 -85t-51.5 -56t-70.5 -29.5t-81 -9.5q-31 0 -63 3.5t-48 6.5l-16 4v144z" />
<glyph unicode="&#xb9;" horiz-adv-x="894" d="M127 1229l235 225h170v-737h187v-170h-572v170h189v420l2 63h-4q-9 -19 -23 -31l-69 -65z" />
<glyph unicode="&#xba;" horiz-adv-x="931" d="M106 1133q0 148 104.5 245t254.5 97q151 0 255.5 -96.5t104.5 -245.5q0 -150 -104.5 -248.5t-255.5 -98.5q-150 0 -254.5 98.5t-104.5 248.5zM137 545v139h660v-139h-660zM293 1133q0 -80 50 -131.5t122 -51.5q73 0 123.5 51.5t50.5 131.5q0 78 -50.5 129t-123.5 51 q-72 0 -122 -51t-50 -129z" />
<glyph unicode="&#xbb;" horiz-adv-x="1257" d="M119 158l336 420l-336 421h248l335 -421l-335 -420h-248zM580 158l335 420l-335 421h247l336 -421l-336 -420h-247z" />
<glyph unicode="&#xbc;" horiz-adv-x="1931" d="M137 1229l234 225h170v-737h178v-170h-561v170h188v420l2 63h-4q-8 -19 -22 -31l-70 -65zM614 0l568 1454h202l-567 -1454h-203zM1102 221v115l358 573h236v-516h133v-172h-133v-221h-197v221h-397zM1300 391q25 2 39 2h164v244l2 70h-4q-12 -31 -28 -58l-144 -219 l-29 -35v-4z" />
<glyph unicode="&#xbd;" horiz-adv-x="1931" d="M137 1229l234 225h170v-737h178v-170h-561v170h188v420l2 63h-4q-8 -19 -22 -31l-70 -65zM590 0l567 1454h201l-567 -1454h-201zM1161 141q0 50 16 94.5t37.5 75t59.5 62t66 49t73 43.5q43 25 66.5 40t52.5 39t42 50t13 57q0 43 -29.5 68.5t-78.5 25.5q-43 0 -70 -17.5 t-27 -41.5v-47h-180v102q0 46 29 83t73 58.5t90.5 32.5t88.5 11q128 0 215.5 -74t87.5 -199q0 -43 -10 -80.5t-32.5 -68.5t-43 -53.5t-57 -47t-57.5 -37t-62 -34.5q-7 -4 -11 -6q-72 -39 -110.5 -72t-38.5 -72q0 -12 22 -12h244q12 0 12 14v66h183v-150q0 -52 -25 -76 t-78 -24h-456q-61 0 -83 27.5t-22 113.5z" />
<glyph unicode="&#xbe;" horiz-adv-x="1931" d="M119 713l133 121q4 -5 10 -13t27.5 -29t43.5 -37t55 -29t65 -13q56 0 93.5 32.5t37.5 83.5q0 49 -39 79t-101 30h-71l-27 109l148 198q8 10 18 21t16 16l7 6v4q-31 -4 -64 -4h-115q-18 0 -18 -18v-49h-180v133q0 56 21 78t77 22h504v-133l-189 -234q95 -20 153 -94.5 t58 -167.5q0 -132 -97 -213.5t-230 -81.5q-57 0 -113 19t-94.5 45.5t-69 53.5t-44.5 46zM608 0l568 1454h200l-565 -1454h-203zM1102 221v115l358 573h236v-516h133v-172h-133v-221h-197v221h-397zM1300 391q25 2 39 2h164v244l2 70h-4q-12 -31 -28 -58l-144 -219l-29 -35 v-4z" />
<glyph unicode="&#xbf;" horiz-adv-x="974" d="M68 -45q0 68 19.5 126.5t51.5 100.5t70 79t76 70t70 65t51.5 72t19.5 85v72h250v-90q0 -60 -18.5 -112.5t-48 -91t-65.5 -73.5t-72 -66t-65.5 -62t-48 -69.5t-18.5 -80.5q0 -72 57.5 -122.5t141.5 -50.5q52 0 106 22.5t83 44.5l28 22l145 -181q-6 -6 -17 -15.5 t-48.5 -34.5t-79.5 -44.5t-107 -35t-133 -15.5q-118 0 -218.5 44.5t-165 134t-64.5 206.5zM426 803v241h250v-241h-250z" />
<glyph unicode="&#xc0;" horiz-adv-x="1380" d="M23 0v227h32q27 0 41 9t23 36l432 1182h280l431 -1182q9 -27 22.5 -36t40.5 -9h33v-227h-160q-76 0 -111.5 25t-60.5 94l-90 254h-492l-90 -254q-25 -70 -59.5 -94.5t-110.5 -24.5h-161zM377 1829h250l155 -279h-192zM506 594h368l-124 364q-12 36 -26.5 90.5t-23.5 91.5 l-8 36h-4q-30 -138 -57 -218z" />
<glyph unicode="&#xc1;" horiz-adv-x="1380" d="M23 0v227h32q27 0 41 9t23 36l432 1182h280l431 -1182q9 -27 22.5 -36t40.5 -9h33v-227h-160q-76 0 -111.5 25t-60.5 94l-90 254h-492l-90 -254q-25 -70 -59.5 -94.5t-110.5 -24.5h-161zM506 594h368l-124 364q-12 36 -26.5 90.5t-23.5 91.5l-8 36h-4q-30 -138 -57 -218z M590 1550l155 279h250l-215 -279h-190z" />
<glyph unicode="&#xc2;" horiz-adv-x="1380" d="M23 0v227h32q27 0 41 9t23 36l432 1182h280l431 -1182q9 -27 22.5 -36t40.5 -9h33v-227h-160q-76 0 -111.5 25t-60.5 94l-90 254h-492l-90 -254q-25 -70 -59.5 -94.5t-110.5 -24.5h-161zM393 1550l187 279h223l188 -279h-194l-103 166h-4l-104 -166h-193zM506 594h368 l-124 364q-12 36 -26.5 90.5t-23.5 91.5l-8 36h-4q-30 -138 -57 -218z" />
<glyph unicode="&#xc3;" horiz-adv-x="1380" d="M23 0v227h32q27 0 41 9t23 36l432 1182h280l431 -1182q9 -27 22.5 -36t40.5 -9h33v-227h-160q-76 0 -111.5 25t-60.5 94l-90 254h-492l-90 -254q-25 -70 -59.5 -94.5t-110.5 -24.5h-161zM319 1552q0 281 234 281q48 0 88.5 -21t63.5 -45.5t52.5 -45.5t57.5 -21 q40 0 62 37t22 90h162q0 -281 -234 -281q-48 0 -88.5 21t-63.5 45.5t-52.5 45.5t-57.5 21q-41 0 -62.5 -36.5t-21.5 -90.5h-162zM506 594h368l-124 364q-12 36 -26.5 90.5t-23.5 91.5l-8 36h-4q-30 -138 -57 -218z" />
<glyph unicode="&#xc4;" horiz-adv-x="1380" d="M23 0v227h32q27 0 41 9t23 36l432 1182h280l431 -1182q9 -27 22.5 -36t40.5 -9h33v-227h-160q-76 0 -111.5 25t-60.5 94l-90 254h-492l-90 -254q-25 -70 -59.5 -94.5t-110.5 -24.5h-161zM418 1591v238h180v-238h-180zM506 594h368l-124 364q-12 36 -26.5 90.5t-23.5 91.5 l-8 36h-4q-30 -138 -57 -218zM784 1591v238h183v-238h-183z" />
<glyph unicode="&#xc5;" horiz-adv-x="1380" d="M23 0v227h32q27 0 41 9t23 36l432 1182h280l431 -1182q9 -27 22.5 -36t40.5 -9h33v-227h-160q-76 0 -111.5 25t-60.5 94l-90 254h-492l-90 -254q-25 -70 -59.5 -94.5t-110.5 -24.5h-161zM506 594h368l-124 364q-12 36 -26.5 90.5t-23.5 91.5l-8 36h-4q-30 -138 -57 -218z M508 1686q0 75 54 118t128 43t128 -43t54 -118q0 -74 -54 -117t-128 -43t-128 43t-54 117zM618 1686q0 -31 20.5 -50.5t51.5 -19.5t51.5 19.5t20.5 50.5q0 32 -20.5 51.5t-51.5 19.5t-51.5 -19.5t-20.5 -51.5z" />
<glyph unicode="&#xc6;" horiz-adv-x="1824" d="M23 0v227h28q28 0 41 9t23 36l485 1182h989q73 0 106.5 -33.5t33.5 -105.5v-221h-244v88q0 45 -45 45h-320v-381h465v-228h-465v-346q0 -24 12 -34.5t39 -10.5h324q45 0 45 45v88h242v-221q0 -73 -33 -106t-107 -33h-645q-79 0 -113 31t-34 108v479h-326l-186 -499 q-27 -69 -62 -94t-110 -25h-143zM610 846h240v381h-96z" />
<glyph unicode="&#xc7;" horiz-adv-x="1452" d="M61 739q0 207 96 376.5t265 266.5t377 97q60 0 129 -9.5t145 -34t136.5 -60t100.5 -93.5t40 -129v-162h-244v82q0 50 -50 87t-116.5 53t-134.5 16q-200 0 -332.5 -134t-132.5 -356q0 -105 36 -200t98 -164t149 -109.5t184 -40.5q77 0 151.5 19.5t125.5 48t91 56.5t59 47 l19 20l142 -191q-8 -10 -23.5 -26t-69.5 -57t-114 -73.5t-157 -60.5t-200 -31l-14 -67q66 -8 108 -48t42 -108q0 -94 -64 -137t-158 -43q-31 0 -62 3.5t-47 6.5l-15 4v144q43 -17 88 -17q90 0 90 58q0 55 -99 55l-43 -4l43 158q-191 22 -337 127t-224 268.5t-78 361.5z" />
<glyph unicode="&#xc8;" horiz-adv-x="1183" d="M70 1227v227h878q72 0 105.5 -33.5t33.5 -105.5v-221h-243v88q0 45 -45 45h-328v-381h471v-228h-471v-346q0 -45 45 -45h336q45 0 45 45v88h244v-221q0 -73 -33.5 -106t-106.5 -33h-659q-74 0 -106.5 33t-32.5 106v1088h-133zM295 1829h250l155 -279h-192z" />
<glyph unicode="&#xc9;" horiz-adv-x="1183" d="M70 1227v227h878q72 0 105.5 -33.5t33.5 -105.5v-221h-243v88q0 45 -45 45h-328v-381h471v-228h-471v-346q0 -45 45 -45h336q45 0 45 45v88h244v-221q0 -73 -33.5 -106t-106.5 -33h-659q-74 0 -106.5 33t-32.5 106v1088h-133zM508 1550l156 279h249l-215 -279h-190z" />
<glyph unicode="&#xca;" horiz-adv-x="1183" d="M70 1227v227h878q72 0 105.5 -33.5t33.5 -105.5v-221h-243v88q0 45 -45 45h-328v-381h471v-228h-471v-346q0 -45 45 -45h336q45 0 45 45v88h244v-221q0 -73 -33.5 -106t-106.5 -33h-659q-74 0 -106.5 33t-32.5 106v1088h-133zM309 1550l187 279h223l188 -279h-194 l-103 166h-4l-104 -166h-193z" />
<glyph unicode="&#xcb;" horiz-adv-x="1183" d="M70 1227v227h878q72 0 105.5 -33.5t33.5 -105.5v-221h-243v88q0 45 -45 45h-328v-381h471v-228h-471v-346q0 -45 45 -45h336q45 0 45 45v88h244v-221q0 -73 -33.5 -106t-106.5 -33h-659q-74 0 -106.5 33t-32.5 106v1088h-133zM336 1591v238h180v-238h-180zM702 1591v238 h183v-238h-183z" />
<glyph unicode="&#xcc;" horiz-adv-x="700" d="M37 1829h250l155 -279h-192zM78 0v227h145v1000h-145v227h545v-227h-146v-1000h146v-227h-545z" />
<glyph unicode="&#xcd;" horiz-adv-x="700" d="M78 0v227h145v1000h-145v227h545v-227h-146v-1000h146v-227h-545zM250 1550l156 279h249l-215 -279h-190z" />
<glyph unicode="&#xce;" horiz-adv-x="700" d="M51 1550l187 279h223l188 -279h-194l-103 166h-4l-104 -166h-193zM78 0v227h145v1000h-145v227h545v-227h-146v-1000h146v-227h-545z" />
<glyph unicode="&#xcf;" horiz-adv-x="700" d="M76 1591v238h180v-238h-180zM78 0v227h145v1000h-145v227h545v-227h-146v-1000h146v-227h-545zM442 1591v238h183v-238h-183z" />
<glyph unicode="&#xd0;" horiz-adv-x="1464" d="M70 1227v227h592q340 0 540.5 -192t200.5 -533t-200.5 -535t-540.5 -194h-320q-74 0 -106.5 33t-32.5 106v477h-99v215h99v396h-133zM471 272q0 -45 45 -45h131q222 0 349.5 130t127.5 372q0 239 -128.5 368.5t-348.5 129.5h-176v-396h252v-215h-252v-344z" />
<glyph unicode="&#xd1;" horiz-adv-x="1576" d="M70 0v227h88q45 0 45 45v1182h241l551 -805q25 -37 55.5 -88.5t47.5 -84.5l18 -32h4q-14 121 -14 205v666q0 72 33 105.5t106 33.5h262v-227h-88q-45 0 -45 -45v-1182h-239l-553 803q-25 36 -55.5 87.5t-48.5 84.5l-17 33h-4q14 -121 14 -205v-664q0 -73 -32.5 -106 t-106.5 -33h-262zM434 1552q0 281 234 281q48 0 88.5 -21t63.5 -45.5t52.5 -45.5t57.5 -21q40 0 62 37t22 90h162q0 -281 -234 -281q-48 0 -88.5 21t-63.5 45.5t-52.5 45.5t-57.5 21q-41 0 -62.5 -36.5t-21.5 -90.5h-162z" />
<glyph unicode="&#xd2;" horiz-adv-x="1626" d="M61 737q0 154 58 291t157.5 236t239 157t297.5 58t297.5 -58t239 -157t157.5 -236t58 -291q0 -158 -58 -299t-157.5 -242.5t-239 -161t-297.5 -59.5t-297.5 59.5t-239 161t-157.5 242.5t-58 299zM340 737q0 -143 63.5 -261t172 -184.5t237.5 -66.5t237.5 66.5t172 184.5 t63.5 261q0 208 -137.5 350t-335.5 142t-335.5 -142t-137.5 -350zM496 1829h249l156 -279h-192z" />
<glyph unicode="&#xd3;" horiz-adv-x="1626" d="M61 737q0 154 58 291t157.5 236t239 157t297.5 58t297.5 -58t239 -157t157.5 -236t58 -291q0 -158 -58 -299t-157.5 -242.5t-239 -161t-297.5 -59.5t-297.5 59.5t-239 161t-157.5 242.5t-58 299zM340 737q0 -143 63.5 -261t172 -184.5t237.5 -66.5t237.5 66.5t172 184.5 t63.5 261q0 208 -137.5 350t-335.5 142t-335.5 -142t-137.5 -350zM709 1550l155 279h250l-215 -279h-190z" />
<glyph unicode="&#xd4;" horiz-adv-x="1626" d="M61 737q0 154 58 291t157.5 236t239 157t297.5 58t297.5 -58t239 -157t157.5 -236t58 -291q0 -158 -58 -299t-157.5 -242.5t-239 -161t-297.5 -59.5t-297.5 59.5t-239 161t-157.5 242.5t-58 299zM340 737q0 -143 63.5 -261t172 -184.5t237.5 -66.5t237.5 66.5t172 184.5 t63.5 261q0 208 -137.5 350t-335.5 142t-335.5 -142t-137.5 -350zM510 1550l186 279h224l188 -279h-195l-102 166h-4l-105 -166h-192z" />
<glyph unicode="&#xd5;" horiz-adv-x="1626" d="M61 737q0 154 58 291t157.5 236t239 157t297.5 58t297.5 -58t239 -157t157.5 -236t58 -291q0 -158 -58 -299t-157.5 -242.5t-239 -161t-297.5 -59.5t-297.5 59.5t-239 161t-157.5 242.5t-58 299zM340 737q0 -143 63.5 -261t172 -184.5t237.5 -66.5t237.5 66.5t172 184.5 t63.5 261q0 208 -137.5 350t-335.5 142t-335.5 -142t-137.5 -350zM436 1552q0 281 234 281q48 0 88.5 -21t63.5 -45.5t52.5 -45.5t57.5 -21q40 0 62 37t22 90h162q0 -281 -234 -281q-48 0 -88.5 21t-63.5 45.5t-52.5 45.5t-57.5 21q-41 0 -62.5 -36.5t-21.5 -90.5h-162z" />
<glyph unicode="&#xd6;" horiz-adv-x="1626" d="M61 737q0 154 58 291t157.5 236t239 157t297.5 58t297.5 -58t239 -157t157.5 -236t58 -291q0 -158 -58 -299t-157.5 -242.5t-239 -161t-297.5 -59.5t-297.5 59.5t-239 161t-157.5 242.5t-58 299zM340 737q0 -143 63.5 -261t172 -184.5t237.5 -66.5t237.5 66.5t172 184.5 t63.5 261q0 208 -137.5 350t-335.5 142t-335.5 -142t-137.5 -350zM535 1591v238h180v-238h-180zM901 1591v238h182v-238h-182z" />
<glyph unicode="&#xd7;" horiz-adv-x="1267" d="M94 141l404 445l-404 442l142 143l399 -438l399 438l142 -143l-406 -442l406 -445l-142 -141l-399 438l-399 -438z" />
<glyph unicode="&#xd8;" horiz-adv-x="1628" d="M63 737q0 154 58 291t157.5 236t239 157t297.5 58q203 0 381 -101l94 129l117 -80l-94 -129q119 -105 186.5 -250t67.5 -311q0 -158 -58 -299t-158 -242.5t-239.5 -161t-296.5 -59.5q-206 0 -381 101l-94 -129l-117 80l92 131q-119 106 -185.5 255.5t-66.5 323.5z M342 737q0 -213 135 -358l567 788q-108 62 -229 62q-198 0 -335.5 -142t-137.5 -350zM586 287q103 -62 229 -62q196 0 333.5 147.5t137.5 364.5q0 199 -133 338z" />
<glyph unicode="&#xd9;" horiz-adv-x="1515" d="M53 1227v227h262q73 0 106.5 -33.5t33.5 -105.5v-789q0 -141 82.5 -221t220.5 -80q139 0 221 80t82 223v787q0 72 33 105.5t106 33.5h262v-227h-88q-45 0 -45 -45v-664q0 -242 -156.5 -392.5t-412.5 -150.5q-259 0 -416.5 150.5t-157.5 392.5v664q0 45 -45 45h-88z M446 1829h250l156 -279h-193z" />
<glyph unicode="&#xda;" horiz-adv-x="1515" d="M53 1227v227h262q73 0 106.5 -33.5t33.5 -105.5v-789q0 -141 82.5 -221t220.5 -80q139 0 221 80t82 223v787q0 72 33 105.5t106 33.5h262v-227h-88q-45 0 -45 -45v-664q0 -242 -156.5 -392.5t-412.5 -150.5q-259 0 -416.5 150.5t-157.5 392.5v664q0 45 -45 45h-88z M659 1550l156 279h250l-215 -279h-191z" />
<glyph unicode="&#xdb;" horiz-adv-x="1515" d="M53 1227v227h262q73 0 106.5 -33.5t33.5 -105.5v-789q0 -141 82.5 -221t220.5 -80q139 0 221 80t82 223v787q0 72 33 105.5t106 33.5h262v-227h-88q-45 0 -45 -45v-664q0 -242 -156.5 -392.5t-412.5 -150.5q-259 0 -416.5 150.5t-157.5 392.5v664q0 45 -45 45h-88z M461 1550l186 279h223l189 -279h-195l-102 166h-4l-105 -166h-192z" />
<glyph unicode="&#xdc;" horiz-adv-x="1515" d="M53 1227v227h262q73 0 106.5 -33.5t33.5 -105.5v-789q0 -141 82.5 -221t220.5 -80q139 0 221 80t82 223v787q0 72 33 105.5t106 33.5h262v-227h-88q-45 0 -45 -45v-664q0 -242 -156.5 -392.5t-412.5 -150.5q-259 0 -416.5 150.5t-157.5 392.5v664q0 45 -45 45h-88z M485 1591v238h181v-238h-181zM852 1591v238h182v-238h-182z" />
<glyph unicode="&#xdd;" horiz-adv-x="1259" d="M20 1227v227h138q74 0 112 -20t78 -86l193 -320q23 -37 45 -78t32 -64l11 -22h4q37 78 88 164l190 320q38 66 77 86t114 20h137v-227h-47q-33 0 -48.5 -9t-35.5 -40l-344 -543v-635h-268v635l-344 543q-20 31 -35.5 40t-48.5 9h-48zM530 1550l156 279h250l-215 -279h-191 z" />
<glyph unicode="&#xde;" horiz-adv-x="1249" d="M70 1227v227h262q73 0 106 -33.5t33 -105.5v-96h264q205 0 334 -131.5t129 -342.5q0 -212 -129.5 -344.5t-335.5 -132.5h-262v-268h-268v1182q0 45 -45 45h-88zM471 496h215q113 0 175.5 67t62.5 182q0 114 -62 180t-172 66h-219v-495z" />
<glyph unicode="&#xdf;" horiz-adv-x="1224" d="M37 0v219h72q45 0 45 45v819q0 124 69 216t175 136t229 44q178 0 301 -102t123 -255q0 -50 -19 -94.5t-46.5 -75.5t-54.5 -59.5t-46 -60.5t-19 -64q0 -25 18.5 -50t47.5 -48.5t64.5 -50t71 -58t64.5 -67.5t47.5 -85t18.5 -104q0 -80 -30.5 -144t-82 -104t-117 -61 t-139.5 -21q-56 0 -107.5 9t-85.5 21.5t-60 25t-38 21.5l-12 9l60 201q11 -7 29.5 -18t72.5 -29t103 -18q64 0 104.5 29t40.5 93q0 33 -24.5 66.5t-61.5 61t-80 62t-80 68.5t-61.5 82.5t-24.5 102.5q0 44 19 85t46 72.5t54 62t46 65.5t19 71q0 57 -45.5 98t-124.5 41 q-86 0 -145 -48.5t-59 -143.5v-926q0 -73 -33 -106t-107 -33h-237z" />
<glyph unicode="&#xe0;" horiz-adv-x="1146" d="M68 301q0 68 26 123t66.5 91t98.5 63t113 41t119.5 23t108 11t88.5 2h33v9q0 111 -45.5 157.5t-147.5 46.5q-21 0 -42 -3t-44.5 -10t-38 -21.5t-14.5 -34.5v-56h-242v111q0 47 20 83.5t55.5 59t74.5 38t86 22.5t80.5 9.5t66.5 2.5q451 0 451 -416v-389q0 -45 45 -45h82 v-219h-234q-68 0 -100.5 32.5t-32.5 82.5l2 45h-4q-3 -8 -10 -20t-33 -44t-59 -56.5t-90 -44.5t-123 -20q-147 0 -251.5 88t-104.5 238zM242 1452h250l155 -278h-192zM330 313q0 -56 41 -95.5t116 -39.5q66 0 122 42.5t86 105.5t30 127v24h-45q-350 0 -350 -164z" />
<glyph unicode="&#xe1;" horiz-adv-x="1146" d="M68 301q0 68 26 123t66.5 91t98.5 63t113 41t119.5 23t108 11t88.5 2h33v9q0 111 -45.5 157.5t-147.5 46.5q-21 0 -42 -3t-44.5 -10t-38 -21.5t-14.5 -34.5v-56h-242v111q0 47 20 83.5t55.5 59t74.5 38t86 22.5t80.5 9.5t66.5 2.5q451 0 451 -416v-389q0 -45 45 -45h82 v-219h-234q-68 0 -100.5 32.5t-32.5 82.5l2 45h-4q-3 -8 -10 -20t-33 -44t-59 -56.5t-90 -44.5t-123 -20q-147 0 -251.5 88t-104.5 238zM330 313q0 -56 41 -95.5t116 -39.5q66 0 122 42.5t86 105.5t30 127v24h-45q-350 0 -350 -164zM455 1174l155 278h250l-215 -278h-190z " />
<glyph unicode="&#xe2;" horiz-adv-x="1146" d="M68 301q0 68 26 123t66.5 91t98.5 63t113 41t119.5 23t108 11t88.5 2h33v9q0 111 -45.5 157.5t-147.5 46.5q-21 0 -42 -3t-44.5 -10t-38 -21.5t-14.5 -34.5v-56h-242v111q0 47 20 83.5t55.5 59t74.5 38t86 22.5t80.5 9.5t66.5 2.5q451 0 451 -416v-389q0 -45 45 -45h82 v-219h-234q-68 0 -100.5 32.5t-32.5 82.5l2 45h-4q-3 -8 -10 -20t-33 -44t-59 -56.5t-90 -44.5t-123 -20q-147 0 -251.5 88t-104.5 238zM258 1174l186 278h224l188 -278h-194l-103 165h-4l-104 -165h-193zM330 313q0 -56 41 -95.5t116 -39.5q66 0 122 42.5t86 105.5t30 127 v24h-45q-350 0 -350 -164z" />
<glyph unicode="&#xe3;" horiz-adv-x="1146" d="M68 301q0 68 26 123t66.5 91t98.5 63t113 41t119.5 23t108 11t88.5 2h33v9q0 111 -45.5 157.5t-147.5 46.5q-21 0 -42 -3t-44.5 -10t-38 -21.5t-14.5 -34.5v-56h-242v111q0 47 20 83.5t55.5 59t74.5 38t86 22.5t80.5 9.5t66.5 2.5q451 0 451 -416v-389q0 -45 45 -45h82 v-219h-234q-68 0 -100.5 32.5t-32.5 82.5l2 45h-4q-3 -8 -10 -20t-33 -44t-59 -56.5t-90 -44.5t-123 -20q-147 0 -251.5 88t-104.5 238zM184 1176q0 280 234 280q48 0 88.5 -21t63.5 -45.5t52.5 -45.5t57.5 -21q40 0 62 37t22 90h162q0 -281 -234 -281q-39 0 -72.5 14 t-56.5 33.5t-43.5 39t-43.5 33.5t-46 14q-41 0 -62.5 -36.5t-21.5 -90.5h-162zM330 313q0 -56 41 -95.5t116 -39.5q66 0 122 42.5t86 105.5t30 127v24h-45q-350 0 -350 -164z" />
<glyph unicode="&#xe4;" horiz-adv-x="1146" d="M68 301q0 68 26 123t66.5 91t98.5 63t113 41t119.5 23t108 11t88.5 2h33v9q0 111 -45.5 157.5t-147.5 46.5q-21 0 -42 -3t-44.5 -10t-38 -21.5t-14.5 -34.5v-56h-242v111q0 47 20 83.5t55.5 59t74.5 38t86 22.5t80.5 9.5t66.5 2.5q451 0 451 -416v-389q0 -45 45 -45h82 v-219h-234q-68 0 -100.5 32.5t-32.5 82.5l2 45h-4q-3 -8 -10 -20t-33 -44t-59 -56.5t-90 -44.5t-123 -20q-147 0 -251.5 88t-104.5 238zM283 1214v238h180v-238h-180zM330 313q0 -56 41 -95.5t116 -39.5q66 0 122 42.5t86 105.5t30 127v24h-45q-350 0 -350 -164zM649 1214 v238h182v-238h-182z" />
<glyph unicode="&#xe5;" horiz-adv-x="1146" d="M68 301q0 68 26 123t66.5 91t98.5 63t113 41t119.5 23t108 11t88.5 2h33v9q0 111 -45.5 157.5t-147.5 46.5q-21 0 -42 -3t-44.5 -10t-38 -21.5t-14.5 -34.5v-56h-242v111q0 47 20 83.5t55.5 59t74.5 38t86 22.5t80.5 9.5t66.5 2.5q451 0 451 -416v-389q0 -45 45 -45h82 v-219h-234q-68 0 -100.5 32.5t-32.5 82.5l2 45h-4q-3 -8 -10 -20t-33 -44t-59 -56.5t-90 -44.5t-123 -20q-147 0 -251.5 88t-104.5 238zM330 313q0 -56 41 -95.5t116 -39.5q66 0 122 42.5t86 105.5t30 127v24h-45q-350 0 -350 -164zM373 1309q0 75 54 118t128 43t128 -43 t54 -118q0 -74 -54 -117t-128 -43t-128 43t-54 117zM483 1309q0 -31 20.5 -50.5t51.5 -19.5t51.5 19.5t20.5 50.5q0 32 -20.5 51.5t-51.5 19.5t-51.5 -19.5t-20.5 -51.5z" />
<glyph unicode="&#xe6;" horiz-adv-x="1773" d="M70 301q0 67 24.5 121.5t63 90.5t94.5 62.5t109.5 41t118.5 23t111.5 11t96.5 2.5h35v15q0 110 -48.5 155t-146.5 45q-21 0 -42.5 -3t-44.5 -10t-37.5 -21.5t-14.5 -34.5v-56h-242v111q0 61 35.5 105.5t95.5 67t122 32.5t130 10q252 0 349 -154h4q126 154 348 154 q111 0 200 -40.5t144.5 -111t85 -162.5t29.5 -198l-4 -84h-715q17 -135 100.5 -205.5t206.5 -70.5q47 0 94.5 12t81.5 29t61.5 34t41.5 29l14 12l108 -180q-6 -6 -18.5 -17t-54 -38t-87 -48t-116 -38t-143.5 -17q-151 0 -261.5 60.5t-177.5 169.5h-4q-8 -19 -23 -43 t-48.5 -58t-75 -61t-106 -46.5t-138.5 -19.5q-151 0 -253.5 87.5t-102.5 236.5zM332 313q0 -58 41 -96.5t119 -38.5q101 0 168 87t67 190v18h-74q-59 0 -110 -6.5t-101.5 -23t-80 -50t-29.5 -80.5zM981 653h444q-3 94 -59 153.5t-139 59.5q-97 0 -161 -57t-85 -156z" />
<glyph unicode="&#xe7;" horiz-adv-x="1101" d="M66 522q0 149 67 272.5t199 199t305 75.5q56 0 117 -12t122 -37.5t100.5 -73.5t39.5 -112v-123h-230v57q0 39 -47 60.5t-102 21.5q-135 0 -222 -92.5t-87 -233.5q0 -77 27 -139.5t72.5 -101.5t103.5 -59.5t122 -20.5q50 0 100 14.5t86.5 35.5t65.5 41.5t43 35.5l15 14 l108 -180q-6 -8 -18 -20.5t-53 -44.5t-87.5 -56.5t-120.5 -45.5t-153 -22l-14 -65q65 -8 106 -47.5t41 -108.5q0 -64 -33 -106t-80 -58t-106 -16q-32 0 -63.5 3.5t-47.5 6.5l-16 4v144q43 -17 90 -17q88 0 88 58q0 55 -98 55l-43 -4l45 164q-202 36 -322 183.5t-120 350.5z " />
<glyph unicode="&#xe8;" horiz-adv-x="1140" d="M66 522q0 242 147.5 394.5t382.5 152.5q145 0 251.5 -67t159 -178t52.5 -251l-6 -96h-721q14 -133 101.5 -206.5t211.5 -73.5q47 0 94.5 12t81.5 29t61.5 34t41.5 29l14 12l109 -180q-7 -6 -19 -17t-53.5 -38t-87 -48t-116.5 -38t-144 -17q-168 0 -297.5 75t-196.5 199 t-67 273zM276 1452h250l156 -278h-193zM340 657h453q-3 92 -59.5 151.5t-137.5 59.5q-99 0 -166.5 -56t-89.5 -155z" />
<glyph unicode="&#xe9;" horiz-adv-x="1140" d="M66 522q0 242 147.5 394.5t382.5 152.5q145 0 251.5 -67t159 -178t52.5 -251l-6 -96h-721q14 -133 101.5 -206.5t211.5 -73.5q47 0 94.5 12t81.5 29t61.5 34t41.5 29l14 12l109 -180q-7 -6 -19 -17t-53.5 -38t-87 -48t-116.5 -38t-144 -17q-168 0 -297.5 75t-196.5 199 t-67 273zM340 657h453q-3 92 -59.5 151.5t-137.5 59.5q-99 0 -166.5 -56t-89.5 -155zM489 1174l156 278h250l-215 -278h-191z" />
<glyph unicode="&#xea;" horiz-adv-x="1140" d="M66 522q0 242 147.5 394.5t382.5 152.5q145 0 251.5 -67t159 -178t52.5 -251l-6 -96h-721q14 -133 101.5 -206.5t211.5 -73.5q47 0 94.5 12t81.5 29t61.5 34t41.5 29l14 12l109 -180q-7 -6 -19 -17t-53.5 -38t-87 -48t-116.5 -38t-144 -17q-168 0 -297.5 75t-196.5 199 t-67 273zM291 1174l186 278h223l189 -278h-195l-102 165h-4l-105 -165h-192zM340 657h453q-3 92 -59.5 151.5t-137.5 59.5q-99 0 -166.5 -56t-89.5 -155z" />
<glyph unicode="&#xeb;" horiz-adv-x="1140" d="M66 522q0 242 147.5 394.5t382.5 152.5q145 0 251.5 -67t159 -178t52.5 -251l-6 -96h-721q14 -133 101.5 -206.5t211.5 -73.5q47 0 94.5 12t81.5 29t61.5 34t41.5 29l14 12l109 -180q-7 -6 -19 -17t-53.5 -38t-87 -48t-116.5 -38t-144 -17q-168 0 -297.5 75t-196.5 199 t-67 273zM315 1214v238h181v-238h-181zM340 657h453q-3 92 -59.5 151.5t-137.5 59.5q-99 0 -166.5 -56t-89.5 -155zM682 1214v238h182v-238h-182z" />
<glyph unicode="&#xec;" horiz-adv-x="618" d="M-18 1454h247l156 -280h-190zM53 823v221h248q72 0 105.5 -33.5t33.5 -105.5v-641q0 -45 45 -45h80v-219h-246q-73 0 -106 33t-33 106v639q0 45 -45 45h-82z" />
<glyph unicode="&#xed;" horiz-adv-x="618" d="M53 823v221h248q72 0 105.5 -33.5t33.5 -105.5v-641q0 -45 45 -45h80v-219h-246q-73 0 -106 33t-33 106v639q0 45 -45 45h-82zM195 1174l155 280h248l-213 -280h-190z" />
<glyph unicode="&#xee;" horiz-adv-x="618" d="M-6 1174l188 280h224l188 -280h-197l-102 167h-4l-103 -167h-194zM53 823v221h248q72 0 105.5 -33.5t33.5 -105.5v-641q0 -45 45 -45h80v-219h-246q-73 0 -106 33t-33 106v639q0 45 -45 45h-82z" />
<glyph unicode="&#xef;" horiz-adv-x="618" d="M41 1214v240h180v-240h-180zM53 823v221h248q72 0 105.5 -33.5t33.5 -105.5v-641q0 -45 45 -45h80v-219h-246q-73 0 -106 33t-33 106v639q0 45 -45 45h-82zM356 1214v240h183v-240h-183z" />
<glyph unicode="&#xf0;" horiz-adv-x="1198" d="M78 485q0 123 55 228t166.5 172t259.5 67q58 0 110.5 -15t75.5 -29l23 -15h4q-60 133 -192 217l-379 -164l-13 154l228 100q-104 51 -236 82l72 205q259 -58 442 -170l303 129l13 -152l-181 -80q281 -246 281 -645q0 -87 -17.5 -169t-58.5 -160t-101 -136.5t-151.5 -93.5 t-203.5 -35q-116 0 -212 43t-158 114.5t-96 163t-34 189.5zM340 479q0 -117 63.5 -200.5t180.5 -83.5q55 0 100 19.5t75 51.5t50.5 74.5t29.5 88t9 93.5q0 100 -65.5 164t-176.5 64q-127 0 -196.5 -79.5t-69.5 -191.5z" />
<glyph unicode="&#xf1;" horiz-adv-x="1316" d="M43 823v221h240q137 0 137 -116v-31l-4 -45h4q15 29 35 56.5t53 57.5t72 52t93 36.5t115 14.5q365 0 365 -397v-408q0 -45 45 -45h82v-219h-248q-74 0 -106.5 33t-32.5 106v479q0 104 -36 158.5t-128 54.5q-102 0 -177 -58.5t-103 -154.5q-21 -64 -21 -139v-479h-258v778 q0 45 -45 45h-82zM301 1176q0 280 234 280q48 0 88.5 -21t63.5 -45.5t52.5 -45.5t57.5 -21q40 0 62 37t22 90h161q0 -281 -233 -281q-39 0 -72.5 14t-56.5 33.5t-43.5 39t-43.5 33.5t-46 14q-41 0 -62.5 -36.5t-21.5 -90.5h-162z" />
<glyph unicode="&#xf2;" horiz-adv-x="1275" d="M66 522q0 156 76.5 282t207 195.5t287.5 69.5q158 0 289 -69.5t207.5 -195.5t76.5 -282q0 -158 -76.5 -283.5t-207 -194.5t-289.5 -69q-158 0 -288 69t-206.5 194.5t-76.5 283.5zM324 1452h249l156 -278h-192zM328 522q0 -143 90 -234t219 -91q130 0 220.5 91t90.5 234 q0 142 -90.5 234t-220.5 92q-129 0 -219 -92t-90 -234z" />
<glyph unicode="&#xf3;" horiz-adv-x="1275" d="M66 522q0 156 76.5 282t207 195.5t287.5 69.5q158 0 289 -69.5t207.5 -195.5t76.5 -282q0 -158 -76.5 -283.5t-207 -194.5t-289.5 -69q-158 0 -288 69t-206.5 194.5t-76.5 283.5zM328 522q0 -143 90 -234t219 -91q130 0 220.5 91t90.5 234q0 142 -90.5 234t-220.5 92 q-129 0 -219 -92t-90 -234zM539 1174l155 278h250l-215 -278h-190z" />
<glyph unicode="&#xf4;" horiz-adv-x="1275" d="M66 522q0 156 76.5 282t207 195.5t287.5 69.5q158 0 289 -69.5t207.5 -195.5t76.5 -282q0 -158 -76.5 -283.5t-207 -194.5t-289.5 -69q-158 0 -288 69t-206.5 194.5t-76.5 283.5zM328 522q0 -143 90 -234t219 -91q130 0 220.5 91t90.5 234q0 142 -90.5 234t-220.5 92 q-129 0 -219 -92t-90 -234zM340 1174l186 278h224l188 -278h-195l-102 165h-4l-105 -165h-192z" />
<glyph unicode="&#xf5;" horiz-adv-x="1275" d="M66 522q0 156 76.5 282t207 195.5t287.5 69.5q158 0 289 -69.5t207.5 -195.5t76.5 -282q0 -158 -76.5 -283.5t-207 -194.5t-289.5 -69q-158 0 -288 69t-206.5 194.5t-76.5 283.5zM266 1176q0 280 234 280q48 0 88.5 -21t63.5 -45.5t52.5 -45.5t57.5 -21q40 0 62 37t22 90 h162q0 -281 -234 -281q-39 0 -72.5 14t-56.5 33.5t-43.5 39t-43.5 33.5t-46 14q-41 0 -62.5 -36.5t-21.5 -90.5h-162zM328 522q0 -143 90 -234t219 -91q130 0 220.5 91t90.5 234q0 142 -90.5 234t-220.5 92q-129 0 -219 -92t-90 -234z" />
<glyph unicode="&#xf6;" horiz-adv-x="1275" d="M66 522q0 156 76.5 282t207 195.5t287.5 69.5q158 0 289 -69.5t207.5 -195.5t76.5 -282q0 -158 -76.5 -283.5t-207 -194.5t-289.5 -69q-158 0 -288 69t-206.5 194.5t-76.5 283.5zM328 522q0 -143 90 -234t219 -91q130 0 220.5 91t90.5 234q0 142 -90.5 234t-220.5 92 q-129 0 -219 -92t-90 -234zM365 1214v238h180v-238h-180zM731 1214v238h182v-238h-182z" />
<glyph unicode="&#xf7;" horiz-adv-x="1267" d="M94 483v203h1067v-203h-1067zM510 55v221h233v-221h-233zM510 895v221h233v-221h-233z" />
<glyph unicode="&#xf8;" horiz-adv-x="1275" d="M66 522q0 156 76.5 282t207 195.5t287.5 69.5q147 0 274 -65l84 116l113 -78l-82 -112q87 -75 135.5 -180t48.5 -228q0 -158 -76.5 -283.5t-207 -194.5t-289.5 -69q-141 0 -256 56l-84 -119l-113 80l78 108q-93 75 -144.5 183.5t-51.5 238.5zM328 522q0 -128 80 -221 l366 514q-68 33 -137 33q-129 0 -219 -92t-90 -234zM518 221q56 -24 119 -24q130 0 220.5 91t90.5 234q0 119 -69 201z" />
<glyph unicode="&#xf9;" d="M39 823v221h248q72 0 104.5 -33t32.5 -104v-481q0 -104 35.5 -158.5t126.5 -54.5q135 0 214 102.5t79 249.5v479h260v-780q0 -45 45 -45h82v-219h-240q-67 0 -102 30.5t-35 86.5v28l2 48h-4q-40 -89 -137 -153.5t-224 -64.5q-360 0 -360 398v405q0 45 -45 45h-82z M328 1452h250l155 -278h-192z" />
<glyph unicode="&#xfa;" d="M39 823v221h248q72 0 104.5 -33t32.5 -104v-481q0 -104 35.5 -158.5t126.5 -54.5q135 0 214 102.5t79 249.5v479h260v-780q0 -45 45 -45h82v-219h-240q-67 0 -102 30.5t-35 86.5v28l2 48h-4q-40 -89 -137 -153.5t-224 -64.5q-360 0 -360 398v405q0 45 -45 45h-82z M541 1174l155 278h250l-215 -278h-190z" />
<glyph unicode="&#xfb;" d="M39 823v221h248q72 0 104.5 -33t32.5 -104v-481q0 -104 35.5 -158.5t126.5 -54.5q135 0 214 102.5t79 249.5v479h260v-780q0 -45 45 -45h82v-219h-240q-67 0 -102 30.5t-35 86.5v28l2 48h-4q-40 -89 -137 -153.5t-224 -64.5q-360 0 -360 398v405q0 45 -45 45h-82z M342 1174l186 278h224l188 -278h-195l-102 165h-4l-104 -165h-193z" />
<glyph unicode="&#xfc;" d="M39 823v221h248q72 0 104.5 -33t32.5 -104v-481q0 -104 35.5 -158.5t126.5 -54.5q135 0 214 102.5t79 249.5v479h260v-780q0 -45 45 -45h82v-219h-240q-67 0 -102 30.5t-35 86.5v28l2 48h-4q-40 -89 -137 -153.5t-224 -64.5q-360 0 -360 398v405q0 45 -45 45h-82z M369 1214v238h180v-238h-180zM735 1214v238h183v-238h-183z" />
<glyph unicode="&#xfd;" horiz-adv-x="1132" d="M2 -324l100 185q7 -8 20 -20t52.5 -32t77.5 -20q117 0 172 133l35 80l-348 784q-9 22 -21 29.5t-35 7.5h-30v221h172q55 0 86 -22t51 -76l205 -522q9 -24 18 -58.5t13 -57.5l5 -23h5q16 86 34 139l179 522q18 53 51 75.5t88 22.5h176v-221h-31q-25 0 -37.5 -7.5 t-21.5 -29.5l-375 -944q-53 -136 -153.5 -204t-223.5 -68q-46 0 -90 11t-74 26.5t-53.5 31t-34.5 26.5zM471 1174l156 278h250l-215 -278h-191z" />
<glyph unicode="&#xfe;" horiz-adv-x="1265" d="M37 1233v221h248q73 0 106 -33.5t33 -105.5v-297l-4 -90h4q98 141 305 141q212 0 341.5 -153.5t129.5 -393.5q0 -238 -129.5 -392.5t-341.5 -154.5q-63 0 -117.5 14.5t-87.5 35t-57 41t-33 34.5l-10 15h-4q4 -37 4 -90v-435h-260v1598q0 45 -45 45h-82zM416 522 q0 -171 74.5 -248t191.5 -77q115 0 185.5 91.5t70.5 233.5q0 143 -70 234.5t-186 91.5q-119 0 -192.5 -78t-73.5 -248z" />
<glyph unicode="&#xff;" horiz-adv-x="1132" d="M2 -324l100 185q7 -8 20 -20t52.5 -32t77.5 -20q117 0 172 133l35 80l-348 784q-9 22 -21 29.5t-35 7.5h-30v221h172q55 0 86 -22t51 -76l205 -522q9 -24 18 -58.5t13 -57.5l5 -23h5q16 86 34 139l179 522q18 53 51 75.5t88 22.5h176v-221h-31q-25 0 -37.5 -7.5 t-21.5 -29.5l-375 -944q-53 -136 -153.5 -204t-223.5 -68q-46 0 -90 11t-74 26.5t-53.5 31t-34.5 26.5zM297 1214v238h180v-238h-180zM664 1214v238h182v-238h-182z" />
<glyph unicode="&#x100;" horiz-adv-x="1380" d="M23 0v227h32q27 0 41 9t23 36l432 1182h280l431 -1182q9 -27 22.5 -36t40.5 -9h33v-227h-160q-76 0 -111.5 25t-60.5 94l-90 254h-492l-90 -254q-25 -70 -59.5 -94.5t-110.5 -24.5h-161zM424 1604v172h537v-172h-537zM506 594h368l-124 364q-12 36 -26.5 90.5t-23.5 91.5 l-8 36h-4q-30 -138 -57 -218z" />
<glyph unicode="&#x101;" horiz-adv-x="1146" d="M68 301q0 68 26 123t66.5 91t98.5 63t113 41t119.5 23t108 11t88.5 2h33v9q0 111 -45.5 157.5t-147.5 46.5q-21 0 -42 -3t-44.5 -10t-38 -21.5t-14.5 -34.5v-56h-242v111q0 47 20 83.5t55.5 59t74.5 38t86 22.5t80.5 9.5t66.5 2.5q451 0 451 -416v-389q0 -45 45 -45h82 v-219h-234q-68 0 -100.5 32.5t-32.5 82.5l2 45h-4q-3 -8 -10 -20t-33 -44t-59 -56.5t-90 -44.5t-123 -20q-147 0 -251.5 88t-104.5 238zM289 1227v172h536v-172h-536zM330 313q0 -56 41 -95.5t116 -39.5q66 0 122 42.5t86 105.5t30 127v24h-45q-350 0 -350 -164z" />
<glyph unicode="&#x102;" horiz-adv-x="1380" d="M23 0v227h32q27 0 41 9t23 36l432 1182h280l431 -1182q9 -27 22.5 -36t40.5 -9h33v-227h-160q-76 0 -111.5 25t-60.5 94l-90 254h-492l-90 -254q-25 -70 -59.5 -94.5t-110.5 -24.5h-161zM397 1804v25h166v-25q0 -59 38 -90t89 -31t89 31.5t38 91.5v23h166v-25 q0 -81 -44 -142.5t-109.5 -90.5t-139.5 -29t-139.5 29t-109.5 90.5t-44 142.5zM506 594h368l-124 364q-12 36 -26.5 90.5t-23.5 91.5l-8 36h-4q-30 -138 -57 -218z" />
<glyph unicode="&#x103;" horiz-adv-x="1146" d="M68 301q0 68 26 123t66.5 91t98.5 63t113 41t119.5 23t108 11t88.5 2h33v9q0 111 -45.5 157.5t-147.5 46.5q-21 0 -42 -3t-44.5 -10t-38 -21.5t-14.5 -34.5v-56h-242v111q0 47 20 83.5t55.5 59t74.5 38t86 22.5t80.5 9.5t66.5 2.5q451 0 451 -416v-389q0 -45 45 -45h82 v-219h-234q-68 0 -100.5 32.5t-32.5 82.5l2 45h-4q-3 -8 -10 -20t-33 -44t-59 -56.5t-90 -44.5t-123 -20q-147 0 -251.5 88t-104.5 238zM262 1427v25h166v-25q0 -59 38 -89.5t89 -30.5t89 31.5t38 91.5v22h166v-25q0 -81 -44 -142.5t-109.5 -90.5t-139.5 -29t-139.5 29 t-109.5 90.5t-44 142.5zM330 313q0 -56 41 -95.5t116 -39.5q66 0 122 42.5t86 105.5t30 127v24h-45q-350 0 -350 -164z" />
<glyph unicode="&#x104;" horiz-adv-x="1380" d="M23 0v227h32q27 0 41 9t23 36l432 1182h280l431 -1182q9 -27 22.5 -36t40.5 -9h33v-227q-113 -96 -113 -160q0 -29 24.5 -47.5t48.5 -22.5l25 -3l-61 -193q-5 0 -14 1.5t-35.5 7.5t-50 14t-53 23.5t-50 35t-35 49.5t-14.5 66q0 125 137 229v4q-60 4 -89.5 29t-51.5 86 l-90 254h-492l-90 -254q-25 -70 -59.5 -94.5t-110.5 -24.5h-161zM506 594h368l-124 364q-12 36 -26.5 90.5t-23.5 91.5l-8 36h-4q-30 -138 -57 -218z" />
<glyph unicode="&#x105;" horiz-adv-x="1146" d="M68 301q0 68 26 123.5t66.5 91.5t99 63t113.5 41t120 22.5t109 10.5t90 2h29v9q0 111 -45.5 157.5t-147.5 46.5q-21 0 -42 -3t-44.5 -10t-38 -21.5t-14.5 -34.5v-56h-242v111q0 55 30 96.5t72.5 63t99.5 35t98.5 17t82.5 3.5q451 0 451 -416v-389q0 -45 45 -45h82v-219 q-115 -97 -115 -160q0 -29 25.5 -47.5t50.5 -22.5l25 -3l-62 -193q-5 0 -14 1.5t-35.5 7.5t-50 14t-53 23.5t-50 35t-35 49.5t-14.5 66q0 117 135 225v4h-51q-63 0 -94 33.5t-31 75.5v10l4 41h-4q-3 -8 -9.5 -20t-32.5 -44t-59 -56.5t-91.5 -44.5t-126.5 -20q-148 0 -250 89 t-102 237zM330 313q0 -56 41 -95.5t116 -39.5q66 0 122 42.5t86 105.5t30 127v24h-45q-60 0 -113 -6t-111 -22t-92 -50.5t-34 -85.5z" />
<glyph unicode="&#x106;" horiz-adv-x="1452" d="M61 739q0 207 96 376.5t265 266.5t377 97q60 0 129 -9.5t145 -34t136.5 -60t100.5 -93.5t40 -129v-162h-244v82q0 50 -50 87t-116.5 53t-134.5 16q-200 0 -332.5 -134t-132.5 -356q0 -140 62.5 -258.5t171.5 -187t239 -68.5q77 0 150.5 20t123.5 48.5t89.5 56.5t57.5 48 l19 20l142 -193q-9 -10 -25.5 -27t-73 -60t-119.5 -76t-163 -60t-205 -27q-163 0 -303.5 59t-237.5 161.5t-152 243t-55 300.5zM690 1550l156 279h250l-215 -279h-191z" />
<glyph unicode="&#x107;" horiz-adv-x="1101" d="M66 522q0 149 67 272.5t199 199t305 75.5q56 0 117 -12t122 -37.5t100.5 -73.5t39.5 -112v-123h-230v57q0 39 -47 60.5t-102 21.5q-135 0 -222 -92.5t-87 -233.5q0 -77 27 -139.5t72.5 -101.5t103.5 -59.5t122 -20.5q50 0 100 14.5t86.5 35.5t65.5 41.5t43 35.5l15 14 l108 -180q-6 -8 -18.5 -20.5t-54.5 -45t-89 -57.5t-122.5 -45.5t-155.5 -20.5q-126 0 -233 43t-179 117t-112.5 174t-40.5 213zM498 1174l155 278h250l-215 -278h-190z" />
<glyph unicode="&#x108;" horiz-adv-x="1452" d="M61 739q0 207 96 376.5t265 266.5t377 97q60 0 129 -9.5t145 -34t136.5 -60t100.5 -93.5t40 -129v-162h-244v82q0 50 -50 87t-116.5 53t-134.5 16q-200 0 -332.5 -134t-132.5 -356q0 -140 62.5 -258.5t171.5 -187t239 -68.5q77 0 150.5 20t123.5 48.5t89.5 56.5t57.5 48 l19 20l142 -193q-9 -10 -25.5 -27t-73 -60t-119.5 -76t-163 -60t-205 -27q-163 0 -303.5 59t-237.5 161.5t-152 243t-55 300.5zM494 1550l186 279h223l189 -279h-195l-102 166h-4l-105 -166h-192z" />
<glyph unicode="&#x109;" horiz-adv-x="1101" d="M66 522q0 149 67 272.5t199 199t305 75.5q56 0 117 -12t122 -37.5t100.5 -73.5t39.5 -112v-123h-230v57q0 39 -47 60.5t-102 21.5q-135 0 -222 -92.5t-87 -233.5q0 -77 27 -139.5t72.5 -101.5t103.5 -59.5t122 -20.5q50 0 100 14.5t86.5 35.5t65.5 41.5t43 35.5l15 14 l108 -180q-6 -8 -18.5 -20.5t-54.5 -45t-89 -57.5t-122.5 -45.5t-155.5 -20.5q-126 0 -233 43t-179 117t-112.5 174t-40.5 213zM299 1174l186 278h224l188 -278h-195l-102 165h-4l-104 -165h-193z" />
<glyph unicode="&#x10a;" horiz-adv-x="1452" d="M61 739q0 207 96 376.5t265 266.5t377 97q60 0 129 -9.5t145 -34t136.5 -60t100.5 -93.5t40 -129v-162h-244v82q0 50 -50 87t-116.5 53t-134.5 16q-200 0 -332.5 -134t-132.5 -356q0 -140 62.5 -258.5t171.5 -187t239 -68.5q77 0 150.5 20t123.5 48.5t89.5 56.5t57.5 48 l19 20l142 -193q-9 -10 -25.5 -27t-73 -60t-119.5 -76t-163 -60t-205 -27q-163 0 -303.5 59t-237.5 161.5t-152 243t-55 300.5zM680 1591v238h225v-238h-225z" />
<glyph unicode="&#x10b;" horiz-adv-x="1101" d="M66 522q0 149 67 272.5t199 199t305 75.5q56 0 117 -12t122 -37.5t100.5 -73.5t39.5 -112v-123h-230v57q0 39 -47 60.5t-102 21.5q-135 0 -222 -92.5t-87 -233.5q0 -77 27 -139.5t72.5 -101.5t103.5 -59.5t122 -20.5q50 0 100 14.5t86.5 35.5t65.5 41.5t43 35.5l15 14 l108 -180q-6 -8 -18.5 -20.5t-54.5 -45t-89 -57.5t-122.5 -45.5t-155.5 -20.5q-126 0 -233 43t-179 117t-112.5 174t-40.5 213zM485 1214v238h226v-238h-226z" />
<glyph unicode="&#x10c;" horiz-adv-x="1452" d="M61 739q0 207 96 376.5t265 266.5t377 97q60 0 129 -9.5t145 -34t136.5 -60t100.5 -93.5t40 -129v-162h-244v82q0 50 -50 87t-116.5 53t-134.5 16q-200 0 -332.5 -134t-132.5 -356q0 -140 62.5 -258.5t171.5 -187t239 -68.5q77 0 150.5 20t123.5 48.5t89.5 56.5t57.5 48 l19 20l142 -193q-9 -10 -25.5 -27t-73 -60t-119.5 -76t-163 -60t-205 -27q-163 0 -303.5 59t-237.5 161.5t-152 243t-55 300.5zM492 1829h194l102 -166h5l102 166h197l-191 -279h-221z" />
<glyph unicode="&#x10d;" horiz-adv-x="1101" d="M66 522q0 149 67 272.5t199 199t305 75.5q56 0 117 -12t122 -37.5t100.5 -73.5t39.5 -112v-123h-230v57q0 39 -47 60.5t-102 21.5q-135 0 -222 -92.5t-87 -233.5q0 -77 27 -139.5t72.5 -101.5t103.5 -59.5t122 -20.5q50 0 100 14.5t86.5 35.5t65.5 41.5t43 35.5l15 14 l108 -180q-6 -8 -18.5 -20.5t-54.5 -45t-89 -57.5t-122.5 -45.5t-155.5 -20.5q-126 0 -233 43t-179 117t-112.5 174t-40.5 213zM299 1452h195l102 -166h4l102 166h197l-190 -278h-222z" />
<glyph unicode="&#x10e;" horiz-adv-x="1464" d="M70 1227v227h592q340 0 540.5 -192t200.5 -533t-200.5 -535t-540.5 -194h-320q-74 0 -106.5 33t-32.5 106v1088h-133zM387 1829h195l102 -166h4l103 166h196l-190 -279h-222zM471 272q0 -45 45 -45h131q222 0 349.5 130t127.5 372q0 239 -128.5 368.5t-348.5 129.5h-176 v-955z" />
<glyph unicode="&#x10f;" horiz-adv-x="1472" d="M66 522q0 247 133 397t342 150q64 0 118 -13t86.5 -31.5t55.5 -37.5t32 -32l9 -13h4q-2 27 -2 62v184q0 45 -45 45h-82v221h248q72 0 105.5 -33.5t33.5 -105.5v-1051q0 -45 45 -45h80v-219h-240q-129 0 -129 106v39h-4q-4 -7 -11 -18.5t-35 -40.5t-61.5 -51.5t-92.5 -41 t-126 -18.5q-211 0 -337.5 151t-126.5 396zM330 522q0 -149 71 -238t187 -89q111 0 186.5 83t75.5 246q0 84 -27.5 155.5t-87.5 119t-143 47.5q-112 0 -187 -87t-75 -237zM1184 1157q39 103 39 172q0 57 -23 125h195q14 -52 14 -104q0 -84 -53 -193h-172z" />
<glyph unicode="&#x110;" horiz-adv-x="1464" d="M70 1227v227h592q340 0 540.5 -192t200.5 -533t-200.5 -535t-540.5 -194h-320q-74 0 -106.5 33t-32.5 106v477h-99v215h99v396h-133zM471 272q0 -45 45 -45h131q222 0 349.5 130t127.5 372q0 239 -128.5 368.5t-348.5 129.5h-176v-396h252v-215h-252v-344z" />
<glyph unicode="&#x111;" horiz-adv-x="1275" d="M66 522q0 247 133 397t342 150q64 0 118 -13t86.5 -31.5t55.5 -37.5t32 -32l9 -13h4q-2 27 -2 62v141h-260v155h260v154h260v-154h151v-155h-151v-881q0 -45 45 -45h80v-219h-240q-129 0 -129 106v39h-4q-4 -7 -11 -18.5t-35 -40.5t-61.5 -51.5t-92.5 -41t-126 -18.5 q-211 0 -337.5 151t-126.5 396zM330 522q0 -149 71 -238t187 -89q111 0 186.5 83t75.5 246q0 84 -27.5 155.5t-87.5 119t-143 47.5q-112 0 -187 -87t-75 -237z" />
<glyph unicode="&#x112;" horiz-adv-x="1183" d="M70 1227v227h878q72 0 105.5 -33.5t33.5 -105.5v-221h-243v88q0 45 -45 45h-328v-381h471v-228h-471v-346q0 -45 45 -45h336q45 0 45 45v88h244v-221q0 -73 -33.5 -106t-106.5 -33h-659q-74 0 -106.5 33t-32.5 106v1088h-133zM342 1604v172h537v-172h-537z" />
<glyph unicode="&#x113;" horiz-adv-x="1140" d="M66 522q0 242 147.5 394.5t382.5 152.5q145 0 251.5 -67t159 -178t52.5 -251l-6 -96h-721q14 -133 101.5 -206.5t211.5 -73.5q47 0 94.5 12t81.5 29t61.5 34t41.5 29l14 12l109 -180q-7 -6 -19 -17t-53.5 -38t-87 -48t-116.5 -38t-144 -17q-168 0 -297.5 75t-196.5 199 t-67 273zM322 1227v172h536v-172h-536zM340 657h453q-3 92 -59.5 151.5t-137.5 59.5q-99 0 -166.5 -56t-89.5 -155z" />
<glyph unicode="&#x114;" horiz-adv-x="1183" d="M70 1227v227h878q72 0 105.5 -33.5t33.5 -105.5v-221h-243v88q0 45 -45 45h-328v-381h471v-228h-471v-346q0 -45 45 -45h336q45 0 45 45v88h244v-221q0 -73 -33.5 -106t-106.5 -33h-659q-74 0 -106.5 33t-32.5 106v1088h-133zM315 1804v25h166v-25q0 -59 38 -90t89 -31 t89 31.5t38 91.5v23h166v-25q0 -81 -44 -142.5t-109.5 -90.5t-139.5 -29t-139.5 29t-109.5 90.5t-44 142.5z" />
<glyph unicode="&#x115;" horiz-adv-x="1140" d="M66 522q0 242 147.5 394.5t382.5 152.5q145 0 251.5 -67t159 -178t52.5 -251l-6 -96h-721q14 -133 101.5 -206.5t211.5 -73.5q47 0 94.5 12t81.5 29t61.5 34t41.5 29l14 12l109 -180q-7 -6 -19 -17t-53.5 -38t-87 -48t-116.5 -38t-144 -17q-168 0 -297.5 75t-196.5 199 t-67 273zM297 1427v25h166v-25q0 -59 38 -89.5t89 -30.5t89 31.5t38 91.5v22h166v-25q0 -81 -44 -142.5t-109.5 -90.5t-139.5 -29t-139.5 29t-109.5 90.5t-44 142.5zM340 657h453q-3 92 -59.5 151.5t-137.5 59.5q-99 0 -166.5 -56t-89.5 -155z" />
<glyph unicode="&#x116;" horiz-adv-x="1183" d="M70 1227v227h878q72 0 105.5 -33.5t33.5 -105.5v-221h-243v88q0 45 -45 45h-328v-381h471v-228h-471v-346q0 -45 45 -45h336q45 0 45 45v88h244v-221q0 -73 -33.5 -106t-106.5 -33h-659q-74 0 -106.5 33t-32.5 106v1088h-133zM496 1591v238h225v-238h-225z" />
<glyph unicode="&#x117;" horiz-adv-x="1140" d="M66 522q0 242 147.5 394.5t382.5 152.5q145 0 251.5 -67t159 -178t52.5 -251l-6 -96h-721q14 -133 101.5 -206.5t211.5 -73.5q47 0 94.5 12t81.5 29t61.5 34t41.5 29l14 12l109 -180q-7 -6 -19 -17t-53.5 -38t-87 -48t-116.5 -38t-144 -17q-168 0 -297.5 75t-196.5 199 t-67 273zM340 657h453q-3 92 -59.5 151.5t-137.5 59.5q-99 0 -166.5 -56t-89.5 -155zM477 1214v238h225v-238h-225z" />
<glyph unicode="&#x118;" horiz-adv-x="1183" d="M70 1227v227h878q72 0 105.5 -33.5t33.5 -105.5v-221h-243v88q0 45 -45 45h-328v-381h471v-228h-471v-346q0 -45 45 -45h336q45 0 45 45v88h244v-221q0 -42 -11.5 -70.5t-39.5 -54.5q-40 -33 -62.5 -53.5t-47 -56t-24.5 -64.5t24.5 -47.5t49.5 -22.5l25 -3l-62 -193 q-5 0 -14 1.5t-35.5 7.5t-50 14t-53 23.5t-50 35t-35 49.5t-14.5 66q0 121 131 225v4h-530q-74 0 -106.5 33t-32.5 106v1088h-133z" />
<glyph unicode="&#x119;" horiz-adv-x="1140" d="M66 522q0 242 147.5 394.5t382.5 152.5q145 0 251.5 -67t159 -178t52.5 -251l-6 -96h-721q15 -132 102.5 -206t210.5 -74q47 0 94.5 12t81.5 29t61.5 34t41.5 29l14 12l109 -180q-19 -18 -69 -57.5t-86 -69.5t-66.5 -76t-30.5 -90q0 -29 25 -47.5t50 -22.5l25 -3 l-64 -193q-5 0 -14 1.5t-35 7.5t-49.5 14t-52 23.5t-49.5 35t-35 49.5t-14 66q0 105 118 206v5q-44 -7 -73 -7q-168 0 -297.5 75t-196.5 199t-67 273zM340 657h453q-4 95 -59.5 153t-137.5 58q-99 0 -166.5 -56t-89.5 -155z" />
<glyph unicode="&#x11a;" horiz-adv-x="1183" d="M70 1227v227h878q72 0 105.5 -33.5t33.5 -105.5v-221h-243v88q0 45 -45 45h-328v-381h471v-228h-471v-346q0 -45 45 -45h336q45 0 45 45v88h244v-221q0 -73 -33.5 -106t-106.5 -33h-659q-74 0 -106.5 33t-32.5 106v1088h-133zM309 1829h195l102 -166h4l103 166h196 l-190 -279h-221z" />
<glyph unicode="&#x11b;" horiz-adv-x="1140" d="M66 522q0 242 147.5 394.5t382.5 152.5q145 0 251.5 -67t159 -178t52.5 -251l-6 -96h-721q14 -133 101.5 -206.5t211.5 -73.5q47 0 94.5 12t81.5 29t61.5 34t41.5 29l14 12l109 -180q-7 -6 -19 -17t-53.5 -38t-87 -48t-116.5 -38t-144 -17q-168 0 -297.5 75t-196.5 199 t-67 273zM291 1452h194l103 -166h4l102 166h197l-191 -278h-221zM340 657h453q-3 92 -59.5 151.5t-137.5 59.5q-99 0 -166.5 -56t-89.5 -155z" />
<glyph unicode="&#x11c;" horiz-adv-x="1519" d="M63 735q0 154 56.5 292t154.5 237t235.5 157t293.5 58q100 0 191 -19t150 -46t104 -54.5t65 -46.5l20 -19l-151 -192q-6 5 -17.5 14t-50 31t-79 39t-102.5 31t-124 14q-94 0 -179 -36t-149 -100t-101.5 -157t-37.5 -201q0 -231 138 -371.5t339 -140.5q65 0 126.5 15.5 t103.5 38t75 45t48 38.5l16 15v108q0 45 -45 45h-88v228h235q74 0 107 -32.5t33 -104.5v-621h-230v70l2 61h-4q-6 -6 -18.5 -16.5t-54 -37.5t-87.5 -47.5t-119 -37.5t-149 -17q-143 0 -271.5 53.5t-225 150t-153.5 241t-57 315.5zM498 1550l186 279h223l189 -279h-195 l-102 166h-4l-105 -166h-192z" />
<glyph unicode="&#x11d;" horiz-adv-x="1253" d="M66 549q0 146 51.5 262t158 187t252.5 71q68 0 126 -15t92.5 -36.5t59.5 -43.5t34 -37l10 -15h4v26q0 39 29 67.5t86 28.5h241v-221h-80q-45 0 -45 -41v-719q0 -129 -47 -227t-127 -154.5t-174.5 -84t-201.5 -27.5q-96 0 -195 24.5t-176 65.5l80 205q14 -8 40 -19.5 t101.5 -31t146.5 -19.5q130 0 212.5 62t82.5 194v49l2 56h-4q-94 -136 -290 -136q-145 0 -253 73t-162 191.5t-54 264.5zM330 557q0 -141 68.5 -229t191.5 -88q50 0 91.5 15.5t77 49t55.5 95.5t20 147q0 301 -261 301q-117 0 -180 -78.5t-63 -212.5zM340 1174l186 278h224 l188 -278h-195l-102 165h-4l-105 -165h-192z" />
<glyph unicode="&#x11e;" horiz-adv-x="1519" d="M63 735q0 154 56.5 292t154.5 237t235.5 157t293.5 58q100 0 191 -19t150 -46t104 -54.5t65 -46.5l20 -19l-151 -192q-6 5 -17.5 14t-50 31t-79 39t-102.5 31t-124 14q-94 0 -179 -36t-149 -100t-101.5 -157t-37.5 -201q0 -231 138 -371.5t339 -140.5q65 0 126.5 15.5 t103.5 38t75 45t48 38.5l16 15v108q0 45 -45 45h-88v228h235q74 0 107 -32.5t33 -104.5v-621h-230v70l2 61h-4q-6 -6 -18.5 -16.5t-54 -37.5t-87.5 -47.5t-119 -37.5t-149 -17q-143 0 -271.5 53.5t-225 150t-153.5 241t-57 315.5zM502 1804v25h166v-25q0 -59 38 -90t89 -31 t89 31.5t38 91.5v23h165v-25q0 -81 -44 -142.5t-109 -90.5t-139 -29t-139.5 29t-109.5 90.5t-44 142.5z" />
<glyph unicode="&#x11f;" horiz-adv-x="1253" d="M66 549q0 146 51.5 262t158 187t252.5 71q68 0 126 -15t92.5 -36.5t59.5 -43.5t34 -37l10 -15h4v26q0 39 29 67.5t86 28.5h241v-221h-80q-45 0 -45 -41v-719q0 -129 -47 -227t-127 -154.5t-174.5 -84t-201.5 -27.5q-96 0 -195 24.5t-176 65.5l80 205q14 -8 40 -19.5 t101.5 -31t146.5 -19.5q130 0 212.5 62t82.5 194v49l2 56h-4q-94 -136 -290 -136q-145 0 -253 73t-162 191.5t-54 264.5zM330 557q0 -141 68.5 -229t191.5 -88q50 0 91.5 15.5t77 49t55.5 95.5t20 147q0 301 -261 301q-117 0 -180 -78.5t-63 -212.5zM346 1427v25h166v-25 q0 -59 38 -89.5t89 -30.5t89 31.5t38 91.5v22h166v-25q0 -81 -44 -142.5t-109.5 -90.5t-139.5 -29t-139.5 29t-109.5 90.5t-44 142.5z" />
<glyph unicode="&#x120;" horiz-adv-x="1519" d="M63 735q0 154 56.5 292t154.5 237t235.5 157t293.5 58q100 0 191 -19t150 -46t104 -54.5t65 -46.5l20 -19l-151 -192q-6 5 -17.5 14t-50 31t-79 39t-102.5 31t-124 14q-94 0 -179 -36t-149 -100t-101.5 -157t-37.5 -201q0 -231 138 -371.5t339 -140.5q65 0 126.5 15.5 t103.5 38t75 45t48 38.5l16 15v108q0 45 -45 45h-88v228h235q74 0 107 -32.5t33 -104.5v-621h-230v70l2 61h-4q-6 -6 -18.5 -16.5t-54 -37.5t-87.5 -47.5t-119 -37.5t-149 -17q-143 0 -271.5 53.5t-225 150t-153.5 241t-57 315.5zM684 1591v238h225v-238h-225z" />
<glyph unicode="&#x121;" horiz-adv-x="1253" d="M66 549q0 146 51.5 262t158 187t252.5 71q68 0 126 -15t92.5 -36.5t59.5 -43.5t34 -37l10 -15h4v26q0 39 29 67.5t86 28.5h241v-221h-80q-45 0 -45 -41v-719q0 -129 -47 -227t-127 -154.5t-174.5 -84t-201.5 -27.5q-96 0 -195 24.5t-176 65.5l80 205q14 -8 40 -19.5 t101.5 -31t146.5 -19.5q130 0 212.5 62t82.5 194v49l2 56h-4q-94 -136 -290 -136q-145 0 -253 73t-162 191.5t-54 264.5zM330 557q0 -141 68.5 -229t191.5 -88q50 0 91.5 15.5t77 49t55.5 95.5t20 147q0 301 -261 301q-117 0 -180 -78.5t-63 -212.5zM526 1214v238h226v-238 h-226z" />
<glyph unicode="&#x122;" horiz-adv-x="1519" d="M63 735q0 154 56.5 292t154.5 237t235.5 157t293.5 58q100 0 191 -19t150 -46t104 -54.5t65 -46.5l20 -19l-151 -192q-6 5 -17.5 14t-50 31t-79 39t-102.5 31t-124 14q-94 0 -179 -36t-149 -100t-101.5 -157t-37.5 -201q0 -231 138 -371.5t339 -140.5q65 0 126.5 15.5 t103.5 38t75 45t48 38.5l16 15v108q0 45 -45 45h-88v228h235q74 0 107 -32.5t33 -104.5v-621h-230v70l2 61h-4q-6 -6 -18.5 -16.5t-54 -37.5t-87.5 -47.5t-119 -37.5t-149 -17q-143 0 -271.5 53.5t-225 150t-153.5 241t-57 315.5zM670 -410q39 103 39 172q0 57 -23 125h195 q14 -52 14 -104q0 -84 -53 -193h-172z" />
<glyph unicode="&#x123;" horiz-adv-x="1253" d="M66 549q0 146 51.5 262t158 187t252.5 71q68 0 126 -15t92.5 -36.5t59.5 -43.5t34 -37l10 -15h4v26q0 39 29 67.5t86 28.5h241v-221h-80q-45 0 -45 -41v-719q0 -129 -47 -227t-127 -154.5t-174.5 -84t-201.5 -27.5q-96 0 -195 24.5t-176 65.5l80 205q14 -8 40 -19.5 t101.5 -31t146.5 -19.5q130 0 212.5 62t82.5 194v49l2 56h-4q-94 -136 -290 -136q-145 0 -253 73t-162 191.5t-54 264.5zM330 557q0 -141 68.5 -229t191.5 -88q50 0 91.5 15.5t77 49t55.5 95.5t20 147q0 301 -261 301q-117 0 -180 -78.5t-63 -212.5zM496 1262q0 83 53 192 h172q-39 -103 -39 -172q0 -57 23 -125h-195q-14 52 -14 105z" />
<glyph unicode="&#x124;" horiz-adv-x="1583" d="M70 1227v227h262q73 0 106 -33.5t33 -105.5v-477h641v477q0 72 33.5 105.5t105.5 33.5h262v-227h-88q-45 0 -45 -45v-1182h-268v610h-641v-610h-268v1182q0 45 -45 45h-88zM496 1550l186 279h223l189 -279h-195l-102 166h-4l-105 -166h-192z" />
<glyph unicode="&#x125;" horiz-adv-x="1310" d="M35 1233v221h248q72 0 105.5 -33t33.5 -104v-367l-4 -88h4q41 84 136.5 145.5t221.5 61.5q365 0 365 -397v-408q0 -45 45 -45h82v-219h-248q-72 0 -104.5 33t-32.5 106v479q0 104 -36.5 158.5t-129.5 54.5q-101 0 -177 -60t-106 -157q-16 -55 -16 -135v-479h-260v1188 q0 45 -45 45h-82zM373 1550l186 279h223l189 -279h-195l-102 166h-4l-105 -166h-192z" />
<glyph unicode="&#x126;" horiz-adv-x="1583" d="M68 1055v170h135v229h268v-229h641v229h268v-229h133v-170h-133v-1055h-268v610h-641v-610h-268v1055h-135zM471 838h641v217h-641v-217z" />
<glyph unicode="&#x127;" horiz-adv-x="1310" d="M12 1145v155h150v154h260v-154h258v-155h-258v-195l-4 -88h4q5 13 18 34.5t43 52.5t68.5 57t99 44.5t129.5 18.5q365 0 365 -397v-408q0 -45 45 -45h82v-219h-248q-72 0 -104.5 33t-32.5 106v479q0 103 -37 158t-129 55q-137 0 -218 -100.5t-81 -251.5v-479h-260v1145 h-150z" />
<glyph unicode="&#x128;" horiz-adv-x="700" d="M-23 1552q0 281 234 281q48 0 88.5 -21t63.5 -45.5t52.5 -45.5t57.5 -21q40 0 62 37t22 90h162q0 -281 -234 -281q-48 0 -88.5 21t-63.5 45.5t-52.5 45.5t-57.5 21q-41 0 -62.5 -36.5t-21.5 -90.5h-162zM78 0v227h145v1000h-145v227h545v-227h-146v-1000h146v-227h-545z " />
<glyph unicode="&#x129;" horiz-adv-x="618" d="M-37 1178q0 140 50.5 210t158.5 70q33 0 62.5 -13t49.5 -31t38 -36.5t35.5 -31.5t33.5 -13q68 0 68 119h162q0 -142 -50 -211.5t-159 -69.5q-33 0 -62.5 13t-49.5 31.5t-37.5 36.5t-35 31t-32.5 13q-70 0 -70 -118h-162zM53 823v221h248q72 0 105.5 -33.5t33.5 -105.5 v-641q0 -45 45 -45h80v-219h-246q-73 0 -106 33t-33 106v639q0 45 -45 45h-82z" />
<glyph unicode="&#x12a;" horiz-adv-x="700" d="M78 0v227h145v1000h-145v227h545v-227h-146v-1000h146v-227h-545zM82 1604v172h536v-172h-536z" />
<glyph unicode="&#x12b;" horiz-adv-x="618" d="M41 1229v170h508v-170h-508zM53 823v221h248q72 0 105.5 -33.5t33.5 -105.5v-641q0 -45 45 -45h80v-219h-246q-73 0 -106 33t-33 106v639q0 45 -45 45h-82z" />
<glyph unicode="&#x12c;" horiz-adv-x="700" d="M57 1804v25h166v-25q0 -59 38 -90t89 -31t89 31.5t38 91.5v23h166v-25q0 -81 -44 -142.5t-109.5 -90.5t-139.5 -29t-139.5 29t-109.5 90.5t-44 142.5zM78 0v227h145v1000h-145v227h545v-227h-146v-1000h146v-227h-545z" />
<glyph unicode="&#x12d;" horiz-adv-x="618" d="M0 1430v24h168v-24q0 -60 37 -91.5t88 -31.5t89 31.5t38 91.5v24h166v-24q0 -122 -88 -193.5t-205 -71.5q-116 0 -204.5 71.5t-88.5 193.5zM53 823v221h248q72 0 105.5 -33.5t33.5 -105.5v-641q0 -45 45 -45h80v-219h-246q-73 0 -106 33t-33 106v639q0 45 -45 45h-82z " />
<glyph unicode="&#x12e;" horiz-adv-x="700" d="M78 0v227h145v1000h-145v227h545v-227h-146v-1000h146v-227q-113 -96 -113 -160q0 -29 25 -47.5t50 -22.5l25 -3l-63 -193q-5 0 -14 1.5t-35 7.5t-49.5 14t-52.5 23.5t-50 35t-35 49.5t-14 66q0 124 131 225v4h-350z" />
<glyph unicode="&#x12f;" horiz-adv-x="612" d="M51 823v221h248q72 0 104.5 -33.5t32.5 -105.5v-641q0 -45 45 -45h82v-219q-112 -95 -112 -160q0 -29 24.5 -47.5t48.5 -22.5l25 -3l-62 -193q-5 0 -14 1.5t-35 7.5t-50 14t-53 23.5t-49.5 35t-35 49.5t-14.5 66q0 123 133 225v4h-62q-129 0 -129 160v618q0 45 -45 45 h-82zM190 1214v240h226v-240h-226z" />
<glyph unicode="&#x130;" horiz-adv-x="700" d="M78 0v227h145v1000h-145v227h545v-227h-146v-1000h146v-227h-545zM236 1591v238h225v-238h-225z" />
<glyph unicode="&#x131;" horiz-adv-x="618" d="M53 823v221h248q72 0 105.5 -33.5t33.5 -105.5v-641q0 -45 45 -45h80v-219h-246q-73 0 -106 33t-33 106v639q0 45 -45 45h-82z" />
<glyph unicode="&#x132;" horiz-adv-x="1474" d="M78 0v227h145v1000h-145v227h545v-227h-146v-1000h146v-227h-545zM793 -8v239q35 0 68.5 6.5t70 25.5t63.5 49.5t44.5 83t17.5 120.5v666q0 45 -45 45h-215v227h391q72 0 104.5 -33.5t32.5 -105.5v-803q0 -126 -33 -221t-84 -150.5t-124 -90.5t-142 -46.5t-149 -11.5z " />
<glyph unicode="&#x133;" horiz-adv-x="1216" d="M51 823v221h248q72 0 104.5 -33.5t32.5 -105.5v-641q0 -45 45 -45h82v-219h-248q-72 0 -104.5 33t-32.5 106v639q0 45 -45 45h-82zM190 1214v240h226v-240h-226zM553 -199q18 -4 45 -4q26 0 50.5 3.5t54.5 15.5t52 32t37 56.5t15 85.5v788q0 45 -45 45h-80v221h246 q73 0 106 -33.5t33 -105.5v-936q0 -100 -32.5 -175t-79 -115t-110 -65t-113 -31.5t-101.5 -6.5q-21 0 -40.5 1.5t-28.5 2.5l-9 2v219zM819 1214v240h225v-240h-225z" />
<glyph unicode="&#x134;" horiz-adv-x="1103" d="M41 430v84h268v-59q0 -121 54.5 -175.5t136.5 -54.5q81 0 134.5 53t53.5 164v740q0 45 -45 45h-352v227h526q72 0 105.5 -33.5t33.5 -105.5v-885q0 -92 -26 -168.5t-70 -129t-103 -88.5t-124 -52.5t-135 -16.5q-69 0 -134.5 17t-124.5 53.5t-102.5 89t-69.5 128.5 t-26 167zM311 1550l187 279h223l188 -279h-194l-103 166h-4l-104 -166h-193z" />
<glyph unicode="&#x135;" horiz-adv-x="618" d="M-39 -205q18 -2 45 -2q26 0 50.5 3.5t54.5 15.5t52 32t37 56.5t15 85.5v800q0 26 -13 35.5t-42 9.5h-72v213h242q76 0 107.5 -24.5t31.5 -93.5v-957q0 -100 -32 -175t-77.5 -115t-108.5 -65t-111.5 -31.5t-100.5 -6.5q-21 0 -40.5 1.5t-28.5 2.5l-9 2v213zM-16 1174 l188 280h223l189 -280h-195l-104 169l-105 -169h-196z" />
<glyph unicode="&#x136;" horiz-adv-x="1298" d="M70 1227v227h262q73 0 106 -33.5t33 -105.5v-453h102q46 0 73 8.5t44 38.5l293 545h295l-328 -598q-20 -36 -43 -62.5t-36 -35.5l-13 -8v-5q5 -1 14.5 -5.5t34.5 -30t45 -64.5l185 -371q14 -30 37.5 -38.5t64.5 -8.5h39v-227h-154q-86 0 -127 20.5t-75 88.5l-238 477 q-17 32 -46 40.5t-81 8.5h-86v-635h-268v1182q0 45 -45 45h-88zM578 -410q38 100 38 172q0 60 -22 125h194q15 -55 15 -104q0 -84 -53 -193h-172z" />
<glyph unicode="&#x137;" horiz-adv-x="1132" d="M35 1233v221h248q75 0 107 -25t32 -94v-659h78q71 0 98 39l213 329h289l-264 -393q-20 -29 -39.5 -49.5t-28.5 -26.5l-10 -6v-4q4 -2 11 -6t26.5 -25t35.5 -51l119 -225q12 -23 30.5 -31t55.5 -8h70v-219h-193q-68 0 -100.5 17t-62.5 73l-175 328q-21 39 -96 39h-57v-457 h-260v1188q0 45 -45 45h-82zM492 -410q38 100 38 172q0 60 -22 125h194q15 -55 15 -104q0 -84 -53 -193h-172z" />
<glyph unicode="&#x138;" horiz-adv-x="1132" d="M35 823v221h248q76 0 107.5 -24.5t31.5 -93.5v-287h78q23 0 36 1.5t32 10.5t30 27l219 366h287l-273 -426q-19 -29 -38 -49t-28 -25l-9 -5v-4q4 -2 10.5 -6t25.5 -25.5t35 -52.5l103 -193q12 -23 31 -31t55 -8h80v-219h-203q-68 0 -101 17t-63 73l-154 291 q-7 14 -18 22.5t-26 12t-25 4t-27 0.5h-57v-420h-260v778q0 45 -45 45h-82z" />
<glyph unicode="&#x139;" horiz-adv-x="1142" d="M70 1227v227h262q73 0 106 -33.5t33 -105.5v-1043q0 -45 45 -45h318q45 0 45 45v88h243v-221q0 -73 -33 -106t-106 -33h-641q-74 0 -106.5 33t-32.5 106v1043q0 45 -45 45h-88zM264 1550l156 279h250l-215 -279h-191z" />
<glyph unicode="&#x13a;" horiz-adv-x="595" d="M37 1233v221h248q72 0 105.5 -33.5t33.5 -105.5v-1051q0 -45 45 -45h80v-219h-246q-73 0 -106 33t-33 106v1049q0 45 -45 45h-82zM158 1550l155 279h250l-215 -279h-190z" />
<glyph unicode="&#x13b;" horiz-adv-x="1142" d="M70 1227v227h262q73 0 106 -33.5t33 -105.5v-1043q0 -45 45 -45h318q45 0 45 45v88h243v-221q0 -73 -33 -106t-106 -33h-641q-74 0 -106.5 33t-32.5 106v1043q0 45 -45 45h-88zM539 -410q39 103 39 172q0 57 -23 125h195q14 -52 14 -104q0 -84 -53 -193h-172z" />
<glyph unicode="&#x13c;" horiz-adv-x="595" d="M37 1233v221h248q72 0 105.5 -33.5t33.5 -105.5v-1051q0 -45 45 -45h80v-219h-246q-73 0 -106 33t-33 106v1049q0 45 -45 45h-82zM201 -410q39 103 39 172q0 57 -23 125h195q14 -52 14 -104q0 -84 -53 -193h-172z" />
<glyph unicode="&#x13d;" horiz-adv-x="1142" d="M70 1227v227h262q73 0 106 -33.5t33 -105.5v-1043q0 -45 45 -45h318q45 0 45 45v88h243v-221q0 -73 -33 -106t-106 -33h-641q-74 0 -106.5 33t-32.5 106v1043q0 45 -45 45h-88zM614 1157q39 103 39 172q0 60 -22 125h194q15 -56 15 -104q0 -82 -54 -193h-172z" />
<glyph unicode="&#x13e;" horiz-adv-x="800" d="M37 1233v221h248q72 0 105.5 -33.5t33.5 -105.5v-1051q0 -45 45 -45h80v-219h-246q-73 0 -106 33t-33 106v1049q0 45 -45 45h-82zM512 1157q39 103 39 172q0 57 -23 125h195q14 -52 14 -104q0 -84 -53 -193h-172z" />
<glyph unicode="&#x13f;" horiz-adv-x="1142" d="M70 1227v227h262q73 0 106 -33.5t33 -105.5v-1043q0 -45 45 -45h318q45 0 45 45v88h243v-221q0 -73 -33 -106t-106 -33h-641q-74 0 -106.5 33t-32.5 106v1043q0 45 -45 45h-88zM674 662v258h252v-258h-252z" />
<glyph unicode="&#x140;" horiz-adv-x="835" d="M37 1233v221h248q72 0 105.5 -33.5t33.5 -105.5v-1051q0 -45 45 -45h80v-219h-246q-73 0 -106 33t-33 106v1049q0 45 -45 45h-82zM573 662v258h252v-258h-252z" />
<glyph unicode="&#x141;" horiz-adv-x="1142" d="M70 1227v227h262q73 0 106 -33.5t33 -105.5v-363l201 117v-254l-201 -117v-426q0 -45 45 -45h318q45 0 45 45v88h243v-221q0 -73 -33 -106t-106 -33h-641q-74 0 -106.5 33t-32.5 106v406l-127 -72v254l127 72v383q0 45 -45 45h-88z" />
<glyph unicode="&#x142;" horiz-adv-x="620" d="M45 508v256l135 78v346q0 45 -45 45h-82v221h248q72 0 104.5 -33.5t32.5 -105.5v-326l150 84v-254l-150 -86v-469q0 -45 45 -45h82v-219h-248q-72 0 -104.5 33t-32.5 106v445z" />
<glyph unicode="&#x143;" horiz-adv-x="1576" d="M70 0v227h88q45 0 45 45v1182h241l551 -805q25 -37 55.5 -88.5t47.5 -84.5l18 -32h4q-14 121 -14 205v666q0 72 33 105.5t106 33.5h262v-227h-88q-45 0 -45 -45v-1182h-239l-553 803q-25 36 -55.5 87.5t-48.5 84.5l-17 33h-4q14 -121 14 -205v-664q0 -73 -32.5 -106 t-106.5 -33h-262zM707 1550l155 279h250l-215 -279h-190z" />
<glyph unicode="&#x144;" horiz-adv-x="1316" d="M43 823v221h240q137 0 137 -116v-31l-4 -45h4q15 29 35 56.5t53 57.5t72 52t93 36.5t115 14.5q365 0 365 -397v-408q0 -45 45 -45h82v-219h-248q-74 0 -106.5 33t-32.5 106v479q0 104 -36 158.5t-128 54.5q-102 0 -177 -58.5t-103 -154.5q-21 -64 -21 -139v-479h-258v778 q0 45 -45 45h-82zM573 1174l156 278h250l-215 -278h-191z" />
<glyph unicode="&#x145;" horiz-adv-x="1576" d="M70 0v227h88q45 0 45 45v1182h241l551 -805q25 -37 55.5 -88.5t47.5 -84.5l18 -32h4q-14 121 -14 205v666q0 72 33 105.5t106 33.5h262v-227h-88q-45 0 -45 -45v-1182h-239l-553 803q-25 36 -55.5 87.5t-48.5 84.5l-17 33h-4q14 -121 14 -205v-664q0 -73 -32.5 -106 t-106.5 -33h-262zM670 -410q39 103 39 172q0 57 -23 125h195q14 -52 14 -104q0 -84 -53 -193h-172z" />
<glyph unicode="&#x146;" horiz-adv-x="1316" d="M43 823v221h240q137 0 137 -116v-31l-4 -45h4q15 29 35 56.5t53 57.5t72 52t93 36.5t115 14.5q365 0 365 -397v-408q0 -45 45 -45h82v-219h-248q-74 0 -106.5 33t-32.5 106v479q0 104 -36 158.5t-128 54.5q-102 0 -177 -58.5t-103 -154.5q-21 -64 -21 -139v-479h-258v778 q0 45 -45 45h-82zM559 -410q39 103 39 172q0 57 -23 125h195q14 -52 14 -104q0 -84 -53 -193h-172z" />
<glyph unicode="&#x147;" horiz-adv-x="1576" d="M70 0v227h88q45 0 45 45v1182h241l551 -805q25 -37 55.5 -88.5t47.5 -84.5l18 -32h4q-14 121 -14 205v666q0 72 33 105.5t106 33.5h262v-227h-88q-45 0 -45 -45v-1182h-239l-553 803q-25 36 -55.5 87.5t-48.5 84.5l-17 33h-4q14 -121 14 -205v-664q0 -73 -32.5 -106 t-106.5 -33h-262zM508 1829h194l103 -166h4l102 166h197l-190 -279h-222z" />
<glyph unicode="&#x148;" horiz-adv-x="1316" d="M43 823v221h240q137 0 137 -116v-31l-4 -45h4q15 29 35 56.5t53 57.5t72 52t93 36.5t115 14.5q365 0 365 -397v-408q0 -45 45 -45h82v-219h-248q-74 0 -106.5 33t-32.5 106v479q0 104 -36 158.5t-128 54.5q-102 0 -177 -58.5t-103 -154.5q-21 -64 -21 -139v-479h-258v778 q0 45 -45 45h-82zM375 1452h194l103 -166h4l102 166h197l-191 -278h-221z" />
<glyph unicode="&#x149;" horiz-adv-x="1384" d="M-37 1157q39 103 39 172q0 60 -22 125h194q14 -52 14 -104q0 -84 -53 -193h-172zM109 823v221h239q137 0 137 -116v-31l-4 -45h4q19 37 48 71.5t73 69t108.5 55.5t139.5 21q365 0 365 -397v-408q0 -45 45 -45h82v-219h-248q-74 0 -107 33t-33 106v479q0 104 -35.5 158.5 t-127.5 54.5q-102 0 -177.5 -58.5t-103.5 -154.5q-20 -61 -20 -139v-479h-258v778q0 45 -46 45h-81z" />
<glyph unicode="&#x14a;" horiz-adv-x="1576" d="M70 0v227h88q45 0 45 45v1182h241l551 -805q25 -37 55.5 -88.5t47.5 -84.5l18 -32h4q-14 121 -14 205v666q0 72 33 105.5t106 33.5h262v-227h-88q-45 0 -45 -45v-1094q0 -118 -32 -209.5t-83 -147t-122 -90.5t-141 -48t-148 -13v240q37 0 79.5 12t83.5 36t68 66.5 t27 96.5v16l-524 756q-25 36 -55.5 87.5t-48.5 84.5l-17 33h-4q14 -121 14 -205v-664q0 -73 -32.5 -106t-106.5 -33h-262z" />
<glyph unicode="&#x14b;" d="M43 823v221h240q137 0 137 -116v-31l-4 -45h4q15 29 35 56.5t53 57.5t72 52t93 36.5t115 14.5q365 0 365 -397v-707q0 -100 -32.5 -175t-79 -115t-110 -65t-113 -31.5t-101.5 -6.5q-21 0 -40.5 1.5t-28.5 2.5l-9 2v219q18 -2 45 -2q26 0 50.5 3.5t54.5 15t52 31.5t37 56 t15 85v632q0 104 -36 158.5t-128 54.5q-102 0 -178.5 -60t-104.5 -157q-18 -53 -18 -135v-479h-258v778q0 45 -45 45h-82z" />
<glyph unicode="&#x14c;" horiz-adv-x="1626" d="M61 737q0 154 58 291t157.5 236t239 157t297.5 58t297.5 -58t239 -157t157.5 -236t58 -291q0 -158 -58 -299t-157.5 -242.5t-239 -161t-297.5 -59.5t-297.5 59.5t-239 161t-157.5 242.5t-58 299zM340 737q0 -143 63.5 -261t172 -184.5t237.5 -66.5t237.5 66.5t172 184.5 t63.5 261q0 208 -137.5 350t-335.5 142t-335.5 -142t-137.5 -350zM541 1604v172h536v-172h-536z" />
<glyph unicode="&#x14d;" horiz-adv-x="1275" d="M66 522q0 156 76.5 282t207 195.5t287.5 69.5q158 0 289 -69.5t207.5 -195.5t76.5 -282q0 -158 -76.5 -283.5t-207 -194.5t-289.5 -69q-158 0 -288 69t-206.5 194.5t-76.5 283.5zM328 522q0 -143 90 -234t219 -91q130 0 220.5 91t90.5 234q0 142 -90.5 234t-220.5 92 q-129 0 -219 -92t-90 -234zM371 1227v172h536v-172h-536z" />
<glyph unicode="&#x14e;" horiz-adv-x="1626" d="M61 737q0 154 58 291t157.5 236t239 157t297.5 58t297.5 -58t239 -157t157.5 -236t58 -291q0 -158 -58 -299t-157.5 -242.5t-239 -161t-297.5 -59.5t-297.5 59.5t-239 161t-157.5 242.5t-58 299zM340 737q0 -143 63.5 -261t172 -184.5t237.5 -66.5t237.5 66.5t172 184.5 t63.5 261q0 208 -137.5 350t-335.5 142t-335.5 -142t-137.5 -350zM516 1804v25h166v-25q0 -59 38 -90t89 -31t89 31.5t38 91.5v23h166v-25q0 -81 -44 -142.5t-109.5 -90.5t-139.5 -29t-139.5 29t-109.5 90.5t-44 142.5z" />
<glyph unicode="&#x14f;" horiz-adv-x="1275" d="M66 522q0 156 76.5 282t207 195.5t287.5 69.5q158 0 289 -69.5t207.5 -195.5t76.5 -282q0 -158 -76.5 -283.5t-207 -194.5t-289.5 -69q-158 0 -288 69t-206.5 194.5t-76.5 283.5zM328 522q0 -143 90 -234t219 -91q130 0 220.5 91t90.5 234q0 142 -90.5 234t-220.5 92 q-129 0 -219 -92t-90 -234zM344 1427v25h166v-25q0 -59 38 -89.5t89 -30.5t89 31.5t38 91.5v22h166v-25q0 -81 -44 -142.5t-109.5 -90.5t-139.5 -29t-139.5 29t-109.5 90.5t-44 142.5z" />
<glyph unicode="&#x150;" horiz-adv-x="1626" d="M61 737q0 154 58 291t157.5 236t239 157t297.5 58t297.5 -58t239 -157t157.5 -236t58 -291q0 -158 -58 -299t-157.5 -242.5t-239 -161t-297.5 -59.5t-297.5 59.5t-239 161t-157.5 242.5t-58 299zM340 737q0 -143 63.5 -261t172 -184.5t237.5 -66.5t237.5 66.5t172 184.5 t63.5 261q0 208 -137.5 350t-335.5 142t-335.5 -142t-137.5 -350zM524 1550l148 279h213l-152 -279h-209zM877 1550l157 279h248l-213 -279h-192z" />
<glyph unicode="&#x151;" horiz-adv-x="1275" d="M66 522q0 156 76.5 282t207 195.5t287.5 69.5q158 0 289 -69.5t207.5 -195.5t76.5 -282q0 -158 -76.5 -283.5t-207 -194.5t-289.5 -69q-158 0 -288 69t-206.5 194.5t-76.5 283.5zM328 522q0 -143 90 -234t219 -91q130 0 220.5 91t90.5 234q0 142 -90.5 234t-220.5 92 q-129 0 -219 -92t-90 -234zM352 1174l148 278h213l-152 -278h-209zM705 1174l157 278h248l-213 -278h-192z" />
<glyph unicode="&#x152;" horiz-adv-x="1945" d="M61 729q0 206 96.5 376t264 267.5t369.5 97.5q70 0 162.5 -8t133.5 -8h621q73 0 106 -33.5t33 -105.5v-221h-241v88q0 45 -45 45h-322v-381h465v-228h-465v-391h375q45 0 45 45v88h242v-221q0 -73 -32.5 -106t-101.5 -33h-680q-40 0 -132.5 -9t-163.5 -9 q-202 0 -369.5 99t-264 270.5t-96.5 377.5zM340 729q0 -216 127 -357t324 -141q119 0 180 15v960q-76 17 -180 17q-197 0 -324 -140.5t-127 -353.5z" />
<glyph unicode="&#x153;" horiz-adv-x="2035" d="M66 520q0 160 77 286.5t206.5 194.5t285.5 68q283 0 440 -215h4q135 215 412 215q146 0 252.5 -67t158.5 -178t52 -251l-6 -96h-721q18 -134 105 -207t208 -73q47 0 94.5 12t82 29t62.5 34t42 29l14 12l107 -180q-7 -6 -19 -17t-53.5 -38t-87 -48t-116.5 -38t-144 -17 q-292 0 -437 222h-4q-159 -222 -444 -222q-158 0 -287.5 66.5t-206.5 192t-77 286.5zM328 520q0 -145 89.5 -234t219.5 -89t220.5 89.5t90.5 235.5q0 145 -91 235.5t-220 90.5t-219 -91t-90 -237zM1235 657h453q-5 94 -59 152.5t-138 58.5q-99 0 -166.5 -56t-89.5 -155z" />
<glyph unicode="&#x154;" horiz-adv-x="1294" d="M70 1227v227h651q203 0 328 -117.5t125 -320.5q0 -92 -28.5 -167.5t-70.5 -119t-79 -67.5t-64 -29v-4q5 -2 13 -7t27.5 -24t31.5 -43l141 -281q16 -30 39 -38.5t63 -8.5h27v-227h-141q-85 0 -127 21t-76 88l-187 366q-23 42 -50.5 55t-86.5 13h-135v-543h-268v1227h-133z M471 772h213q101 0 158 60t57 169q0 107 -56 166.5t-155 59.5h-217v-455zM496 1550l155 279h250l-215 -279h-190z" />
<glyph unicode="&#x155;" horiz-adv-x="833" d="M43 823v221h238q70 0 104.5 -30.5t34.5 -95.5v-62l-4 -65h4q37 117 126.5 192.5t205.5 75.5l47 -4v-256q-27 4 -64 4q-59 0 -113 -21.5t-101.5 -72.5t-69.5 -125q-23 -84 -23 -170v-414h-258v778q0 45 -45 45h-82zM336 1174l156 278h249l-215 -278h-190z" />
<glyph unicode="&#x156;" horiz-adv-x="1294" d="M70 1227v227h651q203 0 328 -117.5t125 -320.5q0 -92 -28.5 -167.5t-70.5 -119t-79 -67.5t-64 -29v-4q5 -2 13 -7t27.5 -24t31.5 -43l141 -281q16 -30 39 -38.5t63 -8.5h27v-227h-141q-85 0 -127 21t-76 88l-187 366q-23 42 -50.5 55t-86.5 13h-135v-543h-268v1227h-133z M471 772h213q101 0 158 60t57 169q0 107 -56 166.5t-155 59.5h-217v-455zM604 -410q39 103 39 172q0 60 -22 125h194q14 -52 14 -104q0 -84 -53 -193h-172z" />
<glyph unicode="&#x157;" horiz-adv-x="833" d="M43 823v221h238q70 0 104.5 -30.5t34.5 -95.5v-62l-4 -65h4q37 117 126.5 192.5t205.5 75.5l47 -4v-256q-27 4 -64 4q-59 0 -113 -21.5t-101.5 -72.5t-69.5 -125q-23 -84 -23 -170v-414h-258v778q0 45 -45 45h-82zM195 -410q38 100 38 172q0 60 -22 125h195 q14 -52 14 -104q0 -84 -53 -193h-172z" />
<glyph unicode="&#x158;" horiz-adv-x="1294" d="M70 1227v227h651q203 0 328 -117.5t125 -320.5q0 -92 -28.5 -167.5t-70.5 -119t-79 -67.5t-64 -29v-4q5 -2 13 -7t27.5 -24t31.5 -43l141 -281q16 -30 39 -38.5t63 -8.5h27v-227h-141q-85 0 -127 21t-76 88l-187 366q-23 42 -50.5 55t-86.5 13h-135v-543h-268v1227h-133z M297 1829h195l102 -166h4l102 166h197l-190 -279h-222zM471 772h213q101 0 158 60t57 169q0 107 -56 166.5t-155 59.5h-217v-455z" />
<glyph unicode="&#x159;" horiz-adv-x="833" d="M43 823v221h238q70 0 104.5 -30.5t34.5 -95.5v-62l-4 -65h4q37 117 126.5 192.5t205.5 75.5l47 -4v-256q-27 4 -64 4q-59 0 -113 -21.5t-101.5 -72.5t-69.5 -125q-23 -84 -23 -170v-414h-258v778q0 45 -45 45h-82zM137 1452h195l102 -166h4l103 166h196l-190 -278h-221z " />
<glyph unicode="&#x15a;" horiz-adv-x="1124" d="M66 201l151 188q6 -7 17.5 -18.5t48 -41t75 -52.5t96.5 -41.5t115 -18.5q88 0 148.5 45.5t60.5 126.5q0 39 -23.5 73t-63 60.5t-91 52t-108 51.5t-113 54.5t-108 66t-91 82t-63 106t-23.5 134.5q0 177 137.5 293.5t348.5 116.5q68 0 140 -16.5t139 -49t110 -90t43 -131.5 v-135h-242v65q0 49 -58.5 81t-133.5 32q-93 0 -153 -43.5t-60 -112.5q0 -39 23.5 -72.5t63 -58.5t91 -48.5t108 -48t113 -52t108 -65t91 -82.5t63 -109t23.5 -140q0 -180 -131.5 -304t-352.5 -124q-66 0 -129 12.5t-111 32.5t-91 44t-73 48t-52 44t-33 32zM477 1550l156 279 h250l-215 -279h-191z" />
<glyph unicode="&#x15b;" horiz-adv-x="958" d="M51 162l123 170q5 -6 15 -16.5t43 -37t67 -47t85 -37t101 -16.5q63 0 102.5 26.5t39.5 76.5q0 29 -30.5 54.5t-79 46.5t-107 44t-117.5 53t-107.5 67t-79 93t-30.5 125q0 100 57 171t146.5 102.5t201.5 31.5q59 0 118 -10.5t117.5 -33.5t95 -68t36.5 -105v-109h-230v52 q0 34 -41 53.5t-90 19.5q-71 0 -113 -24.5t-42 -69.5q0 -33 30.5 -59.5t79.5 -46.5t108.5 -41t118.5 -49.5t108 -64t79.5 -91.5t30.5 -127q0 -145 -114 -232.5t-288 -87.5q-80 0 -154.5 19.5t-123 46.5t-85.5 54.5t-54 46.5zM375 1174l155 278h250l-215 -278h-190z" />
<glyph unicode="&#x15c;" horiz-adv-x="1124" d="M66 201l151 188q6 -7 17.5 -18.5t48 -41t75 -52.5t96.5 -41.5t115 -18.5q88 0 148.5 45.5t60.5 126.5q0 39 -23.5 73t-63 60.5t-91 52t-108 51.5t-113 54.5t-108 66t-91 82t-63 106t-23.5 134.5q0 177 137.5 293.5t348.5 116.5q68 0 140 -16.5t139 -49t110 -90t43 -131.5 v-135h-242v65q0 49 -58.5 81t-133.5 32q-93 0 -153 -43.5t-60 -112.5q0 -39 23.5 -72.5t63 -58.5t91 -48.5t108 -48t113 -52t108 -65t91 -82.5t63 -109t23.5 -140q0 -180 -131.5 -304t-352.5 -124q-66 0 -129 12.5t-111 32.5t-91 44t-73 48t-52 44t-33 32zM279 1550l186 279 h223l189 -279h-195l-102 166h-5l-104 -166h-192z" />
<glyph unicode="&#x15d;" horiz-adv-x="958" d="M51 162l123 170q5 -6 15 -16.5t43 -37t67 -47t85 -37t101 -16.5q63 0 102.5 26.5t39.5 76.5q0 29 -30.5 54.5t-79 46.5t-107 44t-117.5 53t-107.5 67t-79 93t-30.5 125q0 100 57 171t146.5 102.5t201.5 31.5q59 0 118 -10.5t117.5 -33.5t95 -68t36.5 -105v-109h-230v52 q0 34 -41 53.5t-90 19.5q-71 0 -113 -24.5t-42 -69.5q0 -33 30.5 -59.5t79.5 -46.5t108.5 -41t118.5 -49.5t108 -64t79.5 -91.5t30.5 -127q0 -145 -114 -232.5t-288 -87.5q-80 0 -154.5 19.5t-123 46.5t-85.5 54.5t-54 46.5zM176 1174l186 278h224l188 -278h-194l-103 165 h-4l-104 -165h-193z" />
<glyph unicode="&#x15e;" horiz-adv-x="1124" d="M66 201l151 188q6 -7 17.5 -18.5t48 -41t75 -52.5t96.5 -41.5t115 -18.5q88 0 148.5 45.5t60.5 126.5q0 39 -23.5 73t-63 60.5t-91 52t-108 51.5t-113 54.5t-108 66t-91 82t-63 106t-23.5 134.5q0 177 137.5 293.5t348.5 116.5q68 0 140 -16.5t139 -49t110 -90t43 -131.5 v-135h-242v65q0 49 -58.5 81t-133.5 32q-93 0 -153 -43.5t-60 -112.5q0 -39 23.5 -72.5t63 -58.5t91 -48.5t108 -48t113 -52t108 -65t91 -82.5t63 -109t23.5 -140q0 -168 -117 -289.5t-314 -136.5l-14 -67q66 -8 108 -48t42 -108q0 -49 -19 -85t-51.5 -56t-70.5 -29.5 t-81 -9.5q-31 0 -62.5 3.5t-47.5 6.5l-16 4v144q45 -17 90 -17q90 0 90 58q0 28 -28 41.5t-71 13.5l-43 -4l41 158q-76 9 -147 34.5t-118 56t-83.5 60t-53.5 49.5z" />
<glyph unicode="&#x15f;" horiz-adv-x="958" d="M51 162l123 170q5 -6 15 -16.5t43 -37t67 -47t85 -37t101 -16.5q63 0 102.5 26.5t39.5 76.5q0 29 -30.5 54.5t-79 46.5t-107 44t-117.5 53t-107.5 67t-79 93t-30.5 125q0 100 57 171t146.5 102.5t201.5 31.5q59 0 118 -10.5t117.5 -33.5t95 -68t36.5 -105v-109h-230v52 q0 34 -41 53.5t-90 19.5q-71 0 -113 -24.5t-42 -69.5q0 -33 30.5 -59.5t79.5 -46.5t108.5 -41t118.5 -49.5t108 -64t79.5 -91.5t30.5 -127q0 -138 -105 -224t-268 -94l-14 -67q67 -8 108 -47.5t41 -108.5q0 -94 -63.5 -137t-157.5 -43q-31 0 -62.5 3.5t-47.5 6.5l-15 4v144 q43 -17 90 -17q88 0 88 58q0 55 -98 55l-43 -4l43 160q-62 10 -119 32t-94 46t-65 47t-41 38z" />
<glyph unicode="&#x160;" horiz-adv-x="1124" d="M66 201l151 188q6 -7 17.5 -18.5t48 -41t75 -52.5t96.5 -41.5t115 -18.5q88 0 148.5 45.5t60.5 126.5q0 39 -23.5 73t-63 60.5t-91 52t-108 51.5t-113 54.5t-108 66t-91 82t-63 106t-23.5 134.5q0 177 137.5 293.5t348.5 116.5q68 0 140 -16.5t139 -49t110 -90t43 -131.5 v-135h-242v65q0 49 -58.5 81t-133.5 32q-93 0 -153 -43.5t-60 -112.5q0 -39 23.5 -72.5t63 -58.5t91 -48.5t108 -48t113 -52t108 -65t91 -82.5t63 -109t23.5 -140q0 -180 -131.5 -304t-352.5 -124q-66 0 -129 12.5t-111 32.5t-91 44t-73 48t-52 44t-33 32zM279 1829h194 l102 -166h5l102 166h197l-191 -279h-221z" />
<glyph unicode="&#x161;" horiz-adv-x="958" d="M51 162l123 170q5 -6 15 -16.5t43 -37t67 -47t85 -37t101 -16.5q63 0 102.5 26.5t39.5 76.5q0 29 -30.5 54.5t-79 46.5t-107 44t-117.5 53t-107.5 67t-79 93t-30.5 125q0 100 57 171t146.5 102.5t201.5 31.5q59 0 118 -10.5t117.5 -33.5t95 -68t36.5 -105v-109h-230v52 q0 34 -41 53.5t-90 19.5q-71 0 -113 -24.5t-42 -69.5q0 -33 30.5 -59.5t79.5 -46.5t108.5 -41t118.5 -49.5t108 -64t79.5 -91.5t30.5 -127q0 -145 -114 -232.5t-288 -87.5q-80 0 -154.5 19.5t-123 46.5t-85.5 54.5t-54 46.5zM174 1452h195l102 -166h4l103 166h196l-190 -278 h-222z" />
<glyph unicode="&#x162;" horiz-adv-x="1337" d="M31 1094v229q0 72 29 101.5t102 29.5h1014q73 0 102 -29.5t29 -101.5v-229h-236v88q0 45 -45 45h-223v-1227h-72l-20 -90q67 -8 108 -47.5t41 -108.5q0 -63 -33 -105t-80.5 -58.5t-107.5 -16.5q-31 0 -62.5 3.5t-46.5 6.5l-16 4v144q43 -17 88 -17q90 0 90 58 q0 55 -98 55l-43 -4l49 176h-65v1227h-224q-45 0 -45 -45v-88h-235z" />
<glyph unicode="&#x163;" horiz-adv-x="757" d="M39 838v206h141v285h254v-285h238v-206h-238v-422q0 -49 15 -86t37 -57.5t51.5 -33.5t54 -16.5t49.5 -3.5l47 4v-227q-33 -6 -80 -6q-62 0 -116 10l-19 -90q67 -8 108.5 -47.5t41.5 -108.5q0 -94 -64 -137t-158 -43q-31 0 -62.5 3.5t-46.5 6.5l-16 4v144q44 -17 91 -17 q88 0 88 58q0 55 -99 55l-43 -4l60 213q-199 88 -199 346v455h-135z" />
<glyph unicode="&#x164;" horiz-adv-x="1337" d="M31 1094v229q0 72 29 101.5t102 29.5h1014q73 0 102 -29.5t29 -101.5v-229h-236v88q0 45 -45 45h-223v-1227h-268v1227h-224q-45 0 -45 -45v-88h-235zM371 1829h194l103 -166h4l102 166h197l-191 -279h-221z" />
<glyph unicode="&#x165;" horiz-adv-x="845" d="M45 838v206h141v285h254v-285h238v-206h-238v-422q0 -49 15 -86t37 -57.5t51.5 -33.5t54 -16.5t49.5 -3.5l47 4v-227q-33 -6 -80 -6q-36 0 -70 3t-79 13.5t-83 27.5t-76.5 47.5t-65 70.5t-43.5 99.5t-17 131.5v455h-135zM541 1157q39 103 39 172q0 57 -23 125h195 q14 -52 14 -104q0 -84 -53 -193h-172z" />
<glyph unicode="&#x166;" horiz-adv-x="1337" d="M31 1094v229q0 72 29 101.5t102 29.5h1014q73 0 102 -29.5t29 -101.5v-229h-236v88q0 45 -45 45h-223v-426h319v-197h-319v-604h-268v604h-304v197h304v426h-224q-45 0 -45 -45v-88h-235z" />
<glyph unicode="&#x167;" horiz-adv-x="757" d="M39 489v173h135v176h-135v206h141v285h254v-285h238v-206h-238v-176h238v-173h-238v-83q0 -56 21.5 -96t56 -58t66 -25.5t63.5 -7.5l47 4v-227q-33 -6 -80 -6q-36 0 -70 3t-79 13.5t-83 27.5t-76.5 47.5t-65 70.5t-43.5 99.5t-17 131.5v106h-135z" />
<glyph unicode="&#x168;" horiz-adv-x="1515" d="M53 1227v227h262q73 0 106.5 -33.5t33.5 -105.5v-789q0 -141 82.5 -221t220.5 -80q139 0 221 80t82 223v787q0 72 33 105.5t106 33.5h262v-227h-88q-45 0 -45 -45v-664q0 -242 -156.5 -392.5t-412.5 -150.5q-259 0 -416.5 150.5t-157.5 392.5v664q0 45 -45 45h-88z M387 1552q0 281 234 281q48 0 88.5 -21t63.5 -45.5t52.5 -45.5t57.5 -21q40 0 62 37t22 90h161q0 -281 -233 -281q-48 0 -88.5 21t-63.5 45.5t-52.5 45.5t-57.5 21q-41 0 -62.5 -36.5t-21.5 -90.5h-162z" />
<glyph unicode="&#x169;" d="M39 823v221h248q72 0 104.5 -33t32.5 -104v-481q0 -104 35.5 -158.5t126.5 -54.5q135 0 214 102.5t79 249.5v479h260v-780q0 -45 45 -45h82v-219h-240q-67 0 -102 30.5t-35 86.5v28l2 48h-4q-40 -89 -137 -153.5t-224 -64.5q-360 0 -360 398v405q0 45 -45 45h-82z M268 1176q0 280 234 280q48 0 88.5 -21t63.5 -45.5t52.5 -45.5t57.5 -21q40 0 62 37t22 90h162q0 -281 -234 -281q-39 0 -72.5 14t-56.5 33.5t-43.5 39t-43.5 33.5t-46 14q-41 0 -62.5 -36.5t-21.5 -90.5h-162z" />
<glyph unicode="&#x16a;" horiz-adv-x="1515" d="M53 1227v227h262q73 0 106.5 -33.5t33.5 -105.5v-789q0 -141 82.5 -221t220.5 -80q139 0 221 80t82 223v787q0 72 33 105.5t106 33.5h262v-227h-88q-45 0 -45 -45v-664q0 -242 -156.5 -392.5t-412.5 -150.5q-259 0 -416.5 150.5t-157.5 392.5v664q0 45 -45 45h-88z M492 1604v172h536v-172h-536z" />
<glyph unicode="&#x16b;" d="M39 823v221h248q72 0 104.5 -33t32.5 -104v-481q0 -104 35.5 -158.5t126.5 -54.5q135 0 214 102.5t79 249.5v479h260v-780q0 -45 45 -45h82v-219h-240q-67 0 -102 30.5t-35 86.5v28l2 48h-4q-40 -89 -137 -153.5t-224 -64.5q-360 0 -360 398v405q0 45 -45 45h-82z M375 1227v172h536v-172h-536z" />
<glyph unicode="&#x16c;" horiz-adv-x="1515" d="M53 1227v227h262q73 0 106.5 -33.5t33.5 -105.5v-789q0 -141 82.5 -221t220.5 -80q139 0 221 80t82 223v787q0 72 33 105.5t106 33.5h262v-227h-88q-45 0 -45 -45v-664q0 -242 -156.5 -392.5t-412.5 -150.5q-259 0 -416.5 150.5t-157.5 392.5v664q0 45 -45 45h-88z M465 1804v25h166v-25q0 -59 38 -90t89 -31t89 31.5t38 91.5v23h166v-25q0 -81 -44 -142.5t-109.5 -90.5t-139.5 -29t-139.5 29t-109.5 90.5t-44 142.5z" />
<glyph unicode="&#x16d;" d="M39 823v221h248q72 0 104.5 -33t32.5 -104v-481q0 -104 35.5 -158.5t126.5 -54.5q135 0 214 102.5t79 249.5v479h260v-780q0 -45 45 -45h82v-219h-240q-67 0 -102 30.5t-35 86.5v28l2 48h-4q-40 -89 -137 -153.5t-224 -64.5q-360 0 -360 398v405q0 45 -45 45h-82z M348 1427v25h166v-25q0 -59 38 -89.5t89 -30.5t89 31.5t38 91.5v22h166v-25q0 -81 -44 -142.5t-109.5 -90.5t-139.5 -29t-139.5 29t-109.5 90.5t-44 142.5z" />
<glyph unicode="&#x16e;" horiz-adv-x="1515" d="M53 1227v227h262q73 0 106.5 -33.5t33.5 -105.5v-789q0 -141 82.5 -221t220.5 -80q139 0 221 80t82 223v787q0 72 33 105.5t106 33.5h262v-227h-88q-45 0 -45 -45v-664q0 -242 -156.5 -392.5t-412.5 -150.5q-259 0 -416.5 150.5t-157.5 392.5v664q0 45 -45 45h-88z M578 1686q0 75 54 118t128 43t128 -43t54 -118q0 -74 -54 -117t-128 -43t-128 43t-54 117zM688 1686q0 -31 20.5 -50.5t51.5 -19.5t51 19.5t20 50.5q0 32 -20 51.5t-51 19.5t-51.5 -19.5t-20.5 -51.5z" />
<glyph unicode="&#x16f;" d="M39 823v221h248q72 0 104.5 -33t32.5 -104v-481q0 -104 35.5 -158.5t126.5 -54.5q135 0 214 102.5t79 249.5v479h260v-780q0 -45 45 -45h82v-219h-240q-67 0 -102 30.5t-35 86.5v28l2 48h-4q-40 -89 -137 -153.5t-224 -64.5q-360 0 -360 398v405q0 45 -45 45h-82z M459 1309q0 75 54 118t128 43t128 -43t54 -118q0 -74 -54 -117t-128 -43t-128 43t-54 117zM569 1309q0 -31 20.5 -50.5t51.5 -19.5t51.5 19.5t20.5 50.5q0 32 -20.5 51.5t-51.5 19.5t-51.5 -19.5t-20.5 -51.5z" />
<glyph unicode="&#x170;" horiz-adv-x="1515" d="M53 1227v227h262q73 0 106.5 -33.5t33.5 -105.5v-789q0 -141 82.5 -221t220.5 -80q139 0 221 80t82 223v787q0 72 33 105.5t106 33.5h262v-227h-88q-45 0 -45 -45v-664q0 -242 -156.5 -392.5t-412.5 -150.5q-259 0 -416.5 150.5t-157.5 392.5v664q0 45 -45 45h-88z M473 1550l148 279h213l-152 -279h-209zM825 1550l158 279h248l-213 -279h-193z" />
<glyph unicode="&#x171;" d="M39 823v221h248q72 0 104.5 -33t32.5 -104v-481q0 -104 35.5 -158.5t126.5 -54.5q135 0 214 102.5t79 249.5v479h260v-780q0 -45 45 -45h82v-219h-240q-67 0 -102 30.5t-35 86.5v28l2 48h-4q-40 -89 -137 -153.5t-224 -64.5q-360 0 -360 398v405q0 45 -45 45h-82z M356 1174l148 278h213l-152 -278h-209zM709 1174l157 278h248l-213 -278h-192z" />
<glyph unicode="&#x172;" horiz-adv-x="1515" d="M53 1227v227h262q73 0 106.5 -33.5t33.5 -105.5v-789q0 -141 82.5 -221t220.5 -80q139 0 221 80t82 223v787q0 72 33 105.5t106 33.5h262v-227h-88q-45 0 -45 -45v-668q0 -313 -295 -485q-60 -34 -107.5 -87.5t-47.5 -101.5q0 -29 24.5 -47.5t48.5 -22.5l25 -3l-62 -193 q-5 0 -14 1.5t-35 7.5t-50 14t-53 23.5t-49.5 35t-35 49.5t-14.5 66q0 116 110 206v5q-25 -2 -43 -2q-241 0 -393 152t-152 386v664q0 45 -45 45h-88z" />
<glyph unicode="&#x173;" d="M39 823v221h248q79 0 108 -36.5t29 -124.5v-457q0 -104 35.5 -158.5t126.5 -54.5q135 0 214 102.5t79 249.5v479h260v-780q0 -45 45 -45h82v-219q-115 -97 -115 -160q0 -29 25 -47.5t50 -22.5l25 -3l-61 -193q-5 0 -14 1.5t-35.5 7.5t-50 14t-53 23.5t-50 35t-35 49.5 t-14.5 66q0 125 135 225v4h-55q-63 0 -96 30.5t-33 86.5v28l2 45h-6q-4 -9 -11.5 -23.5t-38 -51.5t-67.5 -65.5t-102 -51.5t-140 -23q-360 0 -360 398v405q0 45 -45 45h-82z" />
<glyph unicode="&#x174;" horiz-adv-x="2031" d="M33 1227v227h174q80 0 121.5 -25.5t58.5 -93.5l199 -866q8 -36 14 -74.5t8 -58.5l2 -21h4q8 70 31 154l264 981h228l249 -981q10 -37 17.5 -75.5t9.5 -58.5l2 -20h4q7 72 25 154l201 866q14 68 56 93.5t122 25.5h176v-227h-39q-29 0 -44.5 -10t-21.5 -35l-303 -1182h-309 l-221 823q-11 41 -20.5 86t-12.5 70l-4 25h-4q-12 -87 -39 -181l-231 -823h-312l-301 1182q-10 45 -65 45h-39zM725 1550l186 279h224l188 -279h-195l-102 166h-4l-104 -166h-193z" />
<glyph unicode="&#x175;" horiz-adv-x="1710" d="M20 823v221h179q65 0 98.5 -23.5t48.5 -82.5l154 -580q6 -24 11 -51.5t7 -42.5l2 -16h4q9 55 25 110l192 682h230l194 -682q7 -24 13 -51.5t8 -42.5l2 -16h4q6 55 20 110l152 580q15 59 48.5 82.5t98.5 23.5h179v-221h-29q-24 0 -36 -7.5t-21 -29.5l-250 -786h-293 l-178 596q-7 24 -13.5 52.5t-9.5 44.5l-2 16h-4q-11 -58 -27 -113l-176 -596h-295l-250 786q-7 22 -19.5 29.5t-37.5 7.5h-29zM557 1174l186 278h224l188 -278h-194l-103 165h-4l-104 -165h-193z" />
<glyph unicode="&#x176;" horiz-adv-x="1259" d="M20 1227v227h138q74 0 112 -20t78 -86l193 -320q23 -37 45 -78t32 -64l11 -22h4q37 78 88 164l190 320q38 66 77 86t114 20h137v-227h-47q-33 0 -48.5 -9t-35.5 -40l-344 -543v-635h-268v635l-344 543q-20 31 -35.5 40t-48.5 9h-48zM334 1550l186 279h223l189 -279h-195 l-102 166h-4l-105 -166h-192z" />
<glyph unicode="&#x177;" horiz-adv-x="1132" d="M2 -324l100 185q7 -8 20 -20t52.5 -32t77.5 -20q117 0 172 133l35 80l-348 784q-9 22 -21 29.5t-35 7.5h-30v221h172q55 0 86 -22t51 -76l205 -522q9 -24 18 -58.5t13 -57.5l5 -23h5q16 86 34 139l179 522q18 53 51 75.5t88 22.5h176v-221h-31q-25 0 -37.5 -7.5 t-21.5 -29.5l-375 -944q-53 -136 -153.5 -204t-223.5 -68q-46 0 -90 11t-74 26.5t-53.5 31t-34.5 26.5zM272 1174l187 278h223l188 -278h-194l-103 165h-4l-104 -165h-193z" />
<glyph unicode="&#x178;" horiz-adv-x="1259" d="M20 1227v227h138q74 0 112 -20t78 -86l193 -320q23 -37 45 -78t32 -64l11 -22h4q37 78 88 164l190 320q38 66 77 86t114 20h137v-227h-47q-33 0 -48.5 -9t-35.5 -40l-344 -543v-635h-268v635l-344 543q-20 31 -35.5 40t-48.5 9h-48zM358 1591v238h181v-238h-181z M725 1591v238h182v-238h-182z" />
<glyph unicode="&#x179;" horiz-adv-x="1204" d="M35 0v170l653 926q26 36 54 69t42 47l15 15v4q-43 -4 -111 -4h-352q-45 0 -45 -45v-88h-244v221q0 72 33 105.5t106 33.5h944v-168l-653 -928q-26 -37 -53.5 -70t-41.5 -47l-15 -14v-4q42 4 110 4h397q46 0 46 45v88h241v-221q0 -73 -32.5 -106t-106.5 -33h-987z M514 1550l156 279h250l-215 -279h-191z" />
<glyph unicode="&#x17a;" horiz-adv-x="1046" d="M55 0v139l482 588q21 26 43 50t34 35l11 11v4q-31 -4 -97 -4h-188q-45 0 -45 -45v-59h-236v186q0 72 33.5 105.5t106.5 33.5h766v-141l-482 -588q-21 -25 -43 -49t-34 -36l-11 -11v-4q31 6 99 6h229q45 0 45 45v58h236v-185q0 -73 -33 -106t-105 -33h-811zM438 1174 l156 278h250l-215 -278h-191z" />
<glyph unicode="&#x17b;" horiz-adv-x="1204" d="M35 0v170l653 926q26 36 54 69t42 47l15 15v4q-43 -4 -111 -4h-352q-45 0 -45 -45v-88h-244v221q0 72 33 105.5t106 33.5h944v-168l-653 -928q-26 -37 -53.5 -70t-41.5 -47l-15 -14v-4q42 4 110 4h397q46 0 46 45v88h241v-221q0 -73 -32.5 -106t-106.5 -33h-987z M502 1591v238h225v-238h-225z" />
<glyph unicode="&#x17c;" horiz-adv-x="1046" d="M55 0v139l482 588q21 26 43 50t34 35l11 11v4q-31 -4 -97 -4h-188q-45 0 -45 -45v-59h-236v186q0 72 33.5 105.5t106.5 33.5h766v-141l-482 -588q-21 -25 -43 -49t-34 -36l-11 -11v-4q31 6 99 6h229q45 0 45 45v58h236v-185q0 -73 -33 -106t-105 -33h-811zM426 1214v238 h225v-238h-225z" />
<glyph unicode="&#x17d;" horiz-adv-x="1204" d="M35 0v170l653 926q26 36 54 69t42 47l15 15v4q-43 -4 -111 -4h-352q-45 0 -45 -45v-88h-244v221q0 72 33 105.5t106 33.5h944v-168l-653 -928q-26 -37 -53.5 -70t-41.5 -47l-15 -14v-4q42 4 110 4h397q46 0 46 45v88h241v-221q0 -73 -32.5 -106t-106.5 -33h-987z M315 1829h195l102 -166h4l103 166h196l-190 -279h-221z" />
<glyph unicode="&#x17e;" horiz-adv-x="1046" d="M55 0v139l482 588q21 26 43 50t34 35l11 11v4q-31 -4 -97 -4h-188q-45 0 -45 -45v-59h-236v186q0 72 33.5 105.5t106.5 33.5h766v-141l-482 -588q-21 -25 -43 -49t-34 -36l-11 -11v-4q31 6 99 6h229q45 0 45 45v58h236v-185q0 -73 -33 -106t-105 -33h-811zM238 1452h194 l103 -166h4l102 166h197l-191 -278h-221z" />
<glyph unicode="&#x17f;" horiz-adv-x="706" d="M41 838v206h129v31q0 71 16.5 129t42.5 97.5t63.5 69.5t75 46.5t81 27t78 14t69.5 3.5q24 0 46 -1.5t32 -2.5l10 -2v-221q-22 4 -53 4q-26 0 -50 -3.5t-52.5 -14.5t-49.5 -29t-35 -51t-14 -76v-1065h-260v838h-129z" />
<glyph unicode="&#x192;" horiz-adv-x="765" d="M-109 -109l21 222q20 -4 51 -4q26 0 50 3.5t54 15t52.5 31t39.5 55.5t21 83l35 387h-145v207h163l17 184q6 71 27.5 129t50.5 97.5t68.5 69.5t78.5 46.5t83.5 27t79.5 14t71 3.5q24 0 46 -1.5t32 -2.5l10 -2l-21 -221q-20 4 -53 4q-26 0 -50 -3.5t-54 -15t-52.5 -31 t-39.5 -55.5t-21 -83l-14 -160h206v-207h-225l-37 -410q-9 -98 -46.5 -172t-85.5 -114t-111.5 -64.5t-113.5 -31.5t-102 -7q-23 0 -44.5 1.5t-31.5 3.5z" />
<glyph unicode="&#x218;" horiz-adv-x="1124" d="M66 201l151 188q6 -7 17.5 -18.5t48 -41t75 -52.5t96.5 -41.5t115 -18.5q88 0 148.5 45.5t60.5 126.5q0 39 -23.5 73t-63 60.5t-91 52t-108 51.5t-113 54.5t-108 66t-91 82t-63 106t-23.5 134.5q0 177 137.5 293.5t348.5 116.5q68 0 140 -16.5t139 -49t110 -90t43 -131.5 v-135h-242v65q0 49 -58.5 81t-133.5 32q-93 0 -153 -43.5t-60 -112.5q0 -39 23.5 -72.5t63 -58.5t91 -48.5t108 -48t113 -52t108 -65t91 -82.5t63 -109t23.5 -140q0 -180 -131.5 -304t-352.5 -124q-66 0 -129 12.5t-111 32.5t-91 44t-73 48t-52 44t-33 32zM449 -410 q38 100 38 172q0 60 -22 125h194q15 -55 15 -104q0 -84 -53 -193h-172z" />
<glyph unicode="&#x219;" horiz-adv-x="958" d="M51 162l123 170q5 -6 15 -16.5t43 -37t67 -47t85 -37t101 -16.5q63 0 102.5 26.5t39.5 76.5q0 29 -30.5 54.5t-79 46.5t-107 44t-117.5 53t-107.5 67t-79 93t-30.5 125q0 100 57 171t146.5 102.5t201.5 31.5q59 0 118 -10.5t117.5 -33.5t95 -68t36.5 -105v-109h-230v52 q0 34 -41 53.5t-90 19.5q-71 0 -113 -24.5t-42 -69.5q0 -33 30.5 -59.5t79.5 -46.5t108.5 -41t118.5 -49.5t108 -64t79.5 -91.5t30.5 -127q0 -145 -114 -232.5t-288 -87.5q-80 0 -154.5 19.5t-123 46.5t-85.5 54.5t-54 46.5zM356 -410q39 103 39 172q0 60 -22 125h194 q15 -55 15 -104q0 -82 -54 -193h-172z" />
<glyph unicode="&#x21a;" horiz-adv-x="1337" d="M31 1094v229q0 72 29 101.5t102 29.5h1014q73 0 102 -29.5t29 -101.5v-229h-236v88q0 45 -45 45h-223v-1227h-268v1227h-224q-45 0 -45 -45v-88h-235zM543 -410q39 103 39 172q0 57 -23 125h195q14 -52 14 -104q0 -84 -53 -193h-172z" />
<glyph unicode="&#x21b;" horiz-adv-x="757" d="M39 838v206h141v285h254v-285h238v-206h-238v-422q0 -49 15 -86t37 -57.5t51.5 -33.5t54 -16.5t49.5 -3.5l47 4v-227q-33 -6 -80 -6q-36 0 -70 3t-79 13.5t-83 27.5t-76.5 47.5t-65 70.5t-43.5 99.5t-17 131.5v455h-135zM303 -410q39 103 39 172q0 57 -23 125h195 q14 -52 14 -104q0 -84 -53 -193h-172z" />
<glyph unicode="&#x2c6;" horiz-adv-x="1026" d="M215 1550l186 279h224l188 -279h-195l-102 166h-4l-104 -166h-193z" />
<glyph unicode="&#x2c7;" horiz-adv-x="1028" d="M213 1829h195l102 -166h4l102 166h197l-190 -279h-222z" />
<glyph unicode="&#x2d8;" horiz-adv-x="1060" d="M227 1804v25h166v-25q0 -59 38 -90t89 -31t89 31.5t38 91.5v23h166v-25q0 -81 -44 -142.5t-109.5 -90.5t-139.5 -29t-139.5 29t-109.5 90.5t-44 142.5z" />
<glyph unicode="&#x2d9;" horiz-adv-x="593" d="M184 1591v238h226v-238h-226z" />
<glyph unicode="&#x2da;" horiz-adv-x="786" d="M211 1686q0 75 54 118t128 43t128 -43t54 -118q0 -74 -54 -117t-128 -43t-128 43t-54 117zM322 1686q0 -31 20 -50.5t51 -19.5t51.5 19.5t20.5 50.5q0 32 -20.5 51.5t-51.5 19.5t-51 -19.5t-20 -51.5z" />
<glyph unicode="&#x2db;" horiz-adv-x="776" d="M227 -229q0 43 18.5 85.5t45 73t53.5 55t46 36.5l18 12l174 -8q-6 -4 -15.5 -12t-33.5 -31t-42.5 -44.5t-33.5 -49t-15 -48.5q0 -29 25 -47.5t49 -22.5l25 -3l-62 -193q-5 0 -14 1.5t-35.5 7.5t-50 14t-53 23.5t-50 35t-35 49.5t-14.5 66z" />
<glyph unicode="&#x2dc;" horiz-adv-x="1122" d="M197 1552q0 281 233 281q48 0 88.5 -21t63.5 -45.5t52.5 -45.5t57.5 -21q40 0 62 37t22 90h162q0 -281 -233 -281q-48 0 -88.5 21t-64 45.5t-53 45.5t-57.5 21q-41 0 -62.5 -36.5t-21.5 -90.5h-161z" />
<glyph unicode="&#x2dd;" horiz-adv-x="1138" d="M190 1550l148 279h213l-152 -279h-209zM543 1550l157 279h248l-213 -279h-192z" />
<glyph unicode="&#x1e9e;" horiz-adv-x="1349" d="M53 0v227h88q45 0 45 45v744q0 192 125.5 315t321.5 123h577v-182l-247 -371l-45 -63v-4l36 -3q94 -13 167.5 -74.5t111 -147.5t37.5 -179q0 -181 -130 -305.5t-315 -124.5h-192v227h174q87 0 139.5 59.5t52.5 143.5q0 83 -52 141t-140 58h-172v182l182 289 q25 42 48 73.5t33 42.5l11 11v4q-16 -4 -90 -4h-182q-79 0 -130.5 -59.5t-51.5 -147.5v-881q0 -73 -33 -106t-107 -33h-262z" />
<glyph unicode="&#x2000;" horiz-adv-x="923" />
<glyph unicode="&#x2001;" horiz-adv-x="1847" />
<glyph unicode="&#x2002;" horiz-adv-x="923" />
<glyph unicode="&#x2003;" horiz-adv-x="1847" />
<glyph unicode="&#x2004;" horiz-adv-x="615" />
<glyph unicode="&#x2005;" horiz-adv-x="461" />
<glyph unicode="&#x2006;" horiz-adv-x="307" />
<glyph unicode="&#x2007;" horiz-adv-x="307" />
<glyph unicode="&#x2008;" horiz-adv-x="230" />
<glyph unicode="&#x2009;" horiz-adv-x="369" />
<glyph unicode="&#x200a;" horiz-adv-x="102" />
<glyph unicode="&#x2010;" horiz-adv-x="882" d="M133 471v227h617v-227h-617z" />
<glyph unicode="&#x2011;" horiz-adv-x="882" d="M133 471v227h617v-227h-617z" />
<glyph unicode="&#x2012;" horiz-adv-x="882" d="M133 471v227h617v-227h-617z" />
<glyph unicode="&#x2013;" horiz-adv-x="1357" d="M113 483v203h1132v-203h-1132z" />
<glyph unicode="&#x2014;" horiz-adv-x="1767" d="M113 483v203h1542v-203h-1542z" />
<glyph unicode="&#x2018;" horiz-adv-x="501" d="M86 1032l154 447h176l-97 -447h-233z" />
<glyph unicode="&#x2019;" horiz-adv-x="501" d="M86 1032l96 449h234l-154 -449h-176z" />
<glyph unicode="&#x201a;" horiz-adv-x="501" d="M86 -182l96 446h234l-154 -446h-176z" />
<glyph unicode="&#x201c;" horiz-adv-x="827" d="M86 1032l154 447h176l-97 -447h-233zM414 1032l151 447h176l-96 -447h-231z" />
<glyph unicode="&#x201d;" horiz-adv-x="827" d="M86 1032l96 449h234l-154 -449h-176zM414 1032l96 449h231l-151 -449h-176z" />
<glyph unicode="&#x201e;" horiz-adv-x="827" d="M86 -182l96 446h234l-154 -446h-176zM414 -182l96 446h231l-151 -446h-176z" />
<glyph unicode="&#x2020;" horiz-adv-x="872" d="M55 842v202h254v410h250v-410h258v-202h-258v-944h-250v944h-254z" />
<glyph unicode="&#x2021;" horiz-adv-x="872" d="M55 334v201h254v307h-254v202h254v410h250v-410h258v-202h-258v-307h258v-201h-258v-436h-250v436h-254z" />
<glyph unicode="&#x2022;" horiz-adv-x="960" d="M137 596q0 141 100.5 241.5t241.5 100.5q142 0 242 -100.5t100 -241.5t-100 -241.5t-242 -100.5q-141 0 -241.5 100.5t-100.5 241.5z" />
<glyph unicode="&#x2026;" horiz-adv-x="2033" d="M309 0v260h250v-260h-250zM891 0v260h252v-260h-252zM1475 0v260h251v-260h-251z" />
<glyph unicode="&#x202f;" horiz-adv-x="369" />
<glyph unicode="&#x2030;" horiz-adv-x="2398" d="M113 1155q0 133 98 228.5t235 95.5q138 0 237 -96t99 -228q0 -135 -99 -229.5t-237 -94.5t-235.5 94.5t-97.5 229.5zM164 0l1116 1454h240l-1117 -1454h-239zM311 1155q0 -57 39 -96t96 -39t97.5 39t40.5 96q0 56 -40.5 95.5t-97.5 39.5t-96 -39.5t-39 -95.5zM907 297 q0 133 97.5 228.5t236.5 95.5q138 0 236 -96t98 -228q0 -133 -98 -227.5t-236 -94.5q-139 0 -236.5 94t-97.5 228zM1106 299q0 -57 39 -96t96 -39t97 39t40 96q0 56 -40 95.5t-97 39.5t-96 -39.5t-39 -95.5zM1671 297q0 133 97.5 228.5t236.5 95.5q138 0 237 -96t99 -228 q0 -133 -99 -227.5t-237 -94.5q-139 0 -236.5 94t-97.5 228zM1870 299q0 -57 39 -96t96 -39t97 39t40 96q0 56 -40 95.5t-97 39.5t-96 -39.5t-39 -95.5z" />
<glyph unicode="&#x2039;" horiz-adv-x="802" d="M94 578l336 421h248l-336 -421l336 -420h-248z" />
<glyph unicode="&#x203a;" horiz-adv-x="802" d="M119 158l336 420l-336 421h248l335 -421l-335 -420h-248z" />
<glyph unicode="&#x2044;" horiz-adv-x="860" d="M47 0l565 1454h203l-567 -1454h-201z" />
<glyph unicode="&#x205f;" horiz-adv-x="461" />
<glyph unicode="&#x20ac;" horiz-adv-x="1253" d="M78 512v156h127q-4 34 -4 61l4 66h-127v157h153q67 233 259 380t442 147q48 0 99 -6.5t77 -13.5l27 -7l-64 -240q-69 21 -145 21q-145 0 -253.5 -75.5t-158.5 -205.5h510l-33 -157h-514q-4 -31 -4 -62l6 -65h488l-31 -156h-410q47 -131 158 -209t252 -78q47 0 96.5 7.5 t75.5 15.5l25 8l47 -242q-107 -39 -248 -39q-259 0 -448 148t-253 389h-153z" />
<glyph unicode="&#x2122;" horiz-adv-x="2029" d="M70 1206v156q0 53 20 72.5t78 19.5h606q56 0 76 -19.5t20 -72.5v-156h-163v60q0 16 -15 16h-123v-735h-196v735h-119q-16 0 -16 -16v-60h-168zM874 547v170h46q17 0 20 18l57 719h183l186 -428l29 -86h4q12 51 26 86l189 428h180l57 -719q3 -18 21 -18h47v-170h-154 q-57 0 -78.5 17.5t-25.5 74.5l-27 375l2 63h-4l-159 -364h-154l-160 364h-4l2 -63l-27 -375q-4 -57 -24.5 -74.5t-77.5 -17.5h-154z" />
<glyph unicode="&#x25fc;" horiz-adv-x="1044" d="M0 0v1044h1044v-1044h-1044z" />
</font>
</defs>
</svg>
