<?xml version="1.0" standalone="no"?>
<!DOCTYPE svg PUBLIC "-//W3C//DTD SVG 1.1//EN" "http://www.w3.org/Graphics/SVG/1.1/DTD/svg11.dtd" >
<svg xmlns="http://www.w3.org/2000/svg" xmlns:xlink="http://www.w3.org/1999/xlink" version="1.1">
<metadata>
Created by FontForge 20161013 at Mon Mar 10 18:05:11 2008
 By ,,,
Copyright (c) 2008 by Jos Buivenga/exljbris. All rights reserved.
</metadata>
<defs>
<font id="Museo700-Regular" horiz-adv-x="619" >
  <font-face 
    font-family="Museo 700"
    font-weight="700"
    font-stretch="normal"
    units-per-em="1000"
    panose-1="2 0 0 0 0 0 0 0 0 0"
    ascent="750"
    descent="-250"
    x-height="510"
    cap-height="710"
    bbox="-53 -237 1158 902"
    underline-thickness="50"
    underline-position="-200"
    unicode-range="U+0020-FB04"
  />
<missing-glyph horiz-adv-x="510" 
d="M5 0v700h500v-700h-500zM255 395l170 255h-340zM285 350l170 -255v510zM55 95l170 255l-170 255v-510zM85 50h340l-170 255z" />
    <glyph glyph-name="f_f" unicode="ff" horiz-adv-x="680" 
d="M83 0v409h-63v101h63v15q0 48 15 83.5t37 55t52.5 31.5t54.5 15.5t49 3.5l43 -3v-108q-11 2 -26 2q-98 0 -98 -86v-9h208v15q0 48 15 83.5t37 55t52.5 31.5t54.5 15.5t50 3.5l42 -3v-108q-11 2 -26 2q-98 0 -98 -86v-9h110v-101h-110v-409h-127v409h-208v-409h-127z" />
    <glyph glyph-name="fi" unicode="fi" horiz-adv-x="634" 
d="M83 0v409h-63v101h63v15q0 48 15 83.5t37 55t52.5 31.5t54.5 15.5t49 3.5l43 -3v-108q-12 2 -29 2q-95 0 -95 -85v-10h271q68 0 68 -68v-313q0 -22 22 -22h39v-107h-120q-36 0 -52 16t-16 52v319q0 22 -22 22h-190v-409h-127zM428 593v117h110v-117h-110z" />
    <glyph glyph-name="fl" unicode="fl" horiz-adv-x="626" 
d="M291 710h183q68 0 68 -68v-513q0 -22 22 -22h39v-107h-120q-36 0 -52 16t-16 52v512q0 22 -22 22h-85q-98 0 -98 -80v-12h109v-101h-109v-409h-127v409h-63v101h63v15q0 48 15.5 83.5t37 54t52 30t54 14.5t49.5 3z" />
    <glyph glyph-name="f_f_i" unicode="ffi" horiz-adv-x="970" 
d="M83 0v409h-63v101h63v15q0 48 15 83.5t37 55t52.5 31.5t54.5 15.5t49 3.5l43 -3v-108q-12 2 -29 2q-95 0 -95 -86v-9h208v15q0 48 15 83.5t37 55t52.5 31.5t54.5 15.5t50 3.5l42 -3v-108q-12 2 -28 2q-96 0 -96 -86v-9h271q36 0 52 -16.5t16 -51.5v-313q0 -22 22 -22h40
v-107h-121q-36 0 -52 16t-16 52v319q0 22 -22 22h-190v-409h-127v409h-208v-409h-127zM763 593v117h110v-117h-110z" />
    <glyph glyph-name="f_f_l" unicode="ffl" horiz-adv-x="962" 
d="M627 710h183q68 0 68 -68v-513q0 -22 22 -22h39v-107h-120q-36 0 -52 16t-16 52v512q0 22 -22 22h-85q-98 0 -98 -80v-12h109v-101h-109v-409h-127v409h-209v-409h-127v409h-63v101h63v16q0 47 15 83t36.5 55.5t51.5 31t54 15t50 3.5l44 -3v-108q-12 2 -28 2
q-96 0 -96 -85v-10h209v15q0 48 15.5 83.5t37 54t52 30t54 14.5t49.5 3z" />
    <glyph glyph-name="f_j" unicode="fj" horiz-adv-x="645" 
d="M83 0v409h-63v101h63v15q0 48 15 83.5t37 55t52.5 31.5t54.5 15.5t49 3.5l43 -3v-108q-12 2 -29 2q-95 0 -95 -86v-9h289q36 0 52 -16.5t16 -51.5v-457q0 -49 -16 -85.5t-38.5 -56t-53.5 -31.5t-55.5 -15.5t-49.5 -3.5l-38 3v107q9 -2 22 -2q17 0 32 3.5t32 12t27.5 29
t10.5 49.5v392q0 22 -22 22h-208v-409h-127zM447 593v117h110v-117h-110z" />
    <glyph glyph-name=".notdef" horiz-adv-x="510" 
d="M5 0v700h500v-700h-500zM255 395l170 255h-340zM285 350l170 -255v510zM55 95l170 255l-170 255v-510zM85 50h340l-170 255z" />
    <glyph glyph-name=".null" horiz-adv-x="0" 
 />
    <glyph glyph-name="nonmarkingreturn" horiz-adv-x="333" 
 />
    <glyph glyph-name="space" unicode=" " horiz-adv-x="265" 
 />
    <glyph glyph-name="space" unicode="&#xa0;" horiz-adv-x="265" 
 />
    <glyph glyph-name="exclam" unicode="!" horiz-adv-x="332" 
d="M111 205l-11 505h132l-10 -505h-111zM105 0v118h123v-118h-123z" />
    <glyph glyph-name="quotedbl" unicode="&#x22;" horiz-adv-x="369" 
d="M217 514v209h94v-209h-94zM57 514v209h94v-209h-94z" />
    <glyph glyph-name="numbersign" unicode="#" horiz-adv-x="700" 
d="M119 0l32 187h-119l15 91h119l25 140h-117l15 92h118l35 200h102l-35 -200h136l35 200h102l-35 -200h121l-16 -92h-120l-25 -140h119l-15 -91h-120l-32 -187h-102l33 187h-137l-32 -187h-102zM268 278h137l25 140h-137z" />
    <glyph glyph-name="dollar" unicode="$" horiz-adv-x="560" 
d="M38 131l91 76q2 -4 6.5 -11t20.5 -24.5t33.5 -30.5t45.5 -24t57 -11q45 0 73.5 22.5t28.5 61.5q0 25 -18.5 45.5t-48 36t-65 31t-71 35.5t-65 44.5t-48 62t-18.5 84.5q0 74 52.5 125t135.5 64v93h89v-93q67 -9 116.5 -43t49.5 -93v-66h-118v32q0 24 -26.5 39.5
t-62.5 15.5q-45 0 -74.5 -20.5t-29.5 -51.5q0 -34 34.5 -59.5t83.5 -45.5t98 -45t83.5 -72.5t34.5 -114.5q0 -75 -52 -132t-137 -70v-93h-89v92q-41 6 -77.5 22.5t-59.5 36t-40.5 38t-24.5 30.5z" />
    <glyph glyph-name="percent" unicode="%" horiz-adv-x="825" 
d="M218 406q-68 0 -115.5 46t-47.5 112q0 65 48 111.5t115 46.5t115.5 -46.5t48.5 -111.5q0 -66 -48 -112t-116 -46zM80 0l545 710h117l-545 -710h-117zM218 498q28 0 47.5 19t19.5 47q0 27 -19.5 46.5t-47.5 19.5t-47 -19.5t-19 -46.5q0 -28 19 -47t47 -19zM443 145
q0 65 47.5 111.5t115.5 46.5q67 0 115 -46.5t48 -111.5t-47.5 -111t-115.5 -46t-115.5 46t-47.5 111zM540 146q0 -28 19 -47t47 -19t47.5 19t19.5 47q0 27 -19.5 46.5t-47.5 19.5t-47 -19.5t-19 -46.5z" />
    <glyph glyph-name="ampersand" unicode="&#x26;" horiz-adv-x="651" 
d="M42 208q0 55 31.5 104.5t86.5 65.5v2q-4 1 -9.5 4.5t-20.5 16t-26.5 28t-21 44t-9.5 62.5q0 84 61 135.5t155 51.5q25 0 49.5 -3t36.5 -6l12 -3l-31 -102q-25 6 -48 6q-47 0 -76 -27t-29 -68q0 -37 25 -65.5t83 -28.5h107v85h127v-85h85v-112h-85v-84
q0 -110 -66.5 -175.5t-182.5 -65.5q-111 0 -182.5 63t-71.5 157zM174 209q0 -43 33.5 -73t88.5 -30q58 0 90 33t32 97v77h-107q-64 0 -100.5 -26.5t-36.5 -77.5z" />
    <glyph glyph-name="quotesingle" unicode="'" horiz-adv-x="210" 
d="M57 514v209h96v-209h-96z" />
    <glyph glyph-name="parenleft" unicode="(" horiz-adv-x="351" 
d="M81 326q0 240 117 415h108q-112 -187 -112 -406q0 -229 115 -430h-108q-120 176 -120 421z" />
    <glyph glyph-name="parenright" unicode=")" horiz-adv-x="351" 
d="M42 -95q115 201 115 430q0 219 -112 406h108q118 -176 118 -415q0 -245 -120 -421h-109z" />
    <glyph glyph-name="asterisk" unicode="*" horiz-adv-x="483" 
d="M171 321l-91 66l83 100v2l-126 31l34 108l121 -49l-9 131h115l-9 -131l121 49l36 -107l-128 -32v-2l84 -99l-91 -67l-69 110h-2z" />
    <glyph glyph-name="plus" unicode="+" 
d="M42 236v99h216v237h103v-237h216v-99h-216v-236h-103v236h-216z" />
    <glyph glyph-name="comma" unicode="," horiz-adv-x="265" 
d="M89 129h122l-96 -234h-93z" />
    <glyph glyph-name="hyphen" unicode="-" horiz-adv-x="431" 
d="M65 230v111h301v-111h-301z" />
    <glyph glyph-name="hyphen" unicode="&#xad;" horiz-adv-x="431" 
d="M65 230v111h301v-111h-301z" />
    <glyph glyph-name="period" unicode="." horiz-adv-x="265" 
d="M71 0v127h123v-127h-123z" />
    <glyph glyph-name="slash" unicode="/" horiz-adv-x="367" 
d="M-1 -42l254 788h109l-255 -788h-108z" />
    <glyph glyph-name="zero" unicode="0" horiz-adv-x="612" 
d="M306 -12q-70 0 -121.5 28t-80 80t-42 116t-13.5 144q0 366 257 366t257 -366q0 -80 -13.5 -144t-42 -116t-80 -80t-121.5 -28zM306 106q125 0 125 250q0 247 -125 247t-125 -247q0 -250 125 -250z" />
    <glyph glyph-name="one" unicode="1" horiz-adv-x="533" 
d="M64 0v111h153v394l1 48h-2q-8 -17 -31 -40l-57 -54l-76 80l178 171h118v-599h153v-111h-437z" />
    <glyph glyph-name="two" unicode="2" horiz-adv-x="581" 
d="M33 94q0 52 19 94.5t49.5 70.5t68 51.5t74.5 44t67.5 42t49.5 50t19 63.5q0 42 -28.5 67t-74.5 25q-40 0 -66.5 -17.5t-26.5 -38.5v-31h-118v70q0 44 35.5 76.5t83.5 46.5t97 14q97 0 163.5 -57t66.5 -153q0 -67 -35.5 -119t-86 -83.5t-100.5 -58t-85.5 -57t-35.5 -65.5
q0 -18 27 -18h208q22 0 22 22v43h118v-108q0 -36 -16 -52t-52 -16h-370q-45 0 -59 20.5t-14 73.5z" />
    <glyph glyph-name="three" unicode="3" horiz-adv-x="556" 
d="M26 88l66 98l8 -8t23 -18.5t36.5 -23.5t48 -18t58.5 -8q53 0 87 30t34 76q0 47 -38 75.5t-96 28.5h-50l-26 65l120 161q11 16 22.5 29.5t18.5 18.5l6 6v2q-22 -3 -63 -3h-89q-22 0 -22 -22v-43h-118v108q0 36 13.5 52t48.5 16h386v-81l-163 -204q77 -12 130 -66.5
t53 -140.5q0 -94 -68.5 -162t-184.5 -68q-43 0 -83.5 10.5t-68 25t-48.5 29t-31 25.5z" />
    <glyph glyph-name="four" unicode="4" horiz-adv-x="589" 
d="M18 179v83l294 448h154v-420h109v-111h-109v-179h-131v179h-317zM337 290v197l5 77h-2q-20 -38 -38 -64l-111 -164l-36 -47v-2q29 3 62 3h120z" />
    <glyph glyph-name="five" unicode="5" horiz-adv-x="595" 
d="M47 86l66 99q2 -3 7 -8t21 -18t34 -23t46 -18t57 -8q58 0 94 34t36 84q0 57 -44.5 89t-108.5 32q-35 0 -68.5 -8t-49.5 -16l-16 -8l-46 23l26 302q3 36 18 52t49 16h262q68 0 68 -68v-108h-119v43q0 22 -22 22h-117q-20 0 -22 -22l-9 -98l-5 -33h2q33 13 75 13
q119 0 189.5 -66.5t70.5 -166.5q0 -98 -71.5 -168.5t-191.5 -70.5q-42 0 -81 10t-65 24.5t-46.5 29.5t-29.5 25z" />
    <glyph glyph-name="six" unicode="6" horiz-adv-x="575" 
d="M308 -12q-116 0 -195.5 89t-79.5 241q0 58 12.5 114.5t39.5 109t64.5 92.5t92 64t118.5 24q40 0 76.5 -7.5t53.5 -14.5l16 -8l-38 -111q-46 22 -100 22q-78 0 -126 -55.5t-62 -137.5h2q18 23 55.5 37.5t76.5 14.5q102 0 164.5 -68.5t62.5 -167.5q0 -101 -65 -169.5
t-168 -68.5zM168 279q0 -67 42 -120t97 -53q49 0 78 34t29 86q0 56 -34.5 93t-95.5 37q-48 0 -82 -22.5t-34 -54.5z" />
    <glyph glyph-name="seven" unicode="7" horiz-adv-x="538" 
d="M47 0l293 534q11 20 21.5 36t16.5 22l5 7v2q-13 -2 -49 -2h-171q-22 0 -22 -22v-43h-119v108q0 36 14 52t48 16h444v-90l-338 -620h-143z" />
    <glyph glyph-name="eight" unicode="8" horiz-adv-x="583" 
d="M36 205q0 31 11 60.5t27.5 50t32.5 36t27 22.5l11 8v2q-3 2 -8.5 5.5t-19 16.5t-24 28.5t-19 40t-8.5 51.5q0 80 61.5 138t166.5 58q102 0 165 -56t63 -141q0 -28 -8 -55t-19 -45t-22.5 -32.5t-19.5 -21.5l-8 -7v-2q98 -62 98 -163q0 -85 -70.5 -148t-182.5 -63
q-108 0 -181 61t-73 156zM289 430q36 -15 47 -15q18 0 39 32t21 69q0 40 -28 63.5t-74 23.5q-47 0 -74 -23t-27 -57t24.5 -54.5t71.5 -38.5zM168 213q0 -48 35 -77.5t87 -29.5q50 0 85.5 28t35.5 71q0 34 -25.5 55.5t-76.5 42.5q-54 24 -64 24q-21 0 -49 -35.5t-28 -78.5z
" />
    <glyph glyph-name="nine" unicode="9" horiz-adv-x="575" 
d="M68 18l38 111q46 -23 100 -23q78 0 126 55.5t62 138.5h-2q-17 -23 -55 -37.5t-77 -14.5q-102 0 -164.5 68.5t-62.5 167.5q0 100 65 169t169 69q115 0 194.5 -89t79.5 -241q0 -58 -12.5 -114.5t-39.5 -109t-64.5 -92.5t-92 -64t-118.5 -24q-40 0 -76.5 7.5t-53.5 14.5z
M291 354q47 0 81 22t34 55q0 67 -42 119.5t-97 52.5q-49 0 -78 -33.5t-29 -85.5q0 -56 34.5 -93t96.5 -37z" />
    <glyph glyph-name="colon" unicode=":" horiz-adv-x="306" 
d="M92 383v127h122v-127h-122zM92 0v127h122v-127h-122z" />
    <glyph glyph-name="semicolon" unicode=";" horiz-adv-x="306" 
d="M93 383v127h122v-127h-122zM35 -105l55 234h121l-82 -234h-94z" />
    <glyph glyph-name="less" unicode="&#x3c;" 
d="M64 245v82l481 214v-111l-347 -143v-2l347 -143v-111z" />
    <glyph glyph-name="equal" unicode="=" 
d="M66 339v98h488v-98h-488zM66 134v98h488v-98h-488z" />
    <glyph glyph-name="greater" unicode="&#x3e;" 
d="M71 31v111l347 143v2l-347 143v111l481 -214v-82z" />
    <glyph glyph-name="question" unicode="?" horiz-adv-x="476" 
d="M145 205v48q0 40 17 73.5t41 56t48.5 43t41.5 45.5t17 53q0 35 -28 59t-69 24q-25 0 -52 -10.5t-41 -20.5l-14 -11l-70 87q8 8 22.5 20t63.5 32t102 20q89 0 153.5 -51.5t64.5 -136.5q0 -46 -18 -83t-43.5 -61t-51 -45.5t-43.5 -47.5t-18 -55v-39h-123zM145 0v118h123
v-118h-123z" />
    <glyph glyph-name="at" unicode="@" horiz-adv-x="785" 
d="M38 240q0 156 108.5 264.5t267.5 108.5q143 0 209 -61t66 -157v-250h73v-91h-277q-97 0 -156 55t-59 131q0 75 58.5 129t156.5 54h85q-1 39 -44 63.5t-108 24.5q-107 0 -181 -81t-74 -190q0 -113 74.5 -190.5t196.5 -77.5v-99q-176 0 -286 105t-110 262zM396 243
q0 -41 27 -69.5t70 -28.5h77v196h-75q-44 0 -71.5 -28.5t-27.5 -69.5z" />
    <glyph glyph-name="A" unicode="A" horiz-adv-x="674" 
d="M11 0v111h16q24 0 31 22l211 577h137l210 -577q7 -22 31 -22h16v-111h-78q-37 0 -54.5 12t-29.5 46l-44 124h-240l-44 -124q-12 -34 -29 -46t-54 -12h-79zM247 290h180l-61 178l-28 106h-2q-15 -67 -28 -106z" />
    <glyph glyph-name="B" unicode="B" horiz-adv-x="629" 
d="M98 68v531h-65v111h307q98 0 159 -48.5t61 -134.5q0 -55 -25 -94t-61 -58v-2q55 -16 84.5 -63t29.5 -104q0 -101 -69.5 -153.5t-175.5 -52.5h-177q-35 0 -51.5 16t-16.5 52zM229 420h112q40 0 63 25.5t23 65.5t-23 64t-65 24h-110v-179zM229 133q0 -22 22 -22h102
q47 0 73.5 28.5t26.5 74.5q0 45 -27 73.5t-73 28.5h-124v-183z" />
    <glyph glyph-name="C" unicode="C" horiz-adv-x="709" 
d="M30 361q0 154 103 257.5t257 103.5q38 0 81 -8.5t87 -25.5t72.5 -49.5t28.5 -75.5v-79h-119v40q0 36 -46.5 56t-100.5 20q-98 0 -162.5 -65t-64.5 -174q0 -104 67 -177.5t164 -73.5q38 0 73.5 9.5t60 23.5t44 28t28.5 23l9 10l69 -94q-4 -5 -12 -13t-36 -29t-58.5 -37.5
t-79.5 -29.5t-100 -13q-161 0 -263 106.5t-102 266.5z" />
    <glyph glyph-name="D" unicode="D" horiz-adv-x="715" 
d="M99 68v531h-65v111h289q166 0 264 -94t98 -260t-98 -261t-264 -95h-156q-36 0 -52 16t-16 52zM230 133q0 -22 22 -22h64q108 0 170.5 63.5t62.5 181.5q0 116 -63 179.5t-170 63.5h-86v-466z" />
    <glyph glyph-name="E" unicode="E" horiz-adv-x="578" 
d="M99 68v531h-65v111h429q68 0 68 -68v-108h-119v43q0 22 -22 22h-160v-186h230v-111h-230v-169q0 -22 22 -22h164q22 0 22 22v43h119v-108q0 -36 -16.5 -52t-51.5 -16h-322q-36 0 -52 16t-16 52z" />
    <glyph glyph-name="F" unicode="F" horiz-adv-x="526" 
d="M99 0v599h-65v111h405q36 0 52 -16.5t16 -51.5v-108h-118v43q0 22 -22 22h-137v-201h227v-111h-227v-287h-131z" />
    <glyph glyph-name="G" unicode="G" horiz-adv-x="742" 
d="M31 359q0 154 103.5 258.5t257.5 104.5q49 0 93.5 -9.5t73.5 -22.5t50.5 -26t31.5 -22l10 -10l-74 -94q-8 7 -23.5 17.5t-63 28t-95.5 17.5q-95 0 -161.5 -67.5t-66.5 -173.5q0 -113 67.5 -181.5t165.5 -68.5q50 0 95 18.5t65 37.5l20 18v53q0 22 -22 22h-43v111h115
q36 0 52 -16t16 -51v-303h-112v34l1 30h-2q-3 -3 -9 -8t-26.5 -18.5t-43 -23.5t-58 -18t-72.5 -8q-144 0 -244.5 102t-100.5 269z" />
    <glyph glyph-name="H" unicode="H" horiz-adv-x="773" 
d="M99 0v577q0 22 -22 22h-43v111h128q36 0 52 -16.5t16 -51.5v-233h313v233q0 68 68 68h128v-111h-43q-22 0 -22 -22v-577h-131v298h-313v-298h-131z" />
    <glyph glyph-name="I" unicode="I" horiz-adv-x="342" 
d="M38 0v111h71v488h-71v111h266v-111h-71v-488h71v-111h-266z" />
    <glyph glyph-name="J" unicode="J" horiz-adv-x="539" 
d="M20 210v41h131v-29q0 -59 26.5 -85.5t66.5 -26.5t66 26t26 80v361q0 22 -22 22h-172v111h257q68 0 68 -68v-432q0 -109 -66 -165.5t-158 -56.5q-91 0 -157 57t-66 165z" />
    <glyph glyph-name="K" unicode="K" horiz-adv-x="634" 
d="M99 0v577q0 22 -22 22h-43v111h128q36 0 52 -16.5t16 -51.5v-221h50q44 0 57 23l143 266h144l-160 -292q-10 -18 -21 -31t-17 -17l-7 -4v-2q24 -6 46 -49l90 -181q11 -23 50 -23h19v-111h-75q-42 0 -62 10t-37 43l-116 233q-8 16 -22 20t-40 4h-42v-310h-131z" />
    <glyph glyph-name="L" unicode="L" horiz-adv-x="558" 
d="M99 68v509q0 22 -22 22h-43v111h128q36 0 52 -16.5t16 -51.5v-509q0 -22 22 -22h155q22 0 22 22v43h119v-108q0 -36 -16 -52t-52 -16h-313q-36 0 -52 16t-16 52z" />
    <glyph glyph-name="M" unicode="M" horiz-adv-x="870" 
d="M18 0v111h31q20 0 22 22l46 577h136l146 -338l35 -95h2q18 54 35 95l146 338h136l46 -577q2 -22 22 -22h31v-111h-113q-35 0 -49.5 15.5t-17.5 52.5l-24 316q-2 21 -2 48.5v44.5l1 17h-2q-21 -70 -39 -110l-118 -262h-106l-118 262q-8 18 -17.5 45.5t-15.5 46.5l-6 19h-2
q3 -64 -1 -111l-23 -316q-3 -37 -18 -52.5t-50 -15.5h-113z" />
    <glyph glyph-name="N" unicode="N" horiz-adv-x="770" 
d="M34 0v111h43q22 0 22 22v577h118l269 -393q12 -18 27 -43t23 -41l9 -16h2q-7 59 -7 100v325q0 35 16 51.5t52 16.5h128v-111h-43q-22 0 -22 -22v-577h-117l-270 392q-12 18 -27 43t-23 41l-9 16h-2q7 -59 7 -100v-324q0 -36 -16 -52t-52 -16h-128z" />
    <glyph glyph-name="O" unicode="O" horiz-adv-x="794" 
d="M30 360q0 153 105.5 257.5t261.5 104.5t261.5 -104.5t105.5 -257.5q0 -157 -105.5 -264.5t-261.5 -107.5t-261.5 107.5t-105.5 264.5zM166 360q0 -106 67 -178t164 -72t164 72t67 178q0 101 -67 170.5t-164 69.5t-164 -69.5t-67 -170.5z" />
    <glyph glyph-name="P" unicode="P" horiz-adv-x="605" 
d="M99 0v599h-65v111h325q100 0 163 -64t63 -167t-63 -168.5t-163 -65.5h-129v-245h-131zM230 357h105q55 0 85.5 33t30.5 89q0 55 -30 87.5t-84 32.5h-107v-242z" />
    <glyph glyph-name="Q" unicode="Q" horiz-adv-x="794" 
d="M30 359q0 153 105 257.5t261 104.5q157 0 262.5 -104.5t105.5 -257.5q0 -121 -78 -224l77 -70l-78 -85l-77 76q-89 -68 -212 -68q-155 0 -260.5 107.5t-105.5 263.5zM166 359q0 -105 67 -177t163 -72q33 0 62.5 8.5t41.5 17.5l13 8l-72 67l77 85l72 -72q38 60 38 135
q0 102 -67 171t-165 69q-97 0 -163.5 -69t-66.5 -171z" />
    <glyph glyph-name="R" unicode="R" horiz-adv-x="632" 
d="M99 0v599h-65v111h318q99 0 160 -57.5t61 -156.5q0 -45 -14 -82t-34.5 -58t-38.5 -32.5t-31 -14.5v-2q22 -10 35 -36l69 -137q12 -23 50 -23h13v-111h-69q-41 0 -61.5 10t-37.5 43l-91 179q-11 20 -24.5 26.5t-42.5 6.5h-66v-265h-131zM230 377h104q50 0 77.5 29.5
t27.5 82.5q0 52 -27.5 81t-75.5 29h-106v-222z" />
    <glyph glyph-name="S" unicode="S" horiz-adv-x="549" 
d="M32 98l74 92q3 -3 8.5 -9t23.5 -20.5t37 -25.5t47 -20t56 -9q43 0 72.5 22.5t29.5 61.5q0 24 -18.5 44.5t-48 36t-65 31t-71 35.5t-65 43.5t-48 60t-18.5 81.5q0 86 67 143t170 57q46 0 92 -13t82.5 -46.5t36.5 -80.5v-66h-118v32q0 24 -28.5 39.5t-65.5 15.5
q-45 0 -74.5 -21t-29.5 -55q0 -24 18.5 -43.5t48 -34t65 -29.5t71 -34t65 -42.5t48 -61.5t18.5 -85q0 -88 -64 -148.5t-172 -60.5q-44 0 -85.5 11.5t-69 27.5t-48.5 32t-31 27z" />
    <glyph glyph-name="T" unicode="T" horiz-adv-x="653" 
d="M261 0v599h-109q-22 0 -22 -22v-43h-115v112q0 35 14 49.5t50 14.5h495q36 0 50 -14.5t14 -49.5v-112h-115v43q0 22 -22 22h-109v-599h-131z" />
    <glyph glyph-name="U" unicode="U" horiz-adv-x="740" 
d="M91 253v324q0 22 -22 22h-43v111h128q36 0 52 -16.5t16 -51.5v-385q0 -69 40 -108t108 -39t108 39t40 109v384q0 35 16 51.5t52 16.5h128v-111h-43q-22 0 -22 -22v-324q0 -118 -76.5 -191.5t-201.5 -73.5q-126 0 -203 73.5t-77 191.5z" />
    <glyph glyph-name="V" unicode="V" horiz-adv-x="684" 
d="M273 0l-213 577q-8 22 -31 22h-18v111h83q37 0 54.5 -12t29.5 -46l136 -396q6 -18 13 -44t11 -43l3 -17h2q13 64 27 104l136 396q12 34 29 46t54 12h84v-111h-19q-23 0 -31 -22l-212 -577h-138z" />
    <glyph glyph-name="W" unicode="W" horiz-adv-x="992" 
d="M214 0l-147 577q-5 22 -32 22h-19v111h85q39 0 59.5 -12.5t28.5 -45.5l97 -423l12 -75h2q4 34 15 75l129 479h111l122 -479l14 -75h2q3 35 12 75l98 423q7 33 27.5 45.5t59.5 12.5h86v-111h-19q-27 0 -32 -22l-148 -577h-151l-108 402l-18 88h-2q-6 -42 -19 -88
l-113 -402h-152z" />
    <glyph glyph-name="X" unicode="X" horiz-adv-x="613" 
d="M5 0l220 360l-132 215q-9 16 -17 20t-26 4h-30v111h82q36 0 54.5 -10.5t36.5 -41.5l68 -118l45 -86h2q19 45 43 86l69 118q18 31 37 41.5t55 10.5h81v-111h-30q-17 0 -25.5 -4.5t-17.5 -19.5l-133 -215l221 -360h-147l-110 187l-45 83h-2q-19 -42 -43 -83l-109 -187h-147
z" />
    <glyph glyph-name="Y" unicode="Y" horiz-adv-x="615" 
d="M242 0v310l-168 265q-10 15 -17.5 19.5t-23.5 4.5h-23v111h67q36 0 55 -10t38 -42l94 -156l43 -80h2q18 38 43 80l93 156q19 32 38 42t55 10h67v-111h-23q-16 0 -23.5 -4.5t-17.5 -19.5l-168 -265v-310h-131z" />
    <glyph glyph-name="Z" unicode="Z" horiz-adv-x="588" 
d="M17 0v83l319 452q13 18 26.5 34t20.5 23l7 7v2q-21 -2 -54 -2h-172q-22 0 -22 -22v-43h-119v108q0 35 16 51.5t52 16.5h461v-82l-319 -453q-13 -18 -26.5 -34t-20.5 -23l-7 -7v-2q21 2 54 2h194q22 0 22 22v43h118v-108q0 -36 -16 -52t-52 -16h-482z" />
    <glyph glyph-name="bracketleft" unicode="[" horiz-adv-x="352" 
d="M92 -27v700q0 36 16 52t52 16h129v-92h-67q-22 0 -22 -22v-608q0 -22 22 -22h67v-92h-129q-36 0 -52 16t-16 52z" />
    <glyph glyph-name="backslash" unicode="\" horiz-adv-x="364" 
d="M260 -42l-255 788h109l255 -788h-109z" />
    <glyph glyph-name="bracketright" unicode="]" horiz-adv-x="352" 
d="M63 -3h66q22 0 22 22v608q0 22 -22 22h-66v92h129q36 0 52 -16t16 -52v-700q0 -36 -16 -52t-52 -16h-129v92z" />
    <glyph glyph-name="asciicircum" unicode="^" 
d="M65 245l201 465h80l201 -465h-110l-131 331l-131 -331h-110z" />
    <glyph glyph-name="underscore" unicode="_" horiz-adv-x="571" 
d="M5 0h561v-98h-561v98z" />
    <glyph glyph-name="grave" unicode="`" horiz-adv-x="399" 
d="M176 757l-104 136h122l76 -136h-94z" />
    <glyph glyph-name="a" unicode="a" horiz-adv-x="560" 
d="M33 147q0 38 16 68t44.5 48t59.5 30.5t68.5 17.5t63 7t51.5 2h16v4q0 54 -22.5 77t-71.5 23q-24 0 -46 -7.5t-22 -26.5v-27h-118v54q0 33 20.5 56t54 32.5t60 13t52.5 3.5q220 0 220 -203v-190q0 -22 22 -22h40v-107h-114q-33 0 -49 15.5t-16 40.5l1 22h-2l-5 -10
t-16 -21.5t-29 -27.5t-44 -21.5t-60 -9.5q-72 0 -123 43t-51 116zM161 153q0 -27 20 -46.5t57 -19.5q49 0 82.5 42.5t33.5 91.5v12h-22q-171 0 -171 -80z" />
    <glyph glyph-name="b" unicode="b" horiz-adv-x="618" 
d="M79 0v580q0 22 -22 22h-40v108h121q68 0 68 -68v-148l-2 -43h2q2 3 5.5 7.5t17 17t30 22t43.5 17t57 7.5q103 0 164.5 -74t61.5 -193q0 -120 -65.5 -193.5t-168.5 -73.5q-47 0 -85 18t-52 36l-15 18h-2q2 -14 2 -34v-26h-120zM202 252q0 -64 33.5 -110.5t93.5 -46.5
q54 0 91 42.5t37 115.5q0 72 -35 116t-92 44q-54 0 -91 -40.5t-37 -120.5z" />
    <glyph glyph-name="c" unicode="c" horiz-adv-x="538" 
d="M32 255q0 112 76 189.5t203 77.5q39 0 78 -9.5t73 -37t34 -68.5v-60h-112v28q0 19 -23 29.5t-50 10.5q-66 0 -108.5 -45t-42.5 -114q0 -74 46.5 -115.5t112.5 -41.5q39 0 76.5 17t56.5 34l18 18l53 -88q-3 -4 -9 -10t-26.5 -22t-43.5 -28t-60 -22t-76 -10
q-123 0 -199.5 76.5t-76.5 190.5z" />
    <glyph glyph-name="d" unicode="d" horiz-adv-x="622" 
d="M32 255q0 120 65 193.5t167 73.5q31 0 57.5 -6.5t42.5 -15.5t27 -18t15 -16l5 -6h2q-1 13 -1 30v90q0 22 -22 22h-40v108h121q68 0 68 -68v-513q0 -22 22 -22h39v-107h-117q-63 0 -63 52v19h-2q-2 -3 -5.5 -9t-17 -20t-30 -25t-45 -20t-61.5 -9q-103 0 -165 74t-62 193z
M287 95q54 0 91 40.5t37 120.5q0 64 -33 110.5t-93 46.5q-55 0 -91.5 -42.5t-36.5 -115.5q0 -72 35 -116t91 -44z" />
    <glyph glyph-name="e" unicode="e" horiz-adv-x="557" 
d="M32 255q0 118 72 192.5t187 74.5q106 0 166 -68.5t60 -173.5l-3 -47h-352q7 -65 50 -101t103 -36q36 0 72 14t53 28l18 15l53 -88q-3 -3 -9 -8.5t-26.5 -18.5t-42.5 -23t-56.5 -18.5t-70.5 -8.5q-123 0 -198.5 77.5t-75.5 189.5zM166 321h221q-1 45 -28.5 74t-67.5 29
q-49 0 -81.5 -27.5t-43.5 -75.5z" />
    <glyph glyph-name="f" unicode="f" horiz-adv-x="345" 
d="M83 0v409h-63v101h63v15q0 48 15 83.5t37 55t52.5 31.5t54.5 15.5t49 3.5l43 -3v-108q-11 2 -26 2q-98 0 -98 -83v-12h109v-101h-109v-409h-127z" />
    <glyph glyph-name="g" unicode="g" horiz-adv-x="612" 
d="M32 268q0 110 60 182t166 72q33 0 61.5 -7.5t45 -18t29 -21t16.5 -17.5l5 -8h2v13q0 19 14 33t42 14h118v-108h-39q-22 0 -22 -20v-351q0 -63 -23 -111t-62 -75.5t-85.5 -41t-98.5 -13.5q-98 0 -181 44l39 100q63 -34 141 -34q63 0 103.5 30t40.5 95v24l1 27h-2
q-46 -66 -142 -66q-106 0 -167.5 74.5t-61.5 183.5zM288 117q52 0 85.5 35t33.5 115q0 147 -127 147q-57 0 -88 -38t-31 -104q0 -69 33.5 -112t93.5 -43z" />
    <glyph glyph-name="h" unicode="h" horiz-adv-x="640" 
d="M79 0v580q0 22 -22 22h-40v108h121q68 0 68 -67v-179l-2 -43h2q20 41 66.5 71t108.5 30q178 0 178 -194v-199q0 -22 22 -22h40v-107h-121q-35 0 -51 16t-16 52v234q0 51 -18 77.5t-63 26.5q-49 0 -86 -29.5t-52 -76.5q-8 -27 -8 -66v-234h-127z" />
    <glyph glyph-name="i" unicode="i" horiz-adv-x="299" 
d="M93 593v117h110v-117h-110zM87 68v312q0 22 -22 22h-40v108h121q35 0 51 -16.5t16 -51.5v-313q0 -22 22 -22h40v-107h-121q-35 0 -51 16t-16 52z" />
    <glyph glyph-name="j" unicode="j" horiz-adv-x="305" 
d="M110 593v117h111v-117h-111zM-19 -97q9 -2 22 -2q17 0 32 3.5t32 12t27.5 29t10.5 49.5v385q0 22 -22 22h-40v108h121q36 0 52 -16.5t16 -51.5v-457q0 -49 -16 -85.5t-38.5 -56t-53.5 -31.5t-55.5 -15.5t-49.5 -3.5l-38 3v107z" />
    <glyph glyph-name="k" unicode="k" horiz-adv-x="553" 
d="M79 0v580q0 22 -22 22h-40v108h121q37 0 52.5 -12t15.5 -46v-322h38q35 0 48 19l104 161h141l-129 -192q-10 -14 -19.5 -24t-14.5 -13l-4 -3v-2q18 -7 36 -40l58 -110q10 -19 42 -19h34v-107h-94q-33 0 -49 8.5t-31 35.5l-85 160q-11 19 -47 19h-28v-223h-127z" />
    <glyph glyph-name="l" unicode="l" horiz-adv-x="291" 
d="M80 68v512q0 22 -22 22h-40v108h121q68 0 68 -68v-513q0 -22 22 -22h39v-107h-120q-36 0 -52 16t-16 52z" />
    <glyph glyph-name="m" unicode="m" horiz-adv-x="943" 
d="M83 0v380q0 22 -22 22h-40v108h117q67 0 67 -57v-15l-1 -22h2q20 42 64.5 74t100.5 32q116 0 149 -105h2q22 44 69 74.5t105 30.5q167 0 167 -194v-199q0 -22 22 -22h39v-107h-120q-36 0 -52 16t-16 52v236q0 50 -14.5 76t-55.5 26q-45 0 -78 -33.5t-44 -83.5
q-8 -27 -8 -65v-224h-127v304q0 49 -13.5 75.5t-55.5 26.5q-46 0 -78 -33t-45 -85q-8 -32 -8 -64v-224h-126z" />
    <glyph glyph-name="n" unicode="n" horiz-adv-x="643" 
d="M83 0v380q0 22 -22 22h-40v108h117q67 0 67 -57v-15l-2 -22h2q21 42 66 74t114 32q178 0 178 -194v-199q0 -22 22 -22h40v-107h-121q-36 0 -52 16t-16 52v234q0 51 -17.5 77.5t-62.5 26.5q-50 0 -86.5 -28.5t-50.5 -75.5q-10 -30 -10 -68v-234h-126z" />
    <glyph glyph-name="o" unicode="o" horiz-adv-x="623" 
d="M32 255q0 116 80.5 191.5t198.5 75.5t199 -75.5t81 -191.5t-80.5 -191.5t-199.5 -75.5q-118 0 -198.5 75.5t-80.5 191.5zM160 255q0 -70 44 -114.5t107 -44.5q64 0 108 44.5t44 114.5q0 69 -44.5 114t-107.5 45t-107 -45t-44 -114z" />
    <glyph glyph-name="p" unicode="p" horiz-adv-x="621" 
d="M83 -200v580q0 22 -22 22h-40v108h113q64 0 64 -49v-20h2q2 3 5.5 8.5t17.5 19.5t30.5 24.5t46 19.5t62.5 9q103 0 165 -74t62 -193q0 -120 -66 -193.5t-168 -73.5q-28 0 -53.5 7t-41.5 16.5t-28.5 19.5t-17.5 17l-5 7h-2q2 -18 2 -44v-211h-126zM206 252
q0 -64 33 -110.5t93 -46.5q55 0 92 42.5t37 115.5q0 72 -35 116t-92 44q-54 0 -91 -40.5t-37 -120.5z" />
    <glyph glyph-name="q" unicode="q" horiz-adv-x="622" 
d="M33 255q0 120 64.5 193.5t166.5 73.5q32 0 60.5 -7.5t45.5 -19t29.5 -22.5t17.5 -19l5 -7h2v18q0 45 65 45h112v-108h-40q-22 0 -22 -22v-580h-127v216l2 44h-2q-2 -3 -5.5 -8t-17 -17t-29.5 -21.5t-43 -17.5t-58 -8q-103 0 -164.5 74t-61.5 193zM288 95q54 0 91 40.5
t37 120.5q0 64 -33.5 110.5t-93.5 46.5q-54 0 -91 -42.5t-37 -115.5q0 -72 35 -116t92 -44z" />
    <glyph glyph-name="r" unicode="r" horiz-adv-x="412" 
d="M83 0v380q0 22 -22 22h-40v108h116q68 0 68 -62v-30l-2 -32h2q18 57 61.5 94t100.5 37l23 -2v-125q-13 2 -31 2q-45 0 -84 -27t-55 -80q-11 -39 -11 -83v-202h-126z" />
    <glyph glyph-name="s" unicode="s" horiz-adv-x="468" 
d="M25 79l60 83q7 -8 20.5 -20.5t53 -33.5t78.5 -21q31 0 50 12.5t19 37.5q0 19 -27.5 35.5t-67 31.5t-79.5 34.5t-67.5 54t-27.5 80.5q0 73 56.5 111t141.5 38q29 0 57.5 -5t57 -16.5t46.5 -33.5t18 -51v-53h-112v25q0 17 -20 26.5t-44 9.5q-35 0 -55.5 -12t-20.5 -34
t28 -38.5t68 -30.5t79.5 -32t67.5 -52t28 -81q0 -71 -55.5 -113.5t-140.5 -42.5q-39 0 -75.5 9.5t-60 22.5t-41.5 26.5t-26 23.5z" />
    <glyph glyph-name="t" unicode="t" horiz-adv-x="370" 
d="M85 187v222h-66v101h69v139h124v-139h116v-101h-116v-206q0 -55 31.5 -75.5t69.5 -20.5l23 2v-111q-16 -3 -39 -3q-26 0 -50 3.5t-55 15.5t-53.5 31.5t-38 56t-15.5 85.5z" />
    <glyph glyph-name="u" unicode="u" horiz-adv-x="638" 
d="M81 182v198q0 22 -22 22h-40v108h121q35 0 51 -16t16 -51v-235q0 -51 17.5 -77.5t61.5 -26.5q66 0 104.5 50t38.5 122v234h127v-381q0 -22 22 -22h40v-107h-117q-67 0 -67 57v14l1 23h-2q-20 -44 -67 -75t-109 -31q-176 0 -176 194z" />
    <glyph glyph-name="v" unicode="v" horiz-adv-x="545" 
d="M197 0l-146 384q-7 18 -28 18h-11v108h73q31 0 48 -11t27 -37l96 -268l19 -73h2q8 43 18 73l96 268q10 26 27 37t48 11h68v-108h-12q-21 0 -28 -18l-146 -384h-151z" />
    <glyph glyph-name="w" unicode="w" horiz-adv-x="835" 
d="M174 0l-122 384q-6 18 -28 18h-14v108h87q32 0 48.5 -11.5t23.5 -40.5l75 -283l10 -54h2q4 27 12 54l94 333h112l95 -333l11 -54h2q3 27 10 54l74 283q7 29 23.5 40.5t48.5 11.5h87v-108h-14q-21 0 -28 -18l-122 -384h-143l-87 291l-12 55h-2q-5 -28 -13 -55l-86 -291
h-144z" />
    <glyph glyph-name="x" unicode="x" horiz-adv-x="512" 
d="M11 0l166 258l-84 127q-11 17 -39 17h-37v108h89q32 0 49 -9.5t34 -38.5l50 -84l16 -33h2q9 20 16 33l50 84q17 29 33.5 38.5t49.5 9.5h88v-108h-36q-28 0 -39 -17l-85 -127l167 -258h-141l-89 142l-14 27h-2q-8 -16 -15 -27l-88 -142h-141z" />
    <glyph glyph-name="y" unicode="y" horiz-adv-x="553" 
d="M50 -68q31 -35 73 -35q57 0 84 65l17 39l-170 383q-7 18 -27 18h-15v108h84q27 0 42 -11t25 -37l100 -255l18 -68h2q8 42 17 68l87 255q16 48 68 48h86v-108h-15q-22 0 -29 -18l-183 -461q-26 -66 -75 -99.5t-109 -33.5q-36 0 -68 13t-46 26l-15 13z" />
    <glyph glyph-name="z" unicode="z" horiz-adv-x="511" 
d="M27 0v68l235 287q10 13 21 24.5t17 16.5l5 6v2q-15 -2 -47 -2h-92q-22 0 -22 -22v-29h-115v91q0 35 16 51.5t52 16.5h374v-69l-235 -287l-43 -47v-2q15 3 48 3h112q22 0 22 22v28h115v-90q0 -36 -16 -52t-51 -16h-396z" />
    <glyph glyph-name="braceleft" unicode="{" horiz-adv-x="352" 
d="M109 71v97q0 44 -21.5 70t-42.5 30l-21 4v111q3 0 9 1t20.5 7t26 16.5t20.5 31.5t9 50v86q0 43 13.5 75.5t32 50t45 27.5t46 13t40.5 3l31 -1v-94q-8 1 -18 1q-18 0 -34 -4.5t-32 -25t-16 -55.5v-109q0 -28 -8.5 -51.5t-20.5 -37t-24 -22.5t-20 -13l-9 -3v-2q3 -1 8.5 -3
t20 -11.5t25 -22.5t19.5 -36.5t9 -52.5v-120q0 -27 8.5 -45.5t23 -26t26 -10.5t24.5 -3l18 1v-94q-13 -2 -31 -2q-21 0 -40.5 3t-46 13t-45 27.5t-32 50t-13.5 76.5z" />
    <glyph glyph-name="bar" unicode="|" horiz-adv-x="312" 
d="M102 -161v957h108v-957h-108z" />
    <glyph glyph-name="braceright" unicode="}" horiz-adv-x="352" 
d="M35 -3q8 -1 18 -1q81 0 81 85v120q0 29 8.5 52.5t21 36.5t24.5 22t20 12l9 3v2q-3 1 -9 3.5t-20 12.5t-25 23t-20 36.5t-9 51.5v109q0 27 -8.5 45t-22.5 26t-25.5 11t-24.5 3l-18 -1v94q13 1 31 1q21 0 40.5 -3t46 -13t45 -27.5t32 -50t13.5 -75.5v-86q0 -45 21.5 -71.5
t42.5 -30.5l21 -4v-111q-3 0 -9 -1t-20.5 -7t-26 -16t-20.5 -31t-9 -49v-97q0 -44 -13.5 -76.5t-32 -50t-45 -27.5t-46 -13t-40.5 -3l-31 2v94z" />
    <glyph glyph-name="asciitilde" unicode="~" 
d="M56 199q0 182 154 182q34 0 61.5 -14t43 -31.5t36.5 -31.5t43 -14q31 0 46.5 25t15.5 62h100q0 -182 -153 -182q-34 0 -61.5 14t-43 31t-36.5 31t-43 14q-31 0 -46.5 -24.5t-15.5 -61.5h-101z" />
    <glyph glyph-name="exclamdown" unicode="&#xa1;" horiz-adv-x="332" 
d="M105 391v118h122v-118h-122zM100 -200l11 504h111l10 -504h-132z" />
    <glyph glyph-name="cent" unicode="&#xa2;" horiz-adv-x="585" 
d="M262 -37v111q-93 16 -150 94t-57 187t57 187.5t150 94.5v109h89v-109q65 -12 113.5 -55t71.5 -107l-114 -44q-35 89 -112 89q-56 0 -91.5 -46.5t-35.5 -118.5q0 -75 34.5 -120t92.5 -45q78 0 112 89l114 -44q-24 -61 -71 -107t-114 -54v-111h-89z" />
    <glyph glyph-name="sterling" unicode="&#xa3;" horiz-adv-x="586" 
d="M47 0v111h58v200h-44v87h44v121q0 88 64.5 145.5t163.5 57.5q48 0 92.5 -18t64.5 -36l21 -18l-73 -88q-47 43 -103 43q-44 0 -71.5 -25.5t-27.5 -64.5v-117h177v-87h-177v-200h168q22 0 22 22v43h118v-108q0 -36 -16 -52t-51 -16h-430z" />
    <glyph glyph-name="yen" unicode="&#xa5;" horiz-adv-x="621" 
d="M85 194v76h160v40l-27 42h-134v76h84v2l-92 147q-9 14 -17 18t-25 4h-21v111h65q36 0 56.5 -10t39.5 -42l93 -156l43 -78h2q18 36 43 78l93 156q19 32 39 42t56 10h65v-111h-21q-17 0 -25 -4t-17 -18l-92 -147v-2h82v-76h-132l-27 -42v-40h159v-76h-159v-194h-131v194
h-160z" />
    <glyph glyph-name="section" unicode="&#xa7;" horiz-adv-x="503" 
d="M160 138l-73 344q-7 33 -7 57q0 81 54.5 132t150.5 51q47 0 88.5 -15.5t60.5 -30.5l18 -16l-57 -81q-46 39 -109 39q-46 0 -74.5 -23t-28.5 -71q0 -23 7 -50l69 -336h-99zM61 -1l54 86q6 -5 15.5 -12.5t39.5 -19.5t58 -12q45 0 74 25.5t29 75.5q0 24 -9 57l-67 323h100
l71 -344q7 -35 7 -57q0 -81 -54.5 -132t-150.5 -51q-47 0 -88.5 15t-59.5 31z" />
    <glyph glyph-name="dieresis" unicode="&#xa8;" horiz-adv-x="509" 
d="M306 777v116h89v-116h-89zM127 777v116h88v-116h-88z" />
    <glyph glyph-name="copyright" unicode="&#xa9;" horiz-adv-x="781" 
d="M32 355q0 152 104.5 259t252.5 107q150 0 255 -107t105 -259t-105 -259.5t-255 -107.5q-148 0 -252.5 107.5t-104.5 259.5zM121 355q0 -120 77.5 -203t190.5 -83q115 0 193.5 83t78.5 203t-78.5 202.5t-193.5 82.5q-113 0 -190.5 -82.5t-77.5 -202.5zM207 353
q0 81 53 138t134 57q34 0 63 -11t46.5 -26t30 -30.5t17.5 -26.5l5 -11l-76 -36l-3 6t-9.5 14t-16.5 17.5t-23.5 14t-30.5 6.5q-44 0 -71 -32t-27 -80q0 -49 26.5 -80.5t71.5 -31.5q26 0 46.5 14.5t28.5 28.5l8 15l76 -35q-2 -4 -5.5 -11.5t-17 -25.5t-30 -32t-46 -25.5
t-63.5 -11.5q-81 0 -134 57t-53 138z" />
    <glyph glyph-name="ordfeminine" unicode="&#xaa;" horiz-adv-x="416" 
d="M158 383q-45 0 -77 27.5t-32 74.5q0 27 13.5 47t32.5 31t45 17.5t46.5 8.5t41.5 2h14q-1 31 -12 43t-37 12q-34 0 -34 -15v-15h-86v42q0 19 13.5 32t34.5 19t38.5 8.5t33.5 2.5q140 0 140 -131v-108q0 -12 11 -12h26v-80h-68q-45 0 -51 35l-1 9h-2q-3 -6 -9.5 -14
t-29.5 -22t-51 -14zM180 455q27 0 43.5 22t19.5 55h-10q-91 0 -91 -43q0 -34 38 -34zM50 266v68h322v-68h-322z" />
    <glyph glyph-name="guillemotleft" unicode="&#xab;" horiz-adv-x="614" 
d="M270 282l164 206h121l-164 -206l164 -205h-121zM210 77l-164 205l164 206h121l-164 -206l164 -205h-121z" />
    <glyph glyph-name="logicalnot" unicode="&#xac;" 
d="M66 339v98h488v-294h-102v196h-386z" />
    <glyph glyph-name="registered" unicode="&#xae;" horiz-adv-x="781" 
d="M32 355q0 152 104.5 259t252.5 107q150 0 255 -107t105 -259t-105 -259.5t-255 -107.5q-148 0 -252.5 107.5t-104.5 259.5zM121 355q0 -120 77.5 -203t190.5 -83q115 0 193.5 83t78.5 203t-78.5 202.5t-193.5 82.5q-113 0 -190.5 -82.5t-77.5 -202.5zM264 174v304h-32v62
h184q54 0 87 -32t33 -84q0 -39 -20.5 -64t-44.5 -31v-2q13 -3 23 -20l32 -60q7 -12 22 -12h11v-61h-48q-21 0 -32 5.5t-20 21.5l-49 92q-9 16 -33 16h-28v-135h-85zM349 369h47q25 0 39 14.5t14 40.5t-14 40t-38 14h-48v-109z" />
    <glyph glyph-name="macron" unicode="&#xaf;" horiz-adv-x="467" 
d="M104 783v84h262v-84h-262z" />
    <glyph glyph-name="macron" unicode="&#x2c9;" horiz-adv-x="467" 
d="M104 783v84h262v-84h-262z" />
    <glyph glyph-name="degree" unicode="&#xb0;" horiz-adv-x="410" 
d="M205 408q-68 0 -115.5 45.5t-47.5 111.5q0 65 47.5 111.5t115.5 46.5q67 0 115 -46.5t48 -111.5q0 -66 -47.5 -111.5t-115.5 -45.5zM205 499q28 0 47.5 19t19.5 47q0 27 -19.5 46.5t-47.5 19.5t-47 -19.5t-19 -46.5q0 -28 19 -47t47 -19z" />
    <glyph glyph-name="plusminus" unicode="&#xb1;" 
d="M42 236v99h216v237h103v-237h216v-99h-216v-236h-103v236h-216zM56 -85h508v-98h-508v98z" />
    <glyph glyph-name="twosuperior" unicode="&#xb2;" horiz-adv-x="437" 
d="M102 267q-29 0 -39.5 13t-10.5 55q0 31 10 55.5t31 44t37 31t44 27.5q42 23 63.5 43t21.5 48q0 22 -14.5 34.5t-37.5 12.5q-21 0 -34.5 -9t-13.5 -21v-22h-88v50q0 43 45 66t92 23q63 0 105.5 -35.5t42.5 -96.5q0 -32 -11 -57.5t-35 -46t-39.5 -30.5t-46.5 -27
q-37 -19 -55.5 -34.5t-18.5 -34.5q0 -6 11 -6h120q6 0 6 6v33h88v-73q0 -49 -49 -49h-224z" />
    <glyph glyph-name="threesuperior" unicode="&#xb3;" horiz-adv-x="437" 
d="M219 259q-44 0 -85.5 22.5t-60.5 44.5l-19 22l66 59q5 -7 13.5 -16.5t34 -26t50.5 -16.5q27 0 45.5 16t18.5 41q0 24 -19 38.5t-49 14.5h-35l-13 53l72 97l20 21v2q-15 -2 -31 -2h-56q-9 0 -9 -9v-24h-88v65q0 27 10.5 38t37.5 11h246v-65l-92 -114q46 -10 74.5 -46.5
t28.5 -81.5q0 -64 -47.5 -104t-112.5 -40z" />
    <glyph glyph-name="acute" unicode="&#xb4;" horiz-adv-x="404" 
d="M123 757l76 136h122l-105 -136h-93z" />
    <glyph glyph-name="mu" unicode="&#xb5;" horiz-adv-x="638" 
d="M19 402v108h121q35 0 51 -16t16 -51v-235q0 -51 17.5 -77.5t61.5 -26.5q66 0 104.5 50t38.5 122v234h127v-381q0 -22 22 -22h40v-107h-117q-67 0 -67 57v14l1 23h-3q-2 -4 -5.5 -11.5t-18.5 -25.5t-33 -32t-49.5 -25.5t-68.5 -11.5q-23 0 -41 5t-24 11l-7 5h-2
q7 -49 7 -83v-126h-109v580q0 22 -22 22h-40z" />
    <glyph glyph-name="mu" unicode="&#x3bc;" horiz-adv-x="638" 
d="M19 402v108h121q35 0 51 -16t16 -51v-235q0 -51 17.5 -77.5t61.5 -26.5q66 0 104.5 50t38.5 122v234h127v-381q0 -22 22 -22h40v-107h-117q-67 0 -67 57v14l1 23h-3q-2 -4 -5.5 -11.5t-18.5 -25.5t-33 -32t-49.5 -25.5t-68.5 -11.5q-23 0 -41 5t-24 11l-7 5h-2
q7 -49 7 -83v-126h-109v580q0 22 -22 22h-40z" />
    <glyph glyph-name="paragraph" unicode="&#xb6;" horiz-adv-x="625" 
d="M274 -50v291q-97 0 -166 68.5t-69 166.5t69 166t166 68h305v-111h-213v-649h-92zM428 -50v594h93v-594h-93z" />
    <glyph glyph-name="periodcentered" unicode="&#xb7;" horiz-adv-x="265" 
d="M71 229v126h123v-126h-123z" />
    <glyph glyph-name="periodcentered" unicode="&#x2219;" horiz-adv-x="265" 
d="M71 229v126h123v-126h-123z" />
    <glyph glyph-name="cedilla" unicode="&#xb8;" horiz-adv-x="420" 
d="M162 25l58 -13v-7l-10 -49q32 -4 52.5 -23.5t20.5 -52.5q0 -46 -31.5 -67t-76.5 -21q-15 0 -30.5 2t-23.5 4l-8 1v70q21 -8 44 -8q43 0 43 28q0 27 -48 27l-21 -2z" />
    <glyph glyph-name="onesuperior" unicode="&#xb9;" horiz-adv-x="437" 
d="M72 267v83h92v205l1 31h-2q-4 -9 -11 -15l-34 -32l-56 61l115 110h83v-360h91v-83h-279z" />
    <glyph glyph-name="ordmasculine" unicode="&#xba;" horiz-adv-x="455" 
d="M227 384q-73 0 -124 48t-51 121q0 72 51 119.5t124 47.5q74 0 125 -47.5t51 -119.5q0 -73 -51 -121t-125 -48zM227 464q36 0 60.5 25t24.5 64q0 38 -24.5 63t-60.5 25q-35 0 -59.5 -25t-24.5 -63q0 -39 24.5 -64t59.5 -25zM67 266v68h322v-68h-322z" />
    <glyph glyph-name="guillemotright" unicode="&#xbb;" horiz-adv-x="614" 
d="M283 77l164 205l-164 206h121l164 -206l-164 -205h-121zM58 77l164 205l-164 206h121l164 -206l-164 -205h-121z" />
    <glyph glyph-name="onequarter" unicode="&#xbc;" horiz-adv-x="943" 
d="M300 0l277 710h99l-277 -710h-99zM77 267v83h92v205l1 31h-2q-4 -9 -11 -15l-34 -32l-56 61l114 110h83v-360h87v-83h-274zM538 108v56l175 280h115v-252h65v-84h-65v-108h-96v108h-194zM635 191q12 1 19 1h80v119l1 34h-2q-6 -15 -14 -28l-70 -107l-14 -17v-2z" />
    <glyph glyph-name="onehalf" unicode="&#xbd;" horiz-adv-x="943" 
d="M288 0l277 710h98l-277 -710h-98zM77 267v83h92v205l1 31h-2q-4 -9 -11 -15l-34 -32l-56 61l114 110h83v-360h87v-83h-274zM567 69q0 30 10 55t30.5 44.5t37.5 31t45 27.5t43 26t28.5 27.5t13.5 37.5q0 21 -14.5 33.5t-38.5 12.5q-21 0 -34 -8.5t-13 -20.5v-23h-88v50
q0 43 45 66.5t92 23.5q62 0 105 -36t43 -97q0 -32 -11 -57.5t-35 -45.5t-39.5 -30t-47.5 -27q-36 -19 -54.5 -35t-18.5 -35q0 -6 11 -6h119q6 0 6 7v32h89v-73q0 -49 -50 -49h-223q-30 0 -40.5 13.5t-10.5 55.5z" />
    <glyph glyph-name="threequarters" unicode="&#xbe;" horiz-adv-x="943" 
d="M297 0l277 710h98l-276 -710h-99zM222 259q-44 0 -85 22.5t-60 44.5l-19 22l65 59q5 -7 13.5 -16.5t34 -26t50.5 -16.5q27 0 45.5 16t18.5 41q0 24 -19 38.5t-49 14.5h-35l-13 53l72 97l20 21v2q-15 -2 -31 -2h-56q-9 0 -9 -9v-24h-88v65q0 27 10.5 38t37.5 11h246v-65
l-92 -114q46 -10 74.5 -46.5t28.5 -81.5q0 -64 -47.5 -104t-112.5 -40zM538 108v56l175 280h115v-252h65v-84h-65v-108h-96v108h-194zM635 191q12 1 19 1h80v119l1 34h-2q-6 -15 -14 -28l-70 -107l-14 -17v-2z" />
    <glyph glyph-name="questiondown" unicode="&#xbf;" horiz-adv-x="476" 
d="M208 392v118h122v-118h-122zM33 -22q0 45 18 82t43.5 61t51.5 46t44 48t18 55v35h122v-44q0 -40 -17 -73.5t-41 -56t-48 -43t-41 -45.5t-17 -53q0 -35 28 -59.5t69 -24.5q25 0 51.5 11t40.5 21l14 11l71 -88q-8 -8 -23 -20t-64 -31.5t-101 -19.5q-89 0 -154 51t-65 137z
" />
    <glyph glyph-name="Agrave" unicode="&#xc0;" horiz-adv-x="674" 
d="M11 0v111h16q24 0 31 22l211 577h137l210 -577q7 -22 31 -22h16v-111h-78q-37 0 -54.5 12t-29.5 46l-44 124h-240l-44 -124q-12 -34 -29 -46t-54 -12h-79zM247 290h180l-61 178l-28 106h-2q-15 -67 -28 -106zM288 757l-104 136h122l76 -136h-94z" />
    <glyph glyph-name="Aacute" unicode="&#xc1;" horiz-adv-x="674" 
d="M11 0v111h16q24 0 31 22l211 577h137l210 -577q7 -22 31 -22h16v-111h-78q-37 0 -54.5 12t-29.5 46l-44 124h-240l-44 -124q-12 -34 -29 -46t-54 -12h-79zM247 290h180l-61 178l-28 106h-2q-15 -67 -28 -106zM288 757l76 136h122l-105 -136h-93z" />
    <glyph glyph-name="Acircumflex" unicode="&#xc2;" horiz-adv-x="674" 
d="M11 0v111h16q24 0 31 22l211 577h137l210 -577q7 -22 31 -22h16v-111h-78q-37 0 -54.5 12t-29.5 46l-44 124h-240l-44 -124q-12 -34 -29 -46t-54 -12h-79zM247 290h180l-61 178l-28 106h-2q-15 -67 -28 -106zM192 757l91 136h109l92 -136h-95l-50 81h-2l-51 -81h-94z" />
    <glyph glyph-name="Atilde" unicode="&#xc3;" horiz-adv-x="674" 
d="M11 0v111h16q24 0 31 22l211 577h137l210 -577q7 -22 31 -22h16v-111h-78q-37 0 -54.5 12t-29.5 46l-44 124h-240l-44 -124q-12 -34 -29 -46t-54 -12h-79zM247 290h180l-61 178l-28 106h-2q-15 -67 -28 -106zM156 758q0 137 114 137q30 0 53 -16.5t40.5 -32.5t34.5 -16
q20 0 30.5 18t10.5 44h79q0 -137 -114 -137q-30 0 -53 16.5t-40.5 32.5t-34.5 16q-20 0 -30.5 -17.5t-10.5 -44.5h-79z" />
    <glyph glyph-name="Adieresis" unicode="&#xc4;" horiz-adv-x="674" 
d="M11 0v111h16q24 0 31 22l211 577h137l210 -577q7 -22 31 -22h16v-111h-78q-37 0 -54.5 12t-29.5 46l-44 124h-240l-44 -124q-12 -34 -29 -46t-54 -12h-79zM247 290h180l-61 178l-28 106h-2q-15 -67 -28 -106zM383 777v116h89v-116h-89zM204 777v116h88v-116h-88z" />
    <glyph glyph-name="Aring" unicode="&#xc5;" horiz-adv-x="674" 
d="M11 0v111h16q24 0 31 22l211 577h137l210 -577q7 -22 31 -22h16v-111h-78q-37 0 -54.5 12t-29.5 46l-44 124h-240l-44 -124q-12 -34 -29 -46t-54 -12h-79zM247 290h180l-61 178l-28 106h-2q-15 -67 -28 -106zM337 745q-36 0 -62.5 21t-26.5 57q0 37 26.5 58t62.5 21
t62.5 -21t26.5 -58q0 -36 -26.5 -57t-62.5 -21zM337 789q15 0 25 9.5t10 24.5q0 16 -10 25.5t-25 9.5t-25 -9.5t-10 -25.5q0 -15 10 -24.5t25 -9.5z" />
    <glyph glyph-name="AE" unicode="&#xc6;" horiz-adv-x="891" 
d="M11 0v111h14q14 0 20 4.5t11 17.5l237 577h483q36 0 52 -16.5t16 -51.5v-108h-119v43q0 22 -22 22h-156v-186h227v-111h-227v-169q0 -22 25 -22h158q22 0 22 22v43h118v-108q0 -36 -16 -52t-52 -16h-315q-39 0 -55.5 15t-16.5 53v234h-159l-91 -244q-13 -34 -30 -46
t-54 -12h-70zM298 413h117v186h-47z" />
    <glyph glyph-name="Ccedilla" unicode="&#xc7;" horiz-adv-x="709" 
d="M30 361q0 154 103 257.5t257 103.5q38 0 81 -8.5t87 -25.5t72.5 -49.5t28.5 -75.5v-79h-119v40q0 36 -46.5 56t-100.5 20q-98 0 -162.5 -65t-64.5 -174q0 -105 66 -178t162 -73q38 0 74.5 9.5t61 23t44 27.5t28.5 24l10 9l69 -93q-4 -5 -11.5 -12.5t-33.5 -28t-55.5 -36
t-77 -29t-97.5 -15.5l-7 -33q32 -4 52.5 -23.5t20.5 -52.5q0 -46 -31 -67t-77 -21q-15 0 -30.5 2t-23.5 4l-7 1v70q21 -8 43 -8q44 0 44 28q0 27 -48 27l-21 -2l21 77q-141 16 -226.5 119.5t-85.5 250.5z" />
    <glyph glyph-name="Egrave" unicode="&#xc8;" horiz-adv-x="578" 
d="M99 68v531h-65v111h429q68 0 68 -68v-108h-119v43q0 22 -22 22h-160v-186h230v-111h-230v-169q0 -22 22 -22h164q22 0 22 22v43h119v-108q0 -36 -16.5 -52t-51.5 -16h-322q-36 0 -52 16t-16 52zM248 757l-104 136h122l76 -136h-94z" />
    <glyph glyph-name="Eacute" unicode="&#xc9;" horiz-adv-x="578" 
d="M99 68v531h-65v111h429q68 0 68 -68v-108h-119v43q0 22 -22 22h-160v-186h230v-111h-230v-169q0 -22 22 -22h164q22 0 22 22v43h119v-108q0 -36 -16.5 -52t-51.5 -16h-322q-36 0 -52 16t-16 52zM248 757l76 136h122l-105 -136h-93z" />
    <glyph glyph-name="Ecircumflex" unicode="&#xca;" horiz-adv-x="578" 
d="M99 68v531h-65v111h429q68 0 68 -68v-108h-119v43q0 22 -22 22h-160v-186h230v-111h-230v-169q0 -22 22 -22h164q22 0 22 22v43h119v-108q0 -36 -16.5 -52t-51.5 -16h-322q-36 0 -52 16t-16 52zM151 757l91 136h109l92 -136h-95l-50 81h-2l-51 -81h-94z" />
    <glyph glyph-name="Edieresis" unicode="&#xcb;" horiz-adv-x="578" 
d="M99 68v531h-65v111h429q68 0 68 -68v-108h-119v43q0 22 -22 22h-160v-186h230v-111h-230v-169q0 -22 22 -22h164q22 0 22 22v43h119v-108q0 -36 -16.5 -52t-51.5 -16h-322q-36 0 -52 16t-16 52zM343 777v116h89v-116h-89zM164 777v116h88v-116h-88z" />
    <glyph glyph-name="Igrave" unicode="&#xcc;" horiz-adv-x="342" 
d="M38 0v111h71v488h-71v111h266v-111h-71v-488h71v-111h-266zM122 757l-104 136h122l76 -136h-94z" />
    <glyph glyph-name="Iacute" unicode="&#xcd;" horiz-adv-x="342" 
d="M38 0v111h71v488h-71v111h266v-111h-71v-488h71v-111h-266zM122 757l76 136h122l-105 -136h-93z" />
    <glyph glyph-name="Icircumflex" unicode="&#xce;" horiz-adv-x="342" 
d="M38 0v111h71v488h-71v111h266v-111h-71v-488h71v-111h-266zM25 757l91 136h109l92 -136h-95l-50 81h-2l-51 -81h-94z" />
    <glyph glyph-name="Idieresis" unicode="&#xcf;" horiz-adv-x="342" 
d="M38 0v111h71v488h-71v111h266v-111h-71v-488h71v-111h-266zM216 777v116h89v-116h-89zM37 777v116h88v-116h-88z" />
    <glyph glyph-name="Eth" unicode="&#xd0;" horiz-adv-x="715" 
d="M99 68v233h-48v105h48v193h-65v111h289q166 0 264 -94t98 -260t-98 -261t-264 -95h-156q-36 0 -52 16t-16 52zM230 133q0 -22 22 -22h64q108 0 170.5 63.5t62.5 181.5q0 116 -63 179.5t-170 63.5h-86v-193h123v-105h-123v-168z" />
    <glyph glyph-name="Ntilde" unicode="&#xd1;" horiz-adv-x="770" 
d="M34 0v111h43q22 0 22 22v577h118l269 -393q12 -18 27 -43t23 -41l9 -16h2q-7 59 -7 100v325q0 35 16 51.5t52 16.5h128v-111h-43q-22 0 -22 -22v-577h-117l-270 392q-12 18 -27 43t-23 41l-9 16h-2q7 -59 7 -100v-324q0 -36 -16 -52t-52 -16h-128zM212 758q0 137 114 137
q30 0 53 -16.5t40.5 -32.5t34.5 -16q20 0 30.5 18t10.5 44h79q0 -137 -114 -137q-30 0 -53 16.5t-40.5 32.5t-34.5 16q-20 0 -30.5 -17.5t-10.5 -44.5h-79z" />
    <glyph glyph-name="Ograve" unicode="&#xd2;" horiz-adv-x="794" 
d="M30 360q0 153 105.5 257.5t261.5 104.5t261.5 -104.5t105.5 -257.5q0 -157 -105.5 -264.5t-261.5 -107.5t-261.5 107.5t-105.5 264.5zM166 360q0 -106 67 -178t164 -72t164 72t67 178q0 101 -67 170.5t-164 69.5t-164 -69.5t-67 -170.5zM346 757l-104 136h122l76 -136
h-94z" />
    <glyph glyph-name="Oacute" unicode="&#xd3;" horiz-adv-x="794" 
d="M30 360q0 153 105.5 257.5t261.5 104.5t261.5 -104.5t105.5 -257.5q0 -157 -105.5 -264.5t-261.5 -107.5t-261.5 107.5t-105.5 264.5zM166 360q0 -106 67 -178t164 -72t164 72t67 178q0 101 -67 170.5t-164 69.5t-164 -69.5t-67 -170.5zM346 757l76 136h122l-105 -136
h-93z" />
    <glyph glyph-name="Ocircumflex" unicode="&#xd4;" horiz-adv-x="794" 
d="M30 360q0 153 105.5 257.5t261.5 104.5t261.5 -104.5t105.5 -257.5q0 -157 -105.5 -264.5t-261.5 -107.5t-261.5 107.5t-105.5 264.5zM166 360q0 -106 67 -178t164 -72t164 72t67 178q0 101 -67 170.5t-164 69.5t-164 -69.5t-67 -170.5zM249 757l91 136h109l92 -136h-95
l-50 81h-2l-51 -81h-94z" />
    <glyph glyph-name="Otilde" unicode="&#xd5;" horiz-adv-x="794" 
d="M30 360q0 153 105.5 257.5t261.5 104.5t261.5 -104.5t105.5 -257.5q0 -157 -105.5 -264.5t-261.5 -107.5t-261.5 107.5t-105.5 264.5zM166 360q0 -106 67 -178t164 -72t164 72t67 178q0 101 -67 170.5t-164 69.5t-164 -69.5t-67 -170.5zM213 758q0 137 114 137
q30 0 53 -16.5t40.5 -32.5t34.5 -16q20 0 30.5 18t10.5 44h79q0 -137 -114 -137q-30 0 -53 16.5t-40.5 32.5t-34.5 16q-20 0 -30.5 -17.5t-10.5 -44.5h-79z" />
    <glyph glyph-name="Odieresis" unicode="&#xd6;" horiz-adv-x="794" 
d="M30 360q0 153 105.5 257.5t261.5 104.5t261.5 -104.5t105.5 -257.5q0 -157 -105.5 -264.5t-261.5 -107.5t-261.5 107.5t-105.5 264.5zM166 360q0 -106 67 -178t164 -72t164 72t67 178q0 101 -67 170.5t-164 69.5t-164 -69.5t-67 -170.5zM440 777v116h89v-116h-89z
M261 777v116h88v-116h-88z" />
    <glyph glyph-name="multiply" unicode="&#xd7;" 
d="M46 69l197 217l-197 216l69 70l195 -214l195 214l69 -70l-198 -216l198 -217l-69 -69l-195 214l-195 -214z" />
    <glyph glyph-name="Oslash" unicode="&#xd8;" horiz-adv-x="795" 
d="M109 13l45 64q-123 110 -123 283q0 153 105.5 257.5t261.5 104.5q101 0 186 -49l46 63l57 -39l-46 -63q58 -51 91 -122t33 -152q0 -157 -105.5 -264.5t-261.5 -107.5q-102 0 -186 49l-46 -63zM233 185l277 385q-52 30 -112 30q-97 0 -164 -69.5t-67 -170.5
q0 -104 66 -175zM286 140q50 -30 112 -30q96 0 163 72t67 178q0 97 -65 165z" />
    <glyph glyph-name="Ugrave" unicode="&#xd9;" horiz-adv-x="740" 
d="M91 253v324q0 22 -22 22h-43v111h128q36 0 52 -16.5t16 -51.5v-385q0 -69 40 -108t108 -39t108 39t40 109v384q0 35 16 51.5t52 16.5h128v-111h-43q-22 0 -22 -22v-324q0 -118 -76.5 -191.5t-201.5 -73.5q-126 0 -203 73.5t-77 191.5zM322 757l-104 136h122l76 -136h-94z
" />
    <glyph glyph-name="Uacute" unicode="&#xda;" horiz-adv-x="740" 
d="M91 253v324q0 22 -22 22h-43v111h128q36 0 52 -16.5t16 -51.5v-385q0 -69 40 -108t108 -39t108 39t40 109v384q0 35 16 51.5t52 16.5h128v-111h-43q-22 0 -22 -22v-324q0 -118 -76.5 -191.5t-201.5 -73.5q-126 0 -203 73.5t-77 191.5zM322 757l76 136h122l-105 -136h-93z
" />
    <glyph glyph-name="Ucircumflex" unicode="&#xdb;" horiz-adv-x="740" 
d="M91 253v324q0 22 -22 22h-43v111h128q36 0 52 -16.5t16 -51.5v-385q0 -69 40 -108t108 -39t108 39t40 109v384q0 35 16 51.5t52 16.5h128v-111h-43q-22 0 -22 -22v-324q0 -118 -76.5 -191.5t-201.5 -73.5q-126 0 -203 73.5t-77 191.5zM225 757l91 136h109l92 -136h-95
l-50 81h-2l-51 -81h-94z" />
    <glyph glyph-name="Udieresis" unicode="&#xdc;" horiz-adv-x="740" 
d="M91 253v324q0 22 -22 22h-43v111h128q36 0 52 -16.5t16 -51.5v-385q0 -69 40 -108t108 -39t108 39t40 109v384q0 35 16 51.5t52 16.5h128v-111h-43q-22 0 -22 -22v-324q0 -118 -76.5 -191.5t-201.5 -73.5q-126 0 -203 73.5t-77 191.5zM416 777v116h89v-116h-89zM237 777
v116h88v-116h-88z" />
    <glyph glyph-name="Yacute" unicode="&#xdd;" horiz-adv-x="615" 
d="M242 0v310l-168 265q-10 15 -17.5 19.5t-23.5 4.5h-23v111h67q36 0 55 -10t38 -42l94 -156l43 -80h2q18 38 43 80l93 156q19 32 38 42t55 10h67v-111h-23q-16 0 -23.5 -4.5t-17.5 -19.5l-168 -265v-310h-131zM259 757l76 136h122l-105 -136h-93z" />
    <glyph glyph-name="Thorn" unicode="&#xde;" horiz-adv-x="610" 
d="M99 0v577q0 22 -22 22h-43v111h128q36 0 52 -16.5t16 -51.5v-47h129q100 0 163 -64t63 -167t-63 -168t-164 -65h-128v-131h-131zM230 242h105q55 0 85.5 33t30.5 89t-30 88t-84 32h-107v-242z" />
    <glyph glyph-name="germandbls" unicode="&#xdf;" horiz-adv-x="598" 
d="M18 0v107h35q22 0 22 22v400q0 90 68.5 141.5t162.5 51.5q87 0 147 -50t60 -124q0 -30 -14 -56.5t-31 -42t-31 -35.5t-14 -39q0 -16 16.5 -33.5t40.5 -34.5t48 -38t40.5 -52t16.5 -68q0 -77 -52 -119t-128 -42q-43 0 -80 10.5t-53 21.5l-15 10l29 98q46 -32 100 -32
q71 0 71 60q0 23 -25.5 47.5t-55.5 44.5t-55.5 53t-25.5 71q0 33 22.5 63t45 57.5t22.5 53.5q0 28 -22 48t-61 20q-42 0 -71 -24t-29 -70v-452q0 -36 -16 -52t-52 -16h-116z" />
    <glyph glyph-name="agrave" unicode="&#xe0;" horiz-adv-x="560" 
d="M33 147q0 38 16 68t44.5 48t59.5 30.5t68.5 17.5t63 7t51.5 2h16v4q0 54 -22.5 77t-71.5 23q-24 0 -46 -7.5t-22 -26.5v-27h-118v54q0 33 20.5 56t54 32.5t60 13t52.5 3.5q220 0 220 -203v-190q0 -22 22 -22h40v-107h-114q-33 0 -49 15.5t-16 40.5l1 22h-2l-5 -10
t-16 -21.5t-29 -27.5t-44 -21.5t-60 -9.5q-72 0 -123 43t-51 116zM161 153q0 -27 20 -46.5t57 -19.5q49 0 82.5 42.5t33.5 91.5v12h-22q-171 0 -171 -80zM222 573l-104 136h122l76 -136h-94z" />
    <glyph glyph-name="aacute" unicode="&#xe1;" horiz-adv-x="560" 
d="M33 147q0 38 16 68t44.5 48t59.5 30.5t68.5 17.5t63 7t51.5 2h16v4q0 54 -22.5 77t-71.5 23q-24 0 -46 -7.5t-22 -26.5v-27h-118v54q0 33 20.5 56t54 32.5t60 13t52.5 3.5q220 0 220 -203v-190q0 -22 22 -22h40v-107h-114q-33 0 -49 15.5t-16 40.5l1 22h-2l-5 -10
t-16 -21.5t-29 -27.5t-44 -21.5t-60 -9.5q-72 0 -123 43t-51 116zM161 153q0 -27 20 -46.5t57 -19.5q49 0 82.5 42.5t33.5 91.5v12h-22q-171 0 -171 -80zM222 573l76 136h122l-105 -136h-93z" />
    <glyph glyph-name="acircumflex" unicode="&#xe2;" horiz-adv-x="560" 
d="M33 147q0 38 16 68t44.5 48t59.5 30.5t68.5 17.5t63 7t51.5 2h16v4q0 54 -22.5 77t-71.5 23q-24 0 -46 -7.5t-22 -26.5v-27h-118v54q0 33 20.5 56t54 32.5t60 13t52.5 3.5q220 0 220 -203v-190q0 -22 22 -22h40v-107h-114q-33 0 -49 15.5t-16 40.5l1 22h-2l-5 -10
t-16 -21.5t-29 -27.5t-44 -21.5t-60 -9.5q-72 0 -123 43t-51 116zM161 153q0 -27 20 -46.5t57 -19.5q49 0 82.5 42.5t33.5 91.5v12h-22q-171 0 -171 -80zM126 573l91 136h109l92 -136h-95l-50 81h-2l-51 -81h-94z" />
    <glyph glyph-name="atilde" unicode="&#xe3;" horiz-adv-x="560" 
d="M33 147q0 38 16 68t44.5 48t59.5 30.5t68.5 17.5t63 7t51.5 2h16v4q0 54 -22.5 77t-71.5 23q-24 0 -46 -7.5t-22 -26.5v-27h-118v54q0 33 20.5 56t54 32.5t60 13t52.5 3.5q220 0 220 -203v-190q0 -22 22 -22h40v-107h-114q-33 0 -49 15.5t-16 40.5l1 22h-2l-5 -10
t-16 -21.5t-29 -27.5t-44 -21.5t-60 -9.5q-72 0 -123 43t-51 116zM161 153q0 -27 20 -46.5t57 -19.5q49 0 82.5 42.5t33.5 91.5v12h-22q-171 0 -171 -80zM90 574q0 137 114 137q30 0 53 -16.5t40.5 -32.5t34.5 -16q20 0 30.5 18t10.5 44h79q0 -137 -114 -137q-30 0 -53 16.5
t-40.5 32.5t-34.5 16q-20 0 -30.5 -17.5t-10.5 -44.5h-79z" />
    <glyph glyph-name="adieresis" unicode="&#xe4;" horiz-adv-x="560" 
d="M33 147q0 38 16 68t44.5 48t59.5 30.5t68.5 17.5t63 7t51.5 2h16v4q0 54 -22.5 77t-71.5 23q-24 0 -46 -7.5t-22 -26.5v-27h-118v54q0 33 20.5 56t54 32.5t60 13t52.5 3.5q220 0 220 -203v-190q0 -22 22 -22h40v-107h-114q-33 0 -49 15.5t-16 40.5l1 22h-2l-5 -10
t-16 -21.5t-29 -27.5t-44 -21.5t-60 -9.5q-72 0 -123 43t-51 116zM161 153q0 -27 20 -46.5t57 -19.5q49 0 82.5 42.5t33.5 91.5v12h-22q-171 0 -171 -80zM317 593v116h89v-116h-89zM138 593v116h88v-116h-88z" />
    <glyph glyph-name="aring" unicode="&#xe5;" horiz-adv-x="560" 
d="M33 147q0 38 16 68t44.5 48t59.5 30.5t68.5 17.5t63 7t51.5 2h16v4q0 54 -22.5 77t-71.5 23q-24 0 -46 -7.5t-22 -26.5v-27h-118v54q0 33 20.5 56t54 32.5t60 13t52.5 3.5q220 0 220 -203v-190q0 -22 22 -22h40v-107h-114q-33 0 -49 15.5t-16 40.5l1 22h-2l-5 -10
t-16 -21.5t-29 -27.5t-44 -21.5t-60 -9.5q-72 0 -123 43t-51 116zM161 153q0 -27 20 -46.5t57 -19.5q49 0 82.5 42.5t33.5 91.5v12h-22q-171 0 -171 -80zM271 561q-36 0 -62.5 21t-26.5 57q0 37 26.5 58t62.5 21t62.5 -21t26.5 -58q0 -36 -26.5 -57t-62.5 -21zM271 605
q15 0 25 9.5t10 24.5q0 16 -10 25.5t-25 9.5t-25 -9.5t-10 -25.5q0 -15 10 -24.5t25 -9.5z" />
    <glyph glyph-name="ae" unicode="&#xe6;" horiz-adv-x="866" 
d="M34 147q0 55 32 92.5t85 53t95.5 21t89.5 5.5h17v7q0 53 -23.5 75.5t-71.5 22.5q-25 0 -46.5 -7.5t-21.5 -26.5v-27h-118v54q0 39 31.5 64t70.5 33t85 8q123 0 170 -75h2q61 75 170 75q107 0 165.5 -71t58.5 -179l-2 -41h-349q8 -66 49 -100.5t101 -34.5q36 0 72 14
t54 28l17 15l53 -88q-3 -3 -9 -8.5t-26.5 -18.5t-42.5 -23t-56.5 -18.5t-70.5 -8.5q-146 0 -214 112h-2q-5 -12 -17 -28t-34 -36t-59 -33.5t-81 -13.5q-73 0 -123.5 43t-50.5 115zM479 319h217q-1 46 -29 75t-68 29q-47 0 -78.5 -28t-41.5 -76zM162 153q0 -28 20 -47t58 -19
q49 0 82 42.5t33 92.5v9h-36q-157 0 -157 -78z" />
    <glyph glyph-name="ccedilla" unicode="&#xe7;" horiz-adv-x="538" 
d="M32 255q0 112 76 189.5t203 77.5q39 0 78 -9.5t73 -37t34 -68.5v-60h-112v28q0 19 -23 29.5t-50 10.5q-66 0 -108.5 -45t-42.5 -114q0 -74 46.5 -115.5t112.5 -41.5q39 0 76.5 17t56.5 34l18 18l53 -88q-3 -4 -9 -10t-26 -21.5t-42.5 -27.5t-59 -22t-74.5 -11l-7 -32
q32 -4 52 -23t20 -53q0 -46 -31 -67t-76 -21q-16 0 -31.5 2t-22.5 4l-8 1v70q21 -8 44 -8q43 0 43 28q0 27 -48 27l-21 -2l22 80q-99 18 -157.5 90t-58.5 171z" />
    <glyph glyph-name="egrave" unicode="&#xe8;" horiz-adv-x="557" 
d="M32 255q0 118 72 192.5t187 74.5q106 0 166 -68.5t60 -173.5l-3 -47h-352q7 -65 50 -101t103 -36q36 0 72 14t53 28l18 15l53 -88q-3 -3 -9 -8.5t-26.5 -18.5t-42.5 -23t-56.5 -18.5t-70.5 -8.5q-123 0 -198.5 77.5t-75.5 189.5zM166 321h221q-1 45 -28.5 74t-67.5 29
q-49 0 -81.5 -27.5t-43.5 -75.5zM239 573l-104 136h122l76 -136h-94z" />
    <glyph glyph-name="eacute" unicode="&#xe9;" horiz-adv-x="557" 
d="M32 255q0 118 72 192.5t187 74.5q106 0 166 -68.5t60 -173.5l-3 -47h-352q7 -65 50 -101t103 -36q36 0 72 14t53 28l18 15l53 -88q-3 -3 -9 -8.5t-26.5 -18.5t-42.5 -23t-56.5 -18.5t-70.5 -8.5q-123 0 -198.5 77.5t-75.5 189.5zM166 321h221q-1 45 -28.5 74t-67.5 29
q-49 0 -81.5 -27.5t-43.5 -75.5zM239 573l76 136h122l-105 -136h-93z" />
    <glyph glyph-name="ecircumflex" unicode="&#xea;" horiz-adv-x="557" 
d="M32 255q0 118 72 192.5t187 74.5q106 0 166 -68.5t60 -173.5l-3 -47h-352q7 -65 50 -101t103 -36q36 0 72 14t53 28l18 15l53 -88q-3 -3 -9 -8.5t-26.5 -18.5t-42.5 -23t-56.5 -18.5t-70.5 -8.5q-123 0 -198.5 77.5t-75.5 189.5zM166 321h221q-1 45 -28.5 74t-67.5 29
q-49 0 -81.5 -27.5t-43.5 -75.5zM142 573l91 136h109l92 -136h-95l-50 81h-2l-51 -81h-94z" />
    <glyph glyph-name="edieresis" unicode="&#xeb;" horiz-adv-x="557" 
d="M32 255q0 118 72 192.5t187 74.5q106 0 166 -68.5t60 -173.5l-3 -47h-352q7 -65 50 -101t103 -36q36 0 72 14t53 28l18 15l53 -88q-3 -3 -9 -8.5t-26.5 -18.5t-42.5 -23t-56.5 -18.5t-70.5 -8.5q-123 0 -198.5 77.5t-75.5 189.5zM166 321h221q-1 45 -28.5 74t-67.5 29
q-49 0 -81.5 -27.5t-43.5 -75.5zM333 593v116h89v-116h-89zM154 593v116h88v-116h-88z" />
    <glyph glyph-name="igrave" unicode="&#xec;" horiz-adv-x="302" 
d="M88 68v312q0 22 -22 22h-40v108h121q68 0 68 -68v-313q0 -22 22 -22h39v-107h-120q-36 0 -52 16t-16 52zM95 573l-104 137h121l76 -137h-93z" />
    <glyph glyph-name="iacute" unicode="&#xed;" horiz-adv-x="302" 
d="M88 68v312q0 22 -22 22h-40v108h121q68 0 68 -68v-313q0 -22 22 -22h39v-107h-120q-36 0 -52 16t-16 52zM95 573l76 137h121l-104 -137h-93z" />
    <glyph glyph-name="icircumflex" unicode="&#xee;" horiz-adv-x="302" 
d="M88 68v312q0 22 -22 22h-40v108h121q68 0 68 -68v-313q0 -22 22 -22h39v-107h-120q-36 0 -52 16t-16 52zM-3 573l92 137h109l92 -137h-96l-50 82h-2l-50 -82h-95z" />
    <glyph glyph-name="idieresis" unicode="&#xef;" horiz-adv-x="302" 
d="M88 68v312q0 22 -22 22h-40v108h121q68 0 68 -68v-313q0 -22 22 -22h39v-107h-120q-36 0 -52 16t-16 52zM174 593v117h89v-117h-89zM20 593v117h88v-117h-88z" />
    <glyph glyph-name="eth" unicode="&#xf0;" horiz-adv-x="585" 
d="M38 237q0 94 63.5 161t171.5 67q28 0 53.5 -7.5t37.5 -14.5l11 -7h2q-29 64 -94 106l-185 -80l-6 75l111 49q-49 24 -115 40l35 100q126 -28 216 -83l148 63l6 -74l-88 -39q137 -120 137 -315q0 -42 -8.5 -82.5t-28.5 -78.5t-49.5 -66.5t-74 -45.5t-99.5 -17
q-112 0 -178 74t-66 175zM166 234q0 -57 31 -98t88 -41q64 0 96.5 48t32.5 112q0 49 -32 80t-86 31q-62 0 -96 -39t-34 -93z" />
    <glyph glyph-name="ntilde" unicode="&#xf1;" horiz-adv-x="643" 
d="M83 0v380q0 22 -22 22h-40v108h117q67 0 67 -57v-15l-2 -22h2q21 42 66 74t114 32q178 0 178 -194v-199q0 -22 22 -22h40v-107h-121q-36 0 -52 16t-16 52v234q0 51 -17.5 77.5t-62.5 26.5q-50 0 -86.5 -28.5t-50.5 -75.5q-10 -30 -10 -68v-234h-126zM147 574
q0 137 114 137q29 0 52.5 -16.5t41 -32.5t34.5 -16q20 0 30.5 18t10.5 44h79q0 -137 -114 -137q-29 0 -52.5 16.5t-41 32.5t-34.5 16q-20 0 -30.5 -17.5t-10.5 -44.5h-79z" />
    <glyph glyph-name="ograve" unicode="&#xf2;" horiz-adv-x="623" 
d="M32 255q0 116 80.5 191.5t198.5 75.5t199 -75.5t81 -191.5t-80.5 -191.5t-199.5 -75.5q-118 0 -198.5 75.5t-80.5 191.5zM160 255q0 -70 44 -114.5t107 -44.5q64 0 108 44.5t44 114.5q0 69 -44.5 114t-107.5 45t-107 -45t-44 -114zM262 573l-104 136h122l76 -136h-94z
" />
    <glyph glyph-name="oacute" unicode="&#xf3;" horiz-adv-x="623" 
d="M32 255q0 116 80.5 191.5t198.5 75.5t199 -75.5t81 -191.5t-80.5 -191.5t-199.5 -75.5q-118 0 -198.5 75.5t-80.5 191.5zM160 255q0 -70 44 -114.5t107 -44.5q64 0 108 44.5t44 114.5q0 69 -44.5 114t-107.5 45t-107 -45t-44 -114zM263 573l76 136h122l-105 -136h-93z
" />
    <glyph glyph-name="ocircumflex" unicode="&#xf4;" horiz-adv-x="623" 
d="M32 255q0 116 80.5 191.5t198.5 75.5t199 -75.5t81 -191.5t-80.5 -191.5t-199.5 -75.5q-118 0 -198.5 75.5t-80.5 191.5zM160 255q0 -70 44 -114.5t107 -44.5q64 0 108 44.5t44 114.5q0 69 -44.5 114t-107.5 45t-107 -45t-44 -114zM166 573l91 136h109l92 -136h-95
l-50 81h-2l-51 -81h-94z" />
    <glyph glyph-name="otilde" unicode="&#xf5;" horiz-adv-x="623" 
d="M32 255q0 116 80.5 191.5t198.5 75.5t199 -75.5t81 -191.5t-80.5 -191.5t-199.5 -75.5q-118 0 -198.5 75.5t-80.5 191.5zM160 255q0 -70 44 -114.5t107 -44.5q64 0 108 44.5t44 114.5q0 69 -44.5 114t-107.5 45t-107 -45t-44 -114zM130 574q0 137 114 137q30 0 53 -16.5
t40.5 -32.5t34.5 -16q20 0 30.5 18t10.5 44h79q0 -137 -114 -137q-30 0 -53 16.5t-40.5 32.5t-34.5 16q-20 0 -30.5 -17.5t-10.5 -44.5h-79z" />
    <glyph glyph-name="odieresis" unicode="&#xf6;" horiz-adv-x="623" 
d="M32 255q0 116 80.5 191.5t198.5 75.5t199 -75.5t81 -191.5t-80.5 -191.5t-199.5 -75.5q-118 0 -198.5 75.5t-80.5 191.5zM160 255q0 -70 44 -114.5t107 -44.5q64 0 108 44.5t44 114.5q0 69 -44.5 114t-107.5 45t-107 -45t-44 -114zM357 593v116h89v-116h-89zM178 593v116
h88v-116h-88z" />
    <glyph glyph-name="divide" unicode="&#xf7;" 
d="M249 437v108h114v-108h-114zM46 236v99h521v-99h-521zM249 27v108h114v-108h-114z" />
    <glyph glyph-name="oslash" unicode="&#xf8;" horiz-adv-x="623" 
d="M90 -4l38 53q-96 78 -96 206q0 116 80.5 191.5t198.5 75.5q72 0 134 -32l41 57l55 -38l-40 -55q90 -79 90 -199q0 -116 -80.5 -191.5t-199.5 -75.5q-69 0 -125 27l-41 -58zM199 147l179 251q-32 16 -67 16q-63 0 -107 -45t-44 -114q0 -63 39 -108zM253 108q27 -12 58 -12
q64 0 108 44.5t44 114.5q0 58 -34 98z" />
    <glyph glyph-name="ugrave" unicode="&#xf9;" horiz-adv-x="638" 
d="M81 182v198q0 22 -22 22h-40v108h121q35 0 51 -16t16 -51v-235q0 -51 17.5 -77.5t61.5 -26.5q66 0 104.5 50t38.5 122v234h127v-381q0 -22 22 -22h40v-107h-117q-67 0 -67 57v14l1 23h-2q-20 -44 -67 -75t-109 -31q-176 0 -176 194zM264 573l-104 136h122l76 -136h-94z
" />
    <glyph glyph-name="uacute" unicode="&#xfa;" horiz-adv-x="638" 
d="M81 182v198q0 22 -22 22h-40v108h121q35 0 51 -16t16 -51v-235q0 -51 17.5 -77.5t61.5 -26.5q66 0 104.5 50t38.5 122v234h127v-381q0 -22 22 -22h40v-107h-117q-67 0 -67 57v14l1 23h-2q-20 -44 -67 -75t-109 -31q-176 0 -176 194zM264 573l76 136h122l-105 -136h-93z
" />
    <glyph glyph-name="ucircumflex" unicode="&#xfb;" horiz-adv-x="638" 
d="M81 182v198q0 22 -22 22h-40v108h121q35 0 51 -16t16 -51v-235q0 -51 17.5 -77.5t61.5 -26.5q66 0 104.5 50t38.5 122v234h127v-381q0 -22 22 -22h40v-107h-117q-67 0 -67 57v14l1 23h-2q-20 -44 -67 -75t-109 -31q-176 0 -176 194zM167 573l91 136h109l92 -136h-95
l-50 81h-2l-51 -81h-94z" />
    <glyph glyph-name="udieresis" unicode="&#xfc;" horiz-adv-x="638" 
d="M81 182v198q0 22 -22 22h-40v108h121q35 0 51 -16t16 -51v-235q0 -51 17.5 -77.5t61.5 -26.5q66 0 104.5 50t38.5 122v234h127v-381q0 -22 22 -22h40v-107h-117q-67 0 -67 57v14l1 23h-2q-20 -44 -67 -75t-109 -31q-176 0 -176 194zM359 593v116h89v-116h-89zM180 593
v116h88v-116h-88z" />
    <glyph glyph-name="yacute" unicode="&#xfd;" horiz-adv-x="553" 
d="M50 -68q31 -35 73 -35q57 0 84 65l17 39l-170 383q-7 18 -27 18h-15v108h84q27 0 42 -11t25 -37l100 -255l18 -68h2q8 42 17 68l87 255q16 48 68 48h86v-108h-15q-22 0 -29 -18l-183 -461q-26 -66 -75 -99.5t-109 -33.5q-36 0 -68 13t-46 26l-15 13zM230 573l76 136h122
l-105 -136h-93z" />
    <glyph glyph-name="thorn" unicode="&#xfe;" horiz-adv-x="618" 
d="M80 -200v780q0 22 -22 22h-40v108h121q36 0 52 -16.5t16 -51.5v-145l-2 -44h2q48 69 149 69q104 0 167 -75t63 -192q0 -116 -63 -191.5t-167 -75.5q-49 0 -86 17t-50 34l-13 17h-2q2 -18 2 -44v-212h-127zM203 255q0 -83 36.5 -121t93.5 -38q56 0 90.5 45t34.5 114
q0 70 -34.5 114.5t-90.5 44.5q-58 0 -94 -38t-36 -121z" />
    <glyph glyph-name="ydieresis" unicode="&#xff;" horiz-adv-x="553" 
d="M50 -68q31 -35 73 -35q57 0 84 65l17 39l-170 383q-7 18 -27 18h-15v108h84q27 0 42 -11t25 -37l100 -255l18 -68h2q8 42 17 68l87 255q16 48 68 48h86v-108h-15q-22 0 -29 -18l-183 -461q-26 -66 -75 -99.5t-109 -33.5q-36 0 -68 13t-46 26l-15 13zM324 593v116h89v-116
h-89zM145 593v116h88v-116h-88z" />
    <glyph glyph-name="Amacron" unicode="&#x100;" horiz-adv-x="674" 
d="M11 0v111h16q24 0 31 22l211 577h137l210 -577q7 -22 31 -22h16v-111h-78q-37 0 -54.5 12t-29.5 46l-44 124h-240l-44 -124q-12 -34 -29 -46t-54 -12h-79zM247 290h180l-61 178l-28 106h-2q-15 -67 -28 -106zM207 783v84h262v-84h-262z" />
    <glyph glyph-name="amacron" unicode="&#x101;" horiz-adv-x="560" 
d="M33 147q0 38 16 68t44.5 48t59.5 30.5t68.5 17.5t63 7t51.5 2h16v4q0 54 -22.5 77t-71.5 23q-24 0 -46 -7.5t-22 -26.5v-27h-118v54q0 33 20.5 56t54 32.5t60 13t52.5 3.5q220 0 220 -203v-190q0 -22 22 -22h40v-107h-114q-33 0 -49 15.5t-16 40.5l1 22h-2l-5 -10
t-16 -21.5t-29 -27.5t-44 -21.5t-60 -9.5q-72 0 -123 43t-51 116zM161 153q0 -27 20 -46.5t57 -19.5q49 0 82.5 42.5t33.5 91.5v12h-22q-171 0 -171 -80zM141 599v84h262v-84h-262z" />
    <glyph glyph-name="Abreve" unicode="&#x102;" horiz-adv-x="674" 
d="M11 0v111h16q24 0 31 22l211 577h137l210 -577q7 -22 31 -22h16v-111h-78q-37 0 -54.5 12t-29.5 46l-44 124h-240l-44 -124q-12 -34 -29 -46t-54 -12h-79zM247 290h180l-61 178l-28 106h-2q-15 -67 -28 -106zM337 753q-57 0 -100 34.5t-43 93.5v12h81v-12q0 -29 18.5 -44
t43.5 -15t43.5 15.5t18.5 44.5v11h81v-12q0 -59 -43 -93.5t-100 -34.5z" />
    <glyph glyph-name="abreve" unicode="&#x103;" horiz-adv-x="560" 
d="M33 147q0 38 16 68t44.5 48t59.5 30.5t68.5 17.5t63 7t51.5 2h16v4q0 54 -22.5 77t-71.5 23q-24 0 -46 -7.5t-22 -26.5v-27h-118v54q0 33 20.5 56t54 32.5t60 13t52.5 3.5q220 0 220 -203v-190q0 -22 22 -22h40v-107h-114q-33 0 -49 15.5t-16 40.5l1 22h-2l-5 -10
t-16 -21.5t-29 -27.5t-44 -21.5t-60 -9.5q-72 0 -123 43t-51 116zM161 153q0 -27 20 -46.5t57 -19.5q49 0 82.5 42.5t33.5 91.5v12h-22q-171 0 -171 -80zM271 569q-57 0 -100 34.5t-43 93.5v12h81v-12q0 -29 18.5 -44t43.5 -15t43.5 15.5t18.5 44.5v11h81v-12
q0 -59 -43 -93.5t-100 -34.5z" />
    <glyph glyph-name="Aogonek" unicode="&#x104;" horiz-adv-x="674" 
d="M11 0v111h16q24 0 31 22l211 577h137l210 -577q7 -22 31 -22h16v-111q-55 -46 -55 -78q0 -14 12 -23t24 -11l12 -2l-30 -94q-5 0 -13.5 1.5t-29.5 8t-37 16t-29.5 28t-13.5 42.5q0 61 67 112v2q-30 2 -44 14t-25 42l-44 124h-240l-44 -124q-12 -34 -29 -46t-54 -12h-79z
M247 290h180l-61 178l-28 106h-2q-15 -67 -28 -106z" />
    <glyph glyph-name="aogonek" unicode="&#x105;" horiz-adv-x="560" 
d="M33 147q0 33 12.5 60t32.5 44.5t48.5 31t55.5 20.5t59 11t53.5 5t43.5 1h14v4q0 54 -22.5 77t-71.5 23q-24 0 -46 -7.5t-22 -26.5v-27h-118v54q0 33 20.5 55.5t54 32.5t60 13.5t52.5 3.5q220 0 220 -203v-190q0 -22 22 -22h40v-107q-56 -47 -56 -78q0 -14 12.5 -23
t24.5 -11l12 -2l-30 -94q-5 0 -13.5 1.5t-29.5 8t-37 16t-29.5 28t-13.5 42.5q0 58 66 110v2h-25q-31 0 -46 16.5t-15 36.5v5l2 20h-2l-5 -10t-16 -21.5t-29 -27.5t-44.5 -21.5t-61.5 -9.5q-72 0 -122 43.5t-50 115.5zM161 153q0 -27 20 -46.5t57 -19.5q49 0 82.5 42.5
t33.5 91.5v12h-22q-171 0 -171 -80z" />
    <glyph glyph-name="Cacute" unicode="&#x106;" horiz-adv-x="709" 
d="M30 361q0 154 103 257.5t257 103.5q38 0 81 -8.5t87 -25.5t72.5 -49.5t28.5 -75.5v-79h-119v40q0 36 -46.5 56t-100.5 20q-98 0 -162.5 -65t-64.5 -174q0 -104 67 -177.5t164 -73.5q38 0 73.5 9.5t60 23.5t44 28t28.5 23l9 10l69 -94q-4 -5 -12 -13t-36 -29t-58.5 -37.5
t-79.5 -29.5t-100 -13q-161 0 -263 106.5t-102 266.5zM337 757l76 136h122l-105 -136h-93z" />
    <glyph glyph-name="cacute" unicode="&#x107;" horiz-adv-x="538" 
d="M32 255q0 112 76 189.5t203 77.5q39 0 78 -9.5t73 -37t34 -68.5v-60h-112v28q0 19 -23 29.5t-50 10.5q-66 0 -108.5 -45t-42.5 -114q0 -74 46.5 -115.5t112.5 -41.5q39 0 76.5 17t56.5 34l18 18l53 -88q-3 -4 -9 -10t-26.5 -22t-43.5 -28t-60 -22t-76 -10
q-123 0 -199.5 76.5t-76.5 190.5zM243 573l76 136h122l-105 -136h-93z" />
    <glyph glyph-name="Ccircumflex" unicode="&#x108;" horiz-adv-x="709" 
d="M30 361q0 154 103 257.5t257 103.5q38 0 81 -8.5t87 -25.5t72.5 -49.5t28.5 -75.5v-79h-119v40q0 36 -46.5 56t-100.5 20q-98 0 -162.5 -65t-64.5 -174q0 -104 67 -177.5t164 -73.5q38 0 73.5 9.5t60 23.5t44 28t28.5 23l9 10l69 -94q-4 -5 -12 -13t-36 -29t-58.5 -37.5
t-79.5 -29.5t-100 -13q-161 0 -263 106.5t-102 266.5zM241 757l91 136h109l92 -136h-95l-50 81h-2l-51 -81h-94z" />
    <glyph glyph-name="ccircumflex" unicode="&#x109;" horiz-adv-x="538" 
d="M32 255q0 112 76 189.5t203 77.5q39 0 78 -9.5t73 -37t34 -68.5v-60h-112v28q0 19 -23 29.5t-50 10.5q-66 0 -108.5 -45t-42.5 -114q0 -74 46.5 -115.5t112.5 -41.5q39 0 76.5 17t56.5 34l18 18l53 -88q-3 -4 -9 -10t-26.5 -22t-43.5 -28t-60 -22t-76 -10
q-123 0 -199.5 76.5t-76.5 190.5zM146 573l91 136h109l92 -136h-95l-50 81h-2l-51 -81h-94z" />
    <glyph glyph-name="Cdotaccent" unicode="&#x10a;" horiz-adv-x="709" 
d="M30 361q0 154 103 257.5t257 103.5q38 0 81 -8.5t87 -25.5t72.5 -49.5t28.5 -75.5v-79h-119v40q0 36 -46.5 56t-100.5 20q-98 0 -162.5 -65t-64.5 -174q0 -104 67 -177.5t164 -73.5q38 0 73.5 9.5t60 23.5t44 28t28.5 23l9 10l69 -94q-4 -5 -12 -13t-36 -29t-58.5 -37.5
t-79.5 -29.5t-100 -13q-161 0 -263 106.5t-102 266.5zM332 777v116h110v-116h-110z" />
    <glyph glyph-name="cdotaccent" unicode="&#x10b;" horiz-adv-x="538" 
d="M32 255q0 112 76 189.5t203 77.5q39 0 78 -9.5t73 -37t34 -68.5v-60h-112v28q0 19 -23 29.5t-50 10.5q-66 0 -108.5 -45t-42.5 -114q0 -74 46.5 -115.5t112.5 -41.5q39 0 76.5 17t56.5 34l18 18l53 -88q-3 -4 -9 -10t-26.5 -22t-43.5 -28t-60 -22t-76 -10
q-123 0 -199.5 76.5t-76.5 190.5zM237 593v116h110v-116h-110z" />
    <glyph glyph-name="Ccaron" unicode="&#x10c;" horiz-adv-x="709" 
d="M30 361q0 154 103 257.5t257 103.5q38 0 81 -8.5t87 -25.5t72.5 -49.5t28.5 -75.5v-79h-119v40q0 36 -46.5 56t-100.5 20q-98 0 -162.5 -65t-64.5 -174q0 -104 67 -177.5t164 -73.5q38 0 73.5 9.5t60 23.5t44 28t28.5 23l9 10l69 -94q-4 -5 -12 -13t-36 -29t-58.5 -37.5
t-79.5 -29.5t-100 -13q-161 0 -263 106.5t-102 266.5zM332 757l-92 136h95l50 -81h2l50 81h96l-93 -136h-108z" />
    <glyph glyph-name="ccaron" unicode="&#x10d;" horiz-adv-x="538" 
d="M32 255q0 112 76 189.5t203 77.5q39 0 78 -9.5t73 -37t34 -68.5v-60h-112v28q0 19 -23 29.5t-50 10.5q-66 0 -108.5 -45t-42.5 -114q0 -74 46.5 -115.5t112.5 -41.5q39 0 76.5 17t56.5 34l18 18l53 -88q-3 -4 -9 -10t-26.5 -22t-43.5 -28t-60 -22t-76 -10
q-123 0 -199.5 76.5t-76.5 190.5zM238 573l-92 136h95l50 -81h2l50 81h96l-93 -136h-108z" />
    <glyph glyph-name="Dcaron" unicode="&#x10e;" horiz-adv-x="715" 
d="M99 68v531h-65v111h289q166 0 264 -94t98 -260t-98 -261t-264 -95h-156q-36 0 -52 16t-16 52zM230 133q0 -22 22 -22h64q108 0 170.5 63.5t62.5 181.5q0 116 -63 179.5t-170 63.5h-86v-466zM281 757l-92 136h95l50 -81h2l50 81h96l-93 -136h-108z" />
    <glyph glyph-name="dcaron" unicode="&#x10f;" horiz-adv-x="719" 
d="M32 255q0 120 65 193.5t167 73.5q31 0 57.5 -6.5t42.5 -15.5t27 -18t15 -16l5 -6h2q-1 13 -1 30v90q0 22 -22 22h-40v108h121q68 0 68 -68v-513q0 -22 22 -22h39v-107h-117q-63 0 -63 52v19h-2q-2 -3 -5.5 -9t-17 -20t-30 -25t-45 -20t-61.5 -9q-103 0 -165 74t-62 193z
M287 95q54 0 91 40.5t37 120.5q0 64 -33 110.5t-93 46.5q-55 0 -91.5 -42.5t-36.5 -115.5q0 -72 35 -116t91 -44zM586 710h95q7 -25 7 -51q0 -40 -26 -94h-84q19 51 19 84q0 29 -11 61z" />
    <glyph glyph-name="Dcroat" unicode="&#x110;" horiz-adv-x="715" 
d="M99 68v233h-48v105h48v193h-65v111h289q166 0 264 -94t98 -260t-98 -261t-264 -95h-156q-36 0 -52 16t-16 52zM230 133q0 -22 22 -22h64q108 0 170.5 63.5t62.5 181.5q0 116 -63 179.5t-170 63.5h-86v-193h123v-105h-123v-168z" />
    <glyph glyph-name="dcroat" unicode="&#x111;" horiz-adv-x="623" 
d="M259 -12q-103 0 -165 74t-62 193q0 120 65 193.5t167 73.5q31 0 57.5 -6.5t42.5 -15.5t27 -18t15 -16l5 -6h2q-1 13 -1 30v69h-127v76h127v75h127v-75h74v-76h-74v-430q0 -22 22 -22h39v-107h-117q-63 0 -63 52v19h-2q-2 -3 -5.5 -9t-17 -20t-30 -25t-45 -20t-61.5 -9z
M287 95q54 0 91 40.5t37 120.5q0 64 -33 110.5t-93 46.5q-55 0 -91.5 -42.5t-36.5 -115.5q0 -72 35 -116t91 -44z" />
    <glyph glyph-name="Emacron" unicode="&#x112;" horiz-adv-x="578" 
d="M99 68v531h-65v111h429q68 0 68 -68v-108h-119v43q0 22 -22 22h-160v-186h230v-111h-230v-169q0 -22 22 -22h164q22 0 22 22v43h119v-108q0 -36 -16.5 -52t-51.5 -16h-322q-36 0 -52 16t-16 52zM167 783v84h262v-84h-262z" />
    <glyph glyph-name="emacron" unicode="&#x113;" horiz-adv-x="557" 
d="M32 255q0 118 72 192.5t187 74.5q106 0 166 -68.5t60 -173.5l-3 -47h-352q7 -65 50 -101t103 -36q36 0 72 14t53 28l18 15l53 -88q-3 -3 -9 -8.5t-26.5 -18.5t-42.5 -23t-56.5 -18.5t-70.5 -8.5q-123 0 -198.5 77.5t-75.5 189.5zM166 321h221q-1 45 -28.5 74t-67.5 29
q-49 0 -81.5 -27.5t-43.5 -75.5zM157 599v84h262v-84h-262z" />
    <glyph glyph-name="Ebreve" unicode="&#x114;" horiz-adv-x="578" 
d="M99 68v531h-65v111h429q68 0 68 -68v-108h-119v43q0 22 -22 22h-160v-186h230v-111h-230v-169q0 -22 22 -22h164q22 0 22 22v43h119v-108q0 -36 -16.5 -52t-51.5 -16h-322q-36 0 -52 16t-16 52zM297 753q-57 0 -100 34.5t-43 93.5v12h81v-12q0 -29 18.5 -44t43.5 -15
t43.5 15.5t18.5 44.5v11h81v-12q0 -59 -43 -93.5t-100 -34.5z" />
    <glyph glyph-name="ebreve" unicode="&#x115;" horiz-adv-x="557" 
d="M32 255q0 118 72 192.5t187 74.5q106 0 166 -68.5t60 -173.5l-3 -47h-352q7 -65 50 -101t103 -36q36 0 72 14t53 28l18 15l53 -88q-3 -3 -9 -8.5t-26.5 -18.5t-42.5 -23t-56.5 -18.5t-70.5 -8.5q-123 0 -198.5 77.5t-75.5 189.5zM166 321h221q-1 45 -28.5 74t-67.5 29
q-49 0 -81.5 -27.5t-43.5 -75.5zM288 569q-57 0 -100 34.5t-43 93.5v12h81v-12q0 -29 18.5 -44t43.5 -15t43.5 15.5t18.5 44.5v11h81v-12q0 -59 -43 -93.5t-100 -34.5z" />
    <glyph glyph-name="Edotaccent" unicode="&#x116;" horiz-adv-x="578" 
d="M99 68v531h-65v111h429q68 0 68 -68v-108h-119v43q0 22 -22 22h-160v-186h230v-111h-230v-169q0 -22 22 -22h164q22 0 22 22v43h119v-108q0 -36 -16.5 -52t-51.5 -16h-322q-36 0 -52 16t-16 52zM242 777v116h110v-116h-110z" />
    <glyph glyph-name="edotaccent" unicode="&#x117;" horiz-adv-x="557" 
d="M32 255q0 118 72 192.5t187 74.5q106 0 166 -68.5t60 -173.5l-3 -47h-352q7 -65 50 -101t103 -36q36 0 72 14t53 28l18 15l53 -88q-3 -3 -9 -8.5t-26.5 -18.5t-42.5 -23t-56.5 -18.5t-70.5 -8.5q-123 0 -198.5 77.5t-75.5 189.5zM166 321h221q-1 45 -28.5 74t-67.5 29
q-49 0 -81.5 -27.5t-43.5 -75.5zM233 593v116h110v-116h-110z" />
    <glyph glyph-name="Eogonek" unicode="&#x118;" horiz-adv-x="578" 
d="M99 68v531h-65v111h429q68 0 68 -68v-108h-119v43q0 22 -22 22h-160v-186h230v-111h-230v-169q0 -22 22 -22h164q22 0 22 22v43h119v-108q0 -37 -25 -61q-65 -53 -65 -85q0 -14 12 -23t24 -11l12 -2l-30 -94q-5 0 -13.5 1.5t-29.5 8t-37 16t-29.5 28t-13.5 42.5
q0 59 64 110v2h-259q-36 0 -52 16t-16 52z" />
    <glyph glyph-name="eogonek" unicode="&#x119;" horiz-adv-x="557" 
d="M32 255q0 118 72 192.5t187 74.5q106 0 166 -68.5t60 -173.5l-3 -47h-352q7 -65 50 -101t103 -36q36 0 72 14t53 28l18 15l53 -88q-7 -7 -44.5 -35.5t-58 -54t-20.5 -53.5q0 -14 12 -23t24 -11l13 -2l-31 -94q-5 0 -13 1.5t-29 8t-37.5 16t-29.5 28t-13 42.5q0 51 58 101
v2q-18 -3 -36 -3q-123 0 -198.5 77.5t-75.5 189.5zM166 321h221q-2 46 -29 74.5t-67 28.5q-49 0 -81.5 -27.5t-43.5 -75.5z" />
    <glyph glyph-name="Ecaron" unicode="&#x11a;" horiz-adv-x="578" 
d="M99 68v531h-65v111h429q68 0 68 -68v-108h-119v43q0 22 -22 22h-160v-186h230v-111h-230v-169q0 -22 22 -22h164q22 0 22 22v43h119v-108q0 -36 -16.5 -52t-51.5 -16h-322q-36 0 -52 16t-16 52zM243 757l-92 136h95l50 -81h2l50 81h96l-93 -136h-108z" />
    <glyph glyph-name="ecaron" unicode="&#x11b;" horiz-adv-x="557" 
d="M32 255q0 118 72 192.5t187 74.5q106 0 166 -68.5t60 -173.5l-3 -47h-352q7 -65 50 -101t103 -36q36 0 72 14t53 28l18 15l53 -88q-3 -3 -9 -8.5t-26.5 -18.5t-42.5 -23t-56.5 -18.5t-70.5 -8.5q-123 0 -198.5 77.5t-75.5 189.5zM166 321h221q-1 45 -28.5 74t-67.5 29
q-49 0 -81.5 -27.5t-43.5 -75.5zM234 573l-92 136h95l50 -81h2l50 81h96l-93 -136h-108z" />
    <glyph glyph-name="Gcircumflex" unicode="&#x11c;" horiz-adv-x="742" 
d="M31 359q0 154 103.5 258.5t257.5 104.5q49 0 93.5 -9.5t73.5 -22.5t50.5 -26t31.5 -22l10 -10l-74 -94q-8 7 -23.5 17.5t-63 28t-95.5 17.5q-95 0 -161.5 -67.5t-66.5 -173.5q0 -113 67.5 -181.5t165.5 -68.5q50 0 95 18.5t65 37.5l20 18v53q0 22 -22 22h-43v111h115
q36 0 52 -16t16 -51v-303h-112v34l1 30h-2q-3 -3 -9 -8t-26.5 -18.5t-43 -23.5t-58 -18t-72.5 -8q-144 0 -244.5 102t-100.5 269zM243 757l91 136h109l92 -136h-95l-50 81h-2l-51 -81h-94z" />
    <glyph glyph-name="gcircumflex" unicode="&#x11d;" horiz-adv-x="612" 
d="M32 268q0 110 60 182t166 72q33 0 61.5 -7.5t45 -18t29 -21t16.5 -17.5l5 -8h2v13q0 19 14 33t42 14h118v-108h-39q-22 0 -22 -20v-351q0 -63 -23 -111t-62 -75.5t-85.5 -41t-98.5 -13.5q-98 0 -181 44l39 100q63 -34 141 -34q63 0 103.5 30t40.5 95v24l1 27h-2
q-46 -66 -142 -66q-106 0 -167.5 74.5t-61.5 183.5zM288 117q52 0 85.5 35t33.5 115q0 147 -127 147q-57 0 -88 -38t-31 -104q0 -69 33.5 -112t93.5 -43zM166 573l91 136h109l92 -136h-95l-50 81h-2l-51 -81h-94z" />
    <glyph glyph-name="Gbreve" unicode="&#x11e;" horiz-adv-x="742" 
d="M31 359q0 154 103.5 258.5t257.5 104.5q49 0 93.5 -9.5t73.5 -22.5t50.5 -26t31.5 -22l10 -10l-74 -94q-8 7 -23.5 17.5t-63 28t-95.5 17.5q-95 0 -161.5 -67.5t-66.5 -173.5q0 -113 67.5 -181.5t165.5 -68.5q50 0 95 18.5t65 37.5l20 18v53q0 22 -22 22h-43v111h115
q36 0 52 -16t16 -51v-303h-112v34l1 30h-2q-3 -3 -9 -8t-26.5 -18.5t-43 -23.5t-58 -18t-72.5 -8q-144 0 -244.5 102t-100.5 269zM388 753q-57 0 -100 34.5t-43 93.5v12h81v-12q0 -29 18.5 -44t43.5 -15t43.5 15.5t18.5 44.5v11h81v-12q0 -59 -43 -93.5t-100 -34.5z" />
    <glyph glyph-name="gbreve" unicode="&#x11f;" horiz-adv-x="612" 
d="M32 268q0 110 60 182t166 72q33 0 61.5 -7.5t45 -18t29 -21t16.5 -17.5l5 -8h2v13q0 19 14 33t42 14h118v-108h-39q-22 0 -22 -20v-351q0 -63 -23 -111t-62 -75.5t-85.5 -41t-98.5 -13.5q-98 0 -181 44l39 100q63 -34 141 -34q63 0 103.5 30t40.5 95v24l1 27h-2
q-46 -66 -142 -66q-106 0 -167.5 74.5t-61.5 183.5zM288 117q52 0 85.5 35t33.5 115q0 147 -127 147q-57 0 -88 -38t-31 -104q0 -69 33.5 -112t93.5 -43zM312 569q-57 0 -100 34.5t-43 93.5v12h81v-12q0 -29 18.5 -44t43.5 -15t43.5 15.5t18.5 44.5v11h81v-12
q0 -59 -43 -93.5t-100 -34.5z" />
    <glyph glyph-name="Gdotaccent" unicode="&#x120;" horiz-adv-x="742" 
d="M31 359q0 154 103.5 258.5t257.5 104.5q49 0 93.5 -9.5t73.5 -22.5t50.5 -26t31.5 -22l10 -10l-74 -94q-8 7 -23.5 17.5t-63 28t-95.5 17.5q-95 0 -161.5 -67.5t-66.5 -173.5q0 -113 67.5 -181.5t165.5 -68.5q50 0 95 18.5t65 37.5l20 18v53q0 22 -22 22h-43v111h115
q36 0 52 -16t16 -51v-303h-112v34l1 30h-2q-3 -3 -9 -8t-26.5 -18.5t-43 -23.5t-58 -18t-72.5 -8q-144 0 -244.5 102t-100.5 269zM334 777v116h110v-116h-110z" />
    <glyph glyph-name="gdotaccent" unicode="&#x121;" horiz-adv-x="612" 
d="M32 268q0 110 60 182t166 72q33 0 61.5 -7.5t45 -18t29 -21t16.5 -17.5l5 -8h2v13q0 19 14 33t42 14h118v-108h-39q-22 0 -22 -20v-351q0 -63 -23 -111t-62 -75.5t-85.5 -41t-98.5 -13.5q-98 0 -181 44l39 100q63 -34 141 -34q63 0 103.5 30t40.5 95v24l1 27h-2
q-46 -66 -142 -66q-106 0 -167.5 74.5t-61.5 183.5zM288 117q52 0 85.5 35t33.5 115q0 147 -127 147q-57 0 -88 -38t-31 -104q0 -69 33.5 -112t93.5 -43zM257 593v116h110v-116h-110z" />
    <glyph glyph-name="Gcommaaccent" unicode="&#x122;" horiz-adv-x="742" 
d="M31 359q0 154 103.5 258.5t257.5 104.5q49 0 93.5 -9.5t73.5 -22.5t50.5 -26t31.5 -22l10 -10l-74 -94q-8 7 -23.5 17.5t-63 28t-95.5 17.5q-95 0 -161.5 -67.5t-66.5 -173.5q0 -113 67.5 -181.5t165.5 -68.5q50 0 95 18.5t65 37.5l20 18v53q0 22 -22 22h-43v111h115
q36 0 52 -16t16 -51v-303h-112v34l1 30h-2q-3 -3 -9 -8t-26.5 -18.5t-43 -23.5t-58 -18t-72.5 -8q-144 0 -244.5 102t-100.5 269zM335 -55h95q7 -25 7 -51q0 -40 -26 -94h-84q19 51 19 84q0 29 -11 61z" />
    <glyph glyph-name="gcommaaccent" unicode="&#x123;" horiz-adv-x="612" 
d="M32 268q0 110 60 182t166 72q33 0 61.5 -7.5t45 -18t29 -21t16.5 -17.5l5 -8h2v13q0 19 14 33t42 14h118v-108h-39q-22 0 -22 -20v-351q0 -63 -23 -111t-62 -75.5t-85.5 -41t-98.5 -13.5q-98 0 -181 44l39 100q63 -34 141 -34q63 0 103.5 30t40.5 95v24l1 27h-2
q-46 -66 -142 -66q-106 0 -167.5 74.5t-61.5 183.5zM288 117q52 0 85.5 35t33.5 115q0 147 -127 147q-57 0 -88 -38t-31 -104q0 -69 33.5 -112t93.5 -43zM344 565h-95q-7 25 -7 51q0 40 26 94h84q-19 -51 -19 -84q0 -29 11 -61z" />
    <glyph glyph-name="Hcircumflex" unicode="&#x124;" horiz-adv-x="773" 
d="M99 0v577q0 22 -22 22h-43v111h128q36 0 52 -16.5t16 -51.5v-233h313v233q0 68 68 68h128v-111h-43q-22 0 -22 -22v-577h-131v298h-313v-298h-131zM242 757l91 136h109l92 -136h-95l-50 81h-2l-51 -81h-94z" />
    <glyph glyph-name="hcircumflex" unicode="&#x125;" horiz-adv-x="640" 
d="M79 0v580q0 22 -22 22h-40v108h121q68 0 68 -67v-179l-2 -43h2q20 41 66.5 71t108.5 30q178 0 178 -194v-199q0 -22 22 -22h40v-107h-121q-35 0 -51 16t-16 52v234q0 51 -18 77.5t-63 26.5q-49 0 -86 -29.5t-52 -76.5q-8 -27 -8 -66v-234h-127zM182 757l91 136h109
l92 -136h-95l-50 81h-2l-51 -81h-94z" />
    <glyph glyph-name="Hbar" unicode="&#x126;" horiz-adv-x="773" 
d="M99 0v515h-66v83h66v112h131v-112h313v112h131v-112h65v-83h-65v-515h-131v298h-313v-298h-131zM230 409h313v106h-313v-106z" />
    <glyph glyph-name="hbar" unicode="&#x127;" horiz-adv-x="640" 
d="M79 0v559h-73v76h73v75h127v-75h126v-76h-126v-95l-2 -43h2q3 9 13.5 23t30.5 33t55 32t76 13q178 0 178 -194v-199q0 -22 22 -22h40v-107h-121q-35 0 -51 16t-16 52v234q0 50 -18 77t-63 27q-67 0 -106.5 -49t-39.5 -123v-234h-127z" />
    <glyph glyph-name="Itilde" unicode="&#x128;" horiz-adv-x="342" 
d="M38 0v111h71v488h-71v111h266v-111h-71v-488h71v-111h-266zM-11 758q0 137 114 137q29 0 52.5 -16.5t41 -32.5t34.5 -16q20 0 30.5 18t10.5 44h79q0 -137 -114 -137q-29 0 -52.5 16.5t-41 32.5t-34.5 16q-20 0 -30.5 -17.5t-10.5 -44.5h-79z" />
    <glyph glyph-name="itilde" unicode="&#x129;" horiz-adv-x="302" 
d="M88 68v312q0 22 -22 22h-40v108h121q68 0 68 -68v-313q0 -22 22 -22h39v-107h-120q-36 0 -52 16t-16 52zM-18 575q0 137 102 137q20 0 37 -9.5t27.5 -21t22 -21t20.5 -9.5q33 0 33 58h79q0 -69 -24.5 -103t-77.5 -34q-25 0 -45.5 15t-35 30.5t-25.5 15.5q-34 0 -34 -58
h-79z" />
    <glyph glyph-name="Imacron" unicode="&#x12a;" horiz-adv-x="342" 
d="M38 0v111h71v488h-71v111h266v-111h-71v-488h71v-111h-266zM40 783v84h262v-84h-262z" />
    <glyph glyph-name="imacron" unicode="&#x12b;" horiz-adv-x="302" 
d="M88 68v312q0 22 -22 22h-40v108h121q68 0 68 -68v-313q0 -22 22 -22h39v-107h-120q-36 0 -52 16t-16 52zM20 600v83h248v-83h-248z" />
    <glyph glyph-name="Ibreve" unicode="&#x12c;" horiz-adv-x="342" 
d="M38 0v111h71v488h-71v111h266v-111h-71v-488h71v-111h-266zM171 753q-57 0 -100 34.5t-43 93.5v12h81v-12q0 -29 18.5 -44t43.5 -15t43.5 15.5t18.5 44.5v11h81v-12q0 -59 -43 -93.5t-100 -34.5z" />
    <glyph glyph-name="ibreve" unicode="&#x12d;" horiz-adv-x="302" 
d="M88 68v312q0 22 -22 22h-40v108h121q68 0 68 -68v-313q0 -22 22 -22h39v-107h-120q-36 0 -52 16t-16 52zM143 569q-57 0 -100 34.5t-43 94.5v12h82v-12q0 -29 18 -44.5t43 -15.5t43.5 15.5t18.5 44.5v12h81v-12q0 -60 -43 -94.5t-100 -34.5z" />
    <glyph glyph-name="Iogonek" unicode="&#x12e;" horiz-adv-x="342" 
d="M38 0v111h71v488h-71v111h266v-111h-71v-488h71v-111q-55 -46 -55 -78q0 -14 12.5 -23t24.5 -11l12 -2l-31 -94q-5 0 -13 1.5t-29 8t-37.5 16t-29.5 28t-13 42.5q0 61 64 110v2h-171z" />
    <glyph glyph-name="iogonek" unicode="&#x12f;" horiz-adv-x="299" 
d="M93 593v117h110v-117h-110zM25 510h121q35 0 51 -16.5t16 -51.5v-313q0 -22 22 -22h40v-107q-55 -46 -55 -78q0 -14 12 -23t24 -11l12 -2l-30 -94q-5 0 -13.5 1.5t-29.5 8t-37 16t-29.5 28t-13.5 42.5q0 60 65 110v2h-30q-63 0 -63 78v302q0 22 -22 22h-40v108z" />
    <glyph glyph-name="Idotaccent" unicode="&#x130;" horiz-adv-x="342" 
d="M38 0v111h71v488h-71v111h266v-111h-71v-488h71v-111h-266zM115 777v116h110v-116h-110z" />
    <glyph glyph-name="dotlessi" unicode="&#x131;" horiz-adv-x="302" 
d="M88 68v312q0 22 -22 22h-40v108h121q68 0 68 -68v-313q0 -22 22 -22h39v-107h-120q-36 0 -52 16t-16 52z" />
    <glyph glyph-name="IJ" unicode="&#x132;" horiz-adv-x="720" 
d="M387 -4v117q22 0 42.5 6t41 20t33 43t12.5 70v325q0 22 -22 22h-105v111h191q35 0 51 -16.5t16 -51.5v-392q0 -254 -260 -254zM38 0v111h71v488h-71v111h266v-111h-71v-488h71v-111h-266z" />
    <glyph glyph-name="ij" unicode="&#x133;" horiz-adv-x="594" 
d="M93 593v117h110v-117h-110zM87 68v312q0 22 -22 22h-40v108h121q35 0 51 -16.5t16 -51.5v-313q0 -22 22 -22h40v-107h-121q-35 0 -51 16t-16 52zM400 593v117h110v-117h-110zM270 -97q9 -2 22 -2q17 0 32 3.5t32 12t27.5 29t10.5 49.5v385q0 22 -22 22h-39v108h120
q36 0 52 -16.5t16 -51.5v-457q0 -49 -16 -85.5t-38.5 -56t-53.5 -31.5t-55.5 -15.5t-49.5 -3.5l-38 3v107z" />
    <glyph glyph-name="Jcircumflex" unicode="&#x134;" horiz-adv-x="539" 
d="M20 210v41h131v-29q0 -59 26.5 -85.5t66.5 -26.5t66 26t26 80v361q0 22 -22 22h-172v111h257q68 0 68 -68v-432q0 -109 -66 -165.5t-158 -56.5q-91 0 -157 57t-66 165zM152 757l91 136h109l92 -136h-95l-50 81h-2l-51 -81h-94z" />
    <glyph glyph-name="jcircumflex" unicode="&#x135;" horiz-adv-x="302" 
d="M-8 573l92 137h109l92 -137h-95l-51 83l-51 -83h-96zM-19 -100q9 -1 22 -1q17 0 32 3.5t32 12t27.5 29t10.5 49.5v391q0 22 -27 22h-35v104h118q37 0 52.5 -12t15.5 -46v-467q0 -49 -15.5 -85.5t-38 -56t-53 -31.5t-54.5 -15.5t-49 -3.5l-38 3v104z" />
    <glyph glyph-name="Kcommaaccent" unicode="&#x136;" horiz-adv-x="634" 
d="M99 0v577q0 22 -22 22h-43v111h128q36 0 52 -16.5t16 -51.5v-221h50q44 0 57 23l143 266h144l-160 -292q-10 -18 -21 -31t-17 -17l-7 -4v-2q24 -6 46 -49l90 -181q11 -23 50 -23h19v-111h-75q-42 0 -62 10t-37 43l-116 233q-8 16 -22 20t-40 4h-42v-310h-131zM290 -55h95
q7 -25 7 -51q0 -40 -26 -94h-84q19 51 19 84q0 29 -11 61z" />
    <glyph glyph-name="kcommaaccent" unicode="&#x137;" horiz-adv-x="553" 
d="M79 0v580q0 22 -22 22h-40v108h121q37 0 52.5 -12t15.5 -46v-322h38q35 0 48 19l104 161h141l-129 -192q-10 -14 -19.5 -24t-14.5 -13l-4 -3v-2q18 -7 36 -40l58 -110q10 -19 42 -19h34v-107h-94q-33 0 -49 8.5t-31 35.5l-85 160q-11 19 -47 19h-28v-223h-127zM248 -55
h95q7 -25 7 -51q0 -40 -26 -94h-84q19 51 19 84q0 29 -11 61z" />
    <glyph glyph-name="kgreenlandic" unicode="&#x138;" horiz-adv-x="553" 
d="M79 0v380q0 22 -22 22h-40v108h121q37 0 52.5 -12t15.5 -46v-140h38q37 0 48 19l107 179h140l-133 -208q-9 -14 -18.5 -24t-13.5 -12l-5 -3v-2q17 -7 35 -41l50 -94q10 -19 42 -19h39v-107h-99q-33 0 -49 8.5t-31 35.5l-75 142q-10 19 -47 19h-28v-205h-127z" />
    <glyph glyph-name="Lacute" unicode="&#x139;" horiz-adv-x="558" 
d="M99 68v509q0 22 -22 22h-43v111h128q36 0 52 -16.5t16 -51.5v-509q0 -22 22 -22h155q22 0 22 22v43h119v-108q0 -36 -16 -52t-52 -16h-313q-36 0 -52 16t-16 52zM129 757l76 136h122l-105 -136h-93z" />
    <glyph glyph-name="lacute" unicode="&#x13a;" horiz-adv-x="291" 
d="M80 68v512q0 22 -22 22h-40v108h121q68 0 68 -68v-513q0 -22 22 -22h39v-107h-120q-36 0 -52 16t-16 52zM77 757l76 136h122l-105 -136h-93z" />
    <glyph glyph-name="Lcommaaccent" unicode="&#x13b;" horiz-adv-x="558" 
d="M99 68v509q0 22 -22 22h-43v111h128q36 0 52 -16.5t16 -51.5v-509q0 -22 22 -22h155q22 0 22 22v43h119v-108q0 -36 -16 -52t-52 -16h-313q-36 0 -52 16t-16 52zM271 -55h95q7 -25 7 -51q0 -40 -26 -94h-84q19 51 19 84q0 29 -11 61z" />
    <glyph glyph-name="lcommaaccent" unicode="&#x13c;" horiz-adv-x="291" 
d="M80 68v512q0 22 -22 22h-40v108h121q68 0 68 -68v-513q0 -22 22 -22h39v-107h-120q-36 0 -52 16t-16 52zM106 -55h95q7 -25 7 -51q0 -40 -26 -94h-84q19 51 19 84q0 29 -11 61z" />
    <glyph glyph-name="Lcaron" unicode="&#x13d;" horiz-adv-x="558" 
d="M99 68v509q0 22 -22 22h-43v111h128q36 0 52 -16.5t16 -51.5v-509q0 -22 22 -22h155q22 0 22 22v43h119v-108q0 -36 -16 -52t-52 -16h-313q-36 0 -52 16t-16 52zM308 710h95q7 -25 7 -51q0 -40 -26 -94h-84q19 51 19 84q0 29 -11 61z" />
    <glyph glyph-name="lcaron" unicode="&#x13e;" horiz-adv-x="391" 
d="M80 68v512q0 22 -22 22h-40v108h121q68 0 68 -68v-513q0 -22 22 -22h39v-107h-120q-36 0 -52 16t-16 52zM258 710h95q7 -25 7 -51q0 -40 -26 -94h-84q19 51 19 84q0 29 -11 61z" />
    <glyph glyph-name="Ldot" unicode="&#x13f;" horiz-adv-x="558" 
d="M99 68v509q0 22 -22 22h-43v111h128q36 0 52 -16.5t16 -51.5v-509q0 -22 22 -22h155q22 0 22 22v43h119v-108q0 -36 -16 -52t-52 -16h-313q-36 0 -52 16t-16 52zM329 323v126h123v-126h-123z" />
    <glyph glyph-name="ldot" unicode="&#x140;" horiz-adv-x="408" 
d="M80 68v512q0 22 -22 22h-40v108h121q68 0 68 -68v-513q0 -22 22 -22h39v-107h-120q-36 0 -52 16t-16 52zM280 323v126h123v-126h-123z" />
    <glyph glyph-name="Lslash" unicode="&#x141;" horiz-adv-x="558" 
d="M99 68v198l-62 -35v124l62 35v187q0 22 -22 22h-43v111h128q36 0 52 -16.5t16 -51.5v-177l98 57v-124l-98 -57v-208q0 -22 22 -22h155q22 0 22 22v43h119v-108q0 -36 -16 -52t-52 -16h-313q-36 0 -52 16t-16 52z" />
    <glyph glyph-name="lslash" unicode="&#x142;" horiz-adv-x="303" 
d="M88 68v217l-66 -37v125l66 38v169q0 22 -22 22h-40v108h121q35 0 51 -16.5t16 -51.5v-159l73 41v-124l-73 -42v-229q0 -22 22 -22h40v-107h-121q-35 0 -51 16t-16 52z" />
    <glyph glyph-name="Nacute" unicode="&#x143;" horiz-adv-x="770" 
d="M34 0v111h43q22 0 22 22v577h118l269 -393q12 -18 27 -43t23 -41l9 -16h2q-7 59 -7 100v325q0 35 16 51.5t52 16.5h128v-111h-43q-22 0 -22 -22v-577h-117l-270 392q-12 18 -27 43t-23 41l-9 16h-2q7 -59 7 -100v-324q0 -36 -16 -52t-52 -16h-128zM345 757l76 136h122
l-105 -136h-93z" />
    <glyph glyph-name="nacute" unicode="&#x144;" horiz-adv-x="643" 
d="M83 0v380q0 22 -22 22h-40v108h117q67 0 67 -57v-15l-2 -22h2q21 42 66 74t114 32q178 0 178 -194v-199q0 -22 22 -22h40v-107h-121q-36 0 -52 16t-16 52v234q0 51 -17.5 77.5t-62.5 26.5q-50 0 -86.5 -28.5t-50.5 -75.5q-10 -30 -10 -68v-234h-126zM280 573l76 136h122
l-105 -136h-93z" />
    <glyph glyph-name="Ncommaaccent" unicode="&#x145;" horiz-adv-x="770" 
d="M34 0v111h43q22 0 22 22v577h118l269 -393q12 -18 27 -43t23 -41l9 -16h2q-7 59 -7 100v325q0 35 16 51.5t52 16.5h128v-111h-43q-22 0 -22 -22v-577h-117l-270 392q-12 18 -27 43t-23 41l-9 16h-2q7 -59 7 -100v-324q0 -36 -16 -52t-52 -16h-128zM335 -55h95
q7 -25 7 -51q0 -40 -26 -94h-84q19 51 19 84q0 29 -11 61z" />
    <glyph glyph-name="ncommaaccent" unicode="&#x146;" horiz-adv-x="643" 
d="M83 0v380q0 22 -22 22h-40v108h117q67 0 67 -57v-15l-2 -22h2q21 42 66 74t114 32q178 0 178 -194v-199q0 -22 22 -22h40v-107h-121q-36 0 -52 16t-16 52v234q0 51 -17.5 77.5t-62.5 26.5q-50 0 -86.5 -28.5t-50.5 -75.5q-10 -30 -10 -68v-234h-126zM281 -55h95
q7 -25 7 -51q0 -40 -26 -94h-84q19 51 19 84q0 29 -11 61z" />
    <glyph glyph-name="Ncaron" unicode="&#x147;" horiz-adv-x="770" 
d="M34 0v111h43q22 0 22 22v577h118l269 -393q12 -18 27 -43t23 -41l9 -16h2q-7 59 -7 100v325q0 35 16 51.5t52 16.5h128v-111h-43q-22 0 -22 -22v-577h-117l-270 392q-12 18 -27 43t-23 41l-9 16h-2q7 -59 7 -100v-324q0 -36 -16 -52t-52 -16h-128zM340 757l-92 136h95
l50 -81h2l50 81h96l-93 -136h-108z" />
    <glyph glyph-name="ncaron" unicode="&#x148;" horiz-adv-x="643" 
d="M83 0v380q0 22 -22 22h-40v108h117q67 0 67 -57v-15l-2 -22h2q21 42 66 74t114 32q178 0 178 -194v-199q0 -22 22 -22h40v-107h-121q-36 0 -52 16t-16 52v234q0 51 -17.5 77.5t-62.5 26.5q-50 0 -86.5 -28.5t-50.5 -75.5q-10 -30 -10 -68v-234h-126zM275 573l-92 136h95
l50 -81h2l50 81h96l-93 -136h-108z" />
    <glyph glyph-name="napostrophe" unicode="&#x149;" horiz-adv-x="676" 
d="M115 0v380q0 22 -22 22h-40v108h117q67 0 67 -57v-15l-2 -22h2q21 42 66 74t114 32q178 0 178 -194v-199q0 -22 22 -22h40v-107h-121q-36 0 -52 16t-16 52v234q0 51 -17.5 77.5t-62.5 26.5q-50 0 -86.5 -28.5t-50.5 -75.5q-10 -30 -10 -68v-234h-126zM-10 710h95
q7 -25 7 -51q0 -40 -26 -94h-84q19 51 19 84q0 29 -11 61z" />
    <glyph glyph-name="Eng" unicode="&#x14a;" horiz-adv-x="770" 
d="M34 0v111h43q22 0 22 22v577h118l269 -393q12 -18 27 -43t23 -41l9 -16h2q-7 59 -7 100v325q0 35 16 51.5t52 16.5h128v-111h-43q-22 0 -22 -22v-534q0 -71 -23 -122.5t-62 -77.5t-81 -37t-91 -11v117q43 0 84.5 26.5t41.5 76.5v8l-256 369q-12 18 -27 43t-23 41l-9 16
h-2q7 -59 7 -100v-324q0 -36 -16 -52t-52 -16h-128z" />
    <glyph glyph-name="eng" unicode="&#x14b;" horiz-adv-x="638" 
d="M83 0v380q0 22 -22 22h-40v108h117q67 0 67 -57v-15l-2 -22h2q21 42 66 74t114 32q178 0 178 -194v-345q0 -49 -16 -85.5t-38.5 -56t-53.5 -31.5t-55.5 -15.5t-49.5 -3.5l-38 3v107q9 -1 22 -1q102 0 102 93v309q0 51 -17.5 77.5t-62.5 26.5q-50 0 -87 -29.5t-51 -76.5
q-9 -26 -9 -66v-234h-126z" />
    <glyph glyph-name="Omacron" unicode="&#x14c;" horiz-adv-x="794" 
d="M30 360q0 153 105.5 257.5t261.5 104.5t261.5 -104.5t105.5 -257.5q0 -157 -105.5 -264.5t-261.5 -107.5t-261.5 107.5t-105.5 264.5zM166 360q0 -106 67 -178t164 -72t164 72t67 178q0 101 -67 170.5t-164 69.5t-164 -69.5t-67 -170.5zM264 783v84h262v-84h-262z" />
    <glyph glyph-name="omacron" unicode="&#x14d;" horiz-adv-x="623" 
d="M32 255q0 116 80.5 191.5t198.5 75.5t199 -75.5t81 -191.5t-80.5 -191.5t-199.5 -75.5q-118 0 -198.5 75.5t-80.5 191.5zM160 255q0 -70 44 -114.5t107 -44.5q64 0 108 44.5t44 114.5q0 69 -44.5 114t-107.5 45t-107 -45t-44 -114zM181 599v84h262v-84h-262z" />
    <glyph glyph-name="Obreve" unicode="&#x14e;" horiz-adv-x="794" 
d="M30 360q0 153 105.5 257.5t261.5 104.5t261.5 -104.5t105.5 -257.5q0 -157 -105.5 -264.5t-261.5 -107.5t-261.5 107.5t-105.5 264.5zM166 360q0 -106 67 -178t164 -72t164 72t67 178q0 101 -67 170.5t-164 69.5t-164 -69.5t-67 -170.5zM395 753q-57 0 -100 34.5
t-43 93.5v12h81v-12q0 -29 18.5 -44t43.5 -15t43.5 15.5t18.5 44.5v11h81v-12q0 -59 -43 -93.5t-100 -34.5z" />
    <glyph glyph-name="obreve" unicode="&#x14f;" horiz-adv-x="623" 
d="M32 255q0 116 80.5 191.5t198.5 75.5t199 -75.5t81 -191.5t-80.5 -191.5t-199.5 -75.5q-118 0 -198.5 75.5t-80.5 191.5zM160 255q0 -70 44 -114.5t107 -44.5q64 0 108 44.5t44 114.5q0 69 -44.5 114t-107.5 45t-107 -45t-44 -114zM311 569q-57 0 -100 34.5t-43 93.5v12
h81v-12q0 -29 18.5 -44t43.5 -15t43.5 15.5t18.5 44.5v11h81v-12q0 -59 -43 -93.5t-100 -34.5z" />
    <glyph glyph-name="Ohungarumlaut" unicode="&#x150;" horiz-adv-x="794" 
d="M30 360q0 153 105.5 257.5t261.5 104.5t261.5 -104.5t105.5 -257.5q0 -157 -105.5 -264.5t-261.5 -107.5t-261.5 107.5t-105.5 264.5zM166 360q0 -106 67 -178t164 -72t164 72t67 178q0 101 -67 170.5t-164 69.5t-164 -69.5t-67 -170.5zM428 757l77 136h121l-104 -136
h-94zM256 757l72 136h104l-74 -136h-102z" />
    <glyph glyph-name="ohungarumlaut" unicode="&#x151;" horiz-adv-x="623" 
d="M32 255q0 116 80.5 191.5t198.5 75.5t199 -75.5t81 -191.5t-80.5 -191.5t-199.5 -75.5q-118 0 -198.5 75.5t-80.5 191.5zM160 255q0 -70 44 -114.5t107 -44.5q64 0 108 44.5t44 114.5q0 69 -44.5 114t-107.5 45t-107 -45t-44 -114zM344 573l77 136h121l-104 -136h-94z
M172 573l72 136h104l-74 -136h-102z" />
    <glyph glyph-name="OE" unicode="&#x152;" horiz-adv-x="950" 
d="M30 356q0 153 103 257.5t253 104.5q34 0 79.5 -4t65.5 -4h303q36 0 52 -16.5t16 -51.5v-108h-118v43q0 22 -22 22h-157v-186h227v-111h-227v-191h183q22 0 22 22v43h118v-108q0 -36 -15.5 -52t-49.5 -16h-332q-19 0 -65 -4.5t-80 -4.5q-150 0 -253 106t-103 259zM166 356
q0 -105 62 -174t158 -69q60 0 88 7v469q-35 8 -88 8q-96 0 -158 -68.5t-62 -172.5z" />
    <glyph glyph-name="oe" unicode="&#x153;" horiz-adv-x="994" 
d="M32 254q0 118 80.5 193t197.5 75q138 0 215 -105h2q66 105 201 105q107 0 166.5 -68.5t59.5 -173.5l-3 -47h-352q9 -66 51.5 -101.5t101.5 -35.5q36 0 72 14t54 28l18 15l52 -88q-3 -3 -9 -8.5t-26.5 -18.5t-42.5 -23t-56.5 -18.5t-70.5 -8.5q-143 0 -213 108h-2
q-78 -108 -217 -108q-118 0 -198.5 74t-80.5 192zM603 321h221q-2 46 -28.5 74.5t-67.5 28.5q-49 0 -81.5 -27.5t-43.5 -75.5zM160 254q0 -71 44 -114.5t107 -43.5q64 0 108 44t44 115t-44.5 115t-107.5 44t-107 -44.5t-44 -115.5z" />
    <glyph glyph-name="Racute" unicode="&#x154;" horiz-adv-x="632" 
d="M99 0v599h-65v111h318q99 0 160 -57.5t61 -156.5q0 -45 -14 -82t-34.5 -58t-38.5 -32.5t-31 -14.5v-2q22 -10 35 -36l69 -137q12 -23 50 -23h13v-111h-69q-41 0 -61.5 10t-37.5 43l-91 179q-11 20 -24.5 26.5t-42.5 6.5h-66v-265h-131zM230 377h104q50 0 77.5 29.5
t27.5 82.5q0 52 -27.5 81t-75.5 29h-106v-222zM242 757l76 136h122l-105 -136h-93z" />
    <glyph glyph-name="racute" unicode="&#x155;" horiz-adv-x="407" 
d="M83 0v380q0 22 -22 22h-40v108h116q68 0 68 -62v-30l-2 -32h2q18 57 61.5 94t100.5 37l23 -2v-125q-13 2 -31 2q-45 0 -84 -27t-55 -80q-11 -39 -11 -83v-202h-126zM164 573l76 136h122l-105 -136h-93z" />
    <glyph glyph-name="Rcommaaccent" unicode="&#x156;" horiz-adv-x="632" 
d="M99 0v599h-65v111h318q99 0 160 -57.5t61 -156.5q0 -45 -14 -82t-34.5 -58t-38.5 -32.5t-31 -14.5v-2q22 -10 35 -36l69 -137q12 -23 50 -23h13v-111h-69q-41 0 -61.5 10t-37.5 43l-91 179q-11 20 -24.5 26.5t-42.5 6.5h-66v-265h-131zM230 377h104q50 0 77.5 29.5
t27.5 82.5q0 52 -27.5 81t-75.5 29h-106v-222zM303 -55h95q7 -25 7 -51q0 -40 -26 -94h-84q19 51 19 84q0 29 -11 61z" />
    <glyph glyph-name="rcommaaccent" unicode="&#x157;" horiz-adv-x="407" 
d="M83 0v380q0 22 -22 22h-40v108h116q68 0 68 -62v-30l-2 -32h2q18 57 61.5 94t100.5 37l23 -2v-125q-13 2 -31 2q-45 0 -84 -27t-55 -80q-11 -39 -11 -83v-202h-126zM103 -55h95q7 -25 7 -51q0 -40 -26 -94h-84q19 51 19 84q0 29 -11 61z" />
    <glyph glyph-name="Rcaron" unicode="&#x158;" horiz-adv-x="632" 
d="M99 0v599h-65v111h318q99 0 160 -57.5t61 -156.5q0 -45 -14 -82t-34.5 -58t-38.5 -32.5t-31 -14.5v-2q22 -10 35 -36l69 -137q12 -23 50 -23h13v-111h-69q-41 0 -61.5 10t-37.5 43l-91 179q-11 20 -24.5 26.5t-42.5 6.5h-66v-265h-131zM230 377h104q50 0 77.5 29.5
t27.5 82.5q0 52 -27.5 81t-75.5 29h-106v-222zM237 757l-92 136h95l50 -81h2l50 81h96l-93 -136h-108z" />
    <glyph glyph-name="rcaron" unicode="&#x159;" horiz-adv-x="407" 
d="M83 0v380q0 22 -22 22h-40v108h116q68 0 68 -62v-30l-2 -32h2q18 57 61.5 94t100.5 37l23 -2v-125q-13 2 -31 2q-45 0 -84 -27t-55 -80q-11 -39 -11 -83v-202h-126zM159 573l-92 136h95l50 -81h2l50 81h96l-93 -136h-108z" />
    <glyph glyph-name="Sacute" unicode="&#x15a;" horiz-adv-x="549" 
d="M32 98l74 92q3 -3 8.5 -9t23.5 -20.5t37 -25.5t47 -20t56 -9q43 0 72.5 22.5t29.5 61.5q0 24 -18.5 44.5t-48 36t-65 31t-71 35.5t-65 43.5t-48 60t-18.5 81.5q0 86 67 143t170 57q46 0 92 -13t82.5 -46.5t36.5 -80.5v-66h-118v32q0 24 -28.5 39.5t-65.5 15.5
q-45 0 -74.5 -21t-29.5 -55q0 -24 18.5 -43.5t48 -34t65 -29.5t71 -34t65 -42.5t48 -61.5t18.5 -85q0 -88 -64 -148.5t-172 -60.5q-44 0 -85.5 11.5t-69 27.5t-48.5 32t-31 27zM233 757l76 136h122l-105 -136h-93z" />
    <glyph glyph-name="sacute" unicode="&#x15b;" horiz-adv-x="468" 
d="M25 79l60 83q7 -8 20.5 -20.5t53 -33.5t78.5 -21q31 0 50 12.5t19 37.5q0 19 -27.5 35.5t-67 31.5t-79.5 34.5t-67.5 54t-27.5 80.5q0 73 56.5 111t141.5 38q29 0 57.5 -5t57 -16.5t46.5 -33.5t18 -51v-53h-112v25q0 17 -20 26.5t-44 9.5q-35 0 -55.5 -12t-20.5 -34
t28 -38.5t68 -30.5t79.5 -32t67.5 -52t28 -81q0 -71 -55.5 -113.5t-140.5 -42.5q-39 0 -75.5 9.5t-60 22.5t-41.5 26.5t-26 23.5zM183 573l76 136h122l-105 -136h-93z" />
    <glyph glyph-name="Scircumflex" unicode="&#x15c;" horiz-adv-x="549" 
d="M32 98l74 92q3 -3 8.5 -9t23.5 -20.5t37 -25.5t47 -20t56 -9q43 0 72.5 22.5t29.5 61.5q0 24 -18.5 44.5t-48 36t-65 31t-71 35.5t-65 43.5t-48 60t-18.5 81.5q0 86 67 143t170 57q46 0 92 -13t82.5 -46.5t36.5 -80.5v-66h-118v32q0 24 -28.5 39.5t-65.5 15.5
q-45 0 -74.5 -21t-29.5 -55q0 -24 18.5 -43.5t48 -34t65 -29.5t71 -34t65 -42.5t48 -61.5t18.5 -85q0 -88 -64 -148.5t-172 -60.5q-44 0 -85.5 11.5t-69 27.5t-48.5 32t-31 27zM136 757l91 136h109l92 -136h-95l-50 81h-2l-51 -81h-94z" />
    <glyph glyph-name="scircumflex" unicode="&#x15d;" horiz-adv-x="468" 
d="M25 79l60 83q7 -8 20.5 -20.5t53 -33.5t78.5 -21q31 0 50 12.5t19 37.5q0 19 -27.5 35.5t-67 31.5t-79.5 34.5t-67.5 54t-27.5 80.5q0 73 56.5 111t141.5 38q29 0 57.5 -5t57 -16.5t46.5 -33.5t18 -51v-53h-112v25q0 17 -20 26.5t-44 9.5q-35 0 -55.5 -12t-20.5 -34
t28 -38.5t68 -30.5t79.5 -32t67.5 -52t28 -81q0 -71 -55.5 -113.5t-140.5 -42.5q-39 0 -75.5 9.5t-60 22.5t-41.5 26.5t-26 23.5zM86 573l91 136h109l92 -136h-95l-50 81h-2l-51 -81h-94z" />
    <glyph glyph-name="Scedilla" unicode="&#x15e;" horiz-adv-x="549" 
d="M32 98l74 92q3 -3 8.5 -9t23.5 -20.5t37 -25.5t47 -20t56 -9q43 0 72.5 22.5t29.5 61.5q0 24 -18.5 44.5t-48 36t-65 31t-71 35.5t-65 43.5t-48 60t-18.5 81.5q0 86 67 143t170 57q46 0 92 -13t82.5 -46.5t36.5 -80.5v-66h-118v32q0 24 -28.5 39.5t-65.5 15.5
q-45 0 -74.5 -21t-29.5 -55q0 -24 18.5 -43.5t48 -34t65 -29.5t71 -34t65 -42.5t48 -61.5t18.5 -85q0 -82 -57 -141.5t-153 -66.5l-7 -33q32 -4 52.5 -23.5t20.5 -52.5q0 -46 -31.5 -67t-76.5 -21q-15 0 -30.5 2t-23.5 4l-8 1v70q22 -8 44 -8q44 0 44 28q0 27 -48 27l-21 -2
l20 77q-37 4 -71.5 16.5t-58 27.5t-41 29.5t-26.5 23.5z" />
    <glyph glyph-name="scedilla" unicode="&#x15f;" horiz-adv-x="468" 
d="M25 79l60 83q7 -8 20.5 -20.5t53 -33.5t78.5 -21q31 0 50 12.5t19 37.5q0 19 -27.5 35.5t-67 31.5t-79.5 34.5t-67.5 54t-27.5 80.5q0 73 56.5 111t141.5 38q29 0 57.5 -5t57 -16.5t46.5 -33.5t18 -51v-53h-112v25q0 17 -20 26.5t-44 9.5q-35 0 -55.5 -12t-20.5 -34
t28 -38.5t68 -30.5t79.5 -32t67.5 -52t28 -81q0 -68 -51 -109.5t-131 -45.5l-7 -33q33 -4 53 -23t20 -53q0 -46 -31 -67t-77 -21q-15 0 -30.5 2t-22.5 4l-8 1v70q21 -8 44 -8q43 0 43 28q0 27 -48 27l-21 -2l21 78q-48 8 -88.5 29.5t-56.5 39.5z" />
    <glyph glyph-name="Scaron" unicode="&#x160;" horiz-adv-x="549" 
d="M32 98l74 92q3 -3 8.5 -9t23.5 -20.5t37 -25.5t47 -20t56 -9q43 0 72.5 22.5t29.5 61.5q0 24 -18.5 44.5t-48 36t-65 31t-71 35.5t-65 43.5t-48 60t-18.5 81.5q0 86 67 143t170 57q46 0 92 -13t82.5 -46.5t36.5 -80.5v-66h-118v32q0 24 -28.5 39.5t-65.5 15.5
q-45 0 -74.5 -21t-29.5 -55q0 -24 18.5 -43.5t48 -34t65 -29.5t71 -34t65 -42.5t48 -61.5t18.5 -85q0 -88 -64 -148.5t-172 -60.5q-44 0 -85.5 11.5t-69 27.5t-48.5 32t-31 27zM228 757l-92 136h95l50 -81h2l50 81h96l-93 -136h-108z" />
    <glyph glyph-name="scaron" unicode="&#x161;" horiz-adv-x="468" 
d="M25 79l60 83q7 -8 20.5 -20.5t53 -33.5t78.5 -21q31 0 50 12.5t19 37.5q0 19 -27.5 35.5t-67 31.5t-79.5 34.5t-67.5 54t-27.5 80.5q0 73 56.5 111t141.5 38q29 0 57.5 -5t57 -16.5t46.5 -33.5t18 -51v-53h-112v25q0 17 -20 26.5t-44 9.5q-35 0 -55.5 -12t-20.5 -34
t28 -38.5t68 -30.5t79.5 -32t67.5 -52t28 -81q0 -71 -55.5 -113.5t-140.5 -42.5q-39 0 -75.5 9.5t-60 22.5t-41.5 26.5t-26 23.5zM177 573l-92 136h95l50 -81h2l50 81h96l-93 -136h-108z" />
    <glyph glyph-name="Tcommaaccent" unicode="&#x162;" horiz-adv-x="653" 
d="M501 599h-109v-599h-35l-10 -44q33 -4 53 -23t20 -53q0 -45 -31 -66.5t-77 -21.5q-15 0 -30.5 2t-23.5 4l-7 1v70q21 -8 43 -8q44 0 44 28q0 27 -48 27l-21 -2l24 86h-32v599h-109q-22 0 -22 -22v-43h-115v112q0 35 14 49.5t50 14.5h495q36 0 50 -14.5t14 -49.5v-112
h-115v43q0 22 -22 22z" />
    <glyph glyph-name="tcommaaccent" unicode="&#x163;" horiz-adv-x="370" 
d="M85 187v222h-66v101h69v139h124v-139h116v-101h-116v-206q0 -55 31.5 -75.5t69.5 -20.5l23 2v-111q-16 -3 -39 -3q-31 0 -57 5l-9 -44q33 -4 53 -23t20 -53q0 -46 -31 -67t-77 -21q-15 0 -30.5 2t-23.5 4l-7 1v70q21 -8 44 -8q43 0 43 28q0 27 -48 27l-21 -2l29 104
q-97 43 -97 169z" />
    <glyph glyph-name="Tcaron" unicode="&#x164;" horiz-adv-x="653" 
d="M261 0v599h-109q-22 0 -22 -22v-43h-115v112q0 35 14 49.5t50 14.5h495q36 0 50 -14.5t14 -49.5v-112h-115v43q0 22 -22 22h-109v-599h-131zM273 757l-92 136h95l50 -81h2l50 81h96l-93 -136h-108z" />
    <glyph glyph-name="tcaron" unicode="&#x165;" horiz-adv-x="413" 
d="M88 187v222h-66v101h69v139h124v-139h116v-101h-116v-206q0 -55 31.5 -75.5t69.5 -20.5l23 2v-111q-16 -3 -39 -3q-26 0 -50 3.5t-55 15.5t-53.5 31.5t-38 56t-15.5 85.5zM272 710h95q7 -25 7 -51q0 -40 -26 -94h-84q19 51 19 84q0 29 -11 61z" />
    <glyph glyph-name="Tbar" unicode="&#x166;" horiz-adv-x="653" 
d="M261 0v295h-148v96h148v208h-109q-22 0 -22 -22v-43h-115v112q0 35 14 49.5t50 14.5h495q36 0 50 -14.5t14 -49.5v-112h-115v43q0 22 -22 22h-109v-208h156v-96h-156v-295h-131z" />
    <glyph glyph-name="tbar" unicode="&#x167;" horiz-adv-x="370" 
d="M85 187v52h-66v84h66v86h-66v101h69v139h124v-139h116v-101h-116v-86h116v-84h-116v-41q0 -51 31.5 -71t69.5 -20l23 2v-111q-16 -3 -39 -3q-26 0 -50 3.5t-55 15.5t-53.5 31.5t-38 56t-15.5 85.5z" />
    <glyph glyph-name="Utilde" unicode="&#x168;" horiz-adv-x="740" 
d="M91 253v324q0 22 -22 22h-43v111h128q36 0 52 -16.5t16 -51.5v-385q0 -69 40 -108t108 -39t108 39t40 109v384q0 35 16 51.5t52 16.5h128v-111h-43q-22 0 -22 -22v-324q0 -118 -76.5 -191.5t-201.5 -73.5q-126 0 -203 73.5t-77 191.5zM189 758q0 137 114 137
q30 0 53 -16.5t40.5 -32.5t34.5 -16q20 0 30.5 18t10.5 44h79q0 -137 -114 -137q-30 0 -53 16.5t-40.5 32.5t-34.5 16q-20 0 -30.5 -17.5t-10.5 -44.5h-79z" />
    <glyph glyph-name="utilde" unicode="&#x169;" horiz-adv-x="638" 
d="M81 182v198q0 22 -22 22h-40v108h121q35 0 51 -16t16 -51v-235q0 -51 17.5 -77.5t61.5 -26.5q66 0 104.5 50t38.5 122v234h127v-381q0 -22 22 -22h40v-107h-117q-67 0 -67 57v14l1 23h-2q-20 -44 -67 -75t-109 -31q-176 0 -176 194zM131 574q0 137 114 137
q29 0 52.5 -16.5t41 -32.5t34.5 -16q20 0 30.5 18t10.5 44h79q0 -137 -114 -137q-29 0 -52.5 16.5t-41 32.5t-34.5 16q-20 0 -30.5 -17.5t-10.5 -44.5h-79z" />
    <glyph glyph-name="Umacron" unicode="&#x16a;" horiz-adv-x="740" 
d="M91 253v324q0 22 -22 22h-43v111h128q36 0 52 -16.5t16 -51.5v-385q0 -69 40 -108t108 -39t108 39t40 109v384q0 35 16 51.5t52 16.5h128v-111h-43q-22 0 -22 -22v-324q0 -118 -76.5 -191.5t-201.5 -73.5q-126 0 -203 73.5t-77 191.5zM240 783v84h262v-84h-262z" />
    <glyph glyph-name="umacron" unicode="&#x16b;" horiz-adv-x="638" 
d="M81 182v198q0 22 -22 22h-40v108h121q35 0 51 -16t16 -51v-235q0 -51 17.5 -77.5t61.5 -26.5q66 0 104.5 50t38.5 122v234h127v-381q0 -22 22 -22h40v-107h-117q-67 0 -67 57v14l1 23h-2q-20 -44 -67 -75t-109 -31q-176 0 -176 194zM183 599v84h262v-84h-262z" />
    <glyph glyph-name="Ubreve" unicode="&#x16c;" horiz-adv-x="740" 
d="M91 253v324q0 22 -22 22h-43v111h128q36 0 52 -16.5t16 -51.5v-385q0 -69 40 -108t108 -39t108 39t40 109v384q0 35 16 51.5t52 16.5h128v-111h-43q-22 0 -22 -22v-324q0 -118 -76.5 -191.5t-201.5 -73.5q-126 0 -203 73.5t-77 191.5zM370 753q-57 0 -100 34.5t-43 93.5
v12h81v-12q0 -29 18.5 -44t43.5 -15t43.5 15.5t18.5 44.5v11h81v-12q0 -59 -43 -93.5t-100 -34.5z" />
    <glyph glyph-name="ubreve" unicode="&#x16d;" horiz-adv-x="638" 
d="M81 182v198q0 22 -22 22h-40v108h121q35 0 51 -16t16 -51v-235q0 -51 17.5 -77.5t61.5 -26.5q66 0 104.5 50t38.5 122v234h127v-381q0 -22 22 -22h40v-107h-117q-67 0 -67 57v14l1 23h-2q-20 -44 -67 -75t-109 -31q-176 0 -176 194zM313 569q-57 0 -100 34.5t-43 93.5v12
h81v-12q0 -29 18.5 -44t43.5 -15t43.5 15.5t18.5 44.5v11h81v-12q0 -59 -43 -93.5t-100 -34.5z" />
    <glyph glyph-name="Uring" unicode="&#x16e;" horiz-adv-x="740" 
d="M91 253v324q0 22 -22 22h-43v111h128q36 0 52 -16.5t16 -51.5v-385q0 -69 40 -108t108 -39t108 39t40 109v384q0 35 16 51.5t52 16.5h128v-111h-43q-22 0 -22 -22v-324q0 -118 -76.5 -191.5t-201.5 -73.5q-126 0 -203 73.5t-77 191.5zM371 745q-36 0 -62.5 21t-26.5 57
q0 37 26.5 58t62.5 21t62.5 -21t26.5 -58q0 -36 -26.5 -57t-62.5 -21zM371 789q15 0 25 9.5t10 24.5q0 16 -10 25.5t-25 9.5t-25 -9.5t-10 -25.5q0 -15 10 -24.5t25 -9.5z" />
    <glyph glyph-name="uring" unicode="&#x16f;" horiz-adv-x="638" 
d="M81 182v198q0 22 -22 22h-40v108h121q35 0 51 -16t16 -51v-235q0 -51 17.5 -77.5t61.5 -26.5q66 0 104.5 50t38.5 122v234h127v-381q0 -22 22 -22h40v-107h-117q-67 0 -67 57v14l1 23h-2q-20 -44 -67 -75t-109 -31q-176 0 -176 194zM313 561q-36 0 -62.5 21t-26.5 57
q0 37 26.5 58t62.5 21t62.5 -21t26.5 -58q0 -36 -26.5 -57t-62.5 -21zM313 605q15 0 25 9.5t10 24.5q0 16 -10 25.5t-25 9.5t-25 -9.5t-10 -25.5q0 -15 10 -24.5t25 -9.5z" />
    <glyph glyph-name="Uhungarumlaut" unicode="&#x170;" horiz-adv-x="740" 
d="M91 253v324q0 22 -22 22h-43v111h128q36 0 52 -16.5t16 -51.5v-385q0 -69 40 -108t108 -39t108 39t40 109v384q0 35 16 51.5t52 16.5h128v-111h-43q-22 0 -22 -22v-324q0 -118 -76.5 -191.5t-201.5 -73.5q-126 0 -203 73.5t-77 191.5zM403 757l77 136h121l-104 -136h-94z
M231 757l72 136h104l-74 -136h-102z" />
    <glyph glyph-name="uhungarumlaut" unicode="&#x171;" horiz-adv-x="638" 
d="M81 182v198q0 22 -22 22h-40v108h121q35 0 51 -16t16 -51v-235q0 -51 17.5 -77.5t61.5 -26.5q66 0 104.5 50t38.5 122v234h127v-381q0 -22 22 -22h40v-107h-117q-67 0 -67 57v14l1 23h-2q-20 -44 -67 -75t-109 -31q-176 0 -176 194zM346 573l77 136h121l-104 -136h-94z
M174 573l72 136h104l-74 -136h-102z" />
    <glyph glyph-name="Uogonek" unicode="&#x172;" horiz-adv-x="740" 
d="M91 253v324q0 22 -22 22h-43v111h128q36 0 52 -16.5t16 -51.5v-385q0 -69 40 -108t108 -39t108 39t40 109v384q0 35 16 51.5t52 16.5h128v-111h-43q-22 0 -22 -22v-326q0 -153 -144 -237q-29 -17 -52.5 -43t-23.5 -49q0 -14 12 -23t24 -11l12 -2l-30 -94q-5 0 -13.5 1.5
t-29.5 8t-37 16t-29.5 28t-13.5 42.5q0 57 54 101v2q-12 -1 -21 -1q-118 0 -192 74.5t-74 188.5z" />
    <glyph glyph-name="uogonek" unicode="&#x173;" horiz-adv-x="638" 
d="M257 -12q-176 0 -176 194v198q0 22 -22 22h-40v108h121q39 0 53 -18t14 -61v-223q0 -51 17.5 -77.5t61.5 -26.5q66 0 104.5 50t38.5 122v234h127v-381q0 -22 22 -22h40v-107q-56 -47 -56 -78q0 -14 12 -23t24 -11l13 -2l-30 -94q-5 0 -13.5 1.5t-29.5 8t-37 16t-29.5 28
t-13.5 42.5q0 62 66 110v2h-27q-63 0 -63 57v14l1 22h-3l-5.5 -11t-18.5 -25.5t-33 -32t-49.5 -25t-68.5 -11.5z" />
    <glyph glyph-name="Wcircumflex" unicode="&#x174;" horiz-adv-x="992" 
d="M214 0l-147 577q-5 22 -32 22h-19v111h85q39 0 59.5 -12.5t28.5 -45.5l97 -423l12 -75h2q4 34 15 75l129 479h111l122 -479l14 -75h2q3 35 12 75l98 423q7 33 27.5 45.5t59.5 12.5h86v-111h-19q-27 0 -32 -22l-148 -577h-151l-108 402l-18 88h-2q-6 -42 -19 -88
l-113 -402h-152zM354 757l91 136h109l92 -136h-95l-50 81h-2l-51 -81h-94z" />
    <glyph glyph-name="wcircumflex" unicode="&#x175;" horiz-adv-x="835" 
d="M174 0l-122 384q-6 18 -28 18h-14v108h87q32 0 48.5 -11.5t23.5 -40.5l75 -283l10 -54h2q4 27 12 54l94 333h112l95 -333l11 -54h2q3 27 10 54l74 283q7 29 23.5 40.5t48.5 11.5h87v-108h-14q-21 0 -28 -18l-122 -384h-143l-87 291l-12 55h-2q-5 -28 -13 -55l-86 -291
h-144zM272 573l91 136h109l92 -136h-95l-50 81h-2l-51 -81h-94z" />
    <glyph glyph-name="Ycircumflex" unicode="&#x176;" horiz-adv-x="615" 
d="M242 0v310l-168 265q-10 15 -17.5 19.5t-23.5 4.5h-23v111h67q36 0 55 -10t38 -42l94 -156l43 -80h2q18 38 43 80l93 156q19 32 38 42t55 10h67v-111h-23q-16 0 -23.5 -4.5t-17.5 -19.5l-168 -265v-310h-131zM163 757l91 136h109l92 -136h-95l-50 81h-2l-51 -81h-94z" />
    <glyph glyph-name="ycircumflex" unicode="&#x177;" horiz-adv-x="553" 
d="M50 -68q31 -35 73 -35q57 0 84 65l17 39l-170 383q-7 18 -27 18h-15v108h84q27 0 42 -11t25 -37l100 -255l18 -68h2q8 42 17 68l87 255q16 48 68 48h86v-108h-15q-22 0 -29 -18l-183 -461q-26 -66 -75 -99.5t-109 -33.5q-36 0 -68 13t-46 26l-15 13zM133 573l91 136h109
l92 -136h-95l-50 81h-2l-51 -81h-94z" />
    <glyph glyph-name="Ydieresis" unicode="&#x178;" horiz-adv-x="615" 
d="M242 0v310l-168 265q-10 15 -17.5 19.5t-23.5 4.5h-23v111h67q36 0 55 -10t38 -42l94 -156l43 -80h2q18 38 43 80l93 156q19 32 38 42t55 10h67v-111h-23q-16 0 -23.5 -4.5t-17.5 -19.5l-168 -265v-310h-131zM354 777v116h89v-116h-89zM175 777v116h88v-116h-88z" />
    <glyph glyph-name="Zacute" unicode="&#x179;" horiz-adv-x="588" 
d="M17 0v83l319 452q13 18 26.5 34t20.5 23l7 7v2q-21 -2 -54 -2h-172q-22 0 -22 -22v-43h-119v108q0 35 16 51.5t52 16.5h461v-82l-319 -453q-13 -18 -26.5 -34t-20.5 -23l-7 -7v-2q21 2 54 2h194q22 0 22 22v43h118v-108q0 -36 -16 -52t-52 -16h-482zM251 757l76 136h122
l-105 -136h-93z" />
    <glyph glyph-name="zacute" unicode="&#x17a;" horiz-adv-x="511" 
d="M27 0v68l235 287q10 13 21 24.5t17 16.5l5 6v2q-15 -2 -47 -2h-92q-22 0 -22 -22v-29h-115v91q0 35 16 51.5t52 16.5h374v-69l-235 -287l-43 -47v-2q15 3 48 3h112q22 0 22 22v28h115v-90q0 -36 -16 -52t-51 -16h-396zM214 573l76 136h122l-105 -136h-93z" />
    <glyph glyph-name="Zdotaccent" unicode="&#x17b;" horiz-adv-x="588" 
d="M17 0v83l319 452q13 18 26.5 34t20.5 23l7 7v2q-21 -2 -54 -2h-172q-22 0 -22 -22v-43h-119v108q0 35 16 51.5t52 16.5h461v-82l-319 -453q-13 -18 -26.5 -34t-20.5 -23l-7 -7v-2q21 2 54 2h194q22 0 22 22v43h118v-108q0 -36 -16 -52t-52 -16h-482zM245 777v116h110
v-116h-110z" />
    <glyph glyph-name="zdotaccent" unicode="&#x17c;" horiz-adv-x="511" 
d="M27 0v68l235 287q10 13 21 24.5t17 16.5l5 6v2q-15 -2 -47 -2h-92q-22 0 -22 -22v-29h-115v91q0 35 16 51.5t52 16.5h374v-69l-235 -287l-43 -47v-2q15 3 48 3h112q22 0 22 22v28h115v-90q0 -36 -16 -52t-51 -16h-396zM208 593v116h110v-116h-110z" />
    <glyph glyph-name="Zcaron" unicode="&#x17d;" horiz-adv-x="588" 
d="M17 0v83l319 452q13 18 26.5 34t20.5 23l7 7v2q-21 -2 -54 -2h-172q-22 0 -22 -22v-43h-119v108q0 35 16 51.5t52 16.5h461v-82l-319 -453q-13 -18 -26.5 -34t-20.5 -23l-7 -7v-2q21 2 54 2h194q22 0 22 22v43h118v-108q0 -36 -16 -52t-52 -16h-482zM246 757l-92 136h95
l50 -81h2l50 81h96l-93 -136h-108z" />
    <glyph glyph-name="zcaron" unicode="&#x17e;" horiz-adv-x="511" 
d="M27 0v68l235 287q10 13 21 24.5t17 16.5l5 6v2q-15 -2 -47 -2h-92q-22 0 -22 -22v-29h-115v91q0 35 16 51.5t52 16.5h374v-69l-235 -287l-43 -47v-2q15 3 48 3h112q22 0 22 22v28h115v-90q0 -36 -16 -52t-51 -16h-396zM208 573l-92 136h95l50 -81h2l50 81h96l-93 -136
h-108z" />
    <glyph glyph-name="longs" unicode="&#x17f;" horiz-adv-x="345" 
d="M83 0v409h-63v101h63v15q0 48 15 83.5t37 55t52.5 31.5t54.5 15.5t49 3.5l43 -3v-108q-11 2 -26 2q-23 0 -42.5 -5t-37.5 -25.5t-18 -54.5v-520h-127z" />
    <glyph glyph-name="florin" unicode="&#x192;" horiz-adv-x="374" 
d="M-11 -56l-42 3l10 108q10 -2 25 -2q98 0 106 92l17 189h-71v101h80l8 90q4 48 22.5 83.5t41.5 55t54 31.5t55.5 15.5t50.5 3.5l43 -3l-10 -108q-10 2 -26 2q-98 0 -106 -92l-7 -78h101v-101h-110l-18 -200q-4 -48 -22.5 -84t-42 -55.5t-54.5 -31.5t-55 -15.5t-50 -3.5z
" />
    <glyph glyph-name="Scommaaccent" unicode="&#x218;" horiz-adv-x="549" 
d="M32 98l74 92q3 -3 8.5 -9t23.5 -20.5t37 -25.5t47 -20t56 -9q43 0 72.5 22.5t29.5 61.5q0 24 -18.5 44.5t-48 36t-65 31t-71 35.5t-65 43.5t-48 60t-18.5 81.5q0 86 67 143t170 57q46 0 92 -13t82.5 -46.5t36.5 -80.5v-66h-118v32q0 24 -28.5 39.5t-65.5 15.5
q-45 0 -74.5 -21t-29.5 -55q0 -24 18.5 -43.5t48 -34t65 -29.5t71 -34t65 -42.5t48 -61.5t18.5 -85q0 -88 -64 -148.5t-172 -60.5q-44 0 -85.5 11.5t-69 27.5t-48.5 32t-31 27zM227 -55h95q7 -25 7 -51q0 -40 -26 -94h-84q19 51 19 84q0 29 -11 61z" />
    <glyph glyph-name="scommaaccent" unicode="&#x219;" horiz-adv-x="468" 
d="M25 79l60 83q7 -8 20.5 -20.5t53 -33.5t78.5 -21q31 0 50 12.5t19 37.5q0 19 -27.5 35.5t-67 31.5t-79.5 34.5t-67.5 54t-27.5 80.5q0 73 56.5 111t141.5 38q29 0 57.5 -5t57 -16.5t46.5 -33.5t18 -51v-53h-112v25q0 17 -20 26.5t-44 9.5q-35 0 -55.5 -12t-20.5 -34
t28 -38.5t68 -30.5t79.5 -32t67.5 -52t28 -81q0 -71 -55.5 -113.5t-140.5 -42.5q-39 0 -75.5 9.5t-60 22.5t-41.5 26.5t-26 23.5zM182 -55h95q7 -25 7 -51q0 -40 -26 -94h-84q19 51 19 84q0 29 -11 61z" />
    <glyph glyph-name="uni021A" unicode="&#x21a;" horiz-adv-x="653" 
d="M261 0v599h-109q-22 0 -22 -22v-43h-115v112q0 35 14 49.5t50 14.5h495q36 0 50 -14.5t14 -49.5v-112h-115v43q0 22 -22 22h-109v-599h-131zM273 -55h95q7 -25 7 -51q0 -40 -26 -94h-84q19 51 19 84q0 29 -11 61z" />
    <glyph glyph-name="uni021B" unicode="&#x21b;" horiz-adv-x="370" 
d="M85 187v222h-66v101h69v139h124v-139h116v-101h-116v-206q0 -55 31.5 -75.5t69.5 -20.5l23 2v-111q-16 -3 -39 -3q-26 0 -50 3.5t-55 15.5t-53.5 31.5t-38 56t-15.5 85.5zM156 -55h95q7 -25 7 -51q0 -40 -26 -94h-84q19 51 19 84q0 29 -11 61z" />
    <glyph glyph-name="circumflex" unicode="&#x2c6;" horiz-adv-x="501" 
d="M105 757l91 136h109l92 -136h-95l-50 81h-2l-51 -81h-94z" />
    <glyph glyph-name="caron" unicode="&#x2c7;" horiz-adv-x="502" 
d="M196 757l-92 136h95l50 -81h2l50 81h96l-93 -136h-108z" />
    <glyph glyph-name="breve" unicode="&#x2d8;" horiz-adv-x="518" 
d="M254 753q-57 0 -100 34.5t-43 93.5v12h81v-12q0 -29 18.5 -44t43.5 -15t43.5 15.5t18.5 44.5v11h81v-12q0 -59 -43 -93.5t-100 -34.5z" />
    <glyph glyph-name="dotaccent" unicode="&#x2d9;" horiz-adv-x="290" 
d="M90 777v116h110v-116h-110z" />
    <glyph glyph-name="ring" unicode="&#x2da;" horiz-adv-x="384" 
d="M192 745q-36 0 -62.5 21t-26.5 57q0 37 26.5 58t62.5 21t62.5 -21t26.5 -58q0 -36 -26.5 -57t-62.5 -21zM192 789q15 0 25 9.5t10 24.5q0 16 -10 25.5t-25 9.5t-25 -9.5t-10 -25.5q0 -15 10 -24.5t25 -9.5z" />
    <glyph glyph-name="ogonek" unicode="&#x2db;" horiz-adv-x="379" 
d="M111 -112q0 33 22 65t44 47l22 16l85 -4q-8 -6 -19 -16t-30 -34t-19 -40q0 -14 12 -23t24 -11l12 -2l-30 -94q-5 0 -13.5 1.5t-29.5 8t-37 16t-29.5 28t-13.5 42.5z" />
    <glyph glyph-name="tilde" unicode="&#x2dc;" horiz-adv-x="548" 
d="M96 758q0 137 114 137q30 0 53 -16.5t40.5 -32.5t34.5 -16q20 0 30.5 18t10.5 44h79q0 -137 -114 -137q-30 0 -53 16.5t-40.5 32.5t-34.5 16q-20 0 -30.5 -17.5t-10.5 -44.5h-79z" />
    <glyph glyph-name="hungarumlaut" unicode="&#x2dd;" horiz-adv-x="556" 
d="M265 757l77 136h121l-104 -136h-94zM93 757l72 136h104l-74 -136h-102z" />
    <glyph glyph-name="germandbls.case" unicode="&#x1e9e;" horiz-adv-x="659" 
d="M26 0v111h43q22 0 22 22v363q0 94 61 154t157 60h282v-89l-121 -181l-22 -31v-2l18 -1q69 -9 111.5 -67t42.5 -129q0 -88 -63.5 -149t-153.5 -61h-94v111h85q43 0 68.5 29t25.5 70t-25.5 69t-68.5 28h-84v89l89 141q12 20 23.5 35.5t16.5 21.5l5 5v2q-8 -2 -44 -2h-89
q-39 0 -64 -29t-25 -72v-430q0 -36 -16 -52t-52 -16h-128z" />
    <glyph glyph-name="endash" unicode="&#x2013;" horiz-adv-x="663" 
d="M55 236v99h553v-99h-553z" />
    <glyph glyph-name="emdash" unicode="&#x2014;" horiz-adv-x="863" 
d="M55 236v99h753v-99h-753z" />
    <glyph glyph-name="quoteleft" unicode="&#x2018;" horiz-adv-x="245" 
d="M42 504l75 218h86l-47 -218h-114z" />
    <glyph glyph-name="quoteright" unicode="&#x2019;" horiz-adv-x="245" 
d="M42 504l47 219h114l-75 -219h-86z" />
    <glyph glyph-name="quotesinglbase" unicode="&#x201a;" horiz-adv-x="245" 
d="M89 129h114l-75 -218h-86z" />
    <glyph glyph-name="quotedblleft" unicode="&#x201c;" horiz-adv-x="404" 
d="M202 504l74 218h86l-47 -218h-113zM42 504l75 218h86l-47 -218h-114z" />
    <glyph glyph-name="quotedblright" unicode="&#x201d;" horiz-adv-x="404" 
d="M202 504l47 219h113l-74 -219h-86zM42 504l47 219h114l-75 -219h-86z" />
    <glyph glyph-name="quotedblbase" unicode="&#x201e;" horiz-adv-x="404" 
d="M202 -89l47 218h113l-74 -218h-86zM89 129h114l-75 -218h-86z" />
    <glyph glyph-name="dagger" unicode="&#x2020;" horiz-adv-x="426" 
d="M151 -50v461h-124v99h124v200h122v-200h126v-99h-126v-461h-122z" />
    <glyph glyph-name="daggerdbl" unicode="&#x2021;" horiz-adv-x="426" 
d="M151 -50v213h-124v98h124v150h-124v99h124v200h122v-200h126v-99h-126v-150h126v-98h-126v-213h-122z" />
    <glyph glyph-name="bullet" unicode="&#x2022;" horiz-adv-x="469" 
d="M234 124q-69 0 -118 49t-49 118t49 118t118 49q70 0 118.5 -49t48.5 -118t-48.5 -118t-118.5 -49z" />
    <glyph glyph-name="ellipsis" unicode="&#x2026;" horiz-adv-x="993" 
d="M720 0v127h123v-127h-123zM435 0v127h123v-127h-123zM151 0v127h122v-127h-122z" />
    <glyph glyph-name="perthousand" unicode="&#x2030;" horiz-adv-x="1171" 
d="M218 406q-68 0 -115.5 46t-47.5 112q0 65 48 111.5t115 46.5t115.5 -46.5t48.5 -111.5q0 -66 -48 -112t-116 -46zM80 0l545 710h117l-545 -710h-117zM218 498q28 0 47.5 19t19.5 47q0 27 -19.5 46.5t-47.5 19.5t-47 -19.5t-19 -46.5q0 -28 19 -47t47 -19zM816 145
q0 65 47.5 111.5t115.5 46.5q67 0 115.5 -46.5t48.5 -111.5t-48 -111t-116 -46t-115.5 46t-47.5 111zM443 145q0 65 47.5 111.5t115.5 46.5q67 0 115 -46.5t48 -111.5t-47.5 -111t-115.5 -46t-115.5 46t-47.5 111zM913 146q0 -28 19 -47t47 -19t47.5 19t19.5 47
q0 27 -19.5 46.5t-47.5 19.5t-47 -19.5t-19 -46.5zM540 146q0 -28 19 -47t47 -19t47.5 19t19.5 47q0 27 -19.5 46.5t-47.5 19.5t-47 -19.5t-19 -46.5z" />
    <glyph glyph-name="guilsinglleft" unicode="&#x2039;" horiz-adv-x="392" 
d="M210 77l-164 205l164 206h121l-164 -206l164 -205h-121z" />
    <glyph glyph-name="guilsinglright" unicode="&#x203a;" horiz-adv-x="392" 
d="M58 77l164 205l-164 206h121l164 -206l-164 -205h-121z" />
    <glyph glyph-name="fraction" unicode="&#x2044;" horiz-adv-x="420" 
d="M23 0l276 710h99l-277 -710h-98z" />
    <glyph glyph-name="Euro" unicode="&#x20ac;" horiz-adv-x="612" 
d="M38 250v76h62q-2 17 -2 30l2 32h-62v77h75q33 114 126.5 185.5t215.5 71.5q24 0 48.5 -3t37.5 -7l13 -3l-31 -117q-34 10 -71 10q-71 0 -124 -36.5t-77 -100.5h249l-16 -77h-251q-2 -15 -2 -30l3 -32h238l-15 -76h-200q23 -64 77 -102t123 -38q23 0 47 4t36 8l13 3
l23 -118q-52 -19 -121 -19q-127 0 -219 72t-123 190h-75z" />
    <glyph glyph-name="trademark" unicode="&#x2122;" horiz-adv-x="991" 
d="M427 267v83h22q9 0 10 9l28 351h89l91 -209l14 -42h2q6 25 13 42l92 209h88l28 -351q2 -9 10 -9h23v-83h-75q-28 0 -38.5 8.5t-12.5 36.5l-13 183l1 31h-2l-78 -178h-75l-78 178h-2l1 -31l-13 -183q-2 -28 -12 -36.5t-38 -8.5h-75zM182 267v359h-58q-8 0 -8 -8v-29h-82
v76q0 26 10 35.5t38 9.5h296q27 0 37 -9.5t10 -35.5v-76h-80v29q0 8 -7 8h-60v-359h-96z" />
    <glyph glyph-name="minus" unicode="&#x2212;" 
d="M46 236v99h528v-99h-528z" />
    <glyph glyph-name="infinity" unicode="&#x221e;" horiz-adv-x="517" 
d="M259 157q-79 0 -135.5 56.5t-56.5 135.5t56.5 135t135.5 56t134.5 -55.5t55.5 -135.5q0 -79 -55.5 -135.5t-134.5 -56.5z" />
    <glyph glyph-name="approxequal" unicode="&#x2248;" 
d="M104 322l-49 74q74 76 156 76q50 0 107.5 -35t90.5 -35q58 0 107 55l50 -75q-76 -76 -157 -76q-50 0 -107.5 35t-90.5 35q-55 0 -107 -54zM104 117l-49 75q75 75 156 75q50 0 107.5 -35t90.5 -35q58 0 107 55l50 -75q-77 -75 -157 -75q-50 0 -107.5 35t-90.5 35
q-54 0 -107 -55z" />
    <glyph glyph-name="notequal" unicode="&#x2260;" 
d="M118 63l49 71h-101v98h165l74 107h-239v98h304l76 112l61 -40l-50 -72h97v-98h-161l-74 -107h235v-98h-299l-75 -110z" />
    <glyph glyph-name="lessequal" unicode="&#x2264;" 
d="M64 245v82l481 214v-111l-347 -143v-2l347 -143v-111zM66 -85h479v-98h-479v98z" />
    <glyph glyph-name="greaterequal" unicode="&#x2265;" 
d="M75 31v111l347 143v2l-347 143v111l481 -214v-82zM75 -85h480v-98h-480v98z" />
    <glyph glyph-name="T.R" horiz-adv-x="634" 
d="M268 0v599h-113q-22 0 -22 -22v-42h-118v113q0 34 13 48t47 14h530v-111h-206v-599h-131z" />
    <glyph glyph-name="T.L" horiz-adv-x="634" 
d="M234 0v599h-206v111h530q35 0 48 -14t13 -48v-113h-119v42q0 22 -22 22h-113v-599h-131z" />
    <glyph glyph-name="T.cut_mid" horiz-adv-x="634" 
d="M251 0v599h-221v111h574v-111h-222v-599h-131z" />
    <glyph glyph-name="commaaccent" horiz-adv-x="335" 
d="M125 -55h95q7 -25 7 -51q0 -40 -26 -94h-84q19 51 19 84q0 29 -11 61z" />
    <glyph glyph-name="apple" horiz-adv-x="1130" 
d="M42 128v278l126 71v151l265 142l134 -71l132 71l265 -142v-151l124 -71v-278l-124 -72v-152l-265 -141l-132 71l-134 -71l-265 141v152zM94 142l114 -64v-139l238 -126l121 66l118 -66l238 126v139l114 64v249l-114 66v136l-238 126l-118 -64l-121 64l-238 -126v-136
l-114 -66v-249zM143 154v225l99 58v123l215 114l110 -59l107 59l214 -114v-123l100 -58v-225l-100 -60v-121l-214 -114l-107 58l-110 -58l-215 114v121zM433 0h99v191h194v84h-194v151h125q13 0 17 -5.5t4 -18.5v-29h89v86q0 27 -11.5 39t-39.5 12h-337v-84h54v-426z" />
    <glyph glyph-name="zero.tnum" horiz-adv-x="586" 
d="M293 -12q-70 0 -121.5 28t-80 80t-42 116t-13.5 144q0 366 257 366t257 -366q0 -80 -13.5 -144t-42 -116t-80 -80t-121.5 -28zM293 106q125 0 125 250q0 247 -125 247t-125 -247q0 -250 125 -250z" />
    <glyph glyph-name="one.tnum" horiz-adv-x="582" 
d="M89 0v111h153v394l1 48h-2q-8 -17 -31 -40l-57 -54l-76 80l178 171h118v-599h153v-111h-437z" />
    <glyph glyph-name="two.tnum" horiz-adv-x="582" 
d="M37 94q0 52 19 94.5t49.5 70.5t68 51.5t74.5 44t67.5 42t49.5 50t19 63.5q0 42 -28.5 67t-74.5 25q-40 0 -66.5 -17.5t-26.5 -38.5v-31h-118v70q0 44 35.5 76.5t83.5 46.5t97 14q97 0 163.5 -57t66.5 -153q0 -67 -35.5 -119t-86 -83.5t-100.5 -58t-85.5 -57t-35.5 -65.5
q0 -18 27 -18h208q22 0 22 22v43h118v-108q0 -36 -16 -52t-52 -16h-370q-45 0 -59 20.5t-14 73.5z" />
    <glyph glyph-name="three.tnum" horiz-adv-x="582" 
d="M38 88l66 98l8 -8t23 -18.5t36.5 -23.5t48 -18t58.5 -8q53 0 87 30t34 76q0 47 -38 75.5t-96 28.5h-50l-26 65l120 161q11 16 22.5 29.5t18.5 18.5l6 6v2q-22 -3 -63 -3h-89q-22 0 -22 -22v-43h-118v108q0 36 13.5 52t48.5 16h386v-81l-163 -204q77 -12 130 -66.5
t53 -140.5q0 -94 -68.5 -162t-184.5 -68q-43 0 -83.5 10.5t-68 25t-48.5 29t-31 25.5z" />
    <glyph glyph-name="four.tnum" horiz-adv-x="582" 
d="M13 179v83l294 448h154v-420h109v-111h-109v-179h-131v179h-317zM332 290v197l5 77h-2q-20 -38 -38 -64l-111 -164l-36 -47v-2q29 3 62 3h120z" />
    <glyph glyph-name="five.tnum" horiz-adv-x="582" 
d="M39 86l66 99q2 -3 7 -8t21 -18t34 -23t46 -18t57 -8q58 0 94 34t36 84q0 57 -44.5 89t-108.5 32q-35 0 -68.5 -8t-49.5 -16l-16 -8l-46 23l26 302q3 36 18 52t49 16h262q68 0 68 -68v-108h-119v43q0 22 -22 22h-117q-20 0 -22 -22l-9 -98l-5 -33h2q33 13 75 13
q119 0 189.5 -66.5t70.5 -166.5q0 -98 -71.5 -168.5t-191.5 -70.5q-42 0 -81 10t-65 24.5t-46.5 29.5t-29.5 25z" />
    <glyph glyph-name="six.tnum" horiz-adv-x="582" 
d="M312 -12q-116 0 -195.5 89t-79.5 241q0 58 12.5 114.5t39.5 109t64.5 92.5t92 64t118.5 24q40 0 76.5 -7.5t53.5 -14.5l16 -8l-38 -111q-46 22 -100 22q-78 0 -126 -55.5t-62 -137.5h2q18 23 55.5 37.5t76.5 14.5q102 0 164.5 -68.5t62.5 -167.5q0 -101 -65 -169.5
t-168 -68.5zM172 279q0 -67 42 -120t97 -53q49 0 78 34t29 86q0 56 -34.5 93t-95.5 37q-48 0 -82 -22.5t-34 -54.5z" />
    <glyph glyph-name="seven.tnum" horiz-adv-x="582" 
d="M67 0l293 534q11 20 21.5 36t16.5 22l5 7v2q-13 -2 -49 -2h-171q-22 0 -22 -22v-43h-119v108q0 36 14 52t48 16h444v-90l-338 -620h-143z" />
    <glyph glyph-name="eight.tnum" horiz-adv-x="582" 
d="M36 205q0 31 11 60.5t27.5 50t32.5 36t27 22.5l11 8v2q-3 2 -8.5 5.5t-19 16.5t-24 28.5t-19 40t-8.5 51.5q0 80 61.5 138t166.5 58q102 0 165 -56t63 -141q0 -28 -8 -55t-19 -45t-22.5 -32.5t-19.5 -21.5l-8 -7v-2q98 -62 98 -163q0 -85 -70.5 -148t-182.5 -63
q-108 0 -181 61t-73 156zM289 430q36 -15 47 -15q18 0 39 32t21 69q0 40 -28 63.5t-74 23.5q-47 0 -74 -23t-27 -57t24.5 -54.5t71.5 -38.5zM168 213q0 -48 35 -77.5t87 -29.5q50 0 85.5 28t35.5 71q0 34 -25.5 55.5t-76.5 42.5q-54 24 -64 24q-21 0 -49 -35.5t-28 -78.5z
" />
    <glyph glyph-name="nine.tnum" horiz-adv-x="582" 
d="M72 18l38 111q46 -23 100 -23q78 0 126 55.5t62 138.5h-2q-17 -23 -55 -37.5t-77 -14.5q-102 0 -164.5 68.5t-62.5 167.5q0 100 65 169t169 69q115 0 194.5 -89t79.5 -241q0 -58 -12.5 -114.5t-39.5 -109t-64.5 -92.5t-92 -64t-118.5 -24q-40 0 -76.5 7.5t-53.5 14.5z
M295 354q47 0 81 22t34 55q0 67 -42 119.5t-97 52.5q-49 0 -78 -33.5t-29 -85.5q0 -56 34.5 -93t96.5 -37z" />
    <glyph glyph-name="T_h" horiz-adv-x="1177" 
d="M274 0v599h-122q-22 0 -22 -22v-43h-115v112q0 35 14 49.5t50 14.5h596q36 0 52 -16t16 -51v-179l-2 -43h2q3 9 14 23t31 33t55 32t76 13q178 0 178 -194v-199q0 -22 22 -22h39v-107h-120q-36 0 -52 16t-16 52v234q0 51 -17.5 77.5t-62.5 26.5q-68 0 -107.5 -49
t-39.5 -123v-234h-127v577q0 22 -22 22h-189v-599h-131z" />
    <glyph glyph-name="T.alt" horiz-adv-x="641" 
d="M270 0v599h-118q-22 0 -22 -22v-43h-115v112q0 35 14 49.5t50 14.5h547v-111h-225v-599h-131z" />
    <glyph glyph-name="Tcommaaccent.alt" horiz-adv-x="641" 
d="M15 534v112q0 35 14 49.5t50 14.5h547v-111h-225v-599h-35l-10 -44q33 -4 53 -23t20 -53q0 -46 -31 -67t-77 -21q-15 0 -30.5 2t-22.5 4l-8 1v70q21 -8 43 -8q44 0 44 28q0 27 -48 27l-21 -2l24 86h-32v599h-118q-22 0 -22 -22v-43h-115z" />
    <glyph glyph-name="Tcaron.alt" horiz-adv-x="641" 
d="M283 757l-92 136h95l50 -81h2l50 81h96l-93 -136h-108zM270 0v599h-118q-22 0 -22 -22v-43h-115v112q0 35 14 49.5t50 14.5h547v-111h-225v-599h-131z" />
    <glyph glyph-name="Tbar.alt" horiz-adv-x="641" 
d="M270 0v295h-141v96h141v208h-118q-22 0 -22 -22v-43h-115v112q0 35 14 49.5t50 14.5h547v-111h-225v-208h149v-96h-149v-295h-131z" />
    <glyph glyph-name="uni021A.alt" horiz-adv-x="641" 
d="M270 0v599h-118q-22 0 -22 -22v-43h-115v112q0 35 14 49.5t50 14.5h547v-111h-225v-599h-131zM282 -55h95q7 -25 7 -51q0 -40 -26 -94h-84q19 51 19 84q0 29 -11 61z" />
    <glyph glyph-name="hyphen.case" horiz-adv-x="431" 
d="M65 292v111h301v-111h-301z" />
    <glyph glyph-name="parenleft.case" horiz-adv-x="351" 
d="M81 356q0 240 117 415h108q-112 -187 -112 -406q0 -229 115 -430h-108q-120 176 -120 421z" />
    <glyph glyph-name="parenright.case" horiz-adv-x="351" 
d="M42 -65q115 201 115 430q0 219 -112 406h108q118 -176 118 -415q0 -245 -120 -421h-109z" />
    <glyph glyph-name="bracketleft.case" horiz-adv-x="352" 
d="M92 3v700q0 36 16 52t52 16h129v-92h-67q-22 0 -22 -22v-608q0 -22 22 -22h67v-92h-129q-36 0 -52 16t-16 52z" />
    <glyph glyph-name="bracketright.case" horiz-adv-x="352" 
d="M63 27h66q22 0 22 22v608q0 22 -22 22h-66v92h129q36 0 52 -16t16 -52v-700q0 -36 -16 -52t-52 -16h-129v92z" />
    <glyph glyph-name="braceleft.case" horiz-adv-x="352" 
d="M109 101v97q0 44 -21.5 70t-42.5 30l-21 4v111q3 0 9 1t20.5 7t26 16.5t20.5 31.5t9 50v86q0 43 13.5 75.5t32 50t45 27.5t46 13t40.5 3l31 -1v-94q-8 1 -18 1q-18 0 -34 -4.5t-32 -25t-16 -55.5v-109q0 -28 -8.5 -51.5t-20.5 -37t-24 -22.5t-20 -13l-9 -3v-2
q3 -1 8.5 -3t20 -11.5t25 -22.5t19.5 -36.5t9 -52.5v-120q0 -27 8.5 -45.5t23 -26t26 -10.5t24.5 -3l18 1v-94q-13 -2 -31 -2q-21 0 -40.5 3t-46 13t-45 27.5t-32 50t-13.5 76.5z" />
    <glyph glyph-name="braceright.case" horiz-adv-x="352" 
d="M35 27q8 -1 18 -1q81 0 81 85v120q0 29 8.5 52.5t21 36.5t24.5 22t20 12l9 3v2q-3 1 -9 3.5t-20 12.5t-25 23t-20 36.5t-9 51.5v109q0 27 -8.5 45t-22.5 26t-25.5 11t-24.5 3l-18 -1v94q13 1 31 1q21 0 40.5 -3t46 -13t45 -27.5t32 -50t13.5 -75.5v-86q0 -45 21.5 -71.5
t42.5 -30.5l21 -4v-111q-3 0 -9 -1t-20.5 -7t-26 -16t-20.5 -31t-9 -49v-97q0 -44 -13.5 -76.5t-32 -50t-45 -27.5t-46 -13t-40.5 -3l-31 2v94z" />
    <glyph glyph-name="at.case" horiz-adv-x="805" 
d="M38 353q0 156 108.5 264t267.5 108q143 0 209 -61t66 -156v-250h73v-91h-277q-97 0 -156 55t-59 131q0 75 58.5 129t156.5 54h85q-1 39 -44 63.5t-108 24.5q-107 0 -181 -81t-74 -190q0 -113 74.5 -190.5t196.5 -77.5v-99q-176 0 -286 105t-110 262zM396 356
q0 -41 27 -69.5t70 -28.5h77v196h-75q-44 0 -71.5 -28.5t-27.5 -69.5z" />
    <glyph glyph-name="guillemotleft.case" horiz-adv-x="614" 
d="M270 342l164 206h121l-164 -206l164 -205h-121zM210 137l-164 205l164 206h121l-164 -206l164 -205h-121z" />
    <glyph glyph-name="guillemotright.case" horiz-adv-x="614" 
d="M283 137l164 205l-164 206h121l164 -206l-164 -205h-121zM58 137l164 205l-164 206h121l164 -206l-164 -205h-121z" />
    <glyph glyph-name="guilsinglleft.case" horiz-adv-x="392" 
d="M210 137l-164 205l164 206h121l-164 -206l164 -205h-121z" />
    <glyph glyph-name="guilsinglright.case" horiz-adv-x="392" 
d="M58 137l164 205l-164 206h121l164 -206l-164 -205h-121z" />
    <glyph glyph-name="endash.case" horiz-adv-x="663" 
d="M55 296v99h553v-99h-553z" />
    <glyph glyph-name="emdash.case" horiz-adv-x="863" 
d="M55 296v99h753v-99h-753z" />
    <glyph glyph-name="periodcentered.case" horiz-adv-x="265" 
d="M71 282v127h123v-127h-123z" />
    <glyph glyph-name="questiondown.case" horiz-adv-x="476" 
d="M208 592v118h122v-118h-122zM33 176q0 45 18 82t43.5 61t51.5 46t44 48t18 55v37h122v-46q0 -40 -17 -73.5t-41 -56t-48 -43t-41 -45.5t-17 -53q0 -35 28 -59.5t69 -24.5q25 0 51.5 11t40.5 21l14 11l71 -88q-8 -8 -23 -20t-64 -31.5t-101 -19.5q-89 0 -154 51t-65 137z
" />
    <glyph glyph-name="exclamdown.case" horiz-adv-x="332" 
d="M105 592v118h122v-118h-122zM100 0l11 505h111l10 -505h-132z" />
    <glyph glyph-name="bullet.case" horiz-adv-x="469" 
d="M234 187q-69 0 -118 49t-49 118q0 70 49 118.5t118 48.5q70 0 118.5 -48.5t48.5 -118.5q0 -69 -48.5 -118t-118.5 -49z" />
    </font>
</defs>
</svg>
