<?xml version="1.0" standalone="no"?>
<!DOCTYPE svg PUBLIC "-//W3C//DTD SVG 1.1//EN" "http://www.w3.org/Graphics/SVG/1.1/DTD/svg11.dtd" >
<svg xmlns="http://www.w3.org/2000/svg" xmlns:xlink="http://www.w3.org/1999/xlink" version="1.1">
<metadata>
Created by FontForge 20161013 at Mon Mar 10 18:05:01 2008
 By ,,,
Copyright (c) 2008 by Jos Buivenga/exljbris. All rights reserved.
</metadata>
<defs>
<font id="Museo900-Regular" horiz-adv-x="630" >
  <font-face 
    font-family="Museo 900"
    font-weight="900"
    font-stretch="normal"
    units-per-em="1000"
    panose-1="2 0 0 0 0 0 0 0 0 0"
    ascent="750"
    descent="-250"
    x-height="515"
    cap-height="715"
    bbox="-53 -237 1241 918"
    underline-thickness="50"
    underline-position="-200"
    unicode-range="U+0020-FB04"
  />
<missing-glyph horiz-adv-x="510" 
d="M5 0v700h500v-700h-500zM255 395l170 255h-340zM285 350l170 -255v510zM55 95l170 255l-170 255v-510zM85 50h340l-170 255z" />
    <glyph glyph-name="f_f" unicode="ff" horiz-adv-x="744" 
d="M79 0v380h-63v135h63v12q0 48 17 84.5t41.5 56.5t59 32t62 15.5t56.5 3.5l52 -3v-146q-12 2 -28 2q-87 0 -87 -54v-3h194v12q0 48 17 84.5t41.5 56.5t59 32t62 15.5t56.5 3.5l52 -3v-146q-12 2 -28 2q-87 0 -87 -54v-3h95v-135h-95v-380h-173v380h-194v-380h-173z" />
    <glyph glyph-name="fi" unicode="fi" horiz-adv-x="704" 
d="M79 0v380h-63v135h63v12q0 48 17 84.5t41.5 56.5t59 32t62 15.5t56.5 3.5l52 -3v-146q-14 2 -33 2q-82 0 -82 -53v-4h297q38 0 55.5 -17.5t17.5 -55.5v-275q0 -22 22 -22h38v-145h-160q-38 0 -55.5 17.5t-17.5 55.5v285q0 22 -22 22h-175v-380h-173zM462 575v140h145
v-140h-145z" />
    <glyph glyph-name="fl" unicode="fl" horiz-adv-x="695" 
d="M442 73v475q0 22 -22 22h-81q-87 0 -87 -48v-7h95v-135h-95v-380h-173v380h-63v135h63v12q0 59 24 99.5t64 58t74 24t73 6.5h228q38 0 55.5 -17.5t17.5 -55.5v-475q0 -22 22 -22h38v-145h-160q-38 0 -55.5 17.5t-17.5 55.5z" />
    <glyph glyph-name="f_f_i" unicode="ffi" horiz-adv-x="1071" 
d="M79 0v380h-63v135h63v12q0 48 17 84.5t41.5 56.5t59 32t62 15.5t56.5 3.5l52 -3v-146q-14 2 -32 2q-83 0 -83 -54v-3h194v12q0 48 17 84.5t41.5 56.5t59 32t62 15.5t56.5 3.5l52 -3v-146q-14 2 -32 2q-83 0 -83 -54v-3h297q38 0 55.5 -17.5t17.5 -55.5v-275q0 -22 22 -22
h38v-145h-160q-38 0 -55.5 17.5t-17.5 55.5v285q0 22 -22 22h-175v-380h-173v380h-194v-380h-173zM829 575v140h145v-140h-145z" />
    <glyph glyph-name="f_f_l" unicode="ffl" horiz-adv-x="1062" 
d="M79 0v380h-63v135h63v12q0 48 17 84.5t41.5 56.5t59 32t62 15.5t56.5 3.5l52 -3v-146q-13 2 -29 2q-86 0 -86 -54v-3h194v6q0 57 24.5 99t67.5 64.5t92 32.5t106 10q43 0 84 -6t78.5 -19.5t60.5 -38t23 -58.5v-438q0 -22 22 -22h38v-145h-160q-38 0 -55.5 17.5
t-17.5 55.5v446q0 36 -19 46t-62 10t-76 -14t-33 -42v-4h95v-135h-95v-380h-173v380h-194v-380h-173z" />
    <glyph glyph-name="f_j" unicode="fj" horiz-adv-x="706" 
d="M79 0v380h-63v135h63v12q0 48 17 84.5t41.5 56.5t59 32t62 15.5t56.5 3.5l52 -3v-146q-14 2 -32 2q-83 0 -83 -54v-3h312q38 0 55.5 -17.5t17.5 -55.5v-455q0 -49 -18 -86.5t-43.5 -57.5t-61 -32t-63 -15.5t-56.5 -3.5l-46 3v144q9 -1 22 -1q93 0 93 66v354q0 22 -22 22
h-190v-380h-173zM477 575v140h145v-140h-145z" />
    <glyph glyph-name=".notdef" horiz-adv-x="510" 
d="M5 0v700h500v-700h-500zM255 395l170 255h-340zM285 350l170 -255v510zM55 95l170 255l-170 255v-510zM85 50h340l-170 255z" />
    <glyph glyph-name=".null" horiz-adv-x="0" 
 />
    <glyph glyph-name="nonmarkingreturn" horiz-adv-x="333" 
 />
    <glyph glyph-name="space" unicode=" " horiz-adv-x="260" 
 />
    <glyph glyph-name="space" unicode="&#xa0;" horiz-adv-x="260" 
 />
    <glyph glyph-name="exclam" unicode="!" horiz-adv-x="360" 
d="M106 221l-16 494h180l-16 -494h-148zM101 0v150h158v-150h-158z" />
    <glyph glyph-name="quotedbl" unicode="&#x22;" horiz-adv-x="413" 
d="M241 490v240h122v-240h-122zM50 490v240h122v-240h-122z" />
    <glyph glyph-name="numbersign" unicode="#" horiz-adv-x="689" 
d="M95 0l31 180h-101l20 120h101l17 95h-99l20 120h99l35 200h134l-35 -200h108l35 200h134l-35 -200h105l-20 -120h-105l-17 -95h103l-20 -120h-103l-31 -180h-134l31 180h-108l-31 -180h-134zM280 300h108l17 95h-108z" />
    <glyph glyph-name="dollar" unicode="$" horiz-adv-x="582" 
d="M32 139l122 104q2 -4 6.5 -10.5t19.5 -23t31.5 -29t42 -23t51.5 -10.5q72 0 72 53q0 19 -24 36.5t-60 31.5t-78 36t-78 48t-60 70t-24 99q0 80 55 133t141 68v93h114v-93q70 -12 119 -50t49 -100v-78h-160v31q0 19 -19.5 30.5t-45.5 11.5q-29 0 -51 -11.5t-22 -32.5
q0 -22 24 -40t60 -30.5t78 -33t78 -44.5t60 -68.5t24 -102.5q0 -78 -53.5 -136t-140.5 -74v-93h-114v91q-42 7 -80 24.5t-62 38t-42 39.5t-25 32z" />
    <glyph glyph-name="percent" unicode="%" horiz-adv-x="889" 
d="M231 382q-76 0 -128.5 50t-52.5 122q0 71 53 122t128 51t128 -51t53 -122q0 -72 -53 -122t-128 -50zM90 0l552 715h152l-552 -715h-152zM231 502q23 0 39 15.5t16 37.5q0 21 -16.5 36.5t-38.5 15.5t-38.5 -15.5t-16.5 -36.5q0 -22 16 -37.5t39 -15.5zM477 160
q0 71 53 122t128 51t128 -51t53 -122q0 -72 -53 -122t-128 -50q-76 0 -128.5 50t-52.5 122zM603 161q0 -22 16 -37.5t39 -15.5t39 15.5t16 37.5q0 21 -16.5 36.5t-38.5 15.5t-38.5 -15.5t-16.5 -36.5z" />
    <glyph glyph-name="ampersand" unicode="&#x26;" horiz-adv-x="673" 
d="M40 217q0 50 29.5 97t79.5 63v2q-3 2 -8.5 5t-19 16t-24 29t-19 44.5t-8.5 60.5q0 88 64.5 140.5t158.5 52.5q31 0 59 -3.5t40 -6.5l12 -3l-40 -136q-19 5 -40 5q-36 0 -56.5 -22.5t-20.5 -52.5q0 -28 19 -48.5t54 -20.5h77v76h172v-76h79v-150h-79v-69q0 -100 -70 -166
t-193 -66q-117 0 -191.5 66t-74.5 163zM219 218q0 -28 24 -49.5t63 -21.5q44 0 67.5 23t23.5 60v59h-78q-100 0 -100 -71z" />
    <glyph glyph-name="quotesingle" unicode="'" horiz-adv-x="225" 
d="M50 490v240h125v-240h-125z" />
    <glyph glyph-name="parenleft" unicode="(" horiz-adv-x="385" 
d="M77 321q0 252 125 429h143q-115 -192 -115 -417q0 -227 115 -428h-143q-125 168 -125 416z" />
    <glyph glyph-name="parenright" unicode=")" horiz-adv-x="385" 
d="M40 -95q115 201 115 428q0 225 -115 417h143q125 -177 125 -429q0 -248 -125 -416h-143z" />
    <glyph glyph-name="asterisk" unicode="*" horiz-adv-x="487" 
d="M187 309l-122 88l75 83v2l-110 23l46 143l102 -45l-11 112h152l-12 -112l103 46l47 -143l-111 -23v-2l76 -83l-122 -89l-56 97h-2z" />
    <glyph glyph-name="plus" unicode="+" 
d="M42 222v130h205v223h136v-223h205v-130h-205v-222h-136v222h-205z" />
    <glyph glyph-name="comma" unicode="," horiz-adv-x="304" 
d="M96 166h160l-113 -277h-122z" />
    <glyph glyph-name="hyphen" unicode="-" horiz-adv-x="430" 
d="M58 212v150h314v-150h-314z" />
    <glyph glyph-name="hyphen" unicode="&#xad;" horiz-adv-x="430" 
d="M58 212v150h314v-150h-314z" />
    <glyph glyph-name="period" unicode="." horiz-adv-x="304" 
d="M73 0v164h158v-164h-158z" />
    <glyph glyph-name="slash" unicode="/" horiz-adv-x="400" 
d="M-5 -42l256 792h144l-256 -792h-144z" />
    <glyph glyph-name="zero" unicode="0" horiz-adv-x="620" 
d="M310 -12q-74 0 -127.5 28.5t-83.5 80.5t-44 117t-14 145t14 144.5t44 116t83.5 79.5t127.5 28t127.5 -28t83.5 -79.5t44 -116t14 -144.5t-14 -145t-44 -117t-83.5 -80.5t-127.5 -28.5zM310 148q89 0 89 211q0 208 -89 208t-89 -208q0 -211 89 -211z" />
    <glyph glyph-name="one" unicode="1" horiz-adv-x="579" 
d="M64 0v150h150v298l1 55h-2q-9 -20 -28 -38l-43 -39l-101 108l193 181h159v-565h151v-150h-480z" />
    <glyph glyph-name="two" unicode="2" horiz-adv-x="594" 
d="M26 113q0 52 18 94t47 70t63.5 51.5t69.5 42t64 37.5t47 43.5t18 53.5t-20 44.5t-51 15.5t-49 -13t-18 -28v-29h-160v84q0 69 72.5 108.5t161.5 39.5q61 0 115 -23t91.5 -74t37.5 -122q0 -55 -23.5 -101t-59.5 -75t-77 -54t-77 -41.5t-59.5 -35t-23.5 -36.5q0 -15 30 -15
h139q22 0 22 22v39h160v-138q0 -38 -17.5 -55.5t-55.5 -17.5h-384q-52 0 -66.5 24t-14.5 89z" />
    <glyph glyph-name="three" unicode="3" horiz-adv-x="578" 
d="M26 89l84 135q8 -8 21.5 -20t57.5 -31.5t88 -19.5q43 0 67.5 20t24.5 51q0 29 -28.5 49t-76.5 20h-51l-35 85l79 123q13 20 27 37t22 24l7 6v2q-23 -5 -68 -5h-15q-22 0 -22 -22v-39h-160v138q0 40 13.5 56.5t50.5 16.5h410v-109l-129 -173q74 -17 115.5 -74.5
t41.5 -131.5q0 -96 -71 -167.5t-199 -71.5q-46 0 -89.5 10.5t-72 25t-50.5 29.5t-32 25z" />
    <glyph glyph-name="four" unicode="4" horiz-adv-x="610" 
d="M20 168v111l256 436h217v-397h106v-150h-106v-168h-179v168h-294zM317 318v125l6 85h-2q-18 -44 -35 -74l-50 -89q-8 -13 -16.5 -25t-13.5 -18l-4 -5v-2q29 3 65 3h50z" />
    <glyph glyph-name="five" unicode="5" horiz-adv-x="616" 
d="M42 84l82 138q8 -8 22 -19.5t57.5 -30.5t87.5 -19t69.5 24.5t25.5 58.5q0 45 -37.5 66t-93.5 21q-34 0 -67 -6.5t-49 -13.5l-16 -7l-54 30l22 316q3 39 19.5 56t53.5 17h286q38 0 55.5 -17.5t17.5 -55.5v-138h-160v39q0 22 -22 22h-70q-20 0 -22 -22l-3 -49l-3 -28h2
q25 4 51 4q129 0 200 -66.5t71 -170.5q0 -100 -72.5 -173t-203.5 -73q-44 0 -86 10t-70.5 24.5t-50 28.5t-32.5 24z" />
    <glyph glyph-name="six" unicode="6" horiz-adv-x="586" 
d="M316 -12q-118 0 -204 87.5t-86 249.5q0 75 22.5 146t64 128.5t108 92.5t146.5 35q44 0 83.5 -7.5t57.5 -15.5l17 -8l-47 -150q-47 21 -98 21q-58 0 -96 -32.5t-56 -85.5h2q13 9 42 17t54 8q106 0 170 -73.5t64 -171.5q0 -97 -66.5 -169t-177.5 -72zM208 290
q0 -61 34 -101.5t74 -40.5q32 0 52 23.5t20 56.5q0 43 -27 74t-81 31q-72 0 -72 -43z" />
    <glyph glyph-name="seven" unicode="7" horiz-adv-x="559" 
d="M22 0l283 501q12 21 23.5 37.5t17.5 21.5l5 6v2q-10 -3 -46 -3h-107q-22 0 -22 -22v-39h-160v138q0 40 13.5 56.5t50.5 16.5h466v-122l-330 -593h-194z" />
    <glyph glyph-name="eight" unicode="8" horiz-adv-x="593" 
d="M28 211q0 45 24 87t48 62l23 20v2q-7 5 -17.5 15.5t-28.5 47t-18 76.5q0 84 64 145t175 61q106 0 172.5 -58.5t66.5 -146.5q0 -41 -16 -79t-32 -55l-16 -17v-2q87 -60 87 -163q0 -87 -73 -152.5t-194 -65.5q-116 0 -190.5 64.5t-74.5 158.5zM295 451q24 -12 35 -12
q15 0 26 21.5t11 48.5t-19 42.5t-50 15.5t-49.5 -14.5t-18.5 -35.5q0 -37 65 -66zM206 223q0 -33 24 -54t63 -21t63 19t24 48q0 22 -19.5 38.5t-57.5 33.5q-43 20 -50 20q-16 0 -31.5 -26.5t-15.5 -57.5z" />
    <glyph glyph-name="nine" unicode="9" horiz-adv-x="586" 
d="M60 19l47 150q47 -21 98 -21q58 0 96 32.5t56 85.5h-2q-12 -9 -41.5 -17t-54.5 -8q-106 0 -170 73.5t-64 171.5q0 97 66.5 169t177.5 72q118 0 204 -87.5t86 -249.5q0 -75 -22.5 -146t-64 -128.5t-108 -92.5t-146.5 -35q-44 0 -83.5 8t-56.5 16zM305 382q72 0 72 43
q0 61 -34 101.5t-74 40.5q-32 0 -52 -23.5t-20 -56.5q0 -43 27 -74t81 -31z" />
    <glyph glyph-name="colon" unicode=":" horiz-adv-x="324" 
d="M83 351v164h158v-164h-158zM83 0v164h158v-164h-158z" />
    <glyph glyph-name="semicolon" unicode=";" horiz-adv-x="324" 
d="M83 351v164h158v-164h-158zM19 -111l59 277h160l-97 -277h-122z" />
    <glyph glyph-name="less" unicode="&#x3c;" 
d="M59 234v107l504 223v-145l-330 -131v-2l330 -130v-145z" />
    <glyph glyph-name="equal" unicode="=" 
d="M62 337v130h506v-130h-506zM62 107v130h506v-130h-506z" />
    <glyph glyph-name="greater" unicode="&#x3e;" 
d="M67 11v145l330 130v2l-330 131v145l504 -223v-107z" />
    <glyph glyph-name="question" unicode="?" horiz-adv-x="511" 
d="M139 221v50q0 37 16 68.5t39 52t46.5 39t39.5 39.5t16 44q0 25 -21 42t-50 17q-21 0 -45 -10.5t-37 -21.5l-13 -11l-96 117l9 9t26 20t42.5 25t58 20t73.5 9q92 0 162.5 -52.5t70.5 -143.5q0 -45 -17.5 -82.5t-43 -61t-50.5 -44t-42.5 -43t-17.5 -46.5v-36h-166zM143 0
v150h158v-150h-158z" />
    <glyph glyph-name="at" unicode="@" horiz-adv-x="822" 
d="M35 239q0 159 112.5 267.5t280.5 108.5q156 0 227 -66.5t71 -173.5v-198h74v-119h-283q-106 0 -166.5 54t-60.5 128q0 72 59.5 124t167.5 52h49q0 30 -41.5 47t-93.5 17q-95 0 -161 -73.5t-66 -167.5q0 -101 67 -170t185 -69v-130q-192 0 -306.5 105t-114.5 264zM461 244
q0 -29 17 -48t49 -19h39v134h-37q-33 0 -50.5 -19t-17.5 -48z" />
    <glyph glyph-name="A" unicode="A" horiz-adv-x="688" 
d="M10 0v150h19q12 0 17 4.5t10 17.5l195 543h186l195 -543q5 -13 10 -17.5t17 -4.5h19v-150h-115q-37 0 -55 12.5t-29 45.5l-31 92h-208l-31 -92q-11 -33 -29 -45.5t-55 -12.5h-115zM278 295h132l-36 119l-29 118h-2q-15 -73 -29 -118z" />
    <glyph glyph-name="B" unicode="B" horiz-adv-x="648" 
d="M93 73v492h-65v150h313q110 0 176.5 -48.5t66.5 -138.5q0 -55 -25 -94.5t-58 -57.5v-2q57 -17 84.5 -62.5t27.5 -98.5q0 -109 -77 -161t-195 -52h-175q-38 0 -55.5 17.5t-17.5 55.5zM272 438h71q30 0 45.5 19t15.5 47q0 27 -16 44t-48 17h-68v-127zM272 172q0 -22 22 -22
h64q34 0 52.5 21.5t18.5 53.5t-18 52.5t-52 20.5h-87v-126z" />
    <glyph glyph-name="C" unicode="C" horiz-adv-x="720" 
d="M24 365q0 154 105.5 258t264.5 104q37 0 79.5 -8t88.5 -25t76 -52t30 -82v-94h-160v39q0 28 -34.5 42.5t-75.5 14.5q-82 0 -135 -51.5t-53 -145.5q0 -88 56.5 -150t135.5 -62q35 0 69 9.5t57.5 22.5t41.5 26.5t27 22.5l9 10l91 -128q-4 -5 -12.5 -13.5t-37.5 -31t-61 -39
t-83 -30.5t-104 -14q-167 0 -271 107t-104 270z" />
    <glyph glyph-name="D" unicode="D" horiz-adv-x="715" 
d="M93 73v492h-65v150h294q170 0 269.5 -94.5t99.5 -261.5q0 -168 -99.5 -263.5t-269.5 -95.5h-156q-38 0 -55.5 17.5t-17.5 55.5zM272 172q0 -22 22 -22h21q90 0 140 54t50 155q0 100 -51 153t-139 53h-43v-393z" />
    <glyph glyph-name="E" unicode="E" horiz-adv-x="594" 
d="M93 73v492h-65v150h450q38 0 55.5 -17.5t17.5 -55.5v-138h-160v39q0 22 -22 22h-97v-130h204v-150h-204v-113q0 -22 22 -22h99q22 0 22 22v39h160v-138q0 -38 -17.5 -55.5t-55.5 -17.5h-336q-38 0 -55.5 17.5t-17.5 55.5z" />
    <glyph glyph-name="F" unicode="F" horiz-adv-x="548" 
d="M93 0v565h-65v150h430q38 0 55.5 -17.5t17.5 -55.5v-138h-160v39q0 22 -22 22h-77v-150h204v-150h-204v-265h-179z" />
    <glyph glyph-name="G" unicode="G" horiz-adv-x="752" 
d="M24 364q0 154 105.5 258.5t264.5 104.5q51 0 97.5 -9.5t76.5 -23.5t52.5 -27.5t32.5 -22.5l10 -10l-100 -127q-8 6 -22.5 15.5t-57.5 25.5t-85 16q-75 0 -131.5 -54.5t-56.5 -144.5q0 -100 57.5 -156t139.5 -56q42 0 79 13t53 26l16 13v27q0 22 -22 22h-43v150h151
q38 0 55.5 -17.5t17.5 -55.5v-331h-150v20l1 30h-2q-3 -3 -8.5 -7t-24.5 -14.5t-39.5 -19t-53.5 -15t-67 -6.5q-143 0 -244.5 100.5t-101.5 275.5z" />
    <glyph glyph-name="H" unicode="H" horiz-adv-x="786" 
d="M93 0v543q0 22 -22 22h-43v150h171q38 0 55.5 -17.5t17.5 -55.5v-213h242v213q0 38 17.5 55.5t55.5 17.5h171v-150h-43q-22 0 -22 -22v-543h-179v280h-242v-280h-179z" />
    <glyph glyph-name="I" unicode="I" horiz-adv-x="381" 
d="M31 0v150h75v415h-75v150h319v-150h-75v-415h75v-150h-319z" />
    <glyph glyph-name="J" unicode="J" horiz-adv-x="566" 
d="M16 220v52h179v-33q0 -86 66 -86q29 0 46 19t17 57v314q0 22 -22 22h-170v150h298q38 0 55.5 -17.5t17.5 -55.5v-422q0 -111 -72 -171.5t-172 -60.5q-99 0 -171 61t-72 171z" />
    <glyph glyph-name="K" unicode="K" horiz-adv-x="669" 
d="M93 0v543q0 22 -22 22h-43v150h171q38 0 55.5 -17.5t17.5 -55.5v-203h24q12 0 18 0.5t14 2.5t13.5 6.5t9.5 12.5l121 254h195l-143 -289q-11 -22 -24 -37.5t-21 -20.5l-8 -4v-2q3 -1 9 -3.5t20.5 -17t25.5 -36.5l65 -132q11 -23 49 -23h19v-150h-105q-40 0 -62.5 10.5
t-38.5 42.5l-107 214q-6 11 -16 16t-18.5 6t-25.5 1h-14v-290h-179z" />
    <glyph glyph-name="L" unicode="L" horiz-adv-x="580" 
d="M93 73v470q0 22 -22 22h-43v150h171q38 0 55.5 -17.5t17.5 -55.5v-470q0 -22 22 -22h94q22 0 22 22v39h160v-138q0 -38 -17.5 -55.5t-55.5 -17.5h-331q-38 0 -55.5 17.5t-17.5 55.5z" />
    <glyph glyph-name="M" unicode="M" horiz-adv-x="890" 
d="M16 0v150h25q20 0 22 22l44 543h187l114 -282l36 -103h2q18 58 36 103l114 282h187l44 -543q2 -22 22 -22h25v-150h-148q-37 0 -53.5 17t-19.5 56l-16 229q-2 24 -2 54t1 48l1 18h-2q-21 -76 -40 -120l-80 -187h-140l-80 187q-8 20 -18 50t-16 50l-6 20h-2q4 -66 0 -120
l-16 -229q-3 -39 -19.5 -56t-53.5 -17h-148z" />
    <glyph glyph-name="N" unicode="N" horiz-adv-x="778" 
d="M28 0v150h43q22 0 22 22v543h161l198 -307q13 -20 28 -47t24 -43l8 -17h2q-8 62 -8 107v234q0 38 17.5 55.5t55.5 17.5h171v-150h-43q-22 0 -22 -22v-543h-160l-199 306q-13 20 -28 46.5t-24 43.5l-8 17h-2q8 -62 8 -107v-233q0 -38 -17.5 -55.5t-55.5 -17.5h-171z" />
    <glyph glyph-name="O" unicode="O" horiz-adv-x="796" 
d="M24 362q0 155 106.5 260t267.5 105t267.5 -105t106.5 -260q0 -159 -106.5 -266.5t-267.5 -107.5t-267.5 107.5t-106.5 266.5zM210 362q0 -89 54.5 -149t133.5 -60t133.5 60t54.5 149q0 85 -54.5 142.5t-133.5 57.5t-133.5 -57.5t-54.5 -142.5z" />
    <glyph glyph-name="P" unicode="P" horiz-adv-x="625" 
d="M93 0v565h-65v150h347q104 0 168.5 -69t64.5 -177q0 -109 -64.5 -178.5t-168.5 -69.5h-103v-221h-179zM272 371h67q42 0 64 27t22 71t-21.5 70t-61.5 26h-70v-194z" />
    <glyph glyph-name="Q" unicode="Q" horiz-adv-x="796" 
d="M24 362q0 155 106.5 259.5t267.5 104.5t267.5 -104.5t106.5 -259.5q0 -108 -70 -210l70 -58l-105 -117l-71 67q-83 -56 -198 -56q-161 0 -267.5 107.5t-106.5 266.5zM210 362q0 -89 54.5 -149t133.5 -60q20 0 37 2.5t23 5.5l7 3l-62 53l104 117l62 -61q17 42 17 89
q0 85 -54.5 142t-133.5 57t-133.5 -57t-54.5 -142z" />
    <glyph glyph-name="R" unicode="R" horiz-adv-x="653" 
d="M93 0v565h-65v150h334q106 0 171 -59.5t65 -165.5q0 -40 -11 -74t-26 -53.5t-30.5 -33.5t-26.5 -19l-11 -6v-2q28 -12 44 -43l45 -86q12 -23 49 -23h12v-150h-98q-40 0 -62.5 10.5t-38.5 42.5l-84 161q-9 16 -22.5 21.5t-41.5 5.5h-24v-241h-179zM272 391h62q81 0 81 88
q0 86 -78 86h-65v-174z" />
    <glyph glyph-name="S" unicode="S" horiz-adv-x="573" 
d="M28 106l99 125q3 -3 8.5 -9t23 -20.5t36 -25.5t45 -20t51.5 -9q72 0 72 53q0 21 -33.5 40.5t-81 40t-95 47t-81 74.5t-33.5 110q0 95 73.5 155t181.5 60q52 0 102 -15t88 -52t38 -88v-78h-160v31q0 18 -21.5 30t-48.5 12q-30 0 -51.5 -12.5t-21.5 -35.5q0 -20 24 -37
t60 -29.5t78 -33t78 -45t60 -67.5t24 -98q0 -93 -68.5 -157t-185.5 -64q-47 0 -91 12t-73.5 29.5t-52.5 35t-34 29.5z" />
    <glyph glyph-name="T" unicode="T" horiz-adv-x="679" 
d="M250 0v565h-58q-22 0 -22 -22v-39h-155v142q0 38 15.5 53.5t53.5 15.5h511q38 0 53.5 -15.5t15.5 -53.5v-142h-155v39q0 22 -22 22h-58v-565h-179z" />
    <glyph glyph-name="U" unicode="U" horiz-adv-x="758" 
d="M85 263v280q0 22 -22 22h-43v150h171q38 0 55.5 -17.5t17.5 -55.5v-374q0 -55 31.5 -85t83.5 -30t83.5 30t31.5 85v374q0 38 17.5 55.5t55.5 17.5h171v-150h-43q-22 0 -22 -22v-280q0 -122 -80.5 -198.5t-212.5 -76.5q-133 0 -214 76.5t-81 198.5z" />
    <glyph glyph-name="V" unicode="V" horiz-adv-x="708" 
d="M260 0l-198 543q-5 13 -10 17.5t-17 4.5h-25v150h125q37 0 55 -12.5t29 -45.5l107 -334q7 -20 13.5 -48.5t10.5 -47.5l3 -19h2q12 70 27 115l107 334q11 33 29 45.5t55 12.5h125v-150h-25q-12 0 -17 -4.5t-10 -17.5l-198 -543h-188z" />
    <glyph glyph-name="W" unicode="W" horiz-adv-x="1028" 
d="M204 0l-136 543q-5 22 -28 22h-25v150h128q77 0 89 -58l79 -374q4 -20 6.5 -38.5t2.5 -27.5v-9h2q1 31 12 75l109 431h143l108 -431q5 -20 8 -38.5t4 -27.5v-9h2q0 31 9 75l79 374q7 32 28.5 45t60.5 13h128v-150h-25q-23 0 -28 -22l-136 -543h-205l-90 333
q-6 20 -9.5 39t-3.5 28l-1 9h-2q-1 -30 -14 -76l-90 -333h-205z" />
    <glyph glyph-name="X" unicode="X" horiz-adv-x="647" 
d="M-2 0l216 355l-117 188q-10 16 -15 19t-21 3h-37v150h116q35 0 53.5 -10t33.5 -38l51 -93l44 -90h2q19 45 44 90l52 93q16 28 34 38t53 10h116v-150h-37q-16 0 -21 -3t-15 -19l-118 -188l217 -355h-199l-82 144l-44 87h-2q-19 -42 -44 -87l-82 -144h-198z" />
    <glyph glyph-name="Y" unicode="Y" horiz-adv-x="633" 
d="M227 0v313l-152 230q-10 16 -15 19t-21 3h-29v150h98q35 0 55 -9.5t37 -38.5l73 -123l43 -80h2q16 34 43 80l72 123q17 29 37 38.5t55 9.5h98v-150h-29q-16 0 -21 -3t-15 -19l-152 -230v-313h-179z" />
    <glyph glyph-name="Z" unicode="Z" horiz-adv-x="599" 
d="M16 0v110l273 391q14 20 27.5 36t20.5 23l7 6v2q-23 -3 -55 -3h-88q-22 0 -22 -22v-39h-160v138q0 38 17.5 55.5t55.5 17.5h475v-108l-274 -393q-14 -20 -27.5 -36t-20.5 -22l-7 -7v-2q23 3 55 3h108q22 0 22 22v39h160v-138q0 -38 -17.5 -55.5t-55.5 -17.5h-494z" />
    <glyph glyph-name="bracketleft" unicode="[" horiz-adv-x="390" 
d="M85 -22v699q0 38 17.5 55.5t55.5 17.5h173v-120h-80q-22 0 -22 -22v-561q0 -22 22 -22h80v-120h-173q-38 0 -55.5 17.5t-17.5 55.5z" />
    <glyph glyph-name="backslash" unicode="\" horiz-adv-x="400" 
d="M261 -42l-256 792h144l256 -792h-144z" />
    <glyph glyph-name="bracketright" unicode="]" horiz-adv-x="390" 
d="M59 25h80q22 0 22 22v561q0 22 -22 22h-80v120h173q38 0 55.5 -17.5t17.5 -55.5v-699q0 -38 -17.5 -55.5t-55.5 -17.5h-173v120z" />
    <glyph glyph-name="asciicircum" unicode="^" 
d="M58 241l203 474h107l203 -474h-145l-112 300l-111 -300h-145z" />
    <glyph glyph-name="underscore" unicode="_" horiz-adv-x="606" 
d="M5 0h596v-130h-596v130z" />
    <glyph glyph-name="grave" unicode="`" horiz-adv-x="430" 
d="M174 761l-118 150h157l81 -150h-120z" />
    <glyph glyph-name="a" unicode="a" horiz-adv-x="584" 
d="M28 154q0 53 34 90t87.5 53t95.5 21.5t82 5.5h7v6q0 36 -16.5 51.5t-49.5 15.5q-45 0 -45 -25v-23h-160v57q0 121 205 121q239 0 239 -210v-150q0 -22 22 -22h38v-145h-150q-34 0 -51 16.5t-17 37.5v9h-2q-1 -3 -4.5 -8t-15.5 -18t-26.5 -23t-41 -18t-56.5 -8
q-74 0 -124.5 45.5t-50.5 120.5zM202 163q0 -19 12.5 -31t36.5 -12q33 0 59 29t26 62v8h-16q-47 0 -82.5 -14t-35.5 -42z" />
    <glyph glyph-name="b" unicode="b" horiz-adv-x="644" 
d="M75 0v548q0 22 -22 22h-38v145h160q38 0 55.5 -17.5t17.5 -55.5v-121l-2 -44h2q5 6 15.5 14t47 22t76.5 14q105 0 168.5 -74.5t63.5 -195.5t-68 -195t-172 -74q-27 0 -51 5.5t-40 13.5t-27.5 15.5t-16.5 13.5l-6 5h-2q1 -13 1 -29v-12h-162zM243 254q0 -50 26.5 -86.5
t74.5 -36.5q43 0 72 33t29 90t-28 92t-73 35q-43 0 -72 -32t-29 -95z" />
    <glyph glyph-name="c" unicode="c" horiz-adv-x="546" 
d="M25 258q0 110 76.5 189.5t214.5 79.5q30 0 60.5 -6t61 -19t49.5 -38t19 -58v-71h-150v27q0 22 -40 22q-53 0 -85 -35.5t-32 -88.5q0 -61 38 -92t92 -31q33 0 68.5 16.5t54.5 33.5l19 17l69 -116q-3 -4 -9.5 -11t-28.5 -24t-46.5 -30t-63.5 -24t-80 -11q-132 0 -209.5 79
t-77.5 191z" />
    <glyph glyph-name="d" unicode="d" horiz-adv-x="649" 
d="M25 258q0 121 65.5 195t169.5 74q46 0 80 -9t44 -18l11 -9h2q-1 10 -1 23v34q0 22 -22 22h-38v145h160q38 0 55.5 -17.5t17.5 -55.5v-475q0 -22 22 -22h38v-145h-154q-34 0 -50.5 14.5t-16.5 34.5v9h-2q-2 -3 -5.5 -7.5t-16.5 -16.5t-28.5 -21.5t-42 -17t-56.5 -7.5
q-105 0 -168.5 74.5t-63.5 195.5zM300 131q43 0 72 32t29 95q0 50 -26.5 86.5t-74.5 36.5q-43 0 -72 -33t-29 -90t28 -92t73 -35z" />
    <glyph glyph-name="e" unicode="e" horiz-adv-x="564" 
d="M25 258q0 116 73 192.5t195 76.5q111 0 174.5 -69.5t63.5 -179.5l-4 -52h-325q9 -46 42.5 -70t77.5 -24q33 0 67 13.5t52 26.5l18 14l69 -116q-3 -3 -9.5 -8.5t-28.5 -20t-45.5 -25t-61 -19.5t-75.5 -9q-131 0 -207 80t-76 190zM207 331h147q0 25 -17.5 45.5t-43.5 20.5
q-67 0 -86 -66z" />
    <glyph glyph-name="f" unicode="f" horiz-adv-x="377" 
d="M79 0v380h-63v135h63v12q0 48 17 84.5t41.5 56.5t59 32t62 15.5t56.5 3.5l52 -3v-146q-12 2 -28 2q-87 0 -87 -50v-7h95v-135h-95v-380h-173z" />
    <glyph glyph-name="g" unicode="g" horiz-adv-x="637" 
d="M25 274q0 106 60 179.5t171 73.5q47 0 84 -15t51 -30l14 -15h2v7q0 13 14.5 27t40.5 14h156v-145h-36q-22 0 -22 -19v-304q0 -68 -25 -119t-68 -80.5t-92.5 -43.5t-105.5 -14q-107 0 -195 46l50 135q63 -33 144 -33q119 0 119 99v8l1 19h-2q-45 -49 -129 -49
q-110 0 -171 76t-61 183zM298 159q40 0 66.5 25.5t26.5 87.5q0 111 -100 111q-44 0 -68 -28.5t-24 -74.5q0 -52 25 -86.5t74 -34.5z" />
    <glyph glyph-name="h" unicode="h" horiz-adv-x="667" 
d="M75 0v548q0 22 -22 22h-38v145h160q38 0 55.5 -17.5t17.5 -55.5v-153l-2 -44h2q22 38 64 60t93 22q185 0 185 -193v-167q0 -22 22 -22h38v-145h-160q-38 0 -55.5 17.5t-17.5 55.5v229q0 68 -57 68q-78 0 -103 -76q-9 -26 -9 -66v-228h-173z" />
    <glyph glyph-name="i" unicode="i" horiz-adv-x="337" 
d="M95 575v140h145v-140h-145zM82 73v275q0 22 -22 22h-38v145h160q38 0 55.5 -17.5t17.5 -55.5v-275q0 -22 22 -22h38v-145h-160q-38 0 -55.5 17.5t-17.5 55.5z" />
    <glyph glyph-name="j" unicode="j" horiz-adv-x="334" 
d="M108 575v140h145v-140h-145zM-18 -61q9 -1 22 -1q93 0 93 66v344q0 22 -22 22h-38v145h160q38 0 55.5 -17.5t17.5 -55.5v-455q0 -49 -18 -86.5t-43.5 -57.5t-61 -32t-63 -15.5t-56.5 -3.5l-46 3v144z" />
    <glyph glyph-name="k" unicode="k" horiz-adv-x="597" 
d="M75 0v548q0 22 -22 22h-38v145h160q41 0 57 -11t16 -47v-312h27q32 0 41 16l84 154h188l-117 -198q-8 -15 -17.5 -25.5t-15.5 -13.5l-5 -4v-2q21 -8 39 -43l33 -67q9 -17 38 -17h40v-145h-131q-30 0 -46 7.5t-28 31.5l-74 144q-9 17 -41 17h-15v-200h-173z" />
    <glyph glyph-name="l" unicode="l" horiz-adv-x="328" 
d="M75 73v475q0 22 -22 22h-38v145h160q38 0 55.5 -17.5t17.5 -55.5v-475q0 -22 22 -22h38v-145h-160q-38 0 -55.5 17.5t-17.5 55.5z" />
    <glyph glyph-name="m" unicode="m" horiz-adv-x="953" 
d="M79 0v348q0 22 -22 22h-38v145h155q35 0 53.5 -15.5t18.5 -42.5v-7l-1 -12h2q59 89 151 89q103 0 144 -87h2q22 36 66.5 61.5t98.5 25.5q76 0 121.5 -46t45.5 -147v-167q0 -22 22 -22h38v-145h-160q-38 0 -55.5 17.5t-17.5 55.5v232q0 65 -40 65q-37 0 -60.5 -27
t-32.5 -72q-6 -27 -6 -58v-213h-173v305q0 65 -40 65q-71 0 -92 -95q-7 -33 -7 -62v-213h-173z" />
    <glyph glyph-name="n" unicode="n" horiz-adv-x="671" 
d="M79 0v348q0 22 -22 22h-38v145h154q35 0 53.5 -15.5t18.5 -42.5v-7l-1 -12h2q53 89 163 89q185 0 185 -193v-167q0 -22 22 -22h38v-145h-160q-38 0 -55.5 17.5t-17.5 55.5v229q0 68 -57 68q-77 0 -102 -74q-10 -29 -10 -68v-228h-173z" />
    <glyph glyph-name="o" unicode="o" horiz-adv-x="632" 
d="M25 256q0 120 83.5 195.5t206.5 75.5q124 0 208 -75.5t84 -195.5q0 -119 -83.5 -193.5t-207.5 -74.5t-207.5 74.5t-83.5 193.5zM199 256q0 -56 34 -90t83 -34t83 34t34 90q0 57 -34 92t-83 35t-83 -35t-34 -92z" />
    <glyph glyph-name="p" unicode="p" horiz-adv-x="648" 
d="M79 -200v548q0 22 -22 22h-38v145h149q35 0 51 -13t16 -32v-9h2q2 3 5.5 7.5t17 15.5t30 20t43.5 16t58 7q105 0 168.5 -74.5t63.5 -195.5t-68 -195t-172 -74q-37 0 -70 11t-47 22l-14 11h-2q2 -18 2 -44v-188h-173zM247 254q0 -50 26.5 -86.5t74.5 -36.5q43 0 72 33
t29 90t-28 92t-73 35q-43 0 -72 -32t-29 -95z" />
    <glyph glyph-name="q" unicode="q" horiz-adv-x="648" 
d="M25 258q0 121 65.5 195t169.5 74q49 0 87 -14.5t51 -28.5l14 -14h2v6q0 16 17.5 27.5t51.5 11.5h146v-145h-38q-22 0 -22 -22v-548h-173v197l2 44h-2l-5.5 -5.5t-16.5 -13t-27.5 -16.5t-39 -12.5t-50.5 -5.5q-105 0 -168.5 74.5t-63.5 195.5zM300 131q43 0 72 32t29 95
q0 50 -26.5 86.5t-74.5 36.5q-43 0 -72 -33t-29 -90t28 -92t73 -35z" />
    <glyph glyph-name="r" unicode="r" horiz-adv-x="451" 
d="M79 0v348q0 22 -22 22h-38v145h153q73 0 73 -66v-27l-2 -26h2q17 54 62.5 91t101.5 37l20 -2v-170q-14 3 -35 3q-104 0 -133 -90q-9 -29 -9 -70v-195h-173z" />
    <glyph glyph-name="s" unicode="s" horiz-adv-x="491" 
d="M21 82l77 111q8 -8 22 -20.5t54 -33t75 -20.5q39 0 39 25q0 11 -26.5 23t-64.5 27t-76 35t-64.5 56t-26.5 83q0 78 61.5 118.5t150.5 40.5q35 0 67.5 -5.5t63.5 -18t50 -36.5t19 -57v-61h-150v25q0 10 -14 17t-33 7q-46 0 -46 -24q0 -14 27 -26t65.5 -25t76.5 -31
t65 -53.5t27 -83.5q0 -76 -59.5 -121.5t-151.5 -45.5q-41 0 -80 9.5t-64.5 23.5t-45.5 28t-29 23z" />
    <glyph glyph-name="t" unicode="t" horiz-adv-x="397" 
d="M79 190v190h-66v135h71v139h168v-139h108v-135h-108v-167q0 -66 92 -66l23 1v-150q-19 -3 -47 -3q-24 0 -46.5 2.5t-52 9.5t-53 21t-44.5 34.5t-33 53.5t-12 74z" />
    <glyph glyph-name="u" unicode="u" horiz-adv-x="666" 
d="M77 181v167q0 22 -22 22h-38v145h160q38 0 55.5 -17.5t17.5 -55.5v-229q0 -68 55 -68q53 0 81 40.5t28 101.5v228h173v-348q0 -22 22 -22h38v-145h-153q-35 0 -54 15.5t-19 42.5v7l1 12h-2q-21 -41 -64.5 -65t-95.5 -24q-84 0 -133.5 45.5t-49.5 147.5z" />
    <glyph glyph-name="v" unicode="v" horiz-adv-x="567" 
d="M178 0l-133 354q-6 16 -22 16h-13v145h110q56 0 70 -42l78 -232q5 -15 9.5 -35.5t6.5 -33.5l3 -14h2q8 50 19 83l77 232q14 42 71 42h101v-145h-13q-18 0 -24 -16l-131 -354h-211z" />
    <glyph glyph-name="w" unicode="w" horiz-adv-x="836" 
d="M151 0l-104 354q-5 16 -22 16h-15v145h128q57 0 67 -49l52 -255l6 -54h2q2 26 9 54l71 302h148l71 -302l8 -54h2q0 26 6 54l52 255q10 49 66 49h128v-145h-15q-16 0 -22 -16l-104 -354h-197l-58 238l-10 55h-2q-3 -27 -10 -55l-58 -238h-199z" />
    <glyph glyph-name="x" unicode="x" horiz-adv-x="539" 
d="M5 0l159 255l-65 100q-7 10 -12.5 12.5t-20.5 2.5h-49v145h129q28 0 45 -9t29 -33l33 -63l15 -34h2q9 21 16 34l33 63q12 24 29 33t45 9h129v-145h-49q-15 0 -20.5 -2.5t-12.5 -12.5l-65 -100l159 -255h-190l-62 106l-12 26h-2q-7 -17 -12 -26l-61 -106h-190z" />
    <glyph glyph-name="y" unicode="y" horiz-adv-x="565" 
d="M58 -33q30 -33 71 -33q57 0 77 51l6 15l-163 354q-7 16 -22 16h-19v145h126q44 0 60 -42l76 -208l19 -80h2q9 52 17 80l57 208q5 20 22.5 31t38.5 11h129v-145h-19q-18 0 -24 -16l-156 -409q-31 -80 -89 -117.5t-126 -37.5q-40 0 -76 14t-53 28l-16 13z" />
    <glyph glyph-name="z" unicode="z" horiz-adv-x="521" 
d="M17 0v86l198 237q12 14 23 26t16 17l6 4v2q-13 -2 -45 -2h-19q-22 0 -22 -22v-21h-155v115q0 38 17.5 55.5t55.5 17.5h394v-87l-197 -237q-11 -14 -22.5 -25.5t-17.5 -16.5l-6 -5v-2q13 3 46 3h38q22 0 22 22v21h155v-115q0 -38 -17.5 -55.5t-55.5 -17.5h-414z" />
    <glyph glyph-name="braceleft" unicode="{" horiz-adv-x="372" 
d="M102 62v98q0 27 -9 46.5t-21 28.5t-24.5 14.5t-21.5 6.5h-9v150q3 0 9 0.5t20.5 6t26 14.5t20.5 29.5t9 48.5v88q0 50 20.5 85t54 50.5t63 21t61.5 5.5l43 -2v-124q-11 2 -25 2q-73 0 -73 -54v-117q0 -29 -8.5 -52.5t-21 -36.5t-25 -22.5t-21.5 -12.5l-8 -3v-2l9 -3
t20.5 -11.5t25.5 -22t20 -36.5t9 -53v-127q0 -54 73 -54l25 2v-124q-18 -2 -43 -2q-32 0 -61.5 5.5t-63 21t-54 50.5t-20.5 85z" />
    <glyph glyph-name="bar" unicode="|" horiz-adv-x="334" 
d="M95 -165v967h144v-967h-144z" />
    <glyph glyph-name="braceright" unicode="}" horiz-adv-x="372" 
d="M28 26q11 -2 25 -2q73 0 73 54v127q0 29 8.5 53t21 37t25 21.5t21.5 11.5l8 3v2q-3 1 -9 3.5t-20.5 12t-25.5 22.5t-20 36.5t-9 52.5v117q0 54 -73 54l-25 -2v124q18 2 43 2q32 0 61.5 -5.5t63 -21t54 -50.5t20.5 -85v-88q0 -44 21.5 -68.5t42.5 -27.5l21 -3v-150
q-3 0 -9 -0.5t-20.5 -6t-26 -14.5t-20.5 -28.5t-9 -46.5v-98q0 -50 -20.5 -85t-54 -50.5t-63 -21t-61.5 -5.5l-43 2v124z" />
    <glyph glyph-name="asciitilde" unicode="~" 
d="M48 191q0 203 174 203q31 0 58.5 -12.5t43 -27.5t34.5 -27.5t36 -12.5q25 0 40 19.5t15 56.5h133q0 -203 -173 -203q-31 0 -58.5 12.5t-43 27.5t-35 27.5t-36.5 12.5q-24 0 -39 -19.5t-15 -56.5h-134z" />
    <glyph glyph-name="exclamdown" unicode="&#xa1;" horiz-adv-x="360" 
d="M101 364v150h158v-150h-158zM90 -200l16 493h148l16 -493h-180z" />
    <glyph glyph-name="cent" unicode="&#xa2;" horiz-adv-x="617" 
d="M266 -35v110q-90 21 -150.5 99.5t-60.5 183.5t60.5 183.5t150.5 99.5v109h114v-109q68 -15 118.5 -60.5t72.5 -111.5l-154 -60q-11 32 -34.5 53.5t-55.5 21.5q-37 0 -67.5 -36t-30.5 -90q0 -60 28.5 -93t69.5 -33q32 0 56 21.5t34 53.5l154 -60q-21 -60 -70.5 -111
t-120.5 -61v-110h-114z" />
    <glyph glyph-name="sterling" unicode="&#xa3;" horiz-adv-x="589" 
d="M41 0v150h55v149h-43v112h43v100q0 95 69 155.5t175 60.5q52 0 101 -20.5t72 -41.5l23 -21l-97 -118q-46 44 -94 44q-29 0 -49.5 -17.5t-20.5 -46.5v-95h165v-112h-165v-149h93q22 0 22 22v39h160v-138q0 -38 -17.5 -55.5t-55.5 -17.5h-436z" />
    <glyph glyph-name="yen" unicode="&#xa5;" horiz-adv-x="633" 
d="M68 179v96h159v38l-26 39h-133v96h69v2l-62 93q-10 16 -15 19t-21 3h-29v150h98q35 0 55 -9.5t37 -38.5l73 -123l43 -78h2q16 32 43 78l72 123q17 29 37 38.5t55 9.5h98v-150h-29q-16 0 -21 -3t-15 -19l-62 -93v-2h68v-96h-132l-26 -39v-38h158v-96h-158v-179h-179v179
h-159z" />
    <glyph glyph-name="section" unicode="&#xa7;" horiz-adv-x="573" 
d="M171 179l-76 273q-10 37 -10 75q0 89 59.5 144.5t171.5 55.5q59 0 111 -19.5t74 -38.5l22 -19l-74 -108q-6 5 -17 13t-45.5 21t-68.5 13q-98 0 -98 -83q0 -30 10 -67l72 -260h-131zM62 15l69 115q7 -6 19 -15t47.5 -24.5t70.5 -15.5q98 0 98 94q0 32 -13 77l-68 240h131
l74 -273q10 -37 10 -75q0 -89 -59.5 -144.5t-171.5 -55.5q-37 0 -72 8t-58.5 19t-41.5 22.5t-27 19.5z" />
    <glyph glyph-name="dieresis" unicode="&#xa8;" horiz-adv-x="522" 
d="M306 771v140h112v-140h-112zM103 771v140h112v-140h-112z" />
    <glyph glyph-name="copyright" unicode="&#xa9;" horiz-adv-x="772" 
d="M25 358q0 153 105 260.5t254 107.5q151 0 257 -107.5t106 -260.5t-106 -261.5t-257 -108.5q-148 0 -253.5 108.5t-105.5 261.5zM138 358q0 -112 71 -189.5t175 -77.5q106 0 178.5 77.5t72.5 189.5q0 111 -72.5 188t-178.5 77q-104 0 -175 -77t-71 -188zM214 355
q0 78 51 132.5t121 54.5q36 0 66.5 -12t47 -28.5t28.5 -33.5t16 -29l4 -12l-100 -39q-2 5 -5.5 13.5t-18 22t-34.5 13.5q-23 0 -41 -23t-18 -59q0 -39 16.5 -60.5t42.5 -21.5q20 0 34.5 12.5t19.5 24.5l4 12l100 -39q-1 -5 -4 -12.5t-15.5 -27.5t-29 -35t-47 -27.5
t-66.5 -12.5q-70 0 -121 54.5t-51 132.5z" />
    <glyph glyph-name="ordfeminine" unicode="&#xaa;" horiz-adv-x="418" 
d="M148 384q-43 0 -75 29t-32 78q0 30 17 51.5t45 32t54.5 15t53.5 4.5h14q-1 21 -8 29t-24 8q-19 0 -19 -11v-9h-112v46q0 21 14.5 35.5t37.5 21t42 9t37 2.5q80 0 115.5 -37.5t35.5 -98.5v-82q0 -14 14 -14h23v-103h-85q-49 0 -57 31l-2 7h-2q-3 -5 -9.5 -12.5t-29 -19.5
t-48.5 -12zM182 475q33 0 44 47h-7q-58 0 -58 -27q0 -20 21 -20zM43 268v85h338v-85h-338z" />
    <glyph glyph-name="guillemotleft" unicode="&#xab;" horiz-adv-x="686" 
d="M312 282l164 206h158l-164 -206l164 -205h-158zM216 77l-164 205l164 206h158l-164 -206l164 -205h-158z" />
    <glyph glyph-name="logicalnot" unicode="&#xac;" 
d="M62 337v130h506v-335h-135v205h-371z" />
    <glyph glyph-name="registered" unicode="&#xae;" horiz-adv-x="772" 
d="M25 358q0 153 105 260.5t254 107.5q151 0 257 -107.5t106 -260.5t-106 -261.5t-257 -108.5q-148 0 -253.5 108.5t-105.5 261.5zM138 358q0 -112 71 -189.5t175 -77.5q106 0 178.5 77.5t72.5 189.5q0 111 -72.5 188t-178.5 77q-104 0 -175 -77t-71 -188zM254 187v273h-29
v74h192q56 0 89 -31t33 -84q0 -37 -19.5 -60.5t-38.5 -28.5v-2q15 -3 25 -19l22 -37q8 -12 18 -12h12v-73h-63q-36 0 -50 26l-44 80q-6 12 -31 12h-8v-118h-108zM362 377h27q40 0 40 42q0 41 -38 41h-29v-83z" />
    <glyph glyph-name="macron" unicode="&#xaf;" horiz-adv-x="471" 
d="M97 782v107h275v-107h-275z" />
    <glyph glyph-name="macron" unicode="&#x2c9;" horiz-adv-x="471" 
d="M97 782v107h275v-107h-275z" />
    <glyph glyph-name="degree" unicode="&#xb0;" horiz-adv-x="432" 
d="M216 385q-76 0 -128.5 50t-52.5 122q0 71 53 122t128 51t128 -51t53 -122q0 -72 -53 -122t-128 -50zM216 505q23 0 39 15.5t16 37.5q0 21 -16.5 36.5t-38.5 15.5t-38.5 -15.5t-16.5 -36.5q0 -22 16 -37.5t39 -15.5z" />
    <glyph glyph-name="plusminus" unicode="&#xb1;" 
d="M42 222v130h205v223h136v-223h205v-130h-205v-222h-136v222h-205zM52 -70h526v-130h-526v130z" />
    <glyph glyph-name="twosuperior" unicode="&#xb2;" horiz-adv-x="460" 
d="M107 268q-33 0 -44 15t-11 68q0 39 20.5 72t42 49t57.5 37q37 20 56 37t19 38q0 26 -32 26q-31 0 -31 -21v-20h-115v59q0 45 49 70.5t100 25.5q62 0 109 -35.5t47 -102.5q0 -34 -11.5 -60.5t-36.5 -47.5t-41 -31t-47 -26q-55 -28 -55 -40q0 -5 13 -5h76q6 0 6 6v31h115
v-92q0 -53 -53 -53h-233z" />
    <glyph glyph-name="threesuperior" unicode="&#xb3;" horiz-adv-x="460" 
d="M235 260q-31 0 -60 10.5t-49.5 25.5t-36.5 30t-23 26l-8 10l85 76q4 -7 12.5 -17t32 -27t45.5 -17q21 0 33 10t12 24q0 31 -47 31h-35l-16 68l54 81l17 20v2q-14 -2 -27 -2h-26q-7 0 -7 -8v-21h-115v84q0 27 10 38t38 11h266v-86l-71 -93q46 -14 66 -51t20 -76
q0 -69 -50.5 -109t-119.5 -40z" />
    <glyph glyph-name="acute" unicode="&#xb4;" horiz-adv-x="430" 
d="M130 761l81 150h157l-118 -150h-120z" />
    <glyph glyph-name="mu" unicode="&#xb5;" horiz-adv-x="666" 
d="M17 370v145h160q38 0 55.5 -17.5t17.5 -55.5v-229q0 -68 55 -68q53 0 81 40.5t28 101.5v228h173v-348q0 -22 22 -22h38v-145h-154q-35 0 -53.5 15.5t-18.5 42.5v7l1 12h-3l-5 -10t-16.5 -21t-30 -27t-45.5 -21.5t-62 -9.5l-42 4h-2q8 -48 8 -88v-104h-147v548
q0 22 -22 22h-38z" />
    <glyph glyph-name="mu" unicode="&#x3bc;" horiz-adv-x="666" 
d="M17 370v145h160q38 0 55.5 -17.5t17.5 -55.5v-229q0 -68 55 -68q53 0 81 40.5t28 101.5v228h173v-348q0 -22 22 -22h38v-145h-154q-35 0 -53.5 15.5t-18.5 42.5v7l1 12h-3l-5 -10t-16.5 -21t-30 -27t-45.5 -21.5t-62 -9.5l-42 4h-2q8 -48 8 -88v-104h-147v548
q0 22 -22 22h-38z" />
    <glyph glyph-name="paragraph" unicode="&#xb6;" horiz-adv-x="665" 
d="M268 -50v291q-97 0 -165 69t-68 169t68 168t165 68h357v-150h-237v-615h-120zM450 -50v565h120v-565h-120z" />
    <glyph glyph-name="periodcentered" unicode="&#xb7;" horiz-adv-x="304" 
d="M73 213v164h158v-164h-158z" />
    <glyph glyph-name="periodcentered" unicode="&#x2219;" horiz-adv-x="304" 
d="M73 213v164h158v-164h-158z" />
    <glyph glyph-name="cedilla" unicode="&#xb8;" horiz-adv-x="425" 
d="M166 29l72 -17v-7l-10 -41q75 -8 75 -80q0 -50 -34 -72t-83 -22q-17 0 -34.5 2t-27.5 4l-9 3v87q23 -10 45 -10q38 0 38 23q0 21 -41 21l-26 -2z" />
    <glyph glyph-name="onesuperior" unicode="&#xb9;" horiz-adv-x="460" 
d="M66 268v108h90v149l1 30h-2q-3 -8 -9 -13l-25 -22l-72 79l124 116h109v-339h89v-108h-305z" />
    <glyph glyph-name="ordmasculine" unicode="&#xba;" horiz-adv-x="455" 
d="M227 385q-77 0 -129.5 47.5t-52.5 122.5t52.5 122.5t128.5 47.5q78 0 131 -47.5t53 -122.5t-53 -122.5t-130 -47.5zM227 488q27 0 45 18t18 49q0 30 -18.5 49t-44.5 19t-44.5 -19t-18.5 -49q0 -31 18 -49t45 -18zM58 268v85h338v-85h-338z" />
    <glyph glyph-name="guillemotright" unicode="&#xbb;" horiz-adv-x="686" 
d="M312 77l164 205l-164 206h158l164 -206l-164 -205h-158zM52 77l164 205l-164 206h158l164 -206l-164 -205h-158z" />
    <glyph glyph-name="onequarter" unicode="&#xbc;" horiz-adv-x="985" 
d="M325 0l261 715h127l-261 -715h-127zM76 268v108h90v149l1 30h-2q-3 -8 -9 -13l-25 -22l-72 79l124 116h109v-339h82v-108h-298zM570 101v71l150 276h159v-238h63v-109h-63v-101h-127v101h-182zM691 209q10 1 17 1h46v93l1 29h-2q-5 -16 -12 -29l-37 -73l-13 -19v-2z" />
    <glyph glyph-name="onehalf" unicode="&#xbd;" horiz-adv-x="985" 
d="M311 0l261 715h127l-261 -715h-127zM76 268v108h90v149l1 30h-2q-3 -8 -9 -13l-25 -22l-72 79l124 116h109v-339h82v-108h-298zM605 83q0 39 20.5 72t42 49t57.5 37q37 20 56 37t19 38q0 26 -32 26q-31 0 -31 -21v-20h-115v59q0 45 49 70.5t100 25.5q62 0 109 -35.5
t47 -102.5q0 -34 -11.5 -60.5t-36.5 -47.5t-41 -31t-47 -26q-55 -28 -55 -40q0 -5 13 -5h76q6 0 6 6v31h115v-92q0 -53 -53 -53h-233q-33 0 -44 15t-11 68z" />
    <glyph glyph-name="threequarters" unicode="&#xbe;" horiz-adv-x="985" 
d="M320 0l261 715h127l-261 -715h-127zM231 260q-31 0 -60 10.5t-49.5 25.5t-36.5 30t-23 26l-8 10l85 76q4 -7 12.5 -17t32 -27t45.5 -17q21 0 33 10t12 24q0 31 -47 31h-35l-16 68l54 81l17 20v2q-14 -2 -27 -2h-26q-7 0 -7 -8v-21h-115v84q0 27 10 38t38 11h266v-86
l-71 -93q46 -14 66 -51t20 -76q0 -69 -50.5 -109t-119.5 -40zM570 101v71l150 276h159v-238h63v-109h-63v-101h-127v101h-182zM691 209q10 1 17 1h46v93l1 29h-2q-5 -16 -12 -29l-37 -73l-13 -19v-2z" />
    <glyph glyph-name="questiondown" unicode="&#xbf;" horiz-adv-x="511" 
d="M210 365v150h158v-150h-158zM35 -14q0 45 17.5 82.5t43 61t50.5 44t42.5 43t17.5 46.5v31h166v-45q0 -37 -16 -68.5t-39 -52t-46.5 -39t-39.5 -39.5t-16 -44q0 -25 21 -42t50 -17q21 0 45 10.5t37 21.5l13 11l96 -117l-9 -9t-26 -20t-42.5 -25t-58 -20t-73.5 -9
q-92 0 -162.5 52.5t-70.5 143.5z" />
    <glyph glyph-name="Agrave" unicode="&#xc0;" horiz-adv-x="688" 
d="M10 0v150h19q12 0 17 4.5t10 17.5l195 543h186l195 -543q5 -13 10 -17.5t17 -4.5h19v-150h-115q-37 0 -55 12.5t-29 45.5l-31 92h-208l-31 -92q-11 -33 -29 -45.5t-55 -12.5h-115zM278 295h132l-36 119l-29 118h-2q-15 -73 -29 -118zM281 761l-118 150h157l81 -150h-120z
" />
    <glyph glyph-name="Aacute" unicode="&#xc1;" horiz-adv-x="688" 
d="M10 0v150h19q12 0 17 4.5t10 17.5l195 543h186l195 -543q5 -13 10 -17.5t17 -4.5h19v-150h-115q-37 0 -55 12.5t-29 45.5l-31 92h-208l-31 -92q-11 -33 -29 -45.5t-55 -12.5h-115zM278 295h132l-36 119l-29 118h-2q-15 -73 -29 -118zM281 761l81 150h157l-118 -150h-120z
" />
    <glyph glyph-name="Acircumflex" unicode="&#xc2;" horiz-adv-x="688" 
d="M10 0v150h19q12 0 17 4.5t10 17.5l195 543h186l195 -543q5 -13 10 -17.5t17 -4.5h19v-150h-115q-37 0 -55 12.5t-29 45.5l-31 92h-208l-31 -92q-11 -33 -29 -45.5t-55 -12.5h-115zM278 295h132l-36 119l-29 118h-2q-15 -73 -29 -118zM176 761l98 150h140l99 -150h-121
l-47 82h-2l-47 -82h-120z" />
    <glyph glyph-name="Atilde" unicode="&#xc3;" horiz-adv-x="688" 
d="M10 0v150h19q12 0 17 4.5t10 17.5l195 543h186l195 -543q5 -13 10 -17.5t17 -4.5h19v-150h-115q-37 0 -55 12.5t-29 45.5l-31 92h-208l-31 -92q-11 -33 -29 -45.5t-55 -12.5h-115zM278 295h132l-36 119l-29 118h-2q-15 -73 -29 -118zM143 761q0 153 131 153q30 0 54 -15
t42 -30t34 -15q41 0 41 57h101q0 -153 -131 -153q-30 0 -54 15t-42 30t-34 15q-41 0 -41 -57h-101z" />
    <glyph glyph-name="Adieresis" unicode="&#xc4;" horiz-adv-x="688" 
d="M10 0v150h19q12 0 17 4.5t10 17.5l195 543h186l195 -543q5 -13 10 -17.5t17 -4.5h19v-150h-115q-37 0 -55 12.5t-29 45.5l-31 92h-208l-31 -92q-11 -33 -29 -45.5t-55 -12.5h-115zM278 295h132l-36 119l-29 118h-2q-15 -73 -29 -118zM390 771v140h112v-140h-112zM187 771
v140h112v-140h-112z" />
    <glyph glyph-name="Aring" unicode="&#xc5;" horiz-adv-x="688" 
d="M10 0v150h19q12 0 17 4.5t10 17.5l195 543h186l195 -543q5 -13 10 -17.5t17 -4.5h19v-150h-115q-37 0 -55 12.5t-29 45.5l-31 92h-208l-31 -92q-11 -33 -29 -45.5t-55 -12.5h-115zM278 295h132l-36 119l-29 118h-2q-15 -73 -29 -118zM344 747q-41 0 -71 22t-30 63
t30 63.5t71 22.5t71.5 -22.5t30.5 -63.5t-30.5 -63t-71.5 -22zM344 797q16 0 26.5 9.5t10.5 25.5t-10.5 26t-26.5 10q-15 0 -25.5 -10t-10.5 -26t10 -25.5t26 -9.5z" />
    <glyph glyph-name="AE" unicode="&#xc6;" horiz-adv-x="945" 
d="M10 0v150h19q12 0 17 4.5t10 17.5l235 543h538q38 0 55.5 -17.5t17.5 -55.5v-138h-160v39q0 22 -22 22h-97v-130h204v-150h-204v-113q0 -22 22 -22h99q22 0 22 22v39h160v-138q0 -38 -17.5 -55.5t-55.5 -17.5h-337q-38 0 -55.5 17.5t-17.5 55.5v212h-159l-85 -227
q-12 -33 -30 -45.5t-54 -12.5h-105zM341 435h102v130h-53z" />
    <glyph glyph-name="Ccedilla" unicode="&#xc7;" horiz-adv-x="720" 
d="M24 365q0 154 105.5 258t264.5 104q37 0 79.5 -8t88.5 -25t76 -52t30 -82v-94h-160v39q0 28 -34.5 42.5t-75.5 14.5q-82 0 -135 -51.5t-53 -145.5q0 -88 55 -150t134 -62q36 0 70 9.5t58 22.5t42.5 26t27.5 23l9 9l91 -127q-4 -5 -11.5 -13t-34.5 -28.5t-57 -37
t-78.5 -31t-99.5 -17.5l-6 -25q75 -8 75 -80q0 -50 -34 -72t-83 -22q-17 0 -34.5 2t-27.5 4l-9 3v87q23 -10 45 -10q38 0 38 23q0 21 -41 21l-26 -2l23 74q-143 19 -227.5 121.5t-84.5 251.5z" />
    <glyph glyph-name="Egrave" unicode="&#xc8;" horiz-adv-x="594" 
d="M93 73v492h-65v150h450q38 0 55.5 -17.5t17.5 -55.5v-138h-160v39q0 22 -22 22h-97v-130h204v-150h-204v-113q0 -22 22 -22h99q22 0 22 22v39h160v-138q0 -38 -17.5 -55.5t-55.5 -17.5h-336q-38 0 -55.5 17.5t-17.5 55.5zM236 761l-118 150h157l81 -150h-120z" />
    <glyph glyph-name="Eacute" unicode="&#xc9;" horiz-adv-x="594" 
d="M93 73v492h-65v150h450q38 0 55.5 -17.5t17.5 -55.5v-138h-160v39q0 22 -22 22h-97v-130h204v-150h-204v-113q0 -22 22 -22h99q22 0 22 22v39h160v-138q0 -38 -17.5 -55.5t-55.5 -17.5h-336q-38 0 -55.5 17.5t-17.5 55.5zM236 761l81 150h157l-118 -150h-120z" />
    <glyph glyph-name="Ecircumflex" unicode="&#xca;" horiz-adv-x="594" 
d="M93 73v492h-65v150h450q38 0 55.5 -17.5t17.5 -55.5v-138h-160v39q0 22 -22 22h-97v-130h204v-150h-204v-113q0 -22 22 -22h99q22 0 22 22v39h160v-138q0 -38 -17.5 -55.5t-55.5 -17.5h-336q-38 0 -55.5 17.5t-17.5 55.5zM131 761l98 150h140l99 -150h-121l-47 82h-2
l-47 -82h-120z" />
    <glyph glyph-name="Edieresis" unicode="&#xcb;" horiz-adv-x="594" 
d="M93 73v492h-65v150h450q38 0 55.5 -17.5t17.5 -55.5v-138h-160v39q0 22 -22 22h-97v-130h204v-150h-204v-113q0 -22 22 -22h99q22 0 22 22v39h160v-138q0 -38 -17.5 -55.5t-55.5 -17.5h-336q-38 0 -55.5 17.5t-17.5 55.5zM345 771v140h112v-140h-112zM142 771v140h112
v-140h-112z" />
    <glyph glyph-name="Igrave" unicode="&#xcc;" horiz-adv-x="381" 
d="M31 0v150h75v415h-75v150h319v-150h-75v-415h75v-150h-319zM127 761l-118 150h157l81 -150h-120z" />
    <glyph glyph-name="Iacute" unicode="&#xcd;" horiz-adv-x="381" 
d="M31 0v150h75v415h-75v150h319v-150h-75v-415h75v-150h-319zM127 761l81 150h157l-118 -150h-120z" />
    <glyph glyph-name="Icircumflex" unicode="&#xce;" horiz-adv-x="381" 
d="M31 0v150h75v415h-75v150h319v-150h-75v-415h75v-150h-319zM22 761l98 150h140l99 -150h-121l-47 82h-2l-47 -82h-120z" />
    <glyph glyph-name="Idieresis" unicode="&#xcf;" horiz-adv-x="381" 
d="M31 0v150h75v415h-75v150h319v-150h-75v-415h75v-150h-319zM236 771v140h112v-140h-112zM33 771v140h112v-140h-112z" />
    <glyph glyph-name="Eth" unicode="&#xd0;" horiz-adv-x="715" 
d="M93 73v211h-47v140h47v141h-65v150h294q170 0 269.5 -94.5t99.5 -261.5q0 -168 -99.5 -263.5t-269.5 -95.5h-156q-38 0 -55.5 17.5t-17.5 55.5zM272 172q0 -22 22 -22h21q90 0 140 54t50 155q0 100 -51 153t-139 53h-43v-141h90v-140h-90v-112z" />
    <glyph glyph-name="Ntilde" unicode="&#xd1;" horiz-adv-x="778" 
d="M28 0v150h43q22 0 22 22v543h161l198 -307q13 -20 28 -47t24 -43l8 -17h2q-8 62 -8 107v234q0 38 17.5 55.5t55.5 17.5h171v-150h-43q-22 0 -22 -22v-543h-160l-199 306q-13 20 -28 46.5t-24 43.5l-8 17h-2q8 -62 8 -107v-233q0 -38 -17.5 -55.5t-55.5 -17.5h-171z
M195 761q0 153 131 153q30 0 54 -15t42 -30t34 -15q41 0 41 57h101q0 -153 -131 -153q-30 0 -54 15t-42 30t-34 15q-41 0 -41 -57h-101z" />
    <glyph glyph-name="Ograve" unicode="&#xd2;" horiz-adv-x="796" 
d="M24 362q0 155 106.5 260t267.5 105t267.5 -105t106.5 -260q0 -159 -106.5 -266.5t-267.5 -107.5t-267.5 107.5t-106.5 266.5zM210 362q0 -89 54.5 -149t133.5 -60t133.5 60t54.5 149q0 85 -54.5 142.5t-133.5 57.5t-133.5 -57.5t-54.5 -142.5zM333 761l-118 150h157
l81 -150h-120z" />
    <glyph glyph-name="Oacute" unicode="&#xd3;" horiz-adv-x="796" 
d="M24 362q0 155 106.5 260t267.5 105t267.5 -105t106.5 -260q0 -159 -106.5 -266.5t-267.5 -107.5t-267.5 107.5t-106.5 266.5zM210 362q0 -89 54.5 -149t133.5 -60t133.5 60t54.5 149q0 85 -54.5 142.5t-133.5 57.5t-133.5 -57.5t-54.5 -142.5zM333 761l81 150h157
l-118 -150h-120z" />
    <glyph glyph-name="Ocircumflex" unicode="&#xd4;" horiz-adv-x="796" 
d="M24 362q0 155 106.5 260t267.5 105t267.5 -105t106.5 -260q0 -159 -106.5 -266.5t-267.5 -107.5t-267.5 107.5t-106.5 266.5zM210 362q0 -89 54.5 -149t133.5 -60t133.5 60t54.5 149q0 85 -54.5 142.5t-133.5 57.5t-133.5 -57.5t-54.5 -142.5zM228 761l98 150h140
l99 -150h-121l-47 82h-2l-47 -82h-120z" />
    <glyph glyph-name="Otilde" unicode="&#xd5;" horiz-adv-x="796" 
d="M24 362q0 155 106.5 260t267.5 105t267.5 -105t106.5 -260q0 -159 -106.5 -266.5t-267.5 -107.5t-267.5 107.5t-106.5 266.5zM210 362q0 -89 54.5 -149t133.5 -60t133.5 60t54.5 149q0 85 -54.5 142.5t-133.5 57.5t-133.5 -57.5t-54.5 -142.5zM195 761q0 153 131 153
q30 0 54 -15t42 -30t34 -15q41 0 41 57h101q0 -153 -131 -153q-30 0 -54 15t-42 30t-34 15q-41 0 -41 -57h-101z" />
    <glyph glyph-name="Odieresis" unicode="&#xd6;" horiz-adv-x="796" 
d="M24 362q0 155 106.5 260t267.5 105t267.5 -105t106.5 -260q0 -159 -106.5 -266.5t-267.5 -107.5t-267.5 107.5t-106.5 266.5zM210 362q0 -89 54.5 -149t133.5 -60t133.5 60t54.5 149q0 85 -54.5 142.5t-133.5 57.5t-133.5 -57.5t-54.5 -142.5zM442 771v140h112v-140h-112
zM239 771v140h112v-140h-112z" />
    <glyph glyph-name="multiply" unicode="&#xd7;" 
d="M44 92l182 195l-182 196l92 92l179 -192l180 192l92 -92l-183 -196l183 -195l-92 -92l-180 192l-179 -192z" />
    <glyph glyph-name="Oslash" unicode="&#xd8;" horiz-adv-x="796" 
d="M103 20l43 60q-122 109 -122 282q0 155 106.5 260t267.5 105q102 0 184 -45l44 61l70 -47l-44 -61q120 -107 120 -273q0 -159 -106.5 -266.5t-267.5 -107.5q-99 0 -182 44l-43 -60zM253 227l228 315q-38 20 -83 20q-79 0 -133.5 -57.5t-54.5 -142.5q0 -78 43 -135z
M317 172q37 -19 81 -19q79 0 133.5 60t54.5 149q0 71 -41 125z" />
    <glyph glyph-name="Ugrave" unicode="&#xd9;" horiz-adv-x="758" 
d="M85 263v280q0 22 -22 22h-43v150h171q38 0 55.5 -17.5t17.5 -55.5v-374q0 -55 31.5 -85t83.5 -30t83.5 30t31.5 85v374q0 38 17.5 55.5t55.5 17.5h171v-150h-43q-22 0 -22 -22v-280q0 -122 -80.5 -198.5t-212.5 -76.5q-133 0 -214 76.5t-81 198.5zM316 761l-118 150h157
l81 -150h-120z" />
    <glyph glyph-name="Uacute" unicode="&#xda;" horiz-adv-x="758" 
d="M85 263v280q0 22 -22 22h-43v150h171q38 0 55.5 -17.5t17.5 -55.5v-374q0 -55 31.5 -85t83.5 -30t83.5 30t31.5 85v374q0 38 17.5 55.5t55.5 17.5h171v-150h-43q-22 0 -22 -22v-280q0 -122 -80.5 -198.5t-212.5 -76.5q-133 0 -214 76.5t-81 198.5zM316 761l81 150h157
l-118 -150h-120z" />
    <glyph glyph-name="Ucircumflex" unicode="&#xdb;" horiz-adv-x="758" 
d="M85 263v280q0 22 -22 22h-43v150h171q38 0 55.5 -17.5t17.5 -55.5v-374q0 -55 31.5 -85t83.5 -30t83.5 30t31.5 85v374q0 38 17.5 55.5t55.5 17.5h171v-150h-43q-22 0 -22 -22v-280q0 -122 -80.5 -198.5t-212.5 -76.5q-133 0 -214 76.5t-81 198.5zM211 761l98 150h140
l99 -150h-121l-47 82h-2l-47 -82h-120z" />
    <glyph glyph-name="Udieresis" unicode="&#xdc;" horiz-adv-x="758" 
d="M85 263v280q0 22 -22 22h-43v150h171q38 0 55.5 -17.5t17.5 -55.5v-374q0 -55 31.5 -85t83.5 -30t83.5 30t31.5 85v374q0 38 17.5 55.5t55.5 17.5h171v-150h-43q-22 0 -22 -22v-280q0 -122 -80.5 -198.5t-212.5 -76.5q-133 0 -214 76.5t-81 198.5zM425 771v140h112v-140
h-112zM222 771v140h112v-140h-112z" />
    <glyph glyph-name="Yacute" unicode="&#xdd;" horiz-adv-x="633" 
d="M227 0v313l-152 230q-10 16 -15 19t-21 3h-29v150h98q35 0 55 -9.5t37 -38.5l73 -123l43 -80h2q16 34 43 80l72 123q17 29 37 38.5t55 9.5h98v-150h-29q-16 0 -21 -3t-15 -19l-152 -230v-313h-179zM254 761l81 150h157l-118 -150h-120z" />
    <glyph glyph-name="Thorn" unicode="&#xde;" 
d="M93 0v543q0 22 -22 22h-43v150h171q38 0 55.5 -17.5t17.5 -55.5v-33h103q104 0 168.5 -69t64.5 -177q0 -109 -64.5 -178.5t-168.5 -69.5h-103v-115h-179zM272 265h67q42 0 64 27t22 71t-21.5 70t-61.5 26h-70v-194z" />
    <glyph glyph-name="germandbls" unicode="&#xdf;" 
d="M17 0v145h30q22 0 22 22v360q0 94 75 147t180 53q94 0 162.5 -54.5t68.5 -138.5q0 -34 -18 -62.5t-36 -52t-18 -45.5q0 -13 14 -28t33.5 -31t39 -35.5t33.5 -50t14 -66.5q0 -84 -56 -129.5t-138 -45.5q-43 0 -78 7t-49 15l-14 7l31 134q39 -19 81 -19q50 0 50 42
q0 15 -21 34.5t-46.5 38t-46.5 51.5t-21 72q0 31 18 60t36 54t18 46q0 24 -16.5 38.5t-45.5 14.5q-77 0 -77 -68v-442q0 -38 -17.5 -55.5t-55.5 -17.5h-152z" />
    <glyph glyph-name="agrave" unicode="&#xe0;" horiz-adv-x="584" 
d="M28 154q0 53 34 90t87.5 53t95.5 21.5t82 5.5h7v6q0 36 -16.5 51.5t-49.5 15.5q-45 0 -45 -25v-23h-160v57q0 121 205 121q239 0 239 -210v-150q0 -22 22 -22h38v-145h-150q-34 0 -51 16.5t-17 37.5v9h-2q-1 -3 -4.5 -8t-15.5 -18t-26.5 -23t-41 -18t-56.5 -8
q-74 0 -124.5 45.5t-50.5 120.5zM202 163q0 -19 12.5 -31t36.5 -12q33 0 59 29t26 62v8h-16q-47 0 -82.5 -14t-35.5 -42zM217 565l-118 150h157l81 -150h-120z" />
    <glyph glyph-name="aacute" unicode="&#xe1;" horiz-adv-x="584" 
d="M28 154q0 53 34 90t87.5 53t95.5 21.5t82 5.5h7v6q0 36 -16.5 51.5t-49.5 15.5q-45 0 -45 -25v-23h-160v57q0 121 205 121q239 0 239 -210v-150q0 -22 22 -22h38v-145h-150q-34 0 -51 16.5t-17 37.5v9h-2q-1 -3 -4.5 -8t-15.5 -18t-26.5 -23t-41 -18t-56.5 -8
q-74 0 -124.5 45.5t-50.5 120.5zM202 163q0 -19 12.5 -31t36.5 -12q33 0 59 29t26 62v8h-16q-47 0 -82.5 -14t-35.5 -42zM217 565l81 150h157l-118 -150h-120z" />
    <glyph glyph-name="acircumflex" unicode="&#xe2;" horiz-adv-x="584" 
d="M28 154q0 53 34 90t87.5 53t95.5 21.5t82 5.5h7v6q0 36 -16.5 51.5t-49.5 15.5q-45 0 -45 -25v-23h-160v57q0 121 205 121q239 0 239 -210v-150q0 -22 22 -22h38v-145h-150q-34 0 -51 16.5t-17 37.5v9h-2q-1 -3 -4.5 -8t-15.5 -18t-26.5 -23t-41 -18t-56.5 -8
q-74 0 -124.5 45.5t-50.5 120.5zM202 163q0 -19 12.5 -31t36.5 -12q33 0 59 29t26 62v8h-16q-47 0 -82.5 -14t-35.5 -42zM112 565l98 150h140l99 -150h-121l-47 82h-2l-47 -82h-120z" />
    <glyph glyph-name="atilde" unicode="&#xe3;" horiz-adv-x="584" 
d="M28 154q0 53 34 90t87.5 53t95.5 21.5t82 5.5h7v6q0 36 -16.5 51.5t-49.5 15.5q-45 0 -45 -25v-23h-160v57q0 121 205 121q239 0 239 -210v-150q0 -22 22 -22h38v-145h-150q-34 0 -51 16.5t-17 37.5v9h-2q-1 -3 -4.5 -8t-15.5 -18t-26.5 -23t-41 -18t-56.5 -8
q-74 0 -124.5 45.5t-50.5 120.5zM202 163q0 -19 12.5 -31t36.5 -12q33 0 59 29t26 62v8h-16q-47 0 -82.5 -14t-35.5 -42zM79 565q0 153 131 153q30 0 54 -15t42 -30t34 -15q41 0 41 57h101q0 -153 -131 -153q-30 0 -54 15t-42 30t-34 15q-41 0 -41 -57h-101z" />
    <glyph glyph-name="adieresis" unicode="&#xe4;" horiz-adv-x="584" 
d="M28 154q0 53 34 90t87.5 53t95.5 21.5t82 5.5h7v6q0 36 -16.5 51.5t-49.5 15.5q-45 0 -45 -25v-23h-160v57q0 121 205 121q239 0 239 -210v-150q0 -22 22 -22h38v-145h-150q-34 0 -51 16.5t-17 37.5v9h-2q-1 -3 -4.5 -8t-15.5 -18t-26.5 -23t-41 -18t-56.5 -8
q-74 0 -124.5 45.5t-50.5 120.5zM202 163q0 -19 12.5 -31t36.5 -12q33 0 59 29t26 62v8h-16q-47 0 -82.5 -14t-35.5 -42zM326 575v140h112v-140h-112zM123 575v140h112v-140h-112z" />
    <glyph glyph-name="aring" unicode="&#xe5;" horiz-adv-x="584" 
d="M28 154q0 53 34 90t87.5 53t95.5 21.5t82 5.5h7v6q0 36 -16.5 51.5t-49.5 15.5q-45 0 -45 -25v-23h-160v57q0 121 205 121q239 0 239 -210v-150q0 -22 22 -22h38v-145h-150q-34 0 -51 16.5t-17 37.5v9h-2q-1 -3 -4.5 -8t-15.5 -18t-26.5 -23t-41 -18t-56.5 -8
q-74 0 -124.5 45.5t-50.5 120.5zM202 163q0 -19 12.5 -31t36.5 -12q33 0 59 29t26 62v8h-16q-47 0 -82.5 -14t-35.5 -42zM280 551q-41 0 -71 22t-30 63t30 63.5t71 22.5t71.5 -22.5t30.5 -63.5t-30.5 -63t-71.5 -22zM280 601q16 0 26.5 9.5t10.5 25.5t-10.5 26t-26.5 10
q-15 0 -25.5 -10t-10.5 -26t10 -25.5t26 -9.5z" />
    <glyph glyph-name="ae" unicode="&#xe6;" horiz-adv-x="862" 
d="M29 154q0 43 24 76t58 50.5t78.5 28.5t77.5 14t64 3h4v8q0 63 -67 63q-45 0 -45 -25v-23h-160v57q0 121 205 121q110 0 167 -51h2q62 51 154 51q97 0 158 -55.5t76 -146.5q4 -23 4 -52l-4 -52h-325q9 -46 42 -67.5t78 -21.5q33 0 67 13.5t52 26.5l18 14l69 -116
q-3 -3 -9.5 -8.5t-28.5 -20t-45.5 -25t-61 -19.5t-75.5 -9q-133 0 -207 90h-2q-16 -29 -65 -59t-128 -30q-74 0 -124.5 45.5t-50.5 119.5zM505 326h147q0 26 -17 48.5t-44 22.5q-65 0 -86 -71zM203 163q0 -43 51 -43q34 0 59 29.5t25 62.5v9h-17q-47 0 -82.5 -15t-35.5 -43z
" />
    <glyph glyph-name="ccedilla" unicode="&#xe7;" horiz-adv-x="546" 
d="M25 258q0 110 76.5 189.5t214.5 79.5q30 0 60.5 -6t61 -19t49.5 -38t19 -58v-71h-150v27q0 22 -40 22q-53 0 -85 -35.5t-32 -88.5q0 -61 38 -92t92 -31q33 0 68.5 16.5t54.5 33.5l19 17l69 -116q-3 -4 -9.5 -10.5t-27.5 -23.5t-45 -30t-61.5 -24t-77.5 -12l-6 -24
q75 -8 75 -80q0 -50 -34 -72t-83 -22q-17 0 -34.5 2t-26.5 4l-10 3v87q23 -10 45 -10q38 0 38 23q0 21 -41 21l-26 -2l24 78q-101 20 -158 93t-57 169z" />
    <glyph glyph-name="egrave" unicode="&#xe8;" horiz-adv-x="564" 
d="M25 258q0 116 73 192.5t195 76.5q111 0 174.5 -69.5t63.5 -179.5l-4 -52h-325q9 -46 42.5 -70t77.5 -24q33 0 67 13.5t52 26.5l18 14l69 -116q-3 -3 -9.5 -8.5t-28.5 -20t-45.5 -25t-61 -19.5t-75.5 -9q-131 0 -207 80t-76 190zM207 331h147q0 25 -17.5 45.5t-43.5 20.5
q-67 0 -86 -66zM226 565l-118 150h157l81 -150h-120z" />
    <glyph glyph-name="eacute" unicode="&#xe9;" horiz-adv-x="564" 
d="M25 258q0 116 73 192.5t195 76.5q111 0 174.5 -69.5t63.5 -179.5l-4 -52h-325q9 -46 42.5 -70t77.5 -24q33 0 67 13.5t52 26.5l18 14l69 -116q-3 -3 -9.5 -8.5t-28.5 -20t-45.5 -25t-61 -19.5t-75.5 -9q-131 0 -207 80t-76 190zM207 331h147q0 25 -17.5 45.5t-43.5 20.5
q-67 0 -86 -66zM226 565l81 150h157l-118 -150h-120z" />
    <glyph glyph-name="ecircumflex" unicode="&#xea;" horiz-adv-x="564" 
d="M25 258q0 116 73 192.5t195 76.5q111 0 174.5 -69.5t63.5 -179.5l-4 -52h-325q9 -46 42.5 -70t77.5 -24q33 0 67 13.5t52 26.5l18 14l69 -116q-3 -3 -9.5 -8.5t-28.5 -20t-45.5 -25t-61 -19.5t-75.5 -9q-131 0 -207 80t-76 190zM207 331h147q0 25 -17.5 45.5t-43.5 20.5
q-67 0 -86 -66zM121 565l98 150h140l99 -150h-121l-47 82h-2l-47 -82h-120z" />
    <glyph glyph-name="edieresis" unicode="&#xeb;" horiz-adv-x="564" 
d="M25 258q0 116 73 192.5t195 76.5q111 0 174.5 -69.5t63.5 -179.5l-4 -52h-325q9 -46 42.5 -70t77.5 -24q33 0 67 13.5t52 26.5l18 14l69 -116q-3 -3 -9.5 -8.5t-28.5 -20t-45.5 -25t-61 -19.5t-75.5 -9q-131 0 -207 80t-76 190zM207 331h147q0 25 -17.5 45.5t-43.5 20.5
q-67 0 -86 -66zM335 575v140h112v-140h-112zM132 575v140h112v-140h-112z" />
    <glyph glyph-name="igrave" unicode="&#xec;" horiz-adv-x="341" 
d="M84 73v275q0 22 -22 22h-38v145h160q38 0 55.5 -17.5t17.5 -55.5v-275q0 -22 22 -22h38v-145h-160q-38 0 -55.5 17.5t-17.5 55.5zM99 565l-118 150h157l81 -150h-120z" />
    <glyph glyph-name="iacute" unicode="&#xed;" horiz-adv-x="341" 
d="M84 73v275q0 22 -22 22h-38v145h160q38 0 55.5 -17.5t17.5 -55.5v-275q0 -22 22 -22h38v-145h-160q-38 0 -55.5 17.5t-17.5 55.5zM99 565l81 150h157l-118 -150h-120z" />
    <glyph glyph-name="icircumflex" unicode="&#xee;" horiz-adv-x="341" 
d="M84 73v275q0 22 -22 22h-38v145h160q38 0 55.5 -17.5t17.5 -55.5v-275q0 -22 22 -22h38v-145h-160q-38 0 -55.5 17.5t-17.5 55.5zM-6 565l98 150h140l99 -150h-121l-47 82h-2l-47 -82h-120z" />
    <glyph glyph-name="idieresis" unicode="&#xef;" horiz-adv-x="341" 
d="M84 73v275q0 22 -22 22h-38v145h160q38 0 55.5 -17.5t17.5 -55.5v-275q0 -22 22 -22h38v-145h-160q-38 0 -55.5 17.5t-17.5 55.5zM193 575v140h112v-140h-112zM15 575v140h112v-140h-112z" />
    <glyph glyph-name="eth" unicode="&#xf0;" horiz-adv-x="601" 
d="M39 241q0 91 63.5 157t167.5 66q17 0 34.5 -2t25.5 -4l9 -3h2q-25 38 -70 63l-192 -79v95l92 39q-52 22 -95 30l48 135q132 -28 232 -89l161 67v-95l-81 -34q127 -122 127 -304q0 -43 -8.5 -83.5t-29 -79.5t-50.5 -68t-77 -46.5t-105 -17.5q-116 0 -185 75t-69 178z
M213 236q0 -44 20 -74t63 -30q48 0 70.5 34.5t22.5 83.5q0 37 -22 59.5t-61 22.5q-45 0 -69 -27.5t-24 -68.5z" />
    <glyph glyph-name="ntilde" unicode="&#xf1;" horiz-adv-x="671" 
d="M79 0v348q0 22 -22 22h-38v145h154q35 0 53.5 -15.5t18.5 -42.5v-7l-1 -12h2q53 89 163 89q185 0 185 -193v-167q0 -22 22 -22h38v-145h-160q-38 0 -55.5 17.5t-17.5 55.5v229q0 68 -57 68q-77 0 -102 -74q-10 -29 -10 -68v-228h-173zM138 565q0 153 131 153q30 0 54 -15
t42 -30t34 -15q41 0 41 57h101q0 -153 -131 -153q-30 0 -54 15t-42 30t-34 15q-41 0 -41 -57h-101z" />
    <glyph glyph-name="ograve" unicode="&#xf2;" horiz-adv-x="632" 
d="M25 256q0 120 83.5 195.5t206.5 75.5q124 0 208 -75.5t84 -195.5q0 -119 -83.5 -193.5t-207.5 -74.5t-207.5 74.5t-83.5 193.5zM199 256q0 -56 34 -90t83 -34t83 34t34 90q0 57 -34 92t-83 35t-83 -35t-34 -92zM253 565l-118 150h157l81 -150h-120z" />
    <glyph glyph-name="oacute" unicode="&#xf3;" horiz-adv-x="632" 
d="M25 256q0 120 83.5 195.5t206.5 75.5q124 0 208 -75.5t84 -195.5q0 -119 -83.5 -193.5t-207.5 -74.5t-207.5 74.5t-83.5 193.5zM199 256q0 -56 34 -90t83 -34t83 34t34 90q0 57 -34 92t-83 35t-83 -35t-34 -92zM253 565l81 150h157l-118 -150h-120z" />
    <glyph glyph-name="ocircumflex" unicode="&#xf4;" horiz-adv-x="632" 
d="M25 256q0 120 83.5 195.5t206.5 75.5q124 0 208 -75.5t84 -195.5q0 -119 -83.5 -193.5t-207.5 -74.5t-207.5 74.5t-83.5 193.5zM199 256q0 -56 34 -90t83 -34t83 34t34 90q0 57 -34 92t-83 35t-83 -35t-34 -92zM148 565l98 150h140l99 -150h-121l-47 82h-2l-47 -82h-120z
" />
    <glyph glyph-name="otilde" unicode="&#xf5;" horiz-adv-x="632" 
d="M25 256q0 120 83.5 195.5t206.5 75.5q124 0 208 -75.5t84 -195.5q0 -119 -83.5 -193.5t-207.5 -74.5t-207.5 74.5t-83.5 193.5zM199 256q0 -56 34 -90t83 -34t83 34t34 90q0 57 -34 92t-83 35t-83 -35t-34 -92zM115 565q0 153 131 153q30 0 54 -15t42 -30t34 -15
q41 0 41 57h101q0 -153 -131 -153q-30 0 -54 15t-42 30t-34 15q-41 0 -41 -57h-101z" />
    <glyph glyph-name="odieresis" unicode="&#xf6;" horiz-adv-x="632" 
d="M25 256q0 120 83.5 195.5t206.5 75.5q124 0 208 -75.5t84 -195.5q0 -119 -83.5 -193.5t-207.5 -74.5t-207.5 74.5t-83.5 193.5zM199 256q0 -56 34 -90t83 -34t83 34t34 90q0 57 -34 92t-83 35t-83 -35t-34 -92zM362 575v140h112v-140h-112zM159 575v140h112v-140h-112z
" />
    <glyph glyph-name="divide" unicode="&#xf7;" 
d="M242 440v135h146v-135h-146zM42 222v130h546v-130h-546zM242 0v135h146v-135h-146z" />
    <glyph glyph-name="oslash" unicode="&#xf8;" horiz-adv-x="632" 
d="M84 -4l39 54q-98 77 -98 206q0 120 83.5 195.5t206.5 75.5q70 0 132 -27l43 59l66 -45l-41 -56q92 -77 92 -202q0 -119 -83.5 -193.5t-207.5 -74.5q-65 0 -123 22l-43 -60zM219 183l138 192q-21 8 -41 8q-49 0 -83 -35t-34 -92q0 -42 20 -73zM284 136q13 -4 32 -4
q49 0 83 34t34 90q0 36 -16 65z" />
    <glyph glyph-name="ugrave" unicode="&#xf9;" horiz-adv-x="666" 
d="M77 181v167q0 22 -22 22h-38v145h160q38 0 55.5 -17.5t17.5 -55.5v-229q0 -68 55 -68q53 0 81 40.5t28 101.5v228h173v-348q0 -22 22 -22h38v-145h-153q-35 0 -54 15.5t-19 42.5v7l1 12h-2q-21 -41 -64.5 -65t-95.5 -24q-84 0 -133.5 45.5t-49.5 147.5zM264 565l-118 150
h157l81 -150h-120z" />
    <glyph glyph-name="uacute" unicode="&#xfa;" horiz-adv-x="666" 
d="M77 181v167q0 22 -22 22h-38v145h160q38 0 55.5 -17.5t17.5 -55.5v-229q0 -68 55 -68q53 0 81 40.5t28 101.5v228h173v-348q0 -22 22 -22h38v-145h-153q-35 0 -54 15.5t-19 42.5v7l1 12h-2q-21 -41 -64.5 -65t-95.5 -24q-84 0 -133.5 45.5t-49.5 147.5zM264 565l81 150
h157l-118 -150h-120z" />
    <glyph glyph-name="ucircumflex" unicode="&#xfb;" horiz-adv-x="666" 
d="M77 181v167q0 22 -22 22h-38v145h160q38 0 55.5 -17.5t17.5 -55.5v-229q0 -68 55 -68q53 0 81 40.5t28 101.5v228h173v-348q0 -22 22 -22h38v-145h-153q-35 0 -54 15.5t-19 42.5v7l1 12h-2q-21 -41 -64.5 -65t-95.5 -24q-84 0 -133.5 45.5t-49.5 147.5zM159 565l98 150
h140l99 -150h-121l-47 82h-2l-47 -82h-120z" />
    <glyph glyph-name="udieresis" unicode="&#xfc;" horiz-adv-x="666" 
d="M77 181v167q0 22 -22 22h-38v145h160q38 0 55.5 -17.5t17.5 -55.5v-229q0 -68 55 -68q53 0 81 40.5t28 101.5v228h173v-348q0 -22 22 -22h38v-145h-153q-35 0 -54 15.5t-19 42.5v7l1 12h-2q-21 -41 -64.5 -65t-95.5 -24q-84 0 -133.5 45.5t-49.5 147.5zM373 575v140h112
v-140h-112zM170 575v140h112v-140h-112z" />
    <glyph glyph-name="yacute" unicode="&#xfd;" horiz-adv-x="565" 
d="M58 -33q30 -33 71 -33q57 0 77 51l6 15l-163 354q-7 16 -22 16h-19v145h126q44 0 60 -42l76 -208l19 -80h2q9 52 17 80l57 208q5 20 22.5 31t38.5 11h129v-145h-19q-18 0 -24 -16l-156 -409q-31 -80 -89 -117.5t-126 -37.5q-40 0 -76 14t-53 28l-16 13zM224 565l81 150
h157l-118 -150h-120z" />
    <glyph glyph-name="thorn" unicode="&#xfe;" horiz-adv-x="645" 
d="M77 -200v748q0 22 -22 22h-38v145h160q38 0 55.5 -17.5t17.5 -55.5v-119l-2 -44h2q48 48 134 48q105 0 170.5 -76.5t65.5 -192.5t-65.5 -193t-170.5 -77q-43 0 -76.5 12t-45.5 24l-12 12h-2q2 -18 2 -44v-192h-173zM245 257q0 -125 104 -125q44 0 70.5 36.5t26.5 89.5
t-26.5 89t-70.5 36q-104 0 -104 -126z" />
    <glyph glyph-name="ydieresis" unicode="&#xff;" horiz-adv-x="565" 
d="M58 -33q30 -33 71 -33q57 0 77 51l6 15l-163 354q-7 16 -22 16h-19v145h126q44 0 60 -42l76 -208l19 -80h2q9 52 17 80l57 208q5 20 22.5 31t38.5 11h129v-145h-19q-18 0 -24 -16l-156 -409q-31 -80 -89 -117.5t-126 -37.5q-40 0 -76 14t-53 28l-16 13zM333 575v140h112
v-140h-112zM130 575v140h112v-140h-112z" />
    <glyph glyph-name="Amacron" unicode="&#x100;" horiz-adv-x="688" 
d="M10 0v150h19q12 0 17 4.5t10 17.5l195 543h186l195 -543q5 -13 10 -17.5t17 -4.5h19v-150h-115q-37 0 -55 12.5t-29 45.5l-31 92h-208l-31 -92q-11 -33 -29 -45.5t-55 -12.5h-115zM278 295h132l-36 119l-29 118h-2q-15 -73 -29 -118zM207 782v107h275v-107h-275z" />
    <glyph glyph-name="amacron" unicode="&#x101;" horiz-adv-x="584" 
d="M28 154q0 53 34 90t87.5 53t95.5 21.5t82 5.5h7v6q0 36 -16.5 51.5t-49.5 15.5q-45 0 -45 -25v-23h-160v57q0 121 205 121q239 0 239 -210v-150q0 -22 22 -22h38v-145h-150q-34 0 -51 16.5t-17 37.5v9h-2q-1 -3 -4.5 -8t-15.5 -18t-26.5 -23t-41 -18t-56.5 -8
q-74 0 -124.5 45.5t-50.5 120.5zM202 163q0 -19 12.5 -31t36.5 -12q33 0 59 29t26 62v8h-16q-47 0 -82.5 -14t-35.5 -42zM143 586v107h275v-107h-275z" />
    <glyph glyph-name="Abreve" unicode="&#x102;" horiz-adv-x="688" 
d="M10 0v150h19q12 0 17 4.5t10 17.5l195 543h186l195 -543q5 -13 10 -17.5t17 -4.5h19v-150h-115q-37 0 -55 12.5t-29 45.5l-31 92h-208l-31 -92q-11 -33 -29 -45.5t-55 -12.5h-115zM278 295h132l-36 119l-29 118h-2q-15 -73 -29 -118zM344 756q-65 0 -115.5 39.5
t-50.5 105.5v10h104v-11q0 -28 19 -43t43 -15t43 15t19 43v11h104v-10q0 -66 -50.5 -105.5t-115.5 -39.5z" />
    <glyph glyph-name="abreve" unicode="&#x103;" horiz-adv-x="584" 
d="M28 154q0 53 34 90t87.5 53t95.5 21.5t82 5.5h7v6q0 36 -16.5 51.5t-49.5 15.5q-45 0 -45 -25v-23h-160v57q0 121 205 121q239 0 239 -210v-150q0 -22 22 -22h38v-145h-150q-34 0 -51 16.5t-17 37.5v9h-2q-1 -3 -4.5 -8t-15.5 -18t-26.5 -23t-41 -18t-56.5 -8
q-74 0 -124.5 45.5t-50.5 120.5zM202 163q0 -19 12.5 -31t36.5 -12q33 0 59 29t26 62v8h-16q-47 0 -82.5 -14t-35.5 -42zM280 560q-65 0 -115.5 39.5t-50.5 105.5v10h104v-11q0 -28 19 -43t43 -15t43 15t19 43v11h104v-10q0 -66 -50.5 -105.5t-115.5 -39.5z" />
    <glyph glyph-name="Aogonek" unicode="&#x104;" horiz-adv-x="688" 
d="M10 0v150h19q12 0 17 4.5t10 17.5l195 543h186l195 -543q5 -13 10 -17.5t17 -4.5h19v-150q-42 -40 -42 -61q0 -10 9.5 -16t18.5 -7l10 -2l-42 -124q-5 1 -14 2t-32 8t-40.5 17t-32 29t-14.5 43q0 58 65 110v2q-39 0 -56.5 12t-28.5 45l-31 92h-208l-31 -92
q-11 -33 -29 -45.5t-55 -12.5h-115zM278 295h132l-36 119l-29 118h-2q-15 -73 -29 -118z" />
    <glyph glyph-name="aogonek" unicode="&#x105;" horiz-adv-x="584" 
d="M28 154q0 54 34 90.5t88 52.5t96.5 21.5t83.5 5.5h4v6q0 36 -16.5 51.5t-49.5 15.5q-45 0 -45 -25v-23h-160v57q0 121 205 121q239 0 239 -210v-150q0 -22 22 -22h38v-145q-42 -40 -42 -61q0 -10 9.5 -16t19.5 -7l9 -2l-42 -124q-5 1 -14 2t-32 8t-40.5 17t-32 29
t-14.5 43q0 56 66 109v2h-37q-33 0 -51 16.5t-18 33.5v4l1 9h-2q-3 -5 -8.5 -13.5t-28 -27t-51.5 -26.5q-26 -8 -56 -8q-74 0 -124.5 45.5t-50.5 120.5zM202 163q0 -19 12.5 -31t36.5 -12q33 0 59 29t26 62v8h-16q-47 0 -82.5 -14t-35.5 -42z" />
    <glyph glyph-name="Cacute" unicode="&#x106;" horiz-adv-x="720" 
d="M24 365q0 154 105.5 258t264.5 104q37 0 79.5 -8t88.5 -25t76 -52t30 -82v-94h-160v39q0 28 -34.5 42.5t-75.5 14.5q-82 0 -135 -51.5t-53 -145.5q0 -88 56.5 -150t135.5 -62q35 0 69 9.5t57.5 22.5t41.5 26.5t27 22.5l9 10l91 -128q-4 -5 -12.5 -13.5t-37.5 -31t-61 -39
t-83 -30.5t-104 -14q-167 0 -271 107t-104 270zM326 761l81 150h157l-118 -150h-120z" />
    <glyph glyph-name="cacute" unicode="&#x107;" horiz-adv-x="546" 
d="M25 258q0 110 76.5 189.5t214.5 79.5q30 0 60.5 -6t61 -19t49.5 -38t19 -58v-71h-150v27q0 22 -40 22q-53 0 -85 -35.5t-32 -88.5q0 -61 38 -92t92 -31q33 0 68.5 16.5t54.5 33.5l19 17l69 -116q-3 -4 -9.5 -11t-28.5 -24t-46.5 -30t-63.5 -24t-80 -11q-132 0 -209.5 79
t-77.5 191zM229 565l81 150h157l-118 -150h-120z" />
    <glyph glyph-name="Ccircumflex" unicode="&#x108;" horiz-adv-x="720" 
d="M24 365q0 154 105.5 258t264.5 104q37 0 79.5 -8t88.5 -25t76 -52t30 -82v-94h-160v39q0 28 -34.5 42.5t-75.5 14.5q-82 0 -135 -51.5t-53 -145.5q0 -88 56.5 -150t135.5 -62q35 0 69 9.5t57.5 22.5t41.5 26.5t27 22.5l9 10l91 -128q-4 -5 -12.5 -13.5t-37.5 -31t-61 -39
t-83 -30.5t-104 -14q-167 0 -271 107t-104 270zM221 761l98 150h140l99 -150h-121l-47 82h-2l-47 -82h-120z" />
    <glyph glyph-name="ccircumflex" unicode="&#x109;" horiz-adv-x="546" 
d="M25 258q0 110 76.5 189.5t214.5 79.5q30 0 60.5 -6t61 -19t49.5 -38t19 -58v-71h-150v27q0 22 -40 22q-53 0 -85 -35.5t-32 -88.5q0 -61 38 -92t92 -31q33 0 68.5 16.5t54.5 33.5l19 17l69 -116q-3 -4 -9.5 -11t-28.5 -24t-46.5 -30t-63.5 -24t-80 -11q-132 0 -209.5 79
t-77.5 191zM124 565l98 150h140l99 -150h-121l-47 82h-2l-47 -82h-120z" />
    <glyph glyph-name="Cdotaccent" unicode="&#x10a;" horiz-adv-x="720" 
d="M24 365q0 154 105.5 258t264.5 104q37 0 79.5 -8t88.5 -25t76 -52t30 -82v-94h-160v39q0 28 -34.5 42.5t-75.5 14.5q-82 0 -135 -51.5t-53 -145.5q0 -88 56.5 -150t135.5 -62q35 0 69 9.5t57.5 22.5t41.5 26.5t27 22.5l9 10l91 -128q-4 -5 -12.5 -13.5t-37.5 -31t-61 -39
t-83 -30.5t-104 -14q-167 0 -271 107t-104 270zM317 771v140h145v-140h-145z" />
    <glyph glyph-name="cdotaccent" unicode="&#x10b;" horiz-adv-x="546" 
d="M25 258q0 110 76.5 189.5t214.5 79.5q30 0 60.5 -6t61 -19t49.5 -38t19 -58v-71h-150v27q0 22 -40 22q-53 0 -85 -35.5t-32 -88.5q0 -61 38 -92t92 -31q33 0 68.5 16.5t54.5 33.5l19 17l69 -116q-3 -4 -9.5 -11t-28.5 -24t-46.5 -30t-63.5 -24t-80 -11q-132 0 -209.5 79
t-77.5 191zM220 575v140h145v-140h-145z" />
    <glyph glyph-name="Ccaron" unicode="&#x10c;" horiz-adv-x="720" 
d="M24 365q0 154 105.5 258t264.5 104q37 0 79.5 -8t88.5 -25t76 -52t30 -82v-94h-160v39q0 28 -34.5 42.5t-75.5 14.5q-82 0 -135 -51.5t-53 -145.5q0 -88 56.5 -150t135.5 -62q35 0 69 9.5t57.5 22.5t41.5 26.5t27 22.5l9 10l91 -128q-4 -5 -12.5 -13.5t-37.5 -31t-61 -39
t-83 -30.5t-104 -14q-167 0 -271 107t-104 270zM319 761l-98 150h120l47 -82h2l47 82h121l-99 -150h-140z" />
    <glyph glyph-name="ccaron" unicode="&#x10d;" horiz-adv-x="546" 
d="M25 258q0 110 76.5 189.5t214.5 79.5q30 0 60.5 -6t61 -19t49.5 -38t19 -58v-71h-150v27q0 22 -40 22q-53 0 -85 -35.5t-32 -88.5q0 -61 38 -92t92 -31q33 0 68.5 16.5t54.5 33.5l19 17l69 -116q-3 -4 -9.5 -11t-28.5 -24t-46.5 -30t-63.5 -24t-80 -11q-132 0 -209.5 79
t-77.5 191zM222 565l-98 150h120l47 -82h2l47 82h121l-99 -150h-140z" />
    <glyph glyph-name="Dcaron" unicode="&#x10e;" horiz-adv-x="715" 
d="M93 73v492h-65v150h294q170 0 269.5 -94.5t99.5 -261.5q0 -168 -99.5 -263.5t-269.5 -95.5h-156q-38 0 -55.5 17.5t-17.5 55.5zM272 172q0 -22 22 -22h21q90 0 140 54t50 155q0 100 -51 153t-139 53h-43v-393zM254 761l-98 150h120l47 -82h2l47 82h121l-99 -150h-140z
" />
    <glyph glyph-name="dcaron" unicode="&#x10f;" horiz-adv-x="762" 
d="M25 258q0 121 65.5 195t169.5 74q46 0 80 -9t44 -18l11 -9h2q-1 10 -1 23v34q0 22 -22 22h-38v145h160q38 0 55.5 -17.5t17.5 -55.5v-475q0 -22 22 -22h38v-145h-154q-34 0 -50.5 14.5t-16.5 34.5v9h-2q-2 -3 -5.5 -7.5t-16.5 -16.5t-28.5 -21.5t-42 -17t-56.5 -7.5
q-105 0 -168.5 74.5t-63.5 195.5zM300 131q43 0 72 32t29 95q0 50 -26.5 86.5t-74.5 36.5q-43 0 -72 -33t-29 -90t28 -92t73 -35zM604 715h122q7 -27 7 -53q0 -45 -28 -98h-109q20 55 20 88q0 31 -12 63z" />
    <glyph glyph-name="Dcroat" unicode="&#x110;" horiz-adv-x="715" 
d="M93 73v211h-47v140h47v141h-65v150h294q170 0 269.5 -94.5t99.5 -261.5q0 -168 -99.5 -263.5t-269.5 -95.5h-156q-38 0 -55.5 17.5t-17.5 55.5zM272 172q0 -22 22 -22h21q90 0 140 54t50 155q0 100 -51 153t-139 53h-43v-141h90v-140h-90v-112z" />
    <glyph glyph-name="dcroat" unicode="&#x111;" horiz-adv-x="651" 
d="M257 -12q-105 0 -168.5 74.5t-63.5 195.5t65.5 195t169.5 74q46 0 80 -9t44 -18l11 -9h2q-1 10 -1 23v40h-123v95h123v66h173v-66h69v-95h-69v-387q0 -22 22 -22h38v-145h-154q-34 0 -50.5 14.5t-16.5 34.5v9h-2q-2 -3 -5.5 -7.5t-16.5 -16.5t-28.5 -21.5t-42 -17
t-56.5 -7.5zM300 131q43 0 72 32t29 95q0 50 -26.5 86.5t-74.5 36.5q-43 0 -72 -33t-29 -90t28 -92t73 -35z" />
    <glyph glyph-name="Emacron" unicode="&#x112;" horiz-adv-x="594" 
d="M93 73v492h-65v150h450q38 0 55.5 -17.5t17.5 -55.5v-138h-160v39q0 22 -22 22h-97v-130h204v-150h-204v-113q0 -22 22 -22h99q22 0 22 22v39h160v-138q0 -38 -17.5 -55.5t-55.5 -17.5h-336q-38 0 -55.5 17.5t-17.5 55.5zM162 782v107h275v-107h-275z" />
    <glyph glyph-name="emacron" unicode="&#x113;" horiz-adv-x="564" 
d="M25 258q0 116 73 192.5t195 76.5q111 0 174.5 -69.5t63.5 -179.5l-4 -52h-325q9 -46 42.5 -70t77.5 -24q33 0 67 13.5t52 26.5l18 14l69 -116q-3 -3 -9.5 -8.5t-28.5 -20t-45.5 -25t-61 -19.5t-75.5 -9q-131 0 -207 80t-76 190zM207 331h147q0 25 -17.5 45.5t-43.5 20.5
q-67 0 -86 -66zM152 586v107h275v-107h-275z" />
    <glyph glyph-name="Ebreve" unicode="&#x114;" horiz-adv-x="594" 
d="M93 73v492h-65v150h450q38 0 55.5 -17.5t17.5 -55.5v-138h-160v39q0 22 -22 22h-97v-130h204v-150h-204v-113q0 -22 22 -22h99q22 0 22 22v39h160v-138q0 -38 -17.5 -55.5t-55.5 -17.5h-336q-38 0 -55.5 17.5t-17.5 55.5zM299 756q-65 0 -115.5 39.5t-50.5 105.5v10h104
v-11q0 -28 19 -43t43 -15t43 15t19 43v11h104v-10q0 -66 -50.5 -105.5t-115.5 -39.5z" />
    <glyph glyph-name="ebreve" unicode="&#x115;" horiz-adv-x="564" 
d="M25 258q0 116 73 192.5t195 76.5q111 0 174.5 -69.5t63.5 -179.5l-4 -52h-325q9 -46 42.5 -70t77.5 -24q33 0 67 13.5t52 26.5l18 14l69 -116q-3 -3 -9.5 -8.5t-28.5 -20t-45.5 -25t-61 -19.5t-75.5 -9q-131 0 -207 80t-76 190zM207 331h147q0 25 -17.5 45.5t-43.5 20.5
q-67 0 -86 -66zM289 560q-65 0 -115.5 39.5t-50.5 105.5v10h104v-11q0 -28 19 -43t43 -15t43 15t19 43v11h104v-10q0 -66 -50.5 -105.5t-115.5 -39.5z" />
    <glyph glyph-name="Edotaccent" unicode="&#x116;" horiz-adv-x="594" 
d="M93 73v492h-65v150h450q38 0 55.5 -17.5t17.5 -55.5v-138h-160v39q0 22 -22 22h-97v-130h204v-150h-204v-113q0 -22 22 -22h99q22 0 22 22v39h160v-138q0 -38 -17.5 -55.5t-55.5 -17.5h-336q-38 0 -55.5 17.5t-17.5 55.5zM227 771v140h145v-140h-145z" />
    <glyph glyph-name="edotaccent" unicode="&#x117;" horiz-adv-x="564" 
d="M25 258q0 116 73 192.5t195 76.5q111 0 174.5 -69.5t63.5 -179.5l-4 -52h-325q9 -46 42.5 -70t77.5 -24q33 0 67 13.5t52 26.5l18 14l69 -116q-3 -3 -9.5 -8.5t-28.5 -20t-45.5 -25t-61 -19.5t-75.5 -9q-131 0 -207 80t-76 190zM207 331h147q0 25 -17.5 45.5t-43.5 20.5
q-67 0 -86 -66zM217 575v140h145v-140h-145z" />
    <glyph glyph-name="Eogonek" unicode="&#x118;" horiz-adv-x="594" 
d="M93 73v492h-65v150h450q38 0 55.5 -17.5t17.5 -55.5v-138h-160v39q0 22 -22 22h-97v-130h204v-150h-204v-113q0 -22 22 -22h99q22 0 22 22v39h160v-138q0 -41 -29 -67q-49 -43 -49 -67q0 -10 9.5 -16t19.5 -7l9 -2l-42 -124q-5 1 -14 2t-32 8t-40.5 17t-32 29t-14.5 43
q0 58 64 109v2h-258q-38 0 -55.5 17.5t-17.5 55.5z" />
    <glyph glyph-name="eogonek" unicode="&#x119;" horiz-adv-x="564" 
d="M25 258q0 116 73 192.5t195 76.5q111 0 174.5 -69.5t63.5 -179.5l-4 -52h-325q9 -46 42.5 -70t77.5 -24q33 0 67 13.5t52 26.5l18 14l69 -116q-6 -6 -38.5 -32.5t-50 -50t-17.5 -48.5q0 -10 9.5 -16t18.5 -7l10 -2l-42 -124q-5 1 -14 2t-32 8t-40.5 17t-32 29t-14.5 43
q0 51 61 100v2q-20 -3 -38 -3q-131 0 -207 80t-76 190zM207 331h147q-2 27 -18 46.5t-43 19.5q-67 0 -86 -66z" />
    <glyph glyph-name="Ecaron" unicode="&#x11a;" horiz-adv-x="594" 
d="M93 73v492h-65v150h450q38 0 55.5 -17.5t17.5 -55.5v-138h-160v39q0 22 -22 22h-97v-130h204v-150h-204v-113q0 -22 22 -22h99q22 0 22 22v39h160v-138q0 -38 -17.5 -55.5t-55.5 -17.5h-336q-38 0 -55.5 17.5t-17.5 55.5zM229 761l-98 150h120l47 -82h2l47 82h121
l-99 -150h-140z" />
    <glyph glyph-name="ecaron" unicode="&#x11b;" horiz-adv-x="564" 
d="M25 258q0 116 73 192.5t195 76.5q111 0 174.5 -69.5t63.5 -179.5l-4 -52h-325q9 -46 42.5 -70t77.5 -24q33 0 67 13.5t52 26.5l18 14l69 -116q-3 -3 -9.5 -8.5t-28.5 -20t-45.5 -25t-61 -19.5t-75.5 -9q-131 0 -207 80t-76 190zM207 331h147q0 25 -17.5 45.5t-43.5 20.5
q-67 0 -86 -66zM219 565l-98 150h120l47 -82h2l47 82h121l-99 -150h-140z" />
    <glyph glyph-name="Gcircumflex" unicode="&#x11c;" horiz-adv-x="752" 
d="M24 364q0 154 105.5 258.5t264.5 104.5q51 0 97.5 -9.5t76.5 -23.5t52.5 -27.5t32.5 -22.5l10 -10l-100 -127q-8 6 -22.5 15.5t-57.5 25.5t-85 16q-75 0 -131.5 -54.5t-56.5 -144.5q0 -100 57.5 -156t139.5 -56q42 0 79 13t53 26l16 13v27q0 22 -22 22h-43v150h151
q38 0 55.5 -17.5t17.5 -55.5v-331h-150v20l1 30h-2q-3 -3 -8.5 -7t-24.5 -14.5t-39.5 -19t-53.5 -15t-67 -6.5q-143 0 -244.5 100.5t-101.5 275.5zM221 761l98 150h140l99 -150h-121l-47 82h-2l-47 -82h-120z" />
    <glyph glyph-name="gcircumflex" unicode="&#x11d;" horiz-adv-x="637" 
d="M25 274q0 106 60 179.5t171 73.5q47 0 84 -15t51 -30l14 -15h2v7q0 13 14.5 27t40.5 14h156v-145h-36q-22 0 -22 -19v-304q0 -68 -25 -119t-68 -80.5t-92.5 -43.5t-105.5 -14q-107 0 -195 46l50 135q63 -33 144 -33q119 0 119 99v8l1 19h-2q-45 -49 -129 -49
q-110 0 -171 76t-61 183zM298 159q40 0 66.5 25.5t26.5 87.5q0 111 -100 111q-44 0 -68 -28.5t-24 -74.5q0 -52 25 -86.5t74 -34.5zM162 565l98 150h140l99 -150h-121l-47 82h-2l-47 -82h-120z" />
    <glyph glyph-name="Gbreve" unicode="&#x11e;" horiz-adv-x="752" 
d="M24 364q0 154 105.5 258.5t264.5 104.5q51 0 97.5 -9.5t76.5 -23.5t52.5 -27.5t32.5 -22.5l10 -10l-100 -127q-8 6 -22.5 15.5t-57.5 25.5t-85 16q-75 0 -131.5 -54.5t-56.5 -144.5q0 -100 57.5 -156t139.5 -56q42 0 79 13t53 26l16 13v27q0 22 -22 22h-43v150h151
q38 0 55.5 -17.5t17.5 -55.5v-331h-150v20l1 30h-2q-3 -3 -8.5 -7t-24.5 -14.5t-39.5 -19t-53.5 -15t-67 -6.5q-143 0 -244.5 100.5t-101.5 275.5zM389 756q-65 0 -115.5 39.5t-50.5 105.5v10h104v-11q0 -28 19 -43t43 -15t43 15t19 43v11h104v-10q0 -66 -50.5 -105.5
t-115.5 -39.5z" />
    <glyph glyph-name="gbreve" unicode="&#x11f;" horiz-adv-x="637" 
d="M25 274q0 106 60 179.5t171 73.5q47 0 84 -15t51 -30l14 -15h2v7q0 13 14.5 27t40.5 14h156v-145h-36q-22 0 -22 -19v-304q0 -68 -25 -119t-68 -80.5t-92.5 -43.5t-105.5 -14q-107 0 -195 46l50 135q63 -33 144 -33q119 0 119 99v8l1 19h-2q-45 -49 -129 -49
q-110 0 -171 76t-61 183zM298 159q40 0 66.5 25.5t26.5 87.5q0 111 -100 111q-44 0 -68 -28.5t-24 -74.5q0 -52 25 -86.5t74 -34.5zM330 560q-65 0 -115.5 39.5t-50.5 105.5v10h104v-11q0 -28 19 -43t43 -15t43 15t19 43v11h104v-10q0 -66 -50.5 -105.5t-115.5 -39.5z" />
    <glyph glyph-name="Gdotaccent" unicode="&#x120;" horiz-adv-x="752" 
d="M24 364q0 154 105.5 258.5t264.5 104.5q51 0 97.5 -9.5t76.5 -23.5t52.5 -27.5t32.5 -22.5l10 -10l-100 -127q-8 6 -22.5 15.5t-57.5 25.5t-85 16q-75 0 -131.5 -54.5t-56.5 -144.5q0 -100 57.5 -156t139.5 -56q42 0 79 13t53 26l16 13v27q0 22 -22 22h-43v150h151
q38 0 55.5 -17.5t17.5 -55.5v-331h-150v20l1 30h-2q-3 -3 -8.5 -7t-24.5 -14.5t-39.5 -19t-53.5 -15t-67 -6.5q-143 0 -244.5 100.5t-101.5 275.5zM317 771v140h145v-140h-145z" />
    <glyph glyph-name="gdotaccent" unicode="&#x121;" horiz-adv-x="637" 
d="M25 274q0 106 60 179.5t171 73.5q47 0 84 -15t51 -30l14 -15h2v7q0 13 14.5 27t40.5 14h156v-145h-36q-22 0 -22 -19v-304q0 -68 -25 -119t-68 -80.5t-92.5 -43.5t-105.5 -14q-107 0 -195 46l50 135q63 -33 144 -33q119 0 119 99v8l1 19h-2q-45 -49 -129 -49
q-110 0 -171 76t-61 183zM298 159q40 0 66.5 25.5t26.5 87.5q0 111 -100 111q-44 0 -68 -28.5t-24 -74.5q0 -52 25 -86.5t74 -34.5zM258 575v140h145v-140h-145z" />
    <glyph glyph-name="Gcommaaccent" unicode="&#x122;" horiz-adv-x="752" 
d="M24 364q0 154 105.5 258.5t264.5 104.5q51 0 97.5 -9.5t76.5 -23.5t52.5 -27.5t32.5 -22.5l10 -10l-100 -127q-8 6 -22.5 15.5t-57.5 25.5t-85 16q-75 0 -131.5 -54.5t-56.5 -144.5q0 -100 57.5 -156t139.5 -56q42 0 79 13t53 26l16 13v27q0 22 -22 22h-43v150h151
q38 0 55.5 -17.5t17.5 -55.5v-331h-150v20l1 30h-2q-3 -3 -8.5 -7t-24.5 -14.5t-39.5 -19t-53.5 -15t-67 -6.5q-143 0 -244.5 100.5t-101.5 275.5zM325 -49h122q7 -27 7 -53q0 -45 -28 -98h-109q20 55 20 88q0 31 -12 63z" />
    <glyph glyph-name="gcommaaccent" unicode="&#x123;" horiz-adv-x="637" 
d="M25 274q0 106 60 179.5t171 73.5q47 0 84 -15t51 -30l14 -15h2v7q0 13 14.5 27t40.5 14h156v-145h-36q-22 0 -22 -19v-304q0 -68 -25 -119t-68 -80.5t-92.5 -43.5t-105.5 -14q-107 0 -195 46l50 135q63 -33 144 -33q119 0 119 99v8l1 19h-2q-45 -49 -129 -49
q-110 0 -171 76t-61 183zM298 159q40 0 66.5 25.5t26.5 87.5q0 111 -100 111q-44 0 -68 -28.5t-24 -74.5q0 -52 25 -86.5t74 -34.5zM371 564h-122q-7 27 -7 53q0 45 28 98h109q-20 -55 -20 -88q0 -31 12 -63z" />
    <glyph glyph-name="Hcircumflex" unicode="&#x124;" horiz-adv-x="786" 
d="M93 0v543q0 22 -22 22h-43v150h171q38 0 55.5 -17.5t17.5 -55.5v-213h242v213q0 38 17.5 55.5t55.5 17.5h171v-150h-43q-22 0 -22 -22v-543h-179v280h-242v-280h-179zM226 761l98 150h140l99 -150h-121l-47 82h-2l-47 -82h-120z" />
    <glyph glyph-name="hcircumflex" unicode="&#x125;" horiz-adv-x="667" 
d="M75 0v548q0 22 -22 22h-38v145h160q38 0 55.5 -17.5t17.5 -55.5v-153l-2 -44h2q22 38 64 60t93 22q185 0 185 -193v-167q0 -22 22 -22h38v-145h-160q-38 0 -55.5 17.5t-17.5 55.5v229q0 68 -57 68q-78 0 -103 -76q-9 -26 -9 -66v-228h-173zM168 761l98 150h140l99 -150
h-121l-47 82h-2l-47 -82h-120z" />
    <glyph glyph-name="Hbar" unicode="&#x126;" horiz-adv-x="786" 
d="M93 0v517h-66v107h66v91h179v-91h242v91h179v-91h65v-107h-65v-517h-179v280h-242v-280h-179zM272 429h242v88h-242v-88z" />
    <glyph glyph-name="hbar" unicode="&#x127;" horiz-adv-x="667" 
d="M75 0v554h-69v95h69v66h173v-66h123v-95h-123v-65l-2 -44h2q2 3 5.5 8.5t16.5 20t29.5 25t45 19.5t60.5 9q185 0 185 -193v-167q0 -22 22 -22h38v-145h-160q-38 0 -55.5 17.5t-17.5 55.5v229q0 68 -57 68q-56 0 -84 -39.5t-28 -102.5v-228h-173z" />
    <glyph glyph-name="Itilde" unicode="&#x128;" horiz-adv-x="381" 
d="M31 0v150h75v415h-75v150h319v-150h-75v-415h75v-150h-319zM-11 761q0 153 131 153q30 0 54 -15t42 -30t34 -15q41 0 41 57h101q0 -153 -131 -153q-30 0 -54 15t-42 30t-34 15q-41 0 -41 -57h-101z" />
    <glyph glyph-name="itilde" unicode="&#x129;" horiz-adv-x="341" 
d="M84 73v275q0 22 -22 22h-38v145h160q38 0 55.5 -17.5t17.5 -55.5v-275q0 -22 22 -22h38v-145h-160q-38 0 -55.5 17.5t-17.5 55.5zM-19 565q0 77 28 115t89 38q26 0 48 -13.5t37.5 -27t26.5 -13.5q33 0 33 51h101q0 -77 -28 -115t-89 -38q-26 0 -48 13.5t-37.5 27
t-26.5 13.5q-33 0 -33 -51h-101z" />
    <glyph glyph-name="Imacron" unicode="&#x12a;" horiz-adv-x="381" 
d="M31 0v150h75v415h-75v150h319v-150h-75v-415h75v-150h-319zM53 782v107h275v-107h-275z" />
    <glyph glyph-name="imacron" unicode="&#x12b;" horiz-adv-x="341" 
d="M84 73v275q0 22 -22 22h-38v145h160q38 0 55.5 -17.5t17.5 -55.5v-275q0 -22 22 -22h38v-145h-160q-38 0 -55.5 17.5t-17.5 55.5zM25 586v107h275v-107h-275z" />
    <glyph glyph-name="Ibreve" unicode="&#x12c;" horiz-adv-x="381" 
d="M31 0v150h75v415h-75v150h319v-150h-75v-415h75v-150h-319zM190 756q-65 0 -115.5 39.5t-50.5 105.5v10h104v-11q0 -28 19 -43t43 -15t43 15t19 43v11h104v-10q0 -66 -50.5 -105.5t-115.5 -39.5z" />
    <glyph glyph-name="ibreve" unicode="&#x12d;" horiz-adv-x="341" 
d="M84 73v275q0 22 -22 22h-38v145h160q38 0 55.5 -17.5t17.5 -55.5v-275q0 -22 22 -22h38v-145h-160q-38 0 -55.5 17.5t-17.5 55.5zM162 560q-65 0 -115.5 39.5t-50.5 105.5v10h104v-11q0 -28 19 -43t43 -15t43 15t19 43v11h104v-10q0 -66 -50.5 -105.5t-115.5 -39.5z" />
    <glyph glyph-name="Iogonek" unicode="&#x12e;" horiz-adv-x="381" 
d="M31 0v150h75v415h-75v150h319v-150h-75v-415h75v-150q-42 -40 -42 -61q0 -10 9.5 -16t18.5 -7l10 -2l-42 -124q-5 1 -14 2t-32 8t-40.5 17t-32 29t-14.5 43q0 58 64 109v2h-204z" />
    <glyph glyph-name="iogonek" unicode="&#x12f;" horiz-adv-x="337" 
d="M95 575v140h145v-140h-145zM22 515h160q38 0 55.5 -17.5t17.5 -55.5v-275q0 -22 22 -22h38v-145q-42 -40 -42 -61q0 -10 9.5 -16t19.5 -7l9 -2l-42 -124q-5 1 -14 2t-32 8t-40.5 17t-32 29t-14.5 43q0 58 64 109v2h-45q-73 0 -73 73v275q0 22 -22 22h-38v145z" />
    <glyph glyph-name="Idotaccent" unicode="&#x130;" horiz-adv-x="381" 
d="M31 0v150h75v415h-75v150h319v-150h-75v-415h75v-150h-319zM117 771v140h145v-140h-145z" />
    <glyph glyph-name="dotlessi" unicode="&#x131;" horiz-adv-x="341" 
d="M84 73v275q0 22 -22 22h-38v145h160q38 0 55.5 -17.5t17.5 -55.5v-275q0 -22 22 -22h38v-145h-160q-38 0 -55.5 17.5t-17.5 55.5z" />
    <glyph glyph-name="IJ" unicode="&#x132;" horiz-adv-x="781" 
d="M423 -4v158q42 0 79 27.5t37 88.5v273q0 22 -22 22h-94v150h222q38 0 55.5 -17.5t17.5 -55.5v-374q0 -65 -18.5 -115t-47 -79t-69 -47.5t-78.5 -24.5t-82 -6zM31 0v150h75v415h-75v150h319v-150h-75v-415h75v-150h-319z" />
    <glyph glyph-name="ij" unicode="&#x133;" horiz-adv-x="661" 
d="M95 575v140h145v-140h-145zM82 73v275q0 22 -22 22h-38v145h160q38 0 55.5 -17.5t17.5 -55.5v-275q0 -22 22 -22h38v-145h-160q-38 0 -55.5 17.5t-17.5 55.5zM435 575v140h145v-140h-145zM309 -61q9 -1 22 -1q93 0 93 66v344q0 22 -22 22h-38v145h160q38 0 55.5 -17.5
t17.5 -55.5v-455q0 -49 -18 -86.5t-43.5 -57.5t-61 -32t-63 -15.5t-56.5 -3.5l-46 3v144z" />
    <glyph glyph-name="Jcircumflex" unicode="&#x134;" horiz-adv-x="566" 
d="M16 220v52h179v-33q0 -86 66 -86q29 0 46 19t17 57v314q0 22 -22 22h-170v150h298q38 0 55.5 -17.5t17.5 -55.5v-422q0 -111 -72 -171.5t-172 -60.5q-99 0 -171 61t-72 171zM143 761l98 150h140l99 -150h-121l-47 82h-2l-47 -82h-120z" />
    <glyph glyph-name="jcircumflex" unicode="&#x135;" horiz-adv-x="329" 
d="M-19 565l99 150h140l98 -150h-120l-48 83l-48 -83h-121zM-18 -65q9 -1 22 -1q93 0 93 66v353q0 14 -6.5 18t-23.5 4h-30v140h155q40 0 56.5 -11t16.5 -47v-470q0 -49 -17.5 -86.5t-42.5 -57.5t-59.5 -32t-61.5 -15.5t-56 -3.5l-46 3v140z" />
    <glyph glyph-name="Kcommaaccent" unicode="&#x136;" horiz-adv-x="669" 
d="M93 0v543q0 22 -22 22h-43v150h171q38 0 55.5 -17.5t17.5 -55.5v-203h24q12 0 18 0.5t14 2.5t13.5 6.5t9.5 12.5l121 254h195l-143 -289q-11 -22 -24 -37.5t-21 -20.5l-8 -4v-2q3 -1 9 -3.5t20.5 -17t25.5 -36.5l65 -132q11 -23 49 -23h19v-150h-105q-40 0 -62.5 10.5
t-38.5 42.5l-107 214q-6 11 -16 16t-18.5 6t-25.5 1h-14v-290h-179zM298 -49h122q7 -27 7 -53q0 -45 -28 -98h-109q20 55 20 88q0 31 -12 63z" />
    <glyph glyph-name="kcommaaccent" unicode="&#x137;" horiz-adv-x="597" 
d="M75 0v548q0 22 -22 22h-38v145h160q41 0 57 -11t16 -47v-312h27q32 0 41 16l84 154h188l-117 -198q-8 -15 -17.5 -25.5t-15.5 -13.5l-5 -4v-2q21 -8 39 -43l33 -67q9 -17 38 -17h40v-145h-131q-30 0 -46 7.5t-28 31.5l-74 144q-9 17 -41 17h-15v-200h-173zM261 -49h122
q7 -27 7 -53q0 -45 -28 -98h-109q20 55 20 88q0 31 -12 63z" />
    <glyph glyph-name="kgreenlandic" unicode="&#x138;" horiz-adv-x="597" 
d="M75 0v348q0 22 -22 22h-38v145h160q41 0 57 -11t16 -47v-126h27q33 0 41 16l84 168h185l-117 -208q-8 -15 -17.5 -25.5t-14.5 -13.5l-6 -4v-2q21 -7 39 -43l28 -57q9 -17 38 -17h44v-145h-135q-30 0 -46 7.5t-28 31.5l-66 130q-9 17 -41 17h-15v-186h-173z" />
    <glyph glyph-name="Lacute" unicode="&#x139;" horiz-adv-x="580" 
d="M93 73v470q0 22 -22 22h-43v150h171q38 0 55.5 -17.5t17.5 -55.5v-470q0 -22 22 -22h94q22 0 22 22v39h160v-138q0 -38 -17.5 -55.5t-55.5 -17.5h-331q-38 0 -55.5 17.5t-17.5 55.5zM140 761l81 150h157l-118 -150h-120z" />
    <glyph glyph-name="lacute" unicode="&#x13a;" horiz-adv-x="328" 
d="M75 73v475q0 22 -22 22h-38v145h160q38 0 55.5 -17.5t17.5 -55.5v-475q0 -22 22 -22h38v-145h-160q-38 0 -55.5 17.5t-17.5 55.5zM78 761l81 150h157l-118 -150h-120z" />
    <glyph glyph-name="Lcommaaccent" unicode="&#x13b;" horiz-adv-x="580" 
d="M93 73v470q0 22 -22 22h-43v150h171q38 0 55.5 -17.5t17.5 -55.5v-470q0 -22 22 -22h94q22 0 22 22v39h160v-138q0 -38 -17.5 -55.5t-55.5 -17.5h-331q-38 0 -55.5 17.5t-17.5 55.5zM264 -49h122q7 -27 7 -53q0 -45 -28 -98h-109q20 55 20 88q0 31 -12 63z" />
    <glyph glyph-name="lcommaaccent" unicode="&#x13c;" horiz-adv-x="328" 
d="M75 73v475q0 22 -22 22h-38v145h160q38 0 55.5 -17.5t17.5 -55.5v-475q0 -22 22 -22h38v-145h-160q-38 0 -55.5 17.5t-17.5 55.5zM108 -49h122q7 -27 7 -53q0 -45 -28 -98h-109q20 55 20 88q0 31 -12 63z" />
    <glyph glyph-name="Lcaron" unicode="&#x13d;" horiz-adv-x="580" 
d="M93 73v470q0 22 -22 22h-43v150h171q38 0 55.5 -17.5t17.5 -55.5v-470q0 -22 22 -22h94q22 0 22 22v39h160v-138q0 -38 -17.5 -55.5t-55.5 -17.5h-331q-38 0 -55.5 17.5t-17.5 55.5zM339 715h122q7 -27 7 -53q0 -45 -28 -98h-109q20 55 20 88q0 31 -12 63z" />
    <glyph glyph-name="lcaron" unicode="&#x13e;" horiz-adv-x="448" 
d="M75 73v475q0 22 -22 22h-38v145h160q38 0 55.5 -17.5t17.5 -55.5v-475q0 -22 22 -22h38v-145h-160q-38 0 -55.5 17.5t-17.5 55.5zM290 715h122q7 -27 7 -53q0 -45 -28 -98h-109q20 55 20 88q0 31 -12 63z" />
    <glyph glyph-name="Ldot" unicode="&#x13f;" horiz-adv-x="580" 
d="M93 73v470q0 22 -22 22h-43v150h171q38 0 55.5 -17.5t17.5 -55.5v-470q0 -22 22 -22h94q22 0 22 22v39h160v-138q0 -38 -17.5 -55.5t-55.5 -17.5h-331q-38 0 -55.5 17.5t-17.5 55.5zM352 315v164h158v-164h-158z" />
    <glyph glyph-name="ldot" unicode="&#x140;" horiz-adv-x="488" 
d="M75 73v475q0 22 -22 22h-38v145h160q38 0 55.5 -17.5t17.5 -55.5v-475q0 -22 22 -22h38v-145h-160q-38 0 -55.5 17.5t-17.5 55.5zM325 315v164h158v-164h-158z" />
    <glyph glyph-name="Lslash" unicode="&#x141;" horiz-adv-x="580" 
d="M93 73v137l-61 -35v166l61 35v167q0 22 -22 22h-43v150h171q38 0 55.5 -17.5t17.5 -55.5v-164l88 51v-166l-88 -51v-140q0 -22 22 -22h94q22 0 22 22v39h160v-138q0 -38 -17.5 -55.5t-55.5 -17.5h-331q-38 0 -55.5 17.5t-17.5 55.5z" />
    <glyph glyph-name="lslash" unicode="&#x142;" horiz-adv-x="332" 
d="M77 73v157l-51 -29v168l51 29v150q0 22 -22 22h-38v145h160q38 0 55.5 -17.5t17.5 -55.5v-146l64 36v-165l-64 -37v-163q0 -22 22 -22h38v-145h-160q-38 0 -55.5 17.5t-17.5 55.5z" />
    <glyph glyph-name="Nacute" unicode="&#x143;" horiz-adv-x="778" 
d="M28 0v150h43q22 0 22 22v543h161l198 -307q13 -20 28 -47t24 -43l8 -17h2q-8 62 -8 107v234q0 38 17.5 55.5t55.5 17.5h171v-150h-43q-22 0 -22 -22v-543h-160l-199 306q-13 20 -28 46.5t-24 43.5l-8 17h-2q8 -62 8 -107v-233q0 -38 -17.5 -55.5t-55.5 -17.5h-171z
M333 761l81 150h157l-118 -150h-120z" />
    <glyph glyph-name="nacute" unicode="&#x144;" horiz-adv-x="671" 
d="M79 0v348q0 22 -22 22h-38v145h154q35 0 53.5 -15.5t18.5 -42.5v-7l-1 -12h2q53 89 163 89q185 0 185 -193v-167q0 -22 22 -22h38v-145h-160q-38 0 -55.5 17.5t-17.5 55.5v229q0 68 -57 68q-77 0 -102 -74q-10 -29 -10 -68v-228h-173zM276 565l81 150h157l-118 -150h-120
z" />
    <glyph glyph-name="Ncommaaccent" unicode="&#x145;" horiz-adv-x="778" 
d="M28 0v150h43q22 0 22 22v543h161l198 -307q13 -20 28 -47t24 -43l8 -17h2q-8 62 -8 107v234q0 38 17.5 55.5t55.5 17.5h171v-150h-43q-22 0 -22 -22v-543h-160l-199 306q-13 20 -28 46.5t-24 43.5l-8 17h-2q8 -62 8 -107v-233q0 -38 -17.5 -55.5t-55.5 -17.5h-171z
M328 -49h122q7 -27 7 -53q0 -45 -28 -98h-109q20 55 20 88q0 31 -12 63z" />
    <glyph glyph-name="ncommaaccent" unicode="&#x146;" horiz-adv-x="671" 
d="M79 0v348q0 22 -22 22h-38v145h154q35 0 53.5 -15.5t18.5 -42.5v-7l-1 -12h2q53 89 163 89q185 0 185 -193v-167q0 -22 22 -22h38v-145h-160q-38 0 -55.5 17.5t-17.5 55.5v229q0 68 -57 68q-77 0 -102 -74q-10 -29 -10 -68v-228h-173zM275 -49h122q7 -27 7 -53
q0 -45 -28 -98h-109q20 55 20 88q0 31 -12 63z" />
    <glyph glyph-name="Ncaron" unicode="&#x147;" horiz-adv-x="778" 
d="M28 0v150h43q22 0 22 22v543h161l198 -307q13 -20 28 -47t24 -43l8 -17h2q-8 62 -8 107v234q0 38 17.5 55.5t55.5 17.5h171v-150h-43q-22 0 -22 -22v-543h-160l-199 306q-13 20 -28 46.5t-24 43.5l-8 17h-2q8 -62 8 -107v-233q0 -38 -17.5 -55.5t-55.5 -17.5h-171z
M326 761l-98 150h120l47 -82h2l47 82h121l-99 -150h-140z" />
    <glyph glyph-name="ncaron" unicode="&#x148;" horiz-adv-x="671" 
d="M79 0v348q0 22 -22 22h-38v145h154q35 0 53.5 -15.5t18.5 -42.5v-7l-1 -12h2q53 89 163 89q185 0 185 -193v-167q0 -22 22 -22h38v-145h-160q-38 0 -55.5 17.5t-17.5 55.5v229q0 68 -57 68q-77 0 -102 -74q-10 -29 -10 -68v-228h-173zM269 565l-98 150h120l47 -82h2
l47 82h121l-99 -150h-140z" />
    <glyph glyph-name="napostrophe" unicode="&#x149;" horiz-adv-x="710" 
d="M118 0v348q0 22 -22 22h-38v145h154q35 0 53.5 -15.5t18.5 -42.5v-7l-1 -12h2q53 89 163 89q185 0 185 -193v-167q0 -22 22 -22h38v-145h-160q-38 0 -55.5 17.5t-17.5 55.5v229q0 68 -57 68q-77 0 -102 -74q-10 -29 -10 -68v-228h-173zM-17 715h122q7 -27 7 -53
q0 -45 -28 -98h-109q20 55 20 88q0 31 -12 63z" />
    <glyph glyph-name="Eng" unicode="&#x14a;" horiz-adv-x="778" 
d="M28 0v150h43q22 0 22 22v543h161l198 -307q13 -20 28 -47t24 -43l8 -17h2q-8 62 -8 107v234q0 38 17.5 55.5t55.5 17.5h171v-150h-43q-22 0 -22 -22v-476q0 -65 -18.5 -115t-47 -79t-69 -47.5t-78.5 -24.5t-82 -6v158q19 0 44.5 7.5t48.5 25t23 39.5v8l-180 273
q-13 20 -28 46.5t-24 43.5l-8 17h-2q8 -62 8 -107v-233q0 -38 -17.5 -55.5t-55.5 -17.5h-171z" />
    <glyph glyph-name="eng" unicode="&#x14b;" horiz-adv-x="666" 
d="M79 0v348q0 22 -22 22h-38v145h154q35 0 53.5 -15.5t18.5 -42.5v-7l-1 -12h2q53 89 163 89q185 0 185 -193v-347q0 -49 -18 -86.5t-43.5 -57.5t-61 -32t-63 -15.5t-56.5 -3.5l-46 3v144q9 -1 22 -1q93 0 93 66v298q0 68 -57 68q-78 0 -103 -76q-9 -26 -9 -66v-228h-173z
" />
    <glyph glyph-name="Omacron" unicode="&#x14c;" horiz-adv-x="796" 
d="M24 362q0 155 106.5 260t267.5 105t267.5 -105t106.5 -260q0 -159 -106.5 -266.5t-267.5 -107.5t-267.5 107.5t-106.5 266.5zM210 362q0 -89 54.5 -149t133.5 -60t133.5 60t54.5 149q0 85 -54.5 142.5t-133.5 57.5t-133.5 -57.5t-54.5 -142.5zM259 782v107h275v-107h-275
z" />
    <glyph glyph-name="omacron" unicode="&#x14d;" horiz-adv-x="632" 
d="M25 256q0 120 83.5 195.5t206.5 75.5q124 0 208 -75.5t84 -195.5q0 -119 -83.5 -193.5t-207.5 -74.5t-207.5 74.5t-83.5 193.5zM199 256q0 -56 34 -90t83 -34t83 34t34 90q0 57 -34 92t-83 35t-83 -35t-34 -92zM179 586v107h275v-107h-275z" />
    <glyph glyph-name="Obreve" unicode="&#x14e;" horiz-adv-x="796" 
d="M24 362q0 155 106.5 260t267.5 105t267.5 -105t106.5 -260q0 -159 -106.5 -266.5t-267.5 -107.5t-267.5 107.5t-106.5 266.5zM210 362q0 -89 54.5 -149t133.5 -60t133.5 60t54.5 149q0 85 -54.5 142.5t-133.5 57.5t-133.5 -57.5t-54.5 -142.5zM396 756q-65 0 -115.5 39.5
t-50.5 105.5v10h104v-11q0 -28 19 -43t43 -15t43 15t19 43v11h104v-10q0 -66 -50.5 -105.5t-115.5 -39.5z" />
    <glyph glyph-name="obreve" unicode="&#x14f;" horiz-adv-x="632" 
d="M25 256q0 120 83.5 195.5t206.5 75.5q124 0 208 -75.5t84 -195.5q0 -119 -83.5 -193.5t-207.5 -74.5t-207.5 74.5t-83.5 193.5zM199 256q0 -56 34 -90t83 -34t83 34t34 90q0 57 -34 92t-83 35t-83 -35t-34 -92zM316 560q-65 0 -115.5 39.5t-50.5 105.5v10h104v-11
q0 -28 19 -43t43 -15t43 15t19 43v11h104v-10q0 -66 -50.5 -105.5t-115.5 -39.5z" />
    <glyph glyph-name="Ohungarumlaut" unicode="&#x150;" horiz-adv-x="796" 
d="M24 362q0 155 106.5 260t267.5 105t267.5 -105t106.5 -260q0 -159 -106.5 -266.5t-267.5 -107.5t-267.5 107.5t-106.5 266.5zM210 362q0 -89 54.5 -149t133.5 -60t133.5 60t54.5 149q0 85 -54.5 142.5t-133.5 57.5t-133.5 -57.5t-54.5 -142.5zM428 761l81 150h157
l-118 -150h-120zM225 761l77 150h133l-79 -150h-131z" />
    <glyph glyph-name="ohungarumlaut" unicode="&#x151;" horiz-adv-x="632" 
d="M25 256q0 120 83.5 195.5t206.5 75.5q124 0 208 -75.5t84 -195.5q0 -119 -83.5 -193.5t-207.5 -74.5t-207.5 74.5t-83.5 193.5zM199 256q0 -56 34 -90t83 -34t83 34t34 90q0 57 -34 92t-83 35t-83 -35t-34 -92zM348 565l81 150h157l-118 -150h-120zM145 565l77 150h133
l-79 -150h-131z" />
    <glyph glyph-name="OE" unicode="&#x152;" horiz-adv-x="981" 
d="M24 359q0 153 108 258.5t261 105.5q42 0 83.5 -4t63.5 -4h325q38 0 55.5 -17.5t17.5 -55.5v-138h-160v39q0 22 -22 22h-97v-130h204v-150h-204v-135h121q22 0 22 22v39h160v-138q0 -38 -17.5 -55.5t-55.5 -17.5h-349q-22 0 -63.5 -4t-83.5 -4q-152 0 -260.5 107
t-108.5 260zM210 359q0 -88 52 -145t131 -57q64 0 87 6v387q-28 8 -87 8q-79 0 -131 -56t-52 -143z" />
    <glyph glyph-name="oe" unicode="&#x153;" horiz-adv-x="982" 
d="M25 256q0 120 83.5 195.5t206.5 75.5q121 0 204 -80h2q35 39 78 59.5t112 20.5q111 0 174.5 -69.5t63.5 -179.5l-4 -52h-325q9 -46 42.5 -70t77.5 -24q33 0 67 13.5t52 26.5l18 14l69 -116q-3 -3 -9.5 -8.5t-28.5 -20t-45.5 -25t-61 -19.5t-75.5 -9q-73 0 -118.5 22
t-82.5 63h-2q-41 -41 -88.5 -63t-118.5 -22q-124 0 -207.5 74.5t-83.5 193.5zM625 331h147q-3 27 -18 46.5t-43 19.5q-67 0 -86 -66zM199 256q0 -56 34 -90t83 -34t83 34t34 90q0 57 -34 92t-83 35t-83 -35t-34 -92z" />
    <glyph glyph-name="Racute" unicode="&#x154;" horiz-adv-x="653" 
d="M93 0v565h-65v150h334q106 0 171 -59.5t65 -165.5q0 -40 -11 -74t-26 -53.5t-30.5 -33.5t-26.5 -19l-11 -6v-2q28 -12 44 -43l45 -86q12 -23 49 -23h12v-150h-98q-40 0 -62.5 10.5t-38.5 42.5l-84 161q-9 16 -22.5 21.5t-41.5 5.5h-24v-241h-179zM272 391h62q81 0 81 88
q0 86 -78 86h-65v-174zM235 761l81 150h157l-118 -150h-120z" />
    <glyph glyph-name="racute" unicode="&#x155;" horiz-adv-x="444" 
d="M79 0v348q0 22 -22 22h-38v145h153q73 0 73 -66v-27l-2 -26h2q17 54 62.5 91t101.5 37l20 -2v-170q-14 3 -35 3q-104 0 -133 -90q-9 -29 -9 -70v-195h-173zM172 565l81 150h157l-118 -150h-120z" />
    <glyph glyph-name="Rcommaaccent" unicode="&#x156;" horiz-adv-x="653" 
d="M93 0v565h-65v150h334q106 0 171 -59.5t65 -165.5q0 -40 -11 -74t-26 -53.5t-30.5 -33.5t-26.5 -19l-11 -6v-2q28 -12 44 -43l45 -86q12 -23 49 -23h12v-150h-98q-40 0 -62.5 10.5t-38.5 42.5l-84 161q-9 16 -22.5 21.5t-41.5 5.5h-24v-241h-179zM272 391h62q81 0 81 88
q0 86 -78 86h-65v-174zM306 -49h122q7 -27 7 -53q0 -45 -28 -98h-109q20 55 20 88q0 31 -12 63z" />
    <glyph glyph-name="rcommaaccent" unicode="&#x157;" horiz-adv-x="444" 
d="M79 0v348q0 22 -22 22h-38v145h153q73 0 73 -66v-27l-2 -26h2q17 54 62.5 91t101.5 37l20 -2v-170q-14 3 -35 3q-104 0 -133 -90q-9 -29 -9 -70v-195h-173zM110 -49h122q7 -27 7 -53q0 -45 -28 -98h-109q20 55 20 88q0 31 -12 63z" />
    <glyph glyph-name="Rcaron" unicode="&#x158;" horiz-adv-x="653" 
d="M93 0v565h-65v150h334q106 0 171 -59.5t65 -165.5q0 -40 -11 -74t-26 -53.5t-30.5 -33.5t-26.5 -19l-11 -6v-2q28 -12 44 -43l45 -86q12 -23 49 -23h12v-150h-98q-40 0 -62.5 10.5t-38.5 42.5l-84 161q-9 16 -22.5 21.5t-41.5 5.5h-24v-241h-179zM272 391h62q81 0 81 88
q0 86 -78 86h-65v-174zM228 761l-98 150h120l47 -82h2l47 82h121l-99 -150h-140z" />
    <glyph glyph-name="rcaron" unicode="&#x159;" horiz-adv-x="444" 
d="M79 0v348q0 22 -22 22h-38v145h153q73 0 73 -66v-27l-2 -26h2q17 54 62.5 91t101.5 37l20 -2v-170q-14 3 -35 3q-104 0 -133 -90q-9 -29 -9 -70v-195h-173zM165 565l-98 150h120l47 -82h2l47 82h121l-99 -150h-140z" />
    <glyph glyph-name="Sacute" unicode="&#x15a;" horiz-adv-x="573" 
d="M28 106l99 125q3 -3 8.5 -9t23 -20.5t36 -25.5t45 -20t51.5 -9q72 0 72 53q0 21 -33.5 40.5t-81 40t-95 47t-81 74.5t-33.5 110q0 95 73.5 155t181.5 60q52 0 102 -15t88 -52t38 -88v-78h-160v31q0 18 -21.5 30t-48.5 12q-30 0 -51.5 -12.5t-21.5 -35.5q0 -20 24 -37
t60 -29.5t78 -33t78 -45t60 -67.5t24 -98q0 -93 -68.5 -157t-185.5 -64q-47 0 -91 12t-73.5 29.5t-52.5 35t-34 29.5zM232 761l81 150h157l-118 -150h-120z" />
    <glyph glyph-name="sacute" unicode="&#x15b;" horiz-adv-x="491" 
d="M21 82l77 111q8 -8 22 -20.5t54 -33t75 -20.5q39 0 39 25q0 11 -26.5 23t-64.5 27t-76 35t-64.5 56t-26.5 83q0 78 61.5 118.5t150.5 40.5q35 0 67.5 -5.5t63.5 -18t50 -36.5t19 -57v-61h-150v25q0 10 -14 17t-33 7q-46 0 -46 -24q0 -14 27 -26t65.5 -25t76.5 -31
t65 -53.5t27 -83.5q0 -76 -59.5 -121.5t-151.5 -45.5q-41 0 -80 9.5t-64.5 23.5t-45.5 28t-29 23zM178 565l81 150h157l-118 -150h-120z" />
    <glyph glyph-name="Scircumflex" unicode="&#x15c;" horiz-adv-x="573" 
d="M28 106l99 125q3 -3 8.5 -9t23 -20.5t36 -25.5t45 -20t51.5 -9q72 0 72 53q0 21 -33.5 40.5t-81 40t-95 47t-81 74.5t-33.5 110q0 95 73.5 155t181.5 60q52 0 102 -15t88 -52t38 -88v-78h-160v31q0 18 -21.5 30t-48.5 12q-30 0 -51.5 -12.5t-21.5 -35.5q0 -20 24 -37
t60 -29.5t78 -33t78 -45t60 -67.5t24 -98q0 -93 -68.5 -157t-185.5 -64q-47 0 -91 12t-73.5 29.5t-52.5 35t-34 29.5zM127 761l98 150h140l99 -150h-121l-47 82h-2l-47 -82h-120z" />
    <glyph glyph-name="scircumflex" unicode="&#x15d;" horiz-adv-x="491" 
d="M21 82l77 111q8 -8 22 -20.5t54 -33t75 -20.5q39 0 39 25q0 11 -26.5 23t-64.5 27t-76 35t-64.5 56t-26.5 83q0 78 61.5 118.5t150.5 40.5q35 0 67.5 -5.5t63.5 -18t50 -36.5t19 -57v-61h-150v25q0 10 -14 17t-33 7q-46 0 -46 -24q0 -14 27 -26t65.5 -25t76.5 -31
t65 -53.5t27 -83.5q0 -76 -59.5 -121.5t-151.5 -45.5q-41 0 -80 9.5t-64.5 23.5t-45.5 28t-29 23zM73 565l98 150h140l99 -150h-121l-47 82h-2l-47 -82h-120z" />
    <glyph glyph-name="Scedilla" unicode="&#x15e;" horiz-adv-x="573" 
d="M28 106l99 125q3 -3 8.5 -9t23 -20.5t36 -25.5t45 -20t51.5 -9q72 0 72 53q0 21 -33.5 40.5t-81 40t-95 47t-81 74.5t-33.5 110q0 95 73.5 155t181.5 60q52 0 102 -15t88 -52t38 -88v-78h-160v31q0 18 -21.5 30t-48.5 12q-30 0 -51.5 -12.5t-21.5 -35.5q0 -20 24 -37
t60 -29.5t78 -33t78 -45t60 -67.5t24 -98q0 -86 -59.5 -148t-161.5 -71l-6 -26q75 -8 75 -80q0 -50 -34 -72t-83 -22q-17 0 -34.5 2t-27.5 4l-9 3v87q23 -10 45 -10q38 0 38 23q0 21 -41 21l-26 -2l23 74q-61 8 -114.5 36.5t-76.5 53.5z" />
    <glyph glyph-name="scedilla" unicode="&#x15f;" horiz-adv-x="491" 
d="M21 82l77 111q8 -8 22 -20.5t54 -33t75 -20.5q39 0 39 25q0 11 -26.5 23t-64.5 27t-76 35t-64.5 56t-26.5 83q0 78 61.5 118.5t150.5 40.5q35 0 67.5 -5.5t63.5 -18t50 -36.5t19 -57v-61h-150v25q0 10 -14 17t-33 7q-46 0 -46 -24q0 -14 27 -26t65.5 -25t76.5 -31
t65 -53.5t27 -83.5q0 -73 -53.5 -117t-138.5 -49l-6 -25q75 -8 75 -80q0 -50 -34 -72t-83 -22q-17 0 -34.5 2t-27.5 4l-9 3v87q23 -10 45 -10q38 0 38 23q0 21 -41 21l-26 -2l23 75q-48 9 -90 31t-60 40z" />
    <glyph glyph-name="Scaron" unicode="&#x160;" horiz-adv-x="573" 
d="M28 106l99 125q3 -3 8.5 -9t23 -20.5t36 -25.5t45 -20t51.5 -9q72 0 72 53q0 21 -33.5 40.5t-81 40t-95 47t-81 74.5t-33.5 110q0 95 73.5 155t181.5 60q52 0 102 -15t88 -52t38 -88v-78h-160v31q0 18 -21.5 30t-48.5 12q-30 0 -51.5 -12.5t-21.5 -35.5q0 -20 24 -37
t60 -29.5t78 -33t78 -45t60 -67.5t24 -98q0 -93 -68.5 -157t-185.5 -64q-47 0 -91 12t-73.5 29.5t-52.5 35t-34 29.5zM225 761l-98 150h120l47 -82h2l47 82h121l-99 -150h-140z" />
    <glyph glyph-name="scaron" unicode="&#x161;" horiz-adv-x="491" 
d="M21 82l77 111q8 -8 22 -20.5t54 -33t75 -20.5q39 0 39 25q0 11 -26.5 23t-64.5 27t-76 35t-64.5 56t-26.5 83q0 78 61.5 118.5t150.5 40.5q35 0 67.5 -5.5t63.5 -18t50 -36.5t19 -57v-61h-150v25q0 10 -14 17t-33 7q-46 0 -46 -24q0 -14 27 -26t65.5 -25t76.5 -31
t65 -53.5t27 -83.5q0 -76 -59.5 -121.5t-151.5 -45.5q-41 0 -80 9.5t-64.5 23.5t-45.5 28t-29 23zM171 565l-98 150h120l47 -82h2l47 82h121l-99 -150h-140z" />
    <glyph glyph-name="Tcommaaccent" unicode="&#x162;" horiz-adv-x="679" 
d="M250 0v565h-58q-22 0 -22 -22v-39h-155v142q0 38 15.5 53.5t53.5 15.5h511q38 0 53.5 -15.5t15.5 -53.5v-142h-155v39q0 22 -22 22h-58v-565h-52l-9 -36q75 -8 75 -80q0 -49 -34 -71.5t-83 -22.5q-17 0 -34.5 2t-27.5 4l-9 3v87q23 -10 45 -10q38 0 38 23q0 21 -41 21
l-26 -2l26 82h-47z" />
    <glyph glyph-name="tcommaaccent" unicode="&#x163;" horiz-adv-x="397" 
d="M79 190v190h-66v135h71v139h168v-139h108v-135h-108v-167q0 -66 92 -66l23 1v-150q-19 -3 -47 -3q-34 0 -63 5l-8 -36q75 -8 75 -80q0 -50 -34 -72t-83 -22q-17 0 -34.5 2t-26.5 4l-10 3v87q23 -10 45 -10q38 0 38 23q0 21 -41 21l-26 -2l32 102q-105 46 -105 170z" />
    <glyph glyph-name="Tcaron" unicode="&#x164;" horiz-adv-x="679" 
d="M250 0v565h-58q-22 0 -22 -22v-39h-155v142q0 38 15.5 53.5t53.5 15.5h511q38 0 53.5 -15.5t15.5 -53.5v-142h-155v39q0 22 -22 22h-58v-565h-179zM269 761l-98 150h120l47 -82h2l47 82h121l-99 -150h-140z" />
    <glyph glyph-name="tcaron" unicode="&#x165;" horiz-adv-x="463" 
d="M84 190v190h-66v135h71v139h168v-139h108v-135h-108v-167q0 -66 92 -66l23 1v-150q-19 -3 -47 -3q-24 0 -46.5 2.5t-52 9.5t-53 21t-44.5 34.5t-33 53.5t-12 74zM305 715h122q7 -27 7 -53q0 -45 -28 -98h-109q20 55 20 88q0 31 -12 63z" />
    <glyph glyph-name="Tbar" unicode="&#x166;" horiz-adv-x="679" 
d="M250 0v272h-138v127h138v166h-58q-22 0 -22 -22v-39h-155v142q0 38 15.5 53.5t53.5 15.5h511q38 0 53.5 -15.5t15.5 -53.5v-142h-155v39q0 22 -22 22h-58v-166h148v-127h-148v-272h-179z" />
    <glyph glyph-name="tbar" unicode="&#x167;" horiz-adv-x="397" 
d="M79 190v19h-66v107h66v64h-66v135h71v139h168v-139h108v-135h-108v-64h108v-107h-108v-3q0 -33 28.5 -46t63.5 -13l23 1v-150q-19 -3 -47 -3q-24 0 -46.5 2.5t-52 9.5t-53 21t-44.5 34.5t-33 53.5t-12 74z" />
    <glyph glyph-name="Utilde" unicode="&#x168;" horiz-adv-x="758" 
d="M85 263v280q0 22 -22 22h-43v150h171q38 0 55.5 -17.5t17.5 -55.5v-374q0 -55 31.5 -85t83.5 -30t83.5 30t31.5 85v374q0 38 17.5 55.5t55.5 17.5h171v-150h-43q-22 0 -22 -22v-280q0 -122 -80.5 -198.5t-212.5 -76.5q-133 0 -214 76.5t-81 198.5zM178 761q0 153 131 153
q30 0 54 -15t42 -30t34 -15q41 0 41 57h101q0 -153 -131 -153q-30 0 -54 15t-42 30t-34 15q-41 0 -41 -57h-101z" />
    <glyph glyph-name="utilde" unicode="&#x169;" horiz-adv-x="666" 
d="M77 181v167q0 22 -22 22h-38v145h160q38 0 55.5 -17.5t17.5 -55.5v-229q0 -68 55 -68q53 0 81 40.5t28 101.5v228h173v-348q0 -22 22 -22h38v-145h-153q-35 0 -54 15.5t-19 42.5v7l1 12h-2q-21 -41 -64.5 -65t-95.5 -24q-84 0 -133.5 45.5t-49.5 147.5zM126 565
q0 153 131 153q30 0 54 -15t42 -30t34 -15q41 0 41 57h101q0 -153 -131 -153q-30 0 -54 15t-42 30t-34 15q-41 0 -41 -57h-101z" />
    <glyph glyph-name="Umacron" unicode="&#x16a;" horiz-adv-x="758" 
d="M85 263v280q0 22 -22 22h-43v150h171q38 0 55.5 -17.5t17.5 -55.5v-374q0 -55 31.5 -85t83.5 -30t83.5 30t31.5 85v374q0 38 17.5 55.5t55.5 17.5h171v-150h-43q-22 0 -22 -22v-280q0 -122 -80.5 -198.5t-212.5 -76.5q-133 0 -214 76.5t-81 198.5zM242 782v107h275v-107
h-275z" />
    <glyph glyph-name="umacron" unicode="&#x16b;" horiz-adv-x="666" 
d="M77 181v167q0 22 -22 22h-38v145h160q38 0 55.5 -17.5t17.5 -55.5v-229q0 -68 55 -68q53 0 81 40.5t28 101.5v228h173v-348q0 -22 22 -22h38v-145h-153q-35 0 -54 15.5t-19 42.5v7l1 12h-2q-21 -41 -64.5 -65t-95.5 -24q-84 0 -133.5 45.5t-49.5 147.5zM190 586v107h275
v-107h-275z" />
    <glyph glyph-name="Ubreve" unicode="&#x16c;" horiz-adv-x="758" 
d="M85 263v280q0 22 -22 22h-43v150h171q38 0 55.5 -17.5t17.5 -55.5v-374q0 -55 31.5 -85t83.5 -30t83.5 30t31.5 85v374q0 38 17.5 55.5t55.5 17.5h171v-150h-43q-22 0 -22 -22v-280q0 -122 -80.5 -198.5t-212.5 -76.5q-133 0 -214 76.5t-81 198.5zM379 756
q-65 0 -115.5 39.5t-50.5 105.5v10h104v-11q0 -28 19 -43t43 -15t43 15t19 43v11h104v-10q0 -66 -50.5 -105.5t-115.5 -39.5z" />
    <glyph glyph-name="ubreve" unicode="&#x16d;" horiz-adv-x="666" 
d="M77 181v167q0 22 -22 22h-38v145h160q38 0 55.5 -17.5t17.5 -55.5v-229q0 -68 55 -68q53 0 81 40.5t28 101.5v228h173v-348q0 -22 22 -22h38v-145h-153q-35 0 -54 15.5t-19 42.5v7l1 12h-2q-21 -41 -64.5 -65t-95.5 -24q-84 0 -133.5 45.5t-49.5 147.5zM327 560
q-65 0 -115.5 39.5t-50.5 105.5v10h104v-11q0 -28 19 -43t43 -15t43 15t19 43v11h104v-10q0 -66 -50.5 -105.5t-115.5 -39.5z" />
    <glyph glyph-name="Uring" unicode="&#x16e;" horiz-adv-x="758" 
d="M85 263v280q0 22 -22 22h-43v150h171q38 0 55.5 -17.5t17.5 -55.5v-374q0 -55 31.5 -85t83.5 -30t83.5 30t31.5 85v374q0 38 17.5 55.5t55.5 17.5h171v-150h-43q-22 0 -22 -22v-280q0 -122 -80.5 -198.5t-212.5 -76.5q-133 0 -214 76.5t-81 198.5zM379 747q-41 0 -71 22
t-30 63t30 63.5t71 22.5t71.5 -22.5t30.5 -63.5t-30.5 -63t-71.5 -22zM379 797q16 0 26.5 9.5t10.5 25.5t-10.5 26t-26.5 10q-15 0 -25.5 -10t-10.5 -26t10 -25.5t26 -9.5z" />
    <glyph glyph-name="uring" unicode="&#x16f;" horiz-adv-x="666" 
d="M77 181v167q0 22 -22 22h-38v145h160q38 0 55.5 -17.5t17.5 -55.5v-229q0 -68 55 -68q53 0 81 40.5t28 101.5v228h173v-348q0 -22 22 -22h38v-145h-153q-35 0 -54 15.5t-19 42.5v7l1 12h-2q-21 -41 -64.5 -65t-95.5 -24q-84 0 -133.5 45.5t-49.5 147.5zM327 551
q-41 0 -71 22t-30 63t30 63.5t71 22.5t71.5 -22.5t30.5 -63.5t-30.5 -63t-71.5 -22zM327 601q16 0 26.5 9.5t10.5 25.5t-10.5 26t-26.5 10q-15 0 -25.5 -10t-10.5 -26t10 -25.5t26 -9.5z" />
    <glyph glyph-name="Uhungarumlaut" unicode="&#x170;" horiz-adv-x="758" 
d="M85 263v280q0 22 -22 22h-43v150h171q38 0 55.5 -17.5t17.5 -55.5v-374q0 -55 31.5 -85t83.5 -30t83.5 30t31.5 85v374q0 38 17.5 55.5t55.5 17.5h171v-150h-43q-22 0 -22 -22v-280q0 -122 -80.5 -198.5t-212.5 -76.5q-133 0 -214 76.5t-81 198.5zM411 761l81 150h157
l-118 -150h-120zM208 761l77 150h133l-79 -150h-131z" />
    <glyph glyph-name="uhungarumlaut" unicode="&#x171;" horiz-adv-x="666" 
d="M77 181v167q0 22 -22 22h-38v145h160q38 0 55.5 -17.5t17.5 -55.5v-229q0 -68 55 -68q53 0 81 40.5t28 101.5v228h173v-348q0 -22 22 -22h38v-145h-153q-35 0 -54 15.5t-19 42.5v7l1 12h-2q-21 -41 -64.5 -65t-95.5 -24q-84 0 -133.5 45.5t-49.5 147.5zM359 565l81 150
h157l-118 -150h-120zM156 565l77 150h133l-79 -150h-131z" />
    <glyph glyph-name="Uogonek" unicode="&#x172;" horiz-adv-x="758" 
d="M85 263v280q0 22 -22 22h-43v150h171q38 0 55.5 -17.5t17.5 -55.5v-374q0 -55 31.5 -85t83.5 -30t83.5 30t31.5 85v374q0 38 17.5 55.5t55.5 17.5h171v-150h-43q-22 0 -22 -22v-280q0 -160 -150 -248q-22 -13 -41.5 -36.5t-19.5 -39.5q0 -10 9.5 -16t18.5 -7l10 -2
l-42 -124q-5 1 -14 2t-32 8t-40.5 17t-32 29t-14.5 43q0 60 56 101v2q-13 -1 -23 -1q-120 0 -196.5 78t-76.5 194z" />
    <glyph glyph-name="uogonek" unicode="&#x173;" horiz-adv-x="666" 
d="M260 -12q-84 0 -133.5 45.5t-49.5 147.5v167q0 22 -22 22h-38v145h160q38 0 55.5 -17.5t17.5 -55.5v-229q0 -68 55 -68q53 0 81 40.5t28 101.5v228h173v-348q0 -22 22 -22h38v-145q-42 -40 -42 -61q0 -10 9.5 -16t19.5 -7l9 -2l-42 -124q-5 1 -14 2t-32 8t-40.5 17
t-32 29t-14.5 43q0 59 66 109v2h-41q-35 0 -53.5 15.5t-18.5 42.5v7l1 12h-3l-5 -10t-16.5 -21t-30 -27t-45.5 -21.5t-62 -9.5z" />
    <glyph glyph-name="Wcircumflex" unicode="&#x174;" horiz-adv-x="1028" 
d="M204 0l-136 543q-5 22 -28 22h-25v150h128q77 0 89 -58l79 -374q4 -20 6.5 -38.5t2.5 -27.5v-9h2q1 31 12 75l109 431h143l108 -431q5 -20 8 -38.5t4 -27.5v-9h2q0 31 9 75l79 374q7 32 28.5 45t60.5 13h128v-150h-25q-23 0 -28 -22l-136 -543h-205l-90 333
q-6 20 -9.5 39t-3.5 28l-1 9h-2q-1 -30 -14 -76l-90 -333h-205zM346 761l98 150h140l99 -150h-121l-47 82h-2l-47 -82h-120z" />
    <glyph glyph-name="wcircumflex" unicode="&#x175;" horiz-adv-x="836" 
d="M151 0l-104 354q-5 16 -22 16h-15v145h128q57 0 67 -49l52 -255l6 -54h2q2 26 9 54l71 302h148l71 -302l8 -54h2q0 26 6 54l52 255q10 49 66 49h128v-145h-15q-16 0 -22 -16l-104 -354h-197l-58 238l-10 55h-2q-3 -27 -10 -55l-58 -238h-199zM251 565l98 150h140l99 -150
h-121l-47 82h-2l-47 -82h-120z" />
    <glyph glyph-name="Ycircumflex" unicode="&#x176;" horiz-adv-x="633" 
d="M227 0v313l-152 230q-10 16 -15 19t-21 3h-29v150h98q35 0 55 -9.5t37 -38.5l73 -123l43 -80h2q16 34 43 80l72 123q17 29 37 38.5t55 9.5h98v-150h-29q-16 0 -21 -3t-15 -19l-152 -230v-313h-179zM149 761l98 150h140l99 -150h-121l-47 82h-2l-47 -82h-120z" />
    <glyph glyph-name="ycircumflex" unicode="&#x177;" horiz-adv-x="565" 
d="M58 -33q30 -33 71 -33q57 0 77 51l6 15l-163 354q-7 16 -22 16h-19v145h126q44 0 60 -42l76 -208l19 -80h2q9 52 17 80l57 208q5 20 22.5 31t38.5 11h129v-145h-19q-18 0 -24 -16l-156 -409q-31 -80 -89 -117.5t-126 -37.5q-40 0 -76 14t-53 28l-16 13zM119 565l98 150
h140l99 -150h-121l-47 82h-2l-47 -82h-120z" />
    <glyph glyph-name="Ydieresis" unicode="&#x178;" horiz-adv-x="633" 
d="M227 0v313l-152 230q-10 16 -15 19t-21 3h-29v150h98q35 0 55 -9.5t37 -38.5l73 -123l43 -80h2q16 34 43 80l72 123q17 29 37 38.5t55 9.5h98v-150h-29q-16 0 -21 -3t-15 -19l-152 -230v-313h-179zM363 771v140h112v-140h-112zM160 771v140h112v-140h-112z" />
    <glyph glyph-name="Zacute" unicode="&#x179;" horiz-adv-x="599" 
d="M16 0v110l273 391q14 20 27.5 36t20.5 23l7 6v2q-23 -3 -55 -3h-88q-22 0 -22 -22v-39h-160v138q0 38 17.5 55.5t55.5 17.5h475v-108l-274 -393q-14 -20 -27.5 -36t-20.5 -22l-7 -7v-2q23 3 55 3h108q22 0 22 22v39h160v-138q0 -38 -17.5 -55.5t-55.5 -17.5h-494z
M243 761l81 150h157l-118 -150h-120z" />
    <glyph glyph-name="zacute" unicode="&#x17a;" horiz-adv-x="521" 
d="M17 0v86l198 237q12 14 23 26t16 17l6 4v2q-13 -2 -45 -2h-19q-22 0 -22 -22v-21h-155v115q0 38 17.5 55.5t55.5 17.5h394v-87l-197 -237q-11 -14 -22.5 -25.5t-17.5 -16.5l-6 -5v-2q13 3 46 3h38q22 0 22 22v21h155v-115q0 -38 -17.5 -55.5t-55.5 -17.5h-414zM203 565
l81 150h157l-118 -150h-120z" />
    <glyph glyph-name="Zdotaccent" unicode="&#x17b;" horiz-adv-x="599" 
d="M16 0v110l273 391q14 20 27.5 36t20.5 23l7 6v2q-23 -3 -55 -3h-88q-22 0 -22 -22v-39h-160v138q0 38 17.5 55.5t55.5 17.5h475v-108l-274 -393q-14 -20 -27.5 -36t-20.5 -22l-7 -7v-2q23 3 55 3h108q22 0 22 22v39h160v-138q0 -38 -17.5 -55.5t-55.5 -17.5h-494z
M234 771v140h145v-140h-145z" />
    <glyph glyph-name="zdotaccent" unicode="&#x17c;" horiz-adv-x="521" 
d="M17 0v86l198 237q12 14 23 26t16 17l6 4v2q-13 -2 -45 -2h-19q-22 0 -22 -22v-21h-155v115q0 38 17.5 55.5t55.5 17.5h394v-87l-197 -237q-11 -14 -22.5 -25.5t-17.5 -16.5l-6 -5v-2q13 3 46 3h38q22 0 22 22v21h155v-115q0 -38 -17.5 -55.5t-55.5 -17.5h-414zM194 575
v140h145v-140h-145z" />
    <glyph glyph-name="Zcaron" unicode="&#x17d;" horiz-adv-x="599" 
d="M16 0v110l273 391q14 20 27.5 36t20.5 23l7 6v2q-23 -3 -55 -3h-88q-22 0 -22 -22v-39h-160v138q0 38 17.5 55.5t55.5 17.5h475v-108l-274 -393q-14 -20 -27.5 -36t-20.5 -22l-7 -7v-2q23 3 55 3h108q22 0 22 22v39h160v-138q0 -38 -17.5 -55.5t-55.5 -17.5h-494z
M236 761l-98 150h120l47 -82h2l47 82h121l-99 -150h-140z" />
    <glyph glyph-name="zcaron" unicode="&#x17e;" horiz-adv-x="521" 
d="M17 0v86l198 237q12 14 23 26t16 17l6 4v2q-13 -2 -45 -2h-19q-22 0 -22 -22v-21h-155v115q0 38 17.5 55.5t55.5 17.5h394v-87l-197 -237q-11 -14 -22.5 -25.5t-17.5 -16.5l-6 -5v-2q13 3 46 3h38q22 0 22 22v21h155v-115q0 -38 -17.5 -55.5t-55.5 -17.5h-414zM196 565
l-98 150h120l47 -82h2l47 82h121l-99 -150h-140z" />
    <glyph glyph-name="longs" unicode="&#x17f;" horiz-adv-x="377" 
d="M79 0v380h-63v135h63v12q0 48 17 84.5t41.5 56.5t59 32t62 15.5t56.5 3.5l52 -3v-146q-12 2 -28 2q-34 0 -60.5 -12t-26.5 -41v-519h-173z" />
    <glyph glyph-name="florin" unicode="&#x192;" horiz-adv-x="397" 
d="M-1 -56l-52 3l13 146q11 -2 27 -2q86 0 92 64l13 155h-62v135h74l8 82q5 48 25 84.5t46 56.5t60.5 32t62.5 15.5t58 3.5l52 -3l-13 -146q-11 2 -27 2q-87 0 -93 -64l-6 -63h95v-135h-107l-15 -174q-4 -48 -24 -84.5t-46.5 -56.5t-61 -32t-62.5 -15.5t-57 -3.5z" />
    <glyph glyph-name="Scommaaccent" unicode="&#x218;" horiz-adv-x="573" 
d="M28 106l99 125q3 -3 8.5 -9t23 -20.5t36 -25.5t45 -20t51.5 -9q72 0 72 53q0 21 -33.5 40.5t-81 40t-95 47t-81 74.5t-33.5 110q0 95 73.5 155t181.5 60q52 0 102 -15t88 -52t38 -88v-78h-160v31q0 18 -21.5 30t-48.5 12q-30 0 -51.5 -12.5t-21.5 -35.5q0 -20 24 -37
t60 -29.5t78 -33t78 -45t60 -67.5t24 -98q0 -93 -68.5 -157t-185.5 -64q-47 0 -91 12t-73.5 29.5t-52.5 35t-34 29.5zM225 -49h122q7 -27 7 -53q0 -45 -28 -98h-109q20 55 20 88q0 31 -12 63z" />
    <glyph glyph-name="scommaaccent" unicode="&#x219;" horiz-adv-x="491" 
d="M21 82l77 111q8 -8 22 -20.5t54 -33t75 -20.5q39 0 39 25q0 11 -26.5 23t-64.5 27t-76 35t-64.5 56t-26.5 83q0 78 61.5 118.5t150.5 40.5q35 0 67.5 -5.5t63.5 -18t50 -36.5t19 -57v-61h-150v25q0 10 -14 17t-33 7q-46 0 -46 -24q0 -14 27 -26t65.5 -25t76.5 -31
t65 -53.5t27 -83.5q0 -76 -59.5 -121.5t-151.5 -45.5q-41 0 -80 9.5t-64.5 23.5t-45.5 28t-29 23zM178 -49h122q7 -27 7 -53q0 -45 -28 -98h-109q20 55 20 88q0 31 -12 63z" />
    <glyph glyph-name="uni021A" unicode="&#x21a;" horiz-adv-x="679" 
d="M250 0v565h-58q-22 0 -22 -22v-39h-155v142q0 38 15.5 53.5t53.5 15.5h511q38 0 53.5 -15.5t15.5 -53.5v-142h-155v39q0 22 -22 22h-58v-565h-179zM269 -49h122q7 -27 7 -53q0 -45 -28 -98h-109q20 55 20 88q0 31 -12 63z" />
    <glyph glyph-name="uni021B" unicode="&#x21b;" horiz-adv-x="397" 
d="M79 190v190h-66v135h71v139h168v-139h108v-135h-108v-167q0 -66 92 -66l23 1v-150q-19 -3 -47 -3q-24 0 -46.5 2.5t-52 9.5t-53 21t-44.5 34.5t-33 53.5t-12 74zM152 -49h122q7 -27 7 -53q0 -45 -28 -98h-109q20 55 20 88q0 31 -12 63z" />
    <glyph glyph-name="circumflex" unicode="&#x2c6;" horiz-adv-x="525" 
d="M95 761l98 150h140l99 -150h-121l-47 82h-2l-47 -82h-120z" />
    <glyph glyph-name="caron" unicode="&#x2c7;" horiz-adv-x="525" 
d="M192 761l-98 150h120l47 -82h2l47 82h121l-99 -150h-140z" />
    <glyph glyph-name="breve" unicode="&#x2d8;" horiz-adv-x="543" 
d="M271 756q-65 0 -115.5 39.5t-50.5 105.5v10h104v-11q0 -28 19 -43t43 -15t43 15t19 43v11h104v-10q0 -66 -50.5 -105.5t-115.5 -39.5z" />
    <glyph glyph-name="dotaccent" unicode="&#x2d9;" horiz-adv-x="343" 
d="M99 771v140h145v-140h-145z" />
    <glyph glyph-name="ring" unicode="&#x2da;" horiz-adv-x="391" 
d="M195 747q-41 0 -71 22t-30 63t30 63.5t71 22.5t71.5 -22.5t30.5 -63.5t-30.5 -63t-71.5 -22zM195 797q16 0 26.5 9.5t10.5 25.5t-10.5 26t-26.5 10q-15 0 -25.5 -10t-10.5 -26t10 -25.5t26 -9.5z" />
    <glyph glyph-name="ogonek" unicode="&#x2db;" horiz-adv-x="407" 
d="M116 -111q0 32 21 63t42 46l21 16h110q-57 -49 -57 -75q0 -10 9.5 -16t19.5 -7l9 -2l-42 -124q-5 1 -14 2t-32 8t-40.5 17t-32 29t-14.5 43z" />
    <glyph glyph-name="tilde" unicode="&#x2dc;" horiz-adv-x="592" 
d="M101 761q0 153 131 153q30 0 54 -15t42 -30t34 -15q41 0 41 57h101q0 -153 -131 -153q-30 0 -54 15t-42 30t-34 15q-41 0 -41 -57h-101z" />
    <glyph glyph-name="hungarumlaut" unicode="&#x2dd;" horiz-adv-x="587" 
d="M287 761l81 150h157l-118 -150h-120zM84 761l77 150h133l-79 -150h-131z" />
    <glyph glyph-name="germandbls.case" unicode="&#x1e9e;" horiz-adv-x="689" 
d="M20 0v150h43q22 0 22 22v308q0 106 66 170.5t175 64.5h296v-120l-92 -148l-20 -29v-2l9 -2q63 -14 98 -72t35 -124q0 -92 -67.5 -155t-163.5 -63h-93v150h80q31 0 47.5 20t16.5 48q0 27 -16 46.5t-48 19.5h-80v120l53 97q12 21 23 37.5t16 21.5l6 6v2q-9 -3 -45 -3h-54
q-28 0 -45.5 -23t-17.5 -58v-411q0 -38 -17.5 -55.5t-55.5 -17.5h-171z" />
    <glyph glyph-name="endash" unicode="&#x2013;" horiz-adv-x="680" 
d="M42 222v130h596v-130h-596z" />
    <glyph glyph-name="emdash" unicode="&#x2014;" horiz-adv-x="880" 
d="M42 222v130h796v-130h-796z" />
    <glyph glyph-name="quoteleft" unicode="&#x2018;" horiz-adv-x="271" 
d="M35 475l89 255h112l-54 -255h-147z" />
    <glyph glyph-name="quoteright" unicode="&#x2019;" horiz-adv-x="271" 
d="M35 475l54 255h147l-89 -255h-112z" />
    <glyph glyph-name="quotesinglbase" unicode="&#x201a;" horiz-adv-x="271" 
d="M89 166h147l-89 -255h-112z" />
    <glyph glyph-name="quotedblleft" unicode="&#x201c;" horiz-adv-x="463" 
d="M227 475l89 255h112l-54 -255h-147zM35 475l89 255h112l-54 -255h-147z" />
    <glyph glyph-name="quotedblright" unicode="&#x201d;" horiz-adv-x="463" 
d="M227 475l54 255h147l-89 -255h-112zM35 475l54 255h147l-89 -255h-112z" />
    <glyph glyph-name="quotedblbase" unicode="&#x201e;" horiz-adv-x="463" 
d="M227 -89l54 255h147l-89 -255h-112zM89 166h147l-89 -255h-112z" />
    <glyph glyph-name="dagger" unicode="&#x2020;" horiz-adv-x="476" 
d="M155 -50v435h-130v130h130v200h165v-200h131v-130h-131v-435h-165z" />
    <glyph glyph-name="daggerdbl" unicode="&#x2021;" horiz-adv-x="476" 
d="M155 -50v200h-130v130h130v105h-130v130h130v200h165v-200h131v-130h-131v-105h131v-130h-131v-200h-165z" />
    <glyph glyph-name="bullet" unicode="&#x2022;" horiz-adv-x="492" 
d="M246 105q-77 0 -131.5 54.5t-54.5 131.5t54.5 131.5t131.5 54.5t131.5 -54.5t54.5 -131.5t-54.5 -131.5t-131.5 -54.5z" />
    <glyph glyph-name="ellipsis" unicode="&#x2026;" horiz-adv-x="1132" 
d="M811 0v164h158v-164h-158zM487 0v164h158v-164h-158zM163 0v164h158v-164h-158z" />
    <glyph glyph-name="perthousand" unicode="&#x2030;" horiz-adv-x="1260" 
d="M231 382q-76 0 -128.5 50t-52.5 122q0 71 53 122t128 51t128 -51t53 -122q0 -72 -53 -122t-128 -50zM90 0l552 715h152l-552 -715h-152zM231 502q23 0 39 15.5t16 37.5q0 21 -16.5 36.5t-38.5 15.5t-38.5 -15.5t-16.5 -36.5q0 -22 16 -37.5t39 -15.5zM879 160
q0 71 53 122t128 51t128 -51t53 -122q0 -72 -53 -122t-128 -50q-76 0 -128.5 50t-52.5 122zM477 160q0 71 53 122t128 51t128 -51t53 -122q0 -72 -53 -122t-128 -50q-76 0 -128.5 50t-52.5 122zM1005 161q0 -22 16 -37.5t39 -15.5t39 15.5t16 37.5q0 21 -16.5 36.5
t-38.5 15.5t-38.5 -15.5t-16.5 -36.5zM603 161q0 -22 16 -37.5t39 -15.5t39 15.5t16 37.5q0 21 -16.5 36.5t-38.5 15.5t-38.5 -15.5t-16.5 -36.5z" />
    <glyph glyph-name="guilsinglleft" unicode="&#x2039;" horiz-adv-x="431" 
d="M216 77l-164 205l164 206h158l-164 -206l164 -205h-158z" />
    <glyph glyph-name="guilsinglright" unicode="&#x203a;" horiz-adv-x="431" 
d="M52 77l164 205l-164 206h158l164 -206l-164 -205h-158z" />
    <glyph glyph-name="fraction" unicode="&#x2044;" horiz-adv-x="424" 
d="M18 0l261 715h127l-261 -715h-127z" />
    <glyph glyph-name="Euro" unicode="&#x20ac;" 
d="M37 237v96h66q-2 16 -2 26l1 22h-65v96h82q35 111 129.5 180.5t217.5 69.5q24 0 50.5 -3.5t40.5 -7.5l14 -3l-43 -158q-33 10 -67 10q-107 0 -154 -88h206l-20 -96h-209q-1 -13 -1 -19l3 -29h197l-20 -96h-145q24 -40 64 -62t87 -22q24 0 49 4.5t38 8.5l13 4l30 -160
q-57 -22 -133 -22q-127 0 -218.5 68t-126.5 181h-84z" />
    <glyph glyph-name="trademark" unicode="&#x2122;" horiz-adv-x="1002" 
d="M434 268v109h20q8 0 8 7l27 331h118l73 -175l13 -44h2q7 29 13 44l73 175h118l27 -331q0 -7 8 -7h21v-109h-100q-29 0 -40 8.5t-12 35.5l-8 130l1 32h-2l-51 -125h-98l-51 125h-2l1 -32l-8 -130q-1 -27 -12 -35.5t-40 -8.5h-99zM169 268v338h-30q-6 0 -6 -6v-29h-106v100
q0 26 10 35t38 9h313q28 0 37.5 -9t9.5 -35v-100h-102v29q0 6 -6 6h-32v-338h-126z" />
    <glyph glyph-name="minus" unicode="&#x2212;" 
d="M42 222v130h546v-130h-546z" />
    <glyph glyph-name="infinity" unicode="&#x221e;" horiz-adv-x="531" 
d="M266 143q-85 0 -145.5 60.5t-60.5 145.5t60.5 145t145.5 60q86 0 145.5 -60t59.5 -145t-60 -145.5t-145 -60.5z" />
    <glyph glyph-name="approxequal" unicode="&#x2248;" 
d="M115 322l-63 99q81 81 165 81q50 0 107.5 -35t90.5 -35q55 0 102 54l63 -99q-81 -81 -165 -81q-50 0 -107.5 35t-90.5 35q-52 0 -102 -54zM115 93l-63 99q81 81 165 81q50 0 107.5 -35t90.5 -35q55 0 102 54l63 -99q-81 -81 -165 -81q-50 0 -107.5 35t-90.5 35
q-52 0 -102 -54z" />
    <glyph glyph-name="notequal" unicode="&#x2260;" 
d="M112 47l38 60h-88v130h171l64 100h-235v130h319l69 108l76 -49l-38 -59h80v-130h-163l-64 -100h227v-130h-310l-68 -107z" />
    <glyph glyph-name="lessequal" unicode="&#x2264;" 
d="M59 234v107l504 223v-145l-330 -131v-2l330 -130v-145zM62 -70h501v-130h-501v130z" />
    <glyph glyph-name="greaterequal" unicode="&#x2265;" 
d="M67 11v145l330 130v2l-330 131v145l504 -223v-107zM68 -70h501v-130h-501v130z" />
    <glyph glyph-name="T.R" horiz-adv-x="660" 
d="M261 0v565h-64q-22 0 -22 -22v-37h-160v143q0 36 14 51t50 15h551v-150h-190v-565h-179z" />
    <glyph glyph-name="T.L" horiz-adv-x="660" 
d="M220 0v565h-190v150h551q36 0 50 -15t14 -51v-143h-160v37q0 22 -22 22h-64v-565h-179z" />
    <glyph glyph-name="T.cut_mid" horiz-adv-x="660" 
d="M240 0v565h-210v150h600v-150h-211v-565h-179z" />
    <glyph glyph-name="commaaccent" horiz-adv-x="335" 
d="M115 -49h122q7 -27 7 -53q0 -45 -28 -98h-109q20 55 20 88q0 31 -12 63z" />
    <glyph glyph-name="apple" horiz-adv-x="1130" 
d="M42 128v278l126 71v151l265 142l134 -71l132 71l265 -142v-151l124 -71v-278l-124 -72v-152l-265 -141l-132 71l-134 -71l-265 141v152zM94 142l114 -64v-139l238 -126l121 66l118 -66l238 126v139l114 64v249l-114 66v136l-238 126l-118 -64l-121 64l-238 -126v-136
l-114 -66v-249zM143 154v225l99 58v123l215 114l110 -59l107 59l214 -114v-123l100 -58v-225l-100 -60v-121l-214 -114l-107 58l-110 -58l-215 114v121zM426 0h129v171h176v108h-176v128h85q10 0 13 -4.5t3 -16.5v-21h115v102q0 26 -10 37t-37 11h-346v-108h48v-407z" />
    <glyph glyph-name="zero.tnum" horiz-adv-x="600" 
d="M300 -12q-74 0 -127.5 28.5t-83.5 80.5t-44 117t-14 145t14 144.5t44 116t83.5 79.5t127.5 28t127.5 -28t83.5 -79.5t44 -116t14 -144.5t-14 -145t-44 -117t-83.5 -80.5t-127.5 -28.5zM300 148q89 0 89 211q0 208 -89 208t-89 -208q0 -211 89 -211z" />
    <glyph glyph-name="one.tnum" horiz-adv-x="600" 
d="M81 0v150h150v298l1 55h-2q-9 -20 -28 -38l-43 -39l-101 108l193 181h159v-565h151v-150h-480z" />
    <glyph glyph-name="two.tnum" horiz-adv-x="600" 
d="M31 113q0 52 18 94t47 70t63.5 51.5t69.5 42t64 37.5t47 43.5t18 53.5t-20 44.5t-51 15.5t-49 -13t-18 -28v-29h-160v84q0 69 72.5 108.5t161.5 39.5q61 0 115 -23t91.5 -74t37.5 -122q0 -55 -23.5 -101t-59.5 -75t-77 -54t-77 -41.5t-59.5 -35t-23.5 -36.5q0 -15 30 -15
h139q22 0 22 22v39h160v-138q0 -38 -17.5 -55.5t-55.5 -17.5h-384q-52 0 -66.5 24t-14.5 89z" />
    <glyph glyph-name="three.tnum" horiz-adv-x="600" 
d="M34 89l84 135q8 -8 21.5 -20t57.5 -31.5t88 -19.5q43 0 67.5 20t24.5 51q0 29 -28.5 49t-76.5 20h-51l-35 85l79 123q13 20 27 37t22 24l7 6v2q-23 -5 -68 -5h-15q-22 0 -22 -22v-39h-160v138q0 40 13.5 56.5t50.5 16.5h410v-109l-129 -173q74 -17 115.5 -74.5
t41.5 -131.5q0 -96 -71 -167.5t-199 -71.5q-46 0 -89.5 10.5t-72 25t-50.5 29.5t-32 25z" />
    <glyph glyph-name="four.tnum" horiz-adv-x="600" 
d="M12 168v111l256 436h217v-397h106v-150h-106v-168h-179v168h-294zM309 318v125l6 85h-2q-18 -44 -35 -74l-50 -89q-8 -13 -16.5 -25t-13.5 -18l-4 -5v-2q29 3 65 3h50z" />
    <glyph glyph-name="five.tnum" horiz-adv-x="600" 
d="M33 84l82 138q8 -8 22 -19.5t57.5 -30.5t87.5 -19t69.5 24.5t25.5 58.5q0 45 -37.5 66t-93.5 21q-34 0 -67 -6.5t-49 -13.5l-16 -7l-54 30l22 316q3 39 19.5 56t53.5 17h286q38 0 55.5 -17.5t17.5 -55.5v-138h-160v39q0 22 -22 22h-70q-20 0 -22 -22l-3 -49l-3 -28h2
q25 4 51 4q129 0 200 -66.5t71 -170.5q0 -100 -72.5 -173t-203.5 -73q-44 0 -86 10t-70.5 24.5t-50 28.5t-31.5 24z" />
    <glyph glyph-name="six.tnum" horiz-adv-x="600" 
d="M323 -12q-118 0 -204 87.5t-86 249.5q0 75 22.5 146t64 128.5t108 92.5t146.5 35q44 0 83.5 -7.5t56.5 -15.5l18 -8l-47 -150q-47 21 -98 21q-58 0 -96 -32.5t-56 -85.5h2q13 9 42 17t54 8q106 0 170 -73.5t64 -171.5q0 -97 -66.5 -169t-177.5 -72zM215 290
q0 -61 34 -101.5t74 -40.5q32 0 52 23.5t20 56.5q0 43 -27 74t-81 31q-72 0 -72 -43z" />
    <glyph glyph-name="seven.tnum" horiz-adv-x="600" 
d="M45 0l283 501q12 21 23.5 37.5t16.5 21.5l6 6v2q-10 -3 -46 -3h-107q-22 0 -22 -22v-39h-160v138q0 40 13.5 56.5t50.5 16.5h466v-122l-330 -593h-194z" />
    <glyph glyph-name="eight.tnum" horiz-adv-x="600" 
d="M33 211q0 28 10 56t23.5 47.5t27.5 35t24 22.5l10 8v2q-7 5 -17.5 15.5t-28.5 47t-18 76.5q0 84 64 145t175 61q106 0 172.5 -58.5t66.5 -146.5q0 -41 -16 -79t-32 -55l-16 -17v-2q87 -60 87 -163q0 -87 -73 -152.5t-194 -65.5q-116 0 -190.5 64.5t-74.5 158.5zM300 451
q24 -12 35 -12q15 0 26 21.5t11 48.5t-19 42.5t-50 15.5t-49.5 -14.5t-18.5 -35.5q0 -37 65 -66zM211 223q0 -33 24 -54t63 -21t63 19t24 48q0 22 -19.5 38.5t-57.5 33.5q-43 20 -50 20q-16 0 -31.5 -26.5t-15.5 -57.5z" />
    <glyph glyph-name="nine.tnum" horiz-adv-x="600" 
d="M68 19l47 150q47 -21 98 -21q58 0 96 32.5t56 85.5h-2q-12 -9 -41.5 -17t-54.5 -8q-106 0 -170 73.5t-64 171.5q0 97 66.5 169t177.5 72q118 0 204 -87.5t86 -249.5q0 -75 -22.5 -146t-64 -128.5t-108 -92.5t-146.5 -35q-44 0 -83.5 8t-56.5 16zM313 382q72 0 72 43
q0 61 -34 101.5t-74 40.5q-32 0 -52 -23.5t-20 -56.5q0 -43 27 -74t81 -31z" />
    <glyph glyph-name="T_h" horiz-adv-x="1228" 
d="M270 0v565h-78q-22 0 -22 -22v-39h-155v142q0 38 15.5 53.5t53.5 15.5h652q38 0 55.5 -17.5t17.5 -55.5v-153l-2 -44h2q2 3 5.5 8.5t16.5 20t29.5 25t45 19.5t60.5 9q185 0 185 -193v-167q0 -22 22 -22h38v-145h-160q-38 0 -55.5 17.5t-17.5 55.5v229q0 68 -57 68
q-56 0 -84 -39.5t-28 -102.5v-228h-173v543q0 22 -22 22h-165v-565h-179z" />
    <glyph glyph-name="T.alt" horiz-adv-x="666" 
d="M264 0v565h-72q-22 0 -22 -22v-39h-155v142q0 38 15.5 53.5t53.5 15.5h567v-150h-208v-565h-179z" />
    <glyph glyph-name="Tcommaaccent.alt" horiz-adv-x="666" 
d="M15 504v142q0 38 15.5 53.5t53.5 15.5h567v-150h-208v-565h-52l-9 -36q75 -8 75 -80q0 -50 -34 -72t-83 -22q-17 0 -34.5 2t-27.5 4l-9 3v87q23 -10 45 -10q38 0 38 23q0 21 -41 21l-26 -2l26 82h-47v565h-72q-22 0 -22 -22v-39h-155z" />
    <glyph glyph-name="Tcaron.alt" horiz-adv-x="666" 
d="M285 761l-98 150h120l47 -82h2l47 82h121l-99 -150h-140zM264 0v565h-72q-22 0 -22 -22v-39h-155v142q0 38 15.5 53.5t53.5 15.5h567v-150h-208v-565h-179z" />
    <glyph glyph-name="Tbar.alt" horiz-adv-x="666" 
d="M264 0v272h-128v127h128v166h-72q-22 0 -22 -22v-39h-155v142q0 38 15.5 53.5t53.5 15.5h567v-150h-208v-166h138v-127h-138v-272h-179z" />
    <glyph glyph-name="uni021A.alt" horiz-adv-x="666" 
d="M264 0v565h-72q-22 0 -22 -22v-39h-155v142q0 38 15.5 53.5t53.5 15.5h567v-150h-208v-565h-179zM283 -49h122q7 -27 7 -53q0 -45 -28 -98h-109q20 55 20 88q0 31 -12 63z" />
    <glyph glyph-name="hyphen.case" horiz-adv-x="430" 
d="M58 272v150h314v-150h-314z" />
    <glyph glyph-name="parenleft.case" horiz-adv-x="385" 
d="M77 351q0 252 125 429h143q-115 -192 -115 -417q0 -227 115 -428h-143q-125 168 -125 416z" />
    <glyph glyph-name="parenright.case" horiz-adv-x="385" 
d="M40 -65q115 201 115 428q0 225 -115 417h143q125 -177 125 -429q0 -248 -125 -416h-143z" />
    <glyph glyph-name="bracketleft.case" horiz-adv-x="390" 
d="M85 8v699q0 38 17.5 55.5t55.5 17.5h173v-120h-80q-22 0 -22 -22v-561q0 -22 22 -22h80v-120h-173q-38 0 -55.5 17.5t-17.5 55.5z" />
    <glyph glyph-name="bracketright.case" horiz-adv-x="390" 
d="M59 55h80q22 0 22 22v561q0 22 -22 22h-80v120h173q38 0 55.5 -17.5t17.5 -55.5v-699q0 -38 -17.5 -55.5t-55.5 -17.5h-173v120z" />
    <glyph glyph-name="braceleft.case" horiz-adv-x="372" 
d="M102 92v98q0 27 -9 46.5t-21 28.5t-24.5 14.5t-21.5 6.5h-9v150q3 0 9 0.5t20.5 6t26 14.5t20.5 29.5t9 48.5v88q0 50 20.5 85t54 50.5t63 21t61.5 5.5l43 -2v-124q-11 2 -25 2q-73 0 -73 -54v-117q0 -29 -8.5 -52.5t-21 -36.5t-25 -22.5t-21.5 -12.5l-8 -3v-2l9 -3
t20.5 -11.5t25.5 -22t20 -36.5t9 -53v-127q0 -54 73 -54l25 2v-124q-18 -2 -43 -2q-32 0 -61.5 5.5t-63 21t-54 50.5t-20.5 85z" />
    <glyph glyph-name="braceright.case" horiz-adv-x="372" 
d="M28 56q11 -2 25 -2q73 0 73 54v127q0 29 8.5 53t21 37t25 21.5t21.5 11.5l8 3v2q-3 1 -9 3.5t-20.5 12t-25.5 22.5t-20 36.5t-9 52.5v117q0 54 -73 54l-25 -2v124q18 2 43 2q32 0 61.5 -5.5t63 -21t54 -50.5t20.5 -85v-88q0 -44 21.5 -68.5t42.5 -27.5l21 -3v-150
q-3 0 -9 -0.5t-20.5 -6t-26 -14.5t-20.5 -28.5t-9 -46.5v-98q0 -50 -20.5 -85t-54 -50.5t-63 -21t-61.5 -5.5l-43 2v124z" />
    <glyph glyph-name="at.case" horiz-adv-x="843" 
d="M35 355q0 159 112.5 267.5t280.5 108.5q156 0 227 -66.5t71 -173.5v-198h74v-119h-283q-106 0 -166.5 54t-60.5 128q0 72 59.5 124t167.5 52h49q0 30 -41.5 47t-93.5 17q-95 0 -161 -73.5t-66 -167.5q0 -101 67 -170t185 -69v-130q-192 0 -306.5 105t-114.5 264zM461 360
q0 -29 17 -48t49 -19h39v134h-37q-33 0 -50.5 -19t-17.5 -48z" />
    <glyph glyph-name="guillemotleft.case" horiz-adv-x="686" 
d="M312 342l164 206h158l-164 -206l164 -205h-158zM216 137l-164 205l164 206h158l-164 -206l164 -205h-158z" />
    <glyph glyph-name="guillemotright.case" horiz-adv-x="686" 
d="M312 137l164 205l-164 206h158l164 -206l-164 -205h-158zM52 137l164 205l-164 206h158l164 -206l-164 -205h-158z" />
    <glyph glyph-name="guilsinglleft.case" horiz-adv-x="431" 
d="M216 137l-164 205l164 206h158l-164 -206l164 -205h-158z" />
    <glyph glyph-name="guilsinglright.case" horiz-adv-x="431" 
d="M52 137l164 205l-164 206h158l164 -206l-164 -205h-158z" />
    <glyph glyph-name="endash.case" horiz-adv-x="680" 
d="M42 282v130h596v-130h-596z" />
    <glyph glyph-name="emdash.case" horiz-adv-x="880" 
d="M42 282v130h796v-130h-796z" />
    <glyph glyph-name="periodcentered.case" horiz-adv-x="304" 
d="M73 263v164h158v-164h-158z" />
    <glyph glyph-name="questiondown.case" horiz-adv-x="511" 
d="M210 565v150h158v-150h-158zM35 184q0 45 17.5 82.5t43 61t50.5 44t42.5 43t17.5 46.5v33h166v-47q0 -37 -16 -68.5t-39 -52t-46.5 -39t-39.5 -39.5t-16 -44q0 -25 21 -42t50 -17q21 0 45 10.5t37 21.5l13 11l96 -117l-9 -9t-26 -20t-42.5 -25t-58 -20t-73.5 -9
q-92 0 -162.5 52.5t-70.5 143.5z" />
    <glyph glyph-name="exclamdown.case" horiz-adv-x="360" 
d="M101 565v150h158v-150h-158zM90 0l16 494h148l16 -494h-180z" />
    <glyph glyph-name="bullet.case" horiz-adv-x="492" 
d="M246 170q-77 0 -131.5 54.5t-54.5 131.5t54.5 131.5t131.5 54.5t131.5 -54.5t54.5 -131.5t-54.5 -131.5t-131.5 -54.5z" />
    </font>
</defs>
</svg>
