<?xml version="1.0" standalone="no"?>
<!DOCTYPE svg PUBLIC "-//W3C//DTD SVG 1.1//EN" "http://www.w3.org/Graphics/SVG/1.1/DTD/svg11.dtd" >
<svg>
<metadata>
Created by FontForge 20090622 at Fri May  6 09:19:08 2016
 By deploy user
Copyright (c) 2008 by Jos Buivenga. All rights reserved.
</metadata>
<defs>
<font id="MuseoSans-100Italic" horiz-adv-x="376" >
  <font-face 
    font-family="Museo Sans 100"
    font-weight="250"
    font-style="italic"
    font-stretch="normal"
    units-per-em="1000"
    panose-1="2 0 0 0 0 0 0 0 0 0"
    ascent="750"
    descent="-250"
    x-height="500"
    cap-height="700"
    bbox="-241 -210 1030 874"
    underline-thickness="50"
    underline-position="-50"
    unicode-range="U+0020-U+FB04"
  />
<missing-glyph horiz-adv-x="510" 
d="M-53 0v700h500v-700h-500zM197 395l170 255h-340zM227 350l170 -255v510zM-3 95l170 255l-170 255v-510zM27 50h340l-170 255z" />
    <glyph glyph-name="f_f" unicode="ff" horiz-adv-x="618" 
d="M361 0l90 462h-267l-90 -462h-42l90 462h-63l7 38h63l5 25q11 56 35.5 95t54.5 55.5t53 23t45 6.5l31 -2l-9 -39q-8 2 -22 2q-19 0 -37 -5t-41 -18.5t-41.5 -45t-27.5 -77.5l-4 -20h267l5 25q11 56 35.5 95t54.5 55.5t53 23t45 6.5l31 -2l-9 -39q-8 2 -22 2q-19 0 -37 -5
t-41 -18.5t-41.5 -45t-27.5 -77.5l-4 -20h137l-7 -38h-137l-90 -462h-42z" />
    <glyph glyph-name="fi" unicode="fi" horiz-adv-x="523" 
d="M335 0l90 462h-241l-90 -462h-42l90 462h-63l7 38h63l5 25q11 56 35.5 95t54.5 55.5t53 23t45 6.5l31 -2l-9 -39q-8 2 -22 2q-19 0 -37 -5t-41 -18.5t-41.5 -45t-27.5 -77.5l-4 -20h284l-98 -500h-42zM453 627l15 73h50l-15 -73h-50z" />
    <glyph glyph-name="fl" unicode="fl" horiz-adv-x="541" 
d="M52 0l89 459h-63l7 38h63l5 25q9 47 28 82t39.5 53.5t45.5 30t42 14.5t34 3l31 -2l-9 -39q-8 2 -22 2q-19 0 -37 -5t-41 -18.5t-41.5 -45t-27.5 -76.5l-5 -24h137l-7 -38h-137l-89 -459h-42zM352 77q0 13 3 29l116 594h42l-114 -587q-3 -16 -3 -29q0 -21 8.5 -32.5
t17.5 -13.5t23 -2l13 1l-9 -39q-8 -2 -17 -2q-17 0 -33 4.5t-31.5 24t-15.5 52.5z" />
    <glyph glyph-name="f_f_i" unicode="ffi" horiz-adv-x="837" 
d="M52 0l90 462h-63l7 38h63l5 25q11 56 35.5 95t54.5 55.5t53 23t45 6.5l31 -2l-9 -39q-8 2 -22 2q-19 0 -37 -5t-41 -18.5t-41.5 -45t-27.5 -77.5l-4 -20h267l5 25q11 56 35.5 95t54.5 55.5t53 23t45 6.5l31 -2l-9 -39q-8 2 -22 2q-19 0 -37 -5t-41 -18.5t-41.5 -45
t-27.5 -77.5l-4 -20h288l-98 -500h-42l90 462h-245l-90 -462h-42l90 462h-267l-90 -462h-42zM766 627l15 73h50l-15 -73h-50z" />
    <glyph glyph-name="f_f_l" unicode="ffl" horiz-adv-x="850" 
d="M361 0l90 462h-267l-90 -462h-42l90 462h-63l7 38h63l5 25q11 56 35.5 95t54.5 55.5t53 23t45 6.5l31 -2l-9 -39q-8 2 -22 2q-19 0 -37 -5t-41 -18.5t-41.5 -45t-27.5 -77.5l-4 -20h267l5 25q11 56 35.5 95t54.5 55.5t53 23t45 6.5l31 -2l-9 -39q-8 2 -22 2q-19 0 -37 -5
t-41 -18.5t-41.5 -45t-27.5 -77.5l-4 -20h136l-7 -38h-136l-90 -462h-42zM661 77q0 13 3 29l116 594h42l-114 -587q-3 -16 -3 -29q0 -21 8.5 -32.5t17.5 -13.5t23 -2l13 1l-9 -39q-8 -2 -17 -2q-17 0 -33 4.5t-31.5 24t-15.5 52.5z" />
    <glyph glyph-name="f_j" unicode="fj" horiz-adv-x="528" 
d="M52 0l90 462h-63l7 38h63l5 25q11 56 35.5 95t54.5 55.5t53 23t45 6.5l31 -2l-9 -39q-8 2 -22 2q-19 0 -37 -5t-41 -18.5t-41.5 -45t-27.5 -77.5l-4 -20h288l-101 -520q-11 -58 -34.5 -98t-52.5 -57.5t-51.5 -23.5t-45.5 -6l-35 2l8 39q8 -2 22 -2q18 0 36.5 5t41.5 18.5
t41.5 45t27.5 76.5l93 483h-245l-90 -462h-42zM457 627l14 73h50l-14 -73h-50z" />
    <glyph glyph-name=".notdef" horiz-adv-x="510" 
d="M-53 0v700h500v-700h-500zM197 395l170 255h-340zM227 350l170 -255v510zM-3 95l170 255l-170 255v-510zM27 50h340l-170 255z" />
    <glyph glyph-name=".null" horiz-adv-x="0" 
 />
    <glyph glyph-name="nonmarkingreturn" horiz-adv-x="333" 
 />
    <glyph glyph-name="space" unicode=" " horiz-adv-x="283" 
 />
    <glyph glyph-name="exclam" unicode="!" horiz-adv-x="300" 
d="M104 175l103 525h43l-103 -525h-43zM62 0l13 61h59l-13 -61h-59z" />
    <glyph glyph-name="quotedbl" unicode="&#x22;" horiz-adv-x="292" 
d="M226 558l29 151h43l-29 -151h-43zM122 558l29 151h43l-29 -151h-43z" />
    <glyph glyph-name="numbersign" unicode="#" horiz-adv-x="732" 
d="M109 0l74 199h-151l15 40h151l82 221h-151l15 40h151l74 200h44l-74 -200h189l74 200h44l-74 -200h148l-15 -40h-148l-82 -221h148l-15 -40h-148l-74 -199h-44l74 199h-189l-74 -199h-44zM242 239h189l82 221h-189z" />
    <glyph glyph-name="dollar" unicode="$" horiz-adv-x="550" 
d="M25 75l32 30q2 -3 6.5 -8t21 -18t34.5 -23t48.5 -18t62.5 -8q74 0 130.5 46.5t56.5 118.5q0 44 -30.5 76t-74.5 52.5l-87.5 42.5t-74 57.5t-30.5 85.5q0 74 63.5 135t157.5 67l19 94h43l-18 -94q45 -4 82 -19.5t51 -29.5l15 -14l-28 -34q-6 6 -17 15.5t-48.5 25
t-78.5 15.5q-84 0 -140 -50.5t-56 -110.5q0 -33 22 -59.5t55 -42.5t71.5 -36.5t71.5 -40.5t55 -55t22 -80q0 -80 -62.5 -141t-155.5 -66l-18 -92h-43l18 94q-34 3 -64.5 12.5t-50 21.5t-34 23.5t-20.5 19.5z" />
    <glyph glyph-name="percent" unicode="%" horiz-adv-x="708" 
d="M232 451q-52 0 -83 31t-31 84q0 55 47 100.5t106 45.5q51 0 82 -31t31 -82q0 -58 -46.5 -103t-105.5 -45zM7 0l662 700h57l-663 -700h-56zM234 491q42 0 74.5 32.5t32.5 76.5q0 31 -20 51.5t-52 20.5q-42 0 -75 -33t-33 -76q0 -31 20 -51.5t53 -20.5zM344 103
q0 55 47 100.5t106 45.5q51 0 82 -31t31 -82q0 -58 -46.5 -103t-105.5 -45q-52 0 -83 31t-31 84zM387 100q0 -31 20 -51.5t53 -20.5q42 0 74.5 32.5t32.5 76.5q0 31 -20 51.5t-52 20.5q-42 0 -75 -33t-33 -76z" />
    <glyph glyph-name="ampersand" unicode="&#x26;" horiz-adv-x="666" 
d="M42 160q0 74 48 136.5t125 82.5v2q-3 1 -8 3t-18 12t-23 22.5t-18 36t-8 52.5q0 87 65.5 146t166.5 59q18 0 38 -3t32 -5l11 -3l-20 -37q-36 8 -62 8q-77 0 -131 -46t-54 -119q0 -47 30.5 -78t116.5 -31h163l20 102h43l-20 -102h97l-8 -40h-97l-22 -112
q-51 -258 -265 -258q-95 0 -148.5 47t-53.5 125zM87 160q0 -57 41.5 -93.5t115.5 -36.5q179 0 222 216l22 112h-161q-101 0 -170.5 -52.5t-69.5 -145.5z" />
    <glyph glyph-name="quotesingle" unicode="'" horiz-adv-x="188" 
d="M122 558l29 151h43l-29 -151h-43z" />
    <glyph glyph-name="parenleft" unicode="(" horiz-adv-x="275" 
d="M120 -95q-46 125 -46 263q0 306 201 557h46q-206 -262 -206 -558q0 -136 47 -262h-42z" />
    <glyph glyph-name="parenright" unicode=")" horiz-adv-x="278" 
d="M7 -95h-46q206 262 206 558q0 136 -47 262h42q46 -125 46 -263q0 -306 -201 -557z" />
    <glyph glyph-name="asterisk" unicode="*" horiz-adv-x="470" 
d="M148 344l-33 26l124 131v2l-144 46l21 41l144 -54l27 164h47l-37 -164l167 53l6 -42l-167 -49v-2l71 -128l-37 -25l-68 134h-2z" />
    <glyph glyph-name="plus" unicode="+" horiz-adv-x="683" 
d="M262 0l52 263h-237l7 40h237l52 263h43l-52 -263h236l-7 -40h-236l-52 -263h-43z" />
    <glyph glyph-name="comma" unicode="," horiz-adv-x="245" 
d="M-26 -94l84 155h55l-95 -155h-44z" />
    <glyph glyph-name="hyphen" unicode="-" horiz-adv-x="353" 
d="M32 263l7 40h276l-7 -40h-276z" />
    <glyph glyph-name="period" unicode="." horiz-adv-x="239" 
d="M34 0l12 63h61l-12 -63h-61z" />
    <glyph glyph-name="slash" unicode="/" horiz-adv-x="384" 
d="M27 -42h-47l405 782h47z" />
    <glyph glyph-name="zero" unicode="0" horiz-adv-x="625" 
d="M71 209q0 58 9.5 122t33.5 133t58.5 123t90 89.5t123.5 35.5q188 0 188 -223q0 -74 -16.5 -155t-51 -161.5t-99 -132.5t-148.5 -52q-188 0 -188 221zM115 207q0 -177 145 -177q58 0 106 32.5t77.5 82t49.5 113t28 121.5t8 111q0 180 -144 180q-68 0 -122.5 -45
t-85 -116.5t-46.5 -149t-16 -152.5z" />
    <glyph glyph-name="one" unicode="1" horiz-adv-x="441" 
d="M1 0l7 40h159l110 565l8 35h-2q-10 -13 -46 -43l-96 -81l-26 32l181 152h43l-129 -660h155l-8 -40h-356z" />
    <glyph glyph-name="two" unicode="2" horiz-adv-x="557" 
d="M11 0q2 57 29 106t68.5 84.5t92 68l100.5 63t91.5 62.5t67 74t25.5 90q0 55 -36 88.5t-101 33.5q-50 0 -97.5 -25t-70.5 -49l-23 -25l-31 25q4 5 11 12.5t30 27.5t47 35.5t61 28t74 12.5q90 0 135.5 -45t45.5 -118q0 -71 -44 -129t-109 -99.5l-131 -80.5t-119 -90
t-65 -110h382l-8 -40h-425z" />
    <glyph glyph-name="three" unicode="3" horiz-adv-x="557" 
d="M6 85l34 29q2 -3 6.5 -9t21 -20.5t35.5 -25.5t50.5 -20t65.5 -9q78 0 143.5 60t65.5 145q0 65 -45.5 99.5t-114.5 34.5h-52l-6 30l241 229l37 32v2q-19 -2 -54 -2h-283l8 40h401l-6 -30l-277 -261q24 0 48 -4.5t51.5 -16.5t48 -30.5t34.5 -50.5t14 -72q0 -99 -78.5 -173
t-177.5 -74q-41 0 -77.5 10t-60 24t-41 28.5t-24.5 24.5z" />
    <glyph glyph-name="four" unicode="4" horiz-adv-x="588" 
d="M19 200l6 30l449 470h45l-90 -460h104l-8 -40h-104l-39 -200h-43l39 200h-359zM91 240h295l64 328l15 63h-2l-44 -48l-328 -342v-1z" />
    <glyph glyph-name="five" unicode="5" horiz-adv-x="559" 
d="M20 89l37 25q2 -3 5 -9t16 -20.5t29 -25.5t43.5 -20t59.5 -9q90 0 160 65t70 155q0 65 -45 106.5t-118 41.5q-36 0 -72 -10.5t-54 -21.5l-18 -10l-31 11l105 333h326l-8 -40h-287l-65 -207l-15 -43h2q51 30 119 30q93 0 149.5 -53t56.5 -137q0 -107 -83 -184.5
t-192 -77.5q-41 0 -75.5 10.5t-54.5 25t-34.5 29.5t-19.5 25z" />
    <glyph glyph-name="six" unicode="6" horiz-adv-x="594" 
d="M267 -12q-97 0 -149 68.5t-52 179.5q0 50 14.5 111t46 125.5t75 118t107 87.5t135.5 34q35 0 66.5 -7t45.5 -14l14 -7l-26 -37q-40 23 -100 23q-59 0 -112.5 -28.5t-93 -75.5t-67.5 -102.5t-44 -115.5h2q37 44 92.5 70t114.5 26q85 0 135.5 -47.5t50.5 -130.5
q0 -68 -30.5 -131t-90 -105t-134.5 -42zM264 30q89 0 151 68.5t62 167.5q0 64 -38.5 100t-105.5 36q-45 0 -95.5 -21.5t-88.5 -65t-38 -94.5q0 -75 40.5 -133t112.5 -58z" />
    <glyph glyph-name="seven" unicode="7" horiz-adv-x="508" 
d="M39 0l408 595l50 65v2q-20 -2 -55 -2h-336l8 40h443l-6 -30l-463 -670h-49z" />
    <glyph glyph-name="eight" unicode="8" horiz-adv-x="602" 
d="M47 168q0 39 16.5 77t37.5 62.5t48.5 47.5t40.5 31t23 13q-70 48 -70 119q0 76 65.5 135t168.5 59q90 0 137.5 -39.5t47.5 -109.5q0 -40 -18.5 -82t-45.5 -73.5t-43.5 -48t-27.5 -24.5q82 -52 82 -127q0 -94 -78 -157t-181 -63q-87 0 -145 47t-58 133zM463 207
q0 25 -12 46t-36.5 38t-47 28.5t-59 28.5t-56.5 28q-18 -10 -38 -23.5t-51 -40t-50.5 -64.5t-19.5 -80q0 -64 45.5 -101t111.5 -37q82 0 147.5 50t65.5 127zM189 519q0 -25 10.5 -45t35 -37t43.5 -27.5t56.5 -28l53.5 -25.5q14 10 29.5 24.5t41 43t41.5 65.5t16 74
q0 49 -38 78t-101 29q-81 0 -134.5 -44.5t-53.5 -106.5z" />
    <glyph glyph-name="nine" unicode="9" horiz-adv-x="594" 
d="M45 16l26 37q40 -23 100 -23q59 0 112.5 28.5t93 75.5t67.5 102.5t44 115.5h-2q-37 -44 -92.5 -70t-114.5 -26q-85 0 -135.5 47.5t-50.5 130.5q0 68 30.5 131t90 105t134.5 42q97 0 149 -68.5t52 -179.5q0 -50 -14.5 -111t-46 -125.5t-75 -118t-107 -87.5t-135.5 -34
q-35 0 -66.5 7t-45.5 14zM279 298q45 0 96 21.5t90 65t39 94.5q0 75 -40.5 133t-112.5 58q-89 0 -151 -68.5t-62 -167.5q0 -63 38 -99.5t103 -36.5z" />
    <glyph glyph-name="colon" unicode=":" horiz-adv-x="299" 
d="M146 437l12 63h61l-12 -63h-61zM61 0l12 63h61l-12 -63h-61z" />
    <glyph glyph-name="semicolon" unicode=";" horiz-adv-x="305" 
d="M152 437l12 63h61l-12 -63h-61zM-3 -94l84 155h55l-95 -155h-44z" />
    <glyph glyph-name="less" unicode="&#x3c;" horiz-adv-x="584" 
d="M51 265v36l439 197v-48l-377 -166v-2l377 -166v-48z" />
    <glyph glyph-name="equal" unicode="=" horiz-adv-x="712" 
d="M123 343v40h456v-40h-456zM123 183v40h456v-40h-456z" />
    <glyph glyph-name="greater" unicode="&#x3e;" horiz-adv-x="585" 
d="M89 68v48l377 166v2l-377 166v48l439 -197v-36z" />
    <glyph glyph-name="question" unicode="?" horiz-adv-x="469" 
d="M134 175l9 44q10 47 38.5 86.5t62.5 66.5l66.5 54t54 62t21.5 77q0 46 -33 75.5t-89 29.5q-33 0 -67 -10.5t-51 -21.5l-18 -10l-17 37q8 5 22 13t54.5 21t78.5 13q77 0 121.5 -40t44.5 -105q0 -49 -22.5 -89.5t-56 -69t-68 -55t-63 -61t-36.5 -73.5l-9 -44h-43zM93 0
l13 61h59l-13 -61h-59z" />
    <glyph glyph-name="at" unicode="@" horiz-adv-x="778" 
d="M53 174q0 112 61 213.5t158 161t200 59.5q107 0 156 -41t49 -106q0 -17 -3 -35l-66 -339h70l-8 -40h-257q-74 0 -120.5 46t-46.5 117q0 88 70.5 157.5t156.5 69.5h158q2 14 2 22q0 48 -37 78.5t-120 30.5q-149 0 -263.5 -118.5t-114.5 -275.5q0 -111 69.5 -183t182.5 -72
l-8 -41q-124 0 -206.5 84t-82.5 212zM291 211q0 -54 35.5 -89t91.5 -35h145l60 310h-143q-73 0 -131 -56.5t-58 -129.5z" />
    <glyph glyph-name="A" unicode="A" horiz-adv-x="607" 
d="M12 0h-48l397 700h45l127 -700h-44l-43 242h-297zM171 282h267l-50 284l-12 84h-2q-25 -54 -42 -84z" />
    <glyph glyph-name="B" unicode="B" horiz-adv-x="621" 
d="M50 0l137 700h225q43 0 74 -12q83 -34 83 -131q0 -67 -34.5 -116t-90.5 -71v-2q39 -13 63 -49.5t24 -89.5q0 -72 -36 -127.5t-94 -81.5q-43 -20 -96 -20h-255zM169 388h190q67 0 116 47.5t49 121.5q0 48 -29.5 75.5t-82.5 27.5h-190zM101 40h198q46 0 79 15
q49 22 78.5 67.5t29.5 105.5q0 56 -34.5 88t-93.5 32h-197z" />
    <glyph glyph-name="C" unicode="C" horiz-adv-x="736" 
d="M65 286q0 114 59.5 213t155.5 156t202 57q47 0 89 -9t68.5 -22t46 -26t28.5 -22l8 -9l-30 -31l-8.5 8.5t-24.5 19t-41.5 23.5t-59 18.5t-76.5 8.5q-95 0 -180.5 -51t-138.5 -140.5t-53 -193.5q0 -112 68.5 -184.5t181.5 -72.5q42 0 83.5 10t71 23.5t53.5 27.5t36 24
l11 10l25 -33l-13.5 -11t-37.5 -25t-59.5 -31.5t-77 -24.5t-92.5 -11q-136 0 -215.5 83t-79.5 215z" />
    <glyph glyph-name="D" unicode="D" horiz-adv-x="741" 
d="M50 0l137 700h209q140 0 219.5 -70.5t79.5 -199.5q0 -180 -117.5 -305t-298.5 -125h-229zM100 40h170q163 0 271.5 111t108.5 277q0 111 -69 171.5t-190 60.5h-169z" />
    <glyph glyph-name="E" unicode="E" horiz-adv-x="569" 
d="M50 0l137 700h383l-9 -40h-339l-56 -287h279l-8 -40h-278l-58 -293h358l-7 -40h-402z" />
    <glyph glyph-name="F" unicode="F" horiz-adv-x="514" 
d="M50 0l137 700h353l-8 -40h-310l-57 -292h268l-8 -40h-268l-64 -328h-43z" />
    <glyph glyph-name="G" unicode="G" horiz-adv-x="759" 
d="M64 277q0 174 127 304.5t292 130.5q45 0 86 -8t67.5 -19.5t46 -23t28.5 -19.5l9 -8l-30 -32q-3 3 -8.5 7.5t-25.5 16.5t-42 21t-57.5 16.5t-73.5 7.5q-148 0 -261 -117.5t-113 -276.5q0 -110 66.5 -179t176.5 -69q43 0 86 12.5t74 31t55.5 36.5t36.5 31l13 12l25 127
h-124l7 40h168l-62 -319h-43l12 62l7 30h-2q-4 -4 -12 -11t-34 -25t-53.5 -32t-69.5 -25t-84 -11q-130 0 -209 81t-79 208z" />
    <glyph glyph-name="H" unicode="H" horiz-adv-x="747" 
d="M50 0l137 700h43l-64 -329h444l64 329h43l-137 -700h-43l65 331h-444l-65 -331h-43z" />
    <glyph glyph-name="I" unicode="I" horiz-adv-x="260" 
d="M50 0l137 700h43l-137 -700h-43z" />
    <glyph glyph-name="J" unicode="J" horiz-adv-x="510" 
d="M11 139q0 19 6 52l4 22h43l-4 -22q-5 -25 -5 -45q0 -117 116 -117q59 0 109.5 39t66.5 123l90 469h-166l8 40h209l-100 -515q-20 -103 -81 -150t-136 -47q-69 0 -114.5 37t-45.5 114z" />
    <glyph glyph-name="K" unicode="K" horiz-adv-x="580" 
d="M50 0l137 700h43l-61 -312h126l265 312h52l-281 -331v-2l158 -367h-47l-148 348h-133l-68 -348h-43z" />
    <glyph glyph-name="L" unicode="L" horiz-adv-x="502" 
d="M50 0l137 700h43l-129 -660h334l-9 -40h-376z" />
    <glyph glyph-name="M" unicode="M" horiz-adv-x="847" 
d="M28 0l194 700h39l118 -440l19 -79h2q26 44 49 79l290 440h44l-81 -700h-43l62 534l15 93h-2q-31 -59 -54 -93l-265 -399h-44l-110 399l-20 95h-2q-10 -61 -19 -95l-149 -534h-43z" />
    <glyph glyph-name="N" unicode="N" horiz-adv-x="747" 
d="M50 0l137 700h35l292 -549l40 -88h2q4 53 11 88l107 549h43l-137 -700h-35l-292 549l-40 88h-2q-4 -53 -11 -88l-107 -549h-43z" />
    <glyph glyph-name="O" unicode="O" horiz-adv-x="828" 
d="M64 288q0 112 61 210.5t159 156t203 57.5q132 0 215 -82t83 -210q0 -114 -61.5 -214.5t-159 -159t-202.5 -58.5q-132 0 -215 84t-83 216zM109 288q0 -114 70.5 -186.5t182.5 -72.5q93 0 180.5 52.5t142.5 143.5t55 194q0 111 -70.5 181.5t-182.5 70.5q-95 0 -182 -51
t-141.5 -140.5t-54.5 -191.5z" />
    <glyph glyph-name="P" unicode="P" horiz-adv-x="596" 
d="M50 0l137 700h219q70 0 112 -24q77 -43 77 -140q0 -79 -41 -139.5t-106 -87.5q-47 -19 -101 -19h-197l-57 -290h-43zM158 330h185q49 0 88 16q54 23 86.5 72.5t32.5 117.5q0 59 -38 91.5t-106 32.5h-184z" />
    <glyph glyph-name="Q" unicode="Q" horiz-adv-x="839" 
d="M64 288q0 112 61 210.5t159 156t203 57.5q132 0 215 -82t83 -210q0 -90 -39.5 -173t-106.5 -145l69 -91l-30 -26l-70 92q-114 -89 -246 -89t-215 84t-83 216zM109 288q0 -114 70.5 -186.5t182.5 -72.5q119 0 222 81l-72 95l30 26l72 -96q58 56 92 130t34 154
q0 111 -70.5 181.5t-182.5 70.5q-95 0 -182 -51t-141.5 -140.5t-54.5 -191.5z" />
    <glyph glyph-name="R" unicode="R" horiz-adv-x="618" 
d="M51 0l136 700h222q60 0 97 -19q77 -40 77 -137q0 -86 -53 -148.5t-132 -77.5v-2q4 -8 10 -25l102 -291h-46l-108 310h-202l-60 -310h-43zM162 350h185q80 0 135.5 54.5t55.5 139.5q0 54 -34 85t-95 31h-187z" />
    <glyph glyph-name="S" unicode="S" horiz-adv-x="534" 
d="M17 75l32 30q2 -3 6.5 -8t21 -18t34.5 -23t48.5 -18t62.5 -8q74 0 130.5 46.5t56.5 118.5q0 44 -30.5 76t-74.5 52.5l-87.5 42.5t-74 57.5t-30.5 85.5q0 79 69.5 141t170.5 62q52 0 95.5 -16t60.5 -32l17 -16l-28 -34q-6 6 -17 15.5t-48.5 25t-78.5 15.5
q-84 0 -140 -50.5t-56 -110.5q0 -33 22 -59.5t55 -42.5t71.5 -36.5t71.5 -40.5t55 -55t22 -80q0 -83 -67 -145t-165 -62q-39 0 -75 9t-58.5 21.5t-39.5 25.5t-25 22z" />
    <glyph glyph-name="T" unicode="T" horiz-adv-x="580" 
d="M208 0l128 660h-260l7 40h565l-7 -40h-262l-128 -660h-43z" />
    <glyph glyph-name="U" unicode="U" horiz-adv-x="719" 
d="M82 187q0 27 6 57l89 456h43l-89 -457q-5 -23 -5 -52q0 -77 48 -119.5t134 -42.5q99 0 169.5 58t90.5 158l89 455h43l-92 -465q-22 -115 -103.5 -181t-196.5 -66q-105 0 -165.5 53t-60.5 146z" />
    <glyph glyph-name="V" unicode="V" horiz-adv-x="603" 
d="M217 0l-124 700h43l100 -566l11 -84h2q25 51 44 84l321 566h48l-398 -700h-47z" />
    <glyph glyph-name="W" unicode="W" horiz-adv-x="915" 
d="M169 0l-48 700h43l36 -570l2 -75h2l35 75l278 570h50l39 -570l2 -75h2l32 75l259 570h48l-321 -700h-54l-38 528l-3 111h-2q-28 -65 -50 -110l-260 -529h-52z" />
    <glyph glyph-name="X" unicode="X" horiz-adv-x="570" 
d="M-26 0l297 373l-137 327h46l91 -221l32 -78h2q29 42 57 76l180 223h54l-270 -334l157 -366h-46l-112 263l-30 75h-2q-27 -39 -55 -73l-213 -265h-51z" />
    <glyph glyph-name="Y" unicode="Y" horiz-adv-x="550" 
d="M190 0l60 304l-160 396h46l111 -276l29 -79h2l58 78l219 277h53l-315 -397l-60 -303h-43z" />
    <glyph glyph-name="Z" unicode="Z" horiz-adv-x="583" 
d="M-14 0l7 34l489 562l61 64v2q-15 -2 -50 -2h-358l9 40h463l-7 -34l-490 -562l-61 -64v-2q15 2 50 2h381l-7 -40h-487z" />
    <glyph glyph-name="bracketleft" unicode="[" horiz-adv-x="266" 
d="M85 -55h65l-8 -40h-108l159 820h108l-8 -40h-65z" />
    <glyph glyph-name="backslash" unicode="\" horiz-adv-x="377" 
d="M223 -42l-100 782h42l100 -782h-42z" />
    <glyph glyph-name="bracketright" unicode="]" horiz-adv-x="266" 
d="M-21 -55h65l143 740h-65l8 40h108l-159 -820h-108z" />
    <glyph glyph-name="asciicircum" unicode="^" horiz-adv-x="600" 
d="M19 252l197 448h32l197 -448h-46l-167 388l-167 -388h-46z" />
    <glyph glyph-name="underscore" unicode="_" horiz-adv-x="573" 
d="M-20 0h496l-7 -40h-496z" />
    <glyph glyph-name="grave" unicode="`" horiz-adv-x="509" 
d="M208 750l-57 111h52l45 -111h-40z" />
    <glyph glyph-name="a" unicode="a" horiz-adv-x="516" 
d="M14 113q0 57 32 97.5t86.5 59.5t108 27t113.5 8h39q7 39 7 64q0 102 -112 102q-39 0 -77 -12t-57 -24l-18 -12l-18 38q8 6 21.5 14.5t58 22.5t90.5 14q156 0 156 -137q0 -25 -6 -57l-62 -318h-42l13 65l12 46h-2q1 0 -6.5 -12.5t-23.5 -30.5t-38 -36.5t-55.5 -31
t-69.5 -12.5q-64 0 -107 34t-43 91zM58 117q0 -38 28 -64t82 -26q75 0 135 67t78 149l5 23h-32q-296 0 -296 -149z" />
    <glyph glyph-name="b" unicode="b" horiz-adv-x="581" 
d="M30 0l136 700h42l-49 -255l-14 -46h2q28 50 80.5 81.5t112.5 31.5q87 0 134.5 -52.5t47.5 -144.5q0 -141 -81.5 -234t-190.5 -93q-60 0 -103 29.5t-58 83.5h-2q0 -23 -5 -49l-10 -52h-42zM113 184q0 -68 34.5 -111.5t102.5 -43.5q87 0 157.5 79t70.5 205q0 74 -37 116
t-101 42q-68 0 -121 -44t-79.5 -109t-26.5 -134z" />
    <glyph glyph-name="c" unicode="c" horiz-adv-x="553" 
d="M39 197q0 136 94 225.5t211 89.5q55 0 99 -18t61 -36l16 -17l-30 -31q-5 7 -16 17t-48 27t-80 17q-100 0 -181.5 -77t-81.5 -193q0 -78 50.5 -125t127.5 -47q49 0 94 18t66 36l21 18l16 -38q-3 -3 -9 -8t-25.5 -18t-41 -23t-54 -18t-65.5 -8q-98 0 -161 57t-63 152z" />
    <glyph glyph-name="d" unicode="d" horiz-adv-x="582" 
d="M40 185q0 141 81.5 234t190.5 93q59 0 102.5 -29.5t58.5 -83.5h2q0 23 5 46l50 255h42l-136 -700h-42l11 58l12 43h-2q-28 -47 -78.5 -80t-113.5 -33q-88 0 -135.5 52.5t-47.5 144.5zM84 187q0 -74 37 -116t102 -42q67 0 120.5 45t79.5 110t26 132q0 68 -34.5 111.5
t-102.5 43.5q-87 0 -157.5 -79t-70.5 -205z" />
    <glyph glyph-name="e" unicode="e" horiz-adv-x="554" 
d="M40 197q0 124 84 219.5t207 95.5q87 0 130.5 -48.5t43.5 -128.5q0 -16 -3.5 -35.5t-6.5 -31.5l-3 -11h-401q-6 -29 -6 -55q0 -76 46 -124.5t130 -48.5q42 0 84 15.5t63 31.5l20 16l16 -38q-9 -7 -25 -18t-64 -29.5t-94 -18.5q-98 0 -159.5 57t-61.5 152zM101 296h355
q4 19 4 42q0 67 -35.5 101t-93.5 34q-73 0 -136.5 -46.5t-93.5 -130.5z" />
    <glyph glyph-name="f" unicode="f" horiz-adv-x="309" 
d="M52 0l89 459h-63l7 38h63l5 25q9 47 28 82t39.5 53.5t45.5 30t42 14.5t34 3l31 -2l-9 -39q-8 2 -22 2q-19 0 -37 -5t-41 -18.5t-41.5 -45t-27.5 -76.5l-5 -24h137l-7 -38h-137l-89 -459h-42z" />
    <glyph glyph-name="g" unicode="g" horiz-adv-x="574" 
d="M33 -136q58 -33 130 -33q84 0 144.5 43t78.5 129l11 53l13 46h-2q-64 -102 -178 -102q-87 0 -138 53t-51 143q0 73 29 144t91 121.5t142 50.5q61 0 106.5 -23t58.5 -75h2q-1 12 1 24l12 62h42l-97 -502q-21 -107 -93 -157.5t-167 -50.5q-87 0 -159 39zM85 197
q0 -73 39 -114.5t107 -41.5q53 0 95 28t67.5 72.5t38.5 95t13 100.5q0 134 -140 134q-100 0 -160 -84t-60 -190z" />
    <glyph glyph-name="h" unicode="h" horiz-adv-x="587" 
d="M30 0l136 700h42l-54 -283l-13 -46h2q25 50 88.5 95.5t145.5 45.5q69 0 104 -32.5t35 -93.5q0 -29 -8 -69l-61 -317h-42l58 302q9 47 9 76q0 46 -26 69.5t-70 23.5q-91 0 -165.5 -70t-93.5 -167l-45 -234h-42z" />
    <glyph glyph-name="i" unicode="i" horiz-adv-x="219" 
d="M148 627l15 73h50l-15 -73h-50zM30 0l98 500h42l-98 -500h-42z" />
    <glyph glyph-name="j" unicode="j" horiz-adv-x="219" 
d="M148 627l14 73h50l-14 -73h-50zM27 -21l101 521h42l-101 -520q-11 -58 -34.5 -98t-52.5 -57.5t-51.5 -23.5t-45.5 -6l-35 2l8 39q8 -2 22 -2q18 0 36.5 5t41.5 18.5t41.5 45t27.5 76.5z" />
    <glyph glyph-name="k" unicode="k" horiz-adv-x="479" 
d="M30 0l137 700h42l-78 -397h85l202 197h57l-222 -216v-2l142 -282h-48l-131 264h-92l-52 -264h-42z" />
    <glyph glyph-name="l" unicode="l" horiz-adv-x="232" 
d="M43 77q0 13 3 29l116 594h42l-114 -587q-3 -16 -3 -29q0 -21 8.5 -32.5t17.5 -13.5t23 -2l13 1l-9 -39q-8 -2 -17 -2q-17 0 -33 4.5t-31.5 24t-15.5 52.5z" />
    <glyph glyph-name="m" unicode="m" horiz-adv-x="919" 
d="M30 0l97 500h42l-16 -83l-13 -46h2q30 60 92 100.5t128 40.5q71 0 101 -34.5t30 -101.5h2q31 59 90.5 97.5t124.5 38.5q68 0 103 -33.5t35 -95.5q0 -28 -8 -66l-61 -317h-42l58 302q9 47 9 73q0 98 -100 98q-83 0 -149 -71.5t-82 -157.5l-47 -244h-42l58 302q9 47 9 76
q0 95 -96 95q-83 0 -151 -70.5t-85 -159.5l-47 -243h-42z" />
    <glyph glyph-name="n" unicode="n" horiz-adv-x="587" 
d="M30 0l97 500h42l-15 -83l-14 -46h2q25 49 89 95t146 46q69 0 104 -32.5t35 -93.5q0 -29 -8 -69l-61 -317h-42l58 302q9 47 9 76q0 46 -26 69.5t-70 23.5q-92 0 -166 -70t-93 -167l-45 -234h-42z" />
    <glyph glyph-name="o" unicode="o" horiz-adv-x="623" 
d="M39 205q0 125 93.5 216t212.5 91q98 0 159.5 -60t61.5 -154q0 -126 -94 -218t-212 -92q-98 0 -159.5 61t-61.5 156zM83 206q0 -78 49.5 -127.5t127.5 -49.5q100 0 181 79.5t81 188.5q0 76 -49.5 125t-127.5 49q-102 0 -182 -78.5t-80 -186.5z" />
    <glyph glyph-name="p" unicode="p" horiz-adv-x="582" 
d="M82 52l-49 -252h-42l136 700h42l-10 -55l-12 -45h2q28 48 77.5 80t113.5 32q87 0 135 -52.5t48 -144.5q0 -140 -81.5 -233.5t-188.5 -93.5q-61 0 -104.5 29t-58.5 84h-2q-1 -23 -6 -49zM114 187q0 -69 35 -113.5t102 -44.5q87 0 157.5 79t70.5 205q0 74 -37 116t-102 42
q-67 0 -120 -44.5t-79.5 -108.5t-26.5 -131z" />
    <glyph glyph-name="q" unicode="q" horiz-adv-x="582" 
d="M40 184q0 141 82 234.5t191 93.5q60 0 102.5 -29t57.5 -83h2q1 17 5 40l11 60h42l-136 -700h-42l49 252l14 49h-2q-29 -49 -78 -81t-115 -32q-87 0 -135 52.5t-48 143.5zM84 187q0 -73 37 -115.5t102 -42.5q67 0 120.5 45t80 110t26.5 132q0 68 -34.5 111.5t-102.5 43.5
q-87 0 -158 -79t-71 -205z" />
    <glyph glyph-name="r" unicode="r" horiz-adv-x="340" 
d="M30 0l97 500h42l-18 -90l-13 -46h2q29 60 77.5 100t108.5 40q14 0 30 -3l-9 -42q-16 2 -22 2q-43 0 -82 -27.5t-65 -70t-43.5 -86.5t-25.5 -86l-37 -191h-42z" />
    <glyph glyph-name="s" unicode="s" horiz-adv-x="441" 
d="M4 60l29 29q2 -2 6 -6.5t17.5 -14.5t29 -18t41 -14.5t53.5 -6.5q52 0 93.5 29.5t41.5 79.5q0 28 -24 49t-58.5 35.5l-69.5 30.5t-59 44t-24 66q0 70 54 109.5t124 39.5q45 0 81.5 -13.5t50.5 -26.5l13 -14l-29 -31q-4 5 -12 12.5t-38.5 19.5t-66.5 12q-51 0 -92 -27
t-41 -79q0 -29 24 -50.5t59 -36t69.5 -30.5t58.5 -43.5t24 -66.5q0 -64 -53 -107t-125 -43q-35 0 -66 7.5t-50.5 18t-34 21t-20.5 17.5z" />
    <glyph glyph-name="t" unicode="t" horiz-adv-x="313" 
d="M77 133q0 25 6 58l52 268h-66l7 38h66l28 142h42l-28 -142h131l-7 -38h-131l-53 -275q-5 -24 -5 -49q0 -100 89 -100l29 2l-8 -39q-8 -2 -21 -2q-131 0 -131 137z" />
    <glyph glyph-name="u" unicode="u" horiz-adv-x="582" 
d="M52 114q0 29 8 69l61 317h42l-58 -300q-9 -44 -9 -78q0 -44 22 -68.5t77 -24.5q90 0 162 73t89 166l45 232h42l-97 -500h-42l16 83l13 46h-2q-27 -51 -88.5 -96t-144.5 -45q-60 0 -98 30.5t-38 95.5z" />
    <glyph glyph-name="v" unicode="v" horiz-adv-x="468" 
d="M153 0l-100 500h43l76 -395l7 -54h2q15 30 29 54l229 395h47l-293 -500h-40z" />
    <glyph glyph-name="w" unicode="w" horiz-adv-x="797" 
d="M135 0l-79 500h43l60 -395l6 -54h2l28 54l212 393h49l60 -393l7 -54h2l27 54l214 395h46l-273 -500h-45l-64 391l-6 54h-2l-28 -54l-212 -391h-47z" />
    <glyph glyph-name="x" unicode="x" horiz-adv-x="477" 
d="M-26 0l234 266l-122 234h49l89 -181l12 -28h1l21 25l157 184h53l-210 -239l134 -261h-47l-102 206l-14 29h-2l-20 -26l-180 -209h-53z" />
    <glyph glyph-name="y" unicode="y" horiz-adv-x="490" 
d="M-65 -149q21 -21 58 -21q61 0 116 89l53 85l-112 496h44l87 -406l9 -47h1l27 47l244 406h48l-379 -620q-56 -90 -138 -90q-23 0 -43.5 7t-29.5 14l-9 7z" />
    <glyph glyph-name="z" unicode="z" horiz-adv-x="499" 
d="M-13 0l6 34l374 381q44 46 47 46v2q-17 -2 -50 -2h-275l7 39h386l-7 -34l-375 -381l-22.5 -22t-18.5 -17l-7 -7v-2q18 2 51 2h300l-7 -39h-409z" />
    <glyph glyph-name="braceleft" unicode="{" horiz-adv-x="323" 
d="M92 28q0 22 7 60l18 94q3 18 3 32q0 22 -6.5 38.5t-16 25.5t-19.5 14.5t-16 7.5l-7 1l8 40q4 0 10 1.5t22 9.5t29.5 19.5t27 35t19.5 53.5l16 81q36 183 172 183h8l-7 -39h-5q-12 0 -25 -3.5t-34 -16t-39 -44t-27 -79.5l-18 -93q-6 -30 -19 -54t-27 -37t-27.5 -22
t-22.5 -12l-8 -2v-2q2 -1 6 -3.5t14 -11t17.5 -19t13.5 -28t6 -37.5q0 -13 -3 -28l-21 -106q-6 -30 -6 -52q0 -30 8.5 -50t23 -28t24.5 -10.5t20 -2.5h5l-8 -39q-3 -1 -9 -1q-13 0 -27.5 4t-34.5 15.5t-32.5 38.5t-12.5 66z" />
    <glyph glyph-name="bar" unicode="|" horiz-adv-x="299" 
d="M130 -155v940h43v-940h-43z" />
    <glyph glyph-name="braceright" unicode="}" horiz-adv-x="322" 
d="M-26 -56q13 0 26 3.5t34 16t38.5 44t26.5 79.5l20 105q6 31 19 56t27 38.5t27.5 22t21.5 11.5l9 2v2q-6 3 -15.5 9.5t-25 31.5t-15.5 55q0 13 3 28l18 94q6 30 6 52q0 30 -9 50t-23 28t-24 10.5t-20 2.5h-5l8 39q4 1 9 1q13 0 27.5 -4t34.5 -15.5t32.5 -38.5t12.5 -66
q0 -21 -7 -60l-16 -82q-3 -18 -3 -32q0 -34 16.5 -56t32.5 -27l16 -4l-8 -40q-4 0 -10 -1.5t-22 -9.5t-29.5 -19.5t-27 -35t-19.5 -53.5l-18 -93q-37 -184 -172 -184h-8l7 40h5z" />
    <glyph glyph-name="asciitilde" unicode="~" horiz-adv-x="584" 
d="M71 213q0 74 31.5 109t83.5 35q31 0 55.5 -11.5t40 -27.5l30 -32t35 -27.5t45.5 -11.5q31 0 49 21t22 41.5t4 43.5h40q0 -74 -31.5 -109t-83.5 -35q-31 0 -55.5 11.5t-40 27.5l-30 32t-35 27.5t-45.5 11.5q-31 0 -49 -21t-22 -41.5t-4 -43.5h-40z" />
    <glyph glyph-name="uni00A0" unicode="&#xa0;" horiz-adv-x="283" 
 />
    <glyph glyph-name="exclamdown" unicode="&#xa1;" horiz-adv-x="261" 
d="M128 439l13 61h59l-13 -61h-59zM12 -200l103 525h43l-103 -525h-43z" />
    <glyph glyph-name="cent" unicode="&#xa2;" horiz-adv-x="570" 
d="M215 -13l16 85q-77 9 -120 62.5t-43 143.5q0 79 30 155.5t94 133.5t148 61l16 84h43l-17 -85q38 -4 68 -20.5t46 -36t26.5 -38.5t13.5 -32l4 -13l-41 -16q-1 5 -3 12.5t-12.5 27.5t-24.5 35.5t-41.5 28t-61.5 12.5q-110 0 -176 -92t-66 -220q0 -74 37 -118t113 -44
q33 0 64.5 12t52.5 29t37 34t24 29l7 12l41 -16l-9 -14.5t-26.5 -33t-43.5 -42t-60.5 -34.5t-76.5 -18l-16 -84h-43z" />
    <glyph glyph-name="sterling" unicode="&#xa3;" horiz-adv-x="576" 
d="M87 333l8 40h44l33 167q14 72 76.5 122t145.5 50q42 0 78.5 -13t51.5 -26l15 -13l-33 -30q-4 4 -13 11t-38 18t-61 11q-72 0 -120.5 -40t-59.5 -99l-31 -158h198l-8 -40h-198l-57 -293h351l-8 -40h-458l8 40h64l57 293h-45z" />
    <glyph glyph-name="yen" unicode="&#xa5;" horiz-adv-x="592" 
d="M216 0l44 222h-163l7 40h163l9 42l-20 48h-134l8 40h110l-125 308h47l110 -276l30 -79h2q30 43 57 78l219 277h53l-245 -308h108l-8 -40h-132l-37 -48l-9 -42h160l-7 -40h-160l-44 -222h-43z" />
    <glyph glyph-name="section" unicode="&#xa7;" horiz-adv-x="394" 
d="M98 62l26 481q4 69 54.5 119t127.5 50q26 0 49.5 -8.5t33.5 -17.5l10 -8l-30 -30q-24 23 -64 23q-58 0 -96 -38.5t-41 -95.5l-28 -475h-42zM33 2q24 -23 64 -23q58 0 96 38.5t41 95.5l28 475h42l-26 -481q-4 -69 -54.5 -119t-127.5 -50q-26 0 -49.5 8.5t-33.5 17.5l-10 8
z" />
    <glyph glyph-name="dieresis" unicode="&#xa8;" horiz-adv-x="509" 
d="M242 788l14 73h46l-14 -73h-46zM105 788l14 73h46l-14 -73h-46z" />
    <glyph glyph-name="copyright" unicode="&#xa9;" horiz-adv-x="849" 
d="M79 350q0 151 103 256.5t249 105.5q149 0 252.5 -105.5t103.5 -256.5q0 -152 -103.5 -257t-252.5 -105q-147 0 -249.5 105t-102.5 257zM124 350q0 -136 88.5 -228t218.5 -92q132 0 221.5 92t89.5 228q0 135 -89.5 227.5t-221.5 92.5q-130 0 -218.5 -92.5t-88.5 -227.5z
M228 349q0 85 57 148t158 63q29 0 56.5 -9t46 -22t33 -26t21.5 -22l6 -9l-33 -29q-5 8 -15.5 20.5t-44 33t-69.5 20.5q-81 0 -126 -49.5t-45 -117.5t45 -117.5t126 -49.5q37 0 69 18.5t46 36.5l14 19l33 -29q-2 -4 -7 -9.5t-21 -21t-33.5 -27t-45 -21t-56.5 -9.5
q-101 0 -158 62t-57 147z" />
    <glyph glyph-name="ordfeminine" unicode="&#xaa;" horiz-adv-x="429" 
d="M217 382q-36 0 -65.5 21t-29.5 61q0 122 211 122h21l1 5q16 82 -60 82q-21 0 -44 -7.5t-35 -14.5l-13 -7l-17 32q48 34 110 34q101 0 101 -90q0 -18 -5 -40l-38 -192h-39l10 51h-2q-4 -6 -12.5 -15.5t-36.5 -25.5t-57 -16zM225 419q41 0 77 42t43 79l2 10h-13
q-169 0 -169 -83q0 -21 15 -34.5t45 -13.5zM80 263l7 37h253l-7 -37h-253z" />
    <glyph glyph-name="guillemotleft" unicode="&#xab;" horiz-adv-x="487" 
d="M333 77l-128 208l204 203h57l-211 -208l126 -203h-48zM178 77l-128 208l192 203h57l-199 -208l126 -203h-48z" />
    <glyph glyph-name="logicalnot" unicode="&#xac;" horiz-adv-x="653" 
d="M99 343v40h456v-219h-42v179h-414z" />
    <glyph glyph-name="uni00AD" unicode="&#xad;" horiz-adv-x="432" 
d="M16 263l7 40h276l-7 -40h-276z" />
    <glyph glyph-name="registered" unicode="&#xae;" horiz-adv-x="849" 
d="M79 350q0 151 103 256.5t249 105.5q149 0 252.5 -105.5t103.5 -256.5q0 -152 -103.5 -257t-252.5 -105q-147 0 -249.5 105t-102.5 257zM124 350q0 -136 88.5 -228t218.5 -92q132 0 221.5 92t89.5 228q0 135 -89.5 227.5t-221.5 92.5q-130 0 -218.5 -92.5t-88.5 -227.5z
M315 150v400h133q51 0 83.5 -32t32.5 -84q0 -42 -22 -70.5t-55 -36.5v-2q4 -5 13 -22l79 -153h-49l-85 167h-86v-167h-44zM359 355h84q35 0 55.5 21t20.5 58q0 36 -20.5 56t-55.5 20h-84v-155z" />
    <glyph glyph-name="macron" unicode="&#xaf;" horiz-adv-x="509" 
d="M80 786l7 40h239l-7 -40h-239z" />
    <glyph glyph-name="degree" unicode="&#xb0;" horiz-adv-x="372" 
d="M220 449q-51 0 -82.5 31.5t-31.5 80.5q0 58 47 103.5t106 45.5q50 0 81.5 -32t31.5 -80q0 -58 -47.5 -103.5t-104.5 -45.5zM222 489q42 0 74.5 32.5t32.5 76.5q0 31 -20 51.5t-52 20.5q-42 0 -75 -33t-33 -76q0 -31 20 -51.5t53 -20.5z" />
    <glyph glyph-name="plusminus" unicode="&#xb1;" horiz-adv-x="705" 
d="M83 263v40h237v263h43v-263h236v-40h-236v-263h-43v263h-237zM103 -113h476v-40h-476v40z" />
    <glyph glyph-name="twosuperior" unicode="&#xb2;" 
d="M3 423q1 44 23 81t53.5 59.5t68 46l67.5 43t51.5 47.5t20.5 61q0 30 -20.5 50t-55.5 20q-25 0 -51 -12.5t-40 -24.5l-13 -13l-21 28q6 6 17 16t44 26t65 16q56 0 85 -29t29 -75q0 -45 -25 -80t-62.5 -59t-76 -45.5t-71 -52t-42.5 -67.5h227l-7 -36h-266z" />
    <glyph glyph-name="threesuperior" unicode="&#xb3;" 
d="M152 413q-40 0 -75 16.5t-50 32.5l-15 16l30 24q2 -2 5 -5.5t13.5 -13t22.5 -16.5t31 -12.5t39 -5.5q45 0 81.5 35t36.5 84q0 36 -27 57t-64 21h-32l-7 24l133 127l30 25v2q-18 -3 -38 -3h-164l7 36h255l-5 -26l-158 -150q38 -3 73.5 -30t35.5 -83q0 -61 -47.5 -108
t-110.5 -47z" />
    <glyph glyph-name="acute" unicode="&#xb4;" horiz-adv-x="509" 
d="M125 750l89 111h60l-101 -111h-48z" />
    <glyph glyph-name="mu" unicode="&#xb5;" horiz-adv-x="599" 
d="M-3 -200l136 700h42l-58 -300q-9 -44 -9 -78q0 -44 22 -68.5t77 -24.5q90 0 162 73t89 166l45 232h42l-97 -500h-42l16 83l13 46h-2q-27 -51 -88.5 -96t-144.5 -45q-84 0 -117 53h-2q-5 -53 -9 -74l-33 -167h-42z" />
    <glyph glyph-name="mu" unicode="&#x3bc;" horiz-adv-x="599" 
d="M-3 -200l136 700h42l-58 -300q-9 -44 -9 -78q0 -44 22 -68.5t77 -24.5q90 0 162 73t89 166l45 232h42l-97 -500h-42l16 83l13 46h-2q-27 -51 -88.5 -96t-144.5 -45q-84 0 -117 53h-2q-5 -53 -9 -74l-33 -167h-42z" />
    <glyph glyph-name="paragraph" unicode="&#xb6;" horiz-adv-x="553" 
d="M226 -50l56 291q-81 0 -140 57t-59 141q0 105 85.5 183t191.5 78h220l-7 -40h-167l-138 -710h-42zM330 -50l125 647h42l-125 -647h-42z" />
    <glyph glyph-name="periodcentered" unicode="&#xb7;" horiz-adv-x="277" 
d="M98 254l12 63h61l-12 -63h-61z" />
    <glyph glyph-name="cedilla" unicode="&#xb8;" horiz-adv-x="509" 
d="M114 -162q16 -5 39 -5q24 0 43 10t19 33q0 32 -54 32l-12 -1l45 111l31 -5l-1 -8l-25 -65q24 -4 40.5 -20.5t16.5 -43.5q0 -39 -31.5 -59.5t-70.5 -20.5l-48 5z" />
    <glyph glyph-name="onesuperior" unicode="&#xb9;" 
d="M31 423l7 36h96l62 322l6 22h-2q-5 -8 -27 -27l-51 -42l-22 29l112 94h38l-78 -398h93l-7 -36h-227z" />
    <glyph glyph-name="ordmasculine" unicode="&#xba;" horiz-adv-x="478" 
d="M260 383q-62 0 -101 38t-39 97q0 77 58.5 135t131.5 58q62 0 101.5 -38.5t39.5 -96.5q0 -78 -59 -135.5t-132 -57.5zM260 420q58 0 105 45.5t47 109.5q0 44 -28.5 71.5t-73.5 27.5q-59 0 -105 -45t-46 -108q0 -45 28 -73t73 -28zM85 263l7 37h294l-7 -37h-294z" />
    <glyph glyph-name="guillemotright" unicode="&#xbb;" horiz-adv-x="486" 
d="M182 77l199 208l-126 203h48l128 -208l-192 -203h-57zM15 77l211 208l-126 203h48l128 -208l-204 -203h-57z" />
    <glyph glyph-name="onequarter" unicode="&#xbc;" horiz-adv-x="924" 
d="M241 0h-47l472 700h46zM57 266l7 36h96l62 322l6 22h-2q-5 -8 -27 -27l-51 -42l-22 29l112 94h38l-78 -398h93l-7 -36h-227zM704 0l24 121h-218l5 26l278 287h34l-54 -277h68l-7 -36h-68l-24 -121h-38zM575 157h160l28 147l16 65h-2q-22 -27 -45 -50l-157 -160v-2z" />
    <glyph glyph-name="onehalf" unicode="&#xbd;" horiz-adv-x="908" 
d="M241 0h-47l472 700h46zM57 266l7 36h96l62 322l6 22h-2q-5 -8 -27 -27l-51 -42l-22 29l112 94h38l-78 -398h93l-7 -36h-227zM518 0q1 44 23 81t53.5 59.5t68 46l67.5 43t51.5 47.5t20.5 61q0 30 -20.5 50t-55.5 20q-25 0 -51 -12.5t-39 -25.5l-14 -12l-21 28q6 6 17 16
t44 26t65 16q56 0 85 -29t29 -75q0 -45 -25 -80t-62.5 -59t-76 -45.5t-71 -52t-42.5 -67.5h227l-7 -36h-266z" />
    <glyph glyph-name="threequarters" unicode="&#xbe;" horiz-adv-x="942" 
d="M259 0h-47l472 700h46zM722 0l24 121h-218l5 26l278 287h34l-54 -277h68l-7 -36h-68l-24 -121h-38zM593 157h160l28 147l16 65h-2q-22 -27 -45 -50l-157 -160v-2zM192 256q-25 0 -49 6.5t-39.5 16t-28 19.5t-17.5 16l-6 7l30 24q2 -2 5 -5.5t13.5 -13t22.5 -16.5
t31 -12.5t39 -5.5q45 0 81.5 35t36.5 84q0 36 -27 57t-64 21h-32l-7 24l133 127l30 25v2q-18 -3 -38 -3h-164l7 36h255l-5 -26l-158 -150q38 -3 73.5 -30t35.5 -83q0 -61 -47.5 -108t-110.5 -47z" />
    <glyph glyph-name="questiondown" unicode="&#xbf;" horiz-adv-x="430" 
d="M249 439l13 61h59l-13 -61h-59zM-18 -65q0 49 22.5 89.5t55.5 69t67.5 55t63.5 61t37 73.5l9 42h43l-9 -42q-10 -47 -39 -86.5t-62.5 -66.5l-66 -54t-54 -62t-21.5 -77q0 -46 33 -75.5t89 -29.5q33 0 67 10.5t51 21.5l18 10l17 -37q-8 -5 -22 -13t-54.5 -21t-78.5 -13
q-77 0 -121.5 40t-44.5 105z" />
    <glyph glyph-name="Agrave" unicode="&#xc0;" horiz-adv-x="607" 
d="M12 0h-48l397 700h45l127 -700h-44l-43 242h-297zM171 282h267l-50 284l-12 84h-2q-25 -54 -42 -84zM374 750l-57 111h52l45 -111h-40z" />
    <glyph glyph-name="Aacute" unicode="&#xc1;" horiz-adv-x="607" 
d="M12 0h-48l397 700h45l127 -700h-44l-43 242h-297zM171 282h267l-50 284l-12 84h-2q-25 -54 -42 -84zM369 750l89 111h60l-101 -111h-48z" />
    <glyph glyph-name="Acircumflex" unicode="&#xc2;" horiz-adv-x="607" 
d="M12 0h-48l397 700h45l127 -700h-44l-43 242h-297zM171 282h267l-50 284l-12 84h-2q-25 -54 -42 -84zM285 750l102 111h52l58 -111h-46l-40 80h-2l-72 -80h-52z" />
    <glyph glyph-name="Atilde" unicode="&#xc3;" horiz-adv-x="607" 
d="M12 0h-48l397 700h45l127 -700h-44l-43 242h-297zM171 282h267l-50 284l-12 84h-2q-25 -54 -42 -84zM256 753q20 108 96 108q22 0 38.5 -11.5t25 -25.5t21 -25.5t26.5 -11.5q40 0 52 71h40q-11 -55 -34 -81.5t-63 -26.5q-22 0 -38 11.5t-24.5 25.5t-21 25.5t-27.5 11.5
q-21 0 -34 -23t-17 -48h-40z" />
    <glyph glyph-name="Adieresis" unicode="&#xc4;" horiz-adv-x="607" 
d="M12 0h-48l397 700h45l127 -700h-44l-43 242h-297zM171 282h267l-50 284l-12 84h-2q-25 -54 -42 -84zM448 788l14 73h46l-14 -73h-46zM311 788l14 73h46l-14 -73h-46z" />
    <glyph glyph-name="Aring" unicode="&#xc5;" horiz-adv-x="607" 
d="M12 0h-48l397 700h45l127 -700h-44l-43 242h-297zM171 282h267l-50 284l-12 84h-2q-25 -54 -42 -84zM399 740q-30 0 -46 15.5t-16 43.5q0 29 22.5 52t51.5 23q30 0 46 -16t16 -43q0 -29 -22.5 -52t-51.5 -23zM399 775q16 0 27.5 11.5t11.5 28.5q0 11 -7.5 18t-19.5 7
q-16 0 -27.5 -11.5t-11.5 -29.5q0 -24 27 -24z" />
    <glyph glyph-name="AE" unicode="&#xc6;" horiz-adv-x="838" 
d="M12 0h-49l423 700h452l-8 -40h-340l-56 -287h279l-8 -40h-279l-57 -293h359l-8 -40h-402l65 333h-170zM411 660l-174 -287h154l56 287h-36z" />
    <glyph glyph-name="Ccedilla" unicode="&#xc7;" horiz-adv-x="738" 
d="M258 -162q16 -5 39 -5q24 0 43 10t19 33q0 32 -54 32l-12 -1l33 83q-120 11 -189.5 92.5t-69.5 203.5q0 114 59.5 213t155.5 156t202 57q47 0 89 -9t68.5 -22t46 -26t28.5 -22l8 -9l-30 -31l-8.5 8.5t-24.5 19t-41.5 23.5t-59 18.5t-76.5 8.5q-95 0 -180.5 -51
t-138.5 -140.5t-53 -193.5q0 -112 68.5 -184.5t181.5 -72.5q42 0 83.5 10t71 23.5t53.5 27.5t36 24l11 10l25 -33l-13.5 -11t-37.5 -25t-59.5 -31.5t-77 -24.5t-92.5 -11h-1l-18 -48q24 -4 40.5 -20.5t16.5 -43.5q0 -39 -31.5 -59.5t-70.5 -20.5l-48 5z" />
    <glyph glyph-name="Egrave" unicode="&#xc8;" horiz-adv-x="569" 
d="M50 0l137 700h383l-9 -40h-339l-56 -287h279l-8 -40h-278l-58 -293h358l-7 -40h-402zM380 750l-57 111h52l45 -111h-40z" />
    <glyph glyph-name="Eacute" unicode="&#xc9;" horiz-adv-x="569" 
d="M50 0l137 700h383l-9 -40h-339l-56 -287h279l-8 -40h-278l-58 -293h358l-7 -40h-402zM375 750l89 111h60l-101 -111h-48z" />
    <glyph glyph-name="Ecircumflex" unicode="&#xca;" horiz-adv-x="569" 
d="M50 0l137 700h383l-9 -40h-339l-56 -287h279l-8 -40h-278l-58 -293h358l-7 -40h-402zM291 750l102 111h52l58 -111h-46l-40 80h-2l-72 -80h-52z" />
    <glyph glyph-name="Edieresis" unicode="&#xcb;" horiz-adv-x="569" 
d="M50 0l137 700h383l-9 -40h-339l-56 -287h279l-8 -40h-278l-58 -293h358l-7 -40h-402zM454 788l14 73h46l-14 -73h-46zM317 788l14 73h46l-14 -73h-46z" />
    <glyph glyph-name="Igrave" unicode="&#xcc;" horiz-adv-x="260" 
d="M50 0l137 700h43l-137 -700h-43zM199 750l-57 111h52l45 -111h-40z" />
    <glyph glyph-name="Iacute" unicode="&#xcd;" horiz-adv-x="260" 
d="M50 0l137 700h43l-137 -700h-43zM194 750l89 111h60l-101 -111h-48z" />
    <glyph glyph-name="Icircumflex" unicode="&#xce;" horiz-adv-x="260" 
d="M50 0l137 700h43l-137 -700h-43zM110 750l102 111h52l58 -111h-46l-40 80h-2l-72 -80h-52z" />
    <glyph glyph-name="Idieresis" unicode="&#xcf;" horiz-adv-x="260" 
d="M50 0l137 700h43l-137 -700h-43zM273 788l14 73h46l-14 -73h-46zM136 788l14 73h46l-14 -73h-46z" />
    <glyph glyph-name="Eth" unicode="&#xd0;" horiz-adv-x="754" 
d="M68 333l8 40h60l64 327h209q140 0 219.5 -70.5t79.5 -199.5q0 -180 -117.5 -305t-298.5 -125h-229l65 333h-60zM113 40h170q163 0 271.5 111t108.5 277q0 111 -69 171.5t-190 60.5h-169l-57 -287h184l-8 -40h-184z" />
    <glyph glyph-name="Ntilde" unicode="&#xd1;" horiz-adv-x="747" 
d="M50 0l137 700h35l292 -549l40 -88h2q4 53 11 88l107 549h43l-137 -700h-35l-292 549l-40 88h-2q-4 -53 -11 -88l-107 -549h-43zM323 753q20 108 96 108q22 0 38.5 -11.5t25 -25.5t21 -25.5t26.5 -11.5q40 0 52 71h40q-11 -55 -34 -81.5t-63 -26.5q-22 0 -38 11.5
t-24.5 25.5t-21 25.5t-27.5 11.5q-21 0 -34 -23t-17 -48h-40z" />
    <glyph glyph-name="Ograve" unicode="&#xd2;" horiz-adv-x="828" 
d="M64 288q0 112 61 210.5t159 156t203 57.5q132 0 215 -82t83 -210q0 -114 -61.5 -214.5t-159 -159t-202.5 -58.5q-132 0 -215 84t-83 216zM109 288q0 -114 70.5 -186.5t182.5 -72.5q93 0 180.5 52.5t142.5 143.5t55 194q0 111 -70.5 181.5t-182.5 70.5q-95 0 -182 -51
t-141.5 -140.5t-54.5 -191.5zM480 750l-57 111h52l45 -111h-40z" />
    <glyph glyph-name="Oacute" unicode="&#xd3;" horiz-adv-x="828" 
d="M64 288q0 112 61 210.5t159 156t203 57.5q132 0 215 -82t83 -210q0 -114 -61.5 -214.5t-159 -159t-202.5 -58.5q-132 0 -215 84t-83 216zM109 288q0 -114 70.5 -186.5t182.5 -72.5q93 0 180.5 52.5t142.5 143.5t55 194q0 111 -70.5 181.5t-182.5 70.5q-95 0 -182 -51
t-141.5 -140.5t-54.5 -191.5zM475 750l89 111h60l-101 -111h-48z" />
    <glyph glyph-name="Ocircumflex" unicode="&#xd4;" horiz-adv-x="828" 
d="M64 288q0 112 61 210.5t159 156t203 57.5q132 0 215 -82t83 -210q0 -114 -61.5 -214.5t-159 -159t-202.5 -58.5q-132 0 -215 84t-83 216zM109 288q0 -114 70.5 -186.5t182.5 -72.5q93 0 180.5 52.5t142.5 143.5t55 194q0 111 -70.5 181.5t-182.5 70.5q-95 0 -182 -51
t-141.5 -140.5t-54.5 -191.5zM391 750l102 111h52l58 -111h-46l-40 80h-2l-72 -80h-52z" />
    <glyph glyph-name="Otilde" unicode="&#xd5;" horiz-adv-x="828" 
d="M64 288q0 112 61 210.5t159 156t203 57.5q132 0 215 -82t83 -210q0 -114 -61.5 -214.5t-159 -159t-202.5 -58.5q-132 0 -215 84t-83 216zM109 288q0 -114 70.5 -186.5t182.5 -72.5q93 0 180.5 52.5t142.5 143.5t55 194q0 111 -70.5 181.5t-182.5 70.5q-95 0 -182 -51
t-141.5 -140.5t-54.5 -191.5zM362 753q20 108 96 108q22 0 38.5 -11.5t25 -25.5t21 -25.5t26.5 -11.5q40 0 52 71h40q-11 -55 -34 -81.5t-63 -26.5q-22 0 -38 11.5t-24.5 25.5t-21 25.5t-27.5 11.5q-21 0 -34 -23t-17 -48h-40z" />
    <glyph glyph-name="Odieresis" unicode="&#xd6;" horiz-adv-x="828" 
d="M64 288q0 112 61 210.5t159 156t203 57.5q132 0 215 -82t83 -210q0 -114 -61.5 -214.5t-159 -159t-202.5 -58.5q-132 0 -215 84t-83 216zM109 288q0 -114 70.5 -186.5t182.5 -72.5q93 0 180.5 52.5t142.5 143.5t55 194q0 111 -70.5 181.5t-182.5 70.5q-95 0 -182 -51
t-141.5 -140.5t-54.5 -191.5zM554 788l14 73h46l-14 -73h-46zM417 788l14 73h46l-14 -73h-46z" />
    <glyph glyph-name="multiply" unicode="&#xd7;" horiz-adv-x="690" 
d="M87 28l224 255l-224 255l28 28l223 -253l223 253l28 -28l-225 -255l225 -255l-28 -28l-223 253l-223 -253z" />
    <glyph glyph-name="Oslash" unicode="&#xd8;" horiz-adv-x="832" 
d="M66 288q0 112 61 210.5t159 156t203 57.5q109 0 186 -58l64 70l32 -27l-64 -70q80 -83 80 -207q0 -114 -61.5 -214.5t-159 -159t-202.5 -58.5q-111 0 -187 59l-64 -70l-33 26l66 72q-80 83 -80 213zM742 419q0 105 -65 175l-471 -515q66 -50 158 -50q93 0 180.5 52.5
t142.5 143.5t55 194zM111 288q0 -110 65 -181l470 515q-66 49 -157 49q-95 0 -182 -51t-141.5 -140.5t-54.5 -191.5z" />
    <glyph glyph-name="Ugrave" unicode="&#xd9;" horiz-adv-x="719" 
d="M82 187q0 27 6 57l89 456h43l-89 -457q-5 -23 -5 -52q0 -77 48 -119.5t134 -42.5q99 0 169.5 58t90.5 158l89 455h43l-92 -465q-22 -115 -103.5 -181t-196.5 -66q-105 0 -165.5 53t-60.5 146zM427 750l-57 111h52l45 -111h-40z" />
    <glyph glyph-name="Uacute" unicode="&#xda;" horiz-adv-x="719" 
d="M82 187q0 27 6 57l89 456h43l-89 -457q-5 -23 -5 -52q0 -77 48 -119.5t134 -42.5q99 0 169.5 58t90.5 158l89 455h43l-92 -465q-22 -115 -103.5 -181t-196.5 -66q-105 0 -165.5 53t-60.5 146zM422 750l89 111h60l-101 -111h-48z" />
    <glyph glyph-name="Ucircumflex" unicode="&#xdb;" horiz-adv-x="719" 
d="M82 187q0 27 6 57l89 456h43l-89 -457q-5 -23 -5 -52q0 -77 48 -119.5t134 -42.5q99 0 169.5 58t90.5 158l89 455h43l-92 -465q-22 -115 -103.5 -181t-196.5 -66q-105 0 -165.5 53t-60.5 146zM338 750l102 111h52l58 -111h-46l-40 80h-2l-72 -80h-52z" />
    <glyph glyph-name="Udieresis" unicode="&#xdc;" horiz-adv-x="719" 
d="M82 187q0 27 6 57l89 456h43l-89 -457q-5 -23 -5 -52q0 -77 48 -119.5t134 -42.5q99 0 169.5 58t90.5 158l89 455h43l-92 -465q-22 -115 -103.5 -181t-196.5 -66q-105 0 -165.5 53t-60.5 146zM501 788l14 73h46l-14 -73h-46zM364 788l14 73h46l-14 -73h-46z" />
    <glyph glyph-name="Yacute" unicode="&#xdd;" horiz-adv-x="550" 
d="M190 0l60 304l-160 396h46l111 -276l29 -79h2l58 78l219 277h53l-315 -397l-60 -303h-43zM333 750l89 111h60l-101 -111h-48z" />
    <glyph glyph-name="Thorn" unicode="&#xde;" horiz-adv-x="597" 
d="M50 0l137 700h43l-26 -130h177q70 0 112 -24q77 -43 77 -140q0 -79 -41 -139.5t-106 -87.5q-47 -19 -101 -19h-197l-32 -160h-43zM132 200h186q48 0 87 16q55 23 87.5 72t32.5 118q0 59 -38 91.5t-106 32.5h-185z" />
    <glyph glyph-name="germandbls" unicode="&#xdf;" horiz-adv-x="564" 
d="M31 0l104 539q16 80 78 126.5t134 46.5q70 0 108.5 -35t38.5 -87q0 -41 -25.5 -76t-56.5 -55.5t-56.5 -47t-25.5 -51.5q0 -22 26 -46.5t57.5 -45t57.5 -54.5t26 -72q0 -61 -52 -105t-120 -44q-44 0 -83.5 8.5t-57.5 17.5l-17 9l9 44q58 -38 148 -38q48 0 88 28t40 80
q0 25 -17.5 48.5t-42 41.5l-49 36.5t-42 42t-17.5 48.5q0 33 26 64.5t56.5 51.5t56.5 50.5t26 62.5q0 34 -26 58.5t-76 24.5q-58 0 -108 -38.5t-63 -103.5l-103 -529h-42z" />
    <glyph glyph-name="agrave" unicode="&#xe0;" horiz-adv-x="516" 
d="M14 113q0 57 32 97.5t86.5 59.5t108 27t113.5 8h39q7 39 7 64q0 102 -112 102q-39 0 -77 -12t-57 -24l-18 -12l-18 38q8 6 21.5 14.5t58 22.5t90.5 14q156 0 156 -137q0 -25 -6 -57l-62 -318h-42l13 65l12 46h-2q1 0 -6.5 -12.5t-23.5 -30.5t-38 -36.5t-55.5 -31
t-69.5 -12.5q-64 0 -107 34t-43 91zM58 117q0 -38 28 -64t82 -26q75 0 135 67t78 149l5 23h-32q-296 0 -296 -149zM291 589l-57 111h52l45 -111h-40z" />
    <glyph glyph-name="aacute" unicode="&#xe1;" horiz-adv-x="516" 
d="M14 113q0 57 32 97.5t86.5 59.5t108 27t113.5 8h39q7 39 7 64q0 102 -112 102q-39 0 -77 -12t-57 -24l-18 -12l-18 38q8 6 21.5 14.5t58 22.5t90.5 14q156 0 156 -137q0 -25 -6 -57l-62 -318h-42l13 65l12 46h-2q1 0 -6.5 -12.5t-23.5 -30.5t-38 -36.5t-55.5 -31
t-69.5 -12.5q-64 0 -107 34t-43 91zM58 117q0 -38 28 -64t82 -26q75 0 135 67t78 149l5 23h-32q-296 0 -296 -149zM286 589l89 111h60l-101 -111h-48z" />
    <glyph glyph-name="acircumflex" unicode="&#xe2;" horiz-adv-x="516" 
d="M14 113q0 57 32 97.5t86.5 59.5t108 27t113.5 8h39q7 39 7 64q0 102 -112 102q-39 0 -77 -12t-57 -24l-18 -12l-18 38q8 6 21.5 14.5t58 22.5t90.5 14q156 0 156 -137q0 -25 -6 -57l-62 -318h-42l13 65l12 46h-2q1 0 -6.5 -12.5t-23.5 -30.5t-38 -36.5t-55.5 -31
t-69.5 -12.5q-64 0 -107 34t-43 91zM58 117q0 -38 28 -64t82 -26q75 0 135 67t78 149l5 23h-32q-296 0 -296 -149zM202 589l102 111h52l58 -111h-46l-40 80h-2l-72 -80h-52z" />
    <glyph glyph-name="atilde" unicode="&#xe3;" horiz-adv-x="516" 
d="M14 113q0 57 32 97.5t86.5 59.5t108 27t113.5 8h39q7 39 7 64q0 102 -112 102q-39 0 -77 -12t-57 -24l-18 -12l-18 38q8 6 21.5 14.5t58 22.5t90.5 14q156 0 156 -137q0 -25 -6 -57l-62 -318h-42l13 65l12 46h-2q1 0 -6.5 -12.5t-23.5 -30.5t-38 -36.5t-55.5 -31
t-69.5 -12.5q-64 0 -107 34t-43 91zM58 117q0 -38 28 -64t82 -26q75 0 135 67t78 149l5 23h-32q-296 0 -296 -149zM173 592q20 108 96 108q22 0 38.5 -11.5t25 -25.5t21 -25.5t26.5 -11.5q40 0 52 71h40q-11 -55 -34 -81.5t-63 -26.5q-22 0 -38 11.5t-24.5 25.5t-21 25.5
t-27.5 11.5q-21 0 -34 -23t-17 -48h-40z" />
    <glyph glyph-name="adieresis" unicode="&#xe4;" horiz-adv-x="516" 
d="M14 113q0 57 32 97.5t86.5 59.5t108 27t113.5 8h39q7 39 7 64q0 102 -112 102q-39 0 -77 -12t-57 -24l-18 -12l-18 38q8 6 21.5 14.5t58 22.5t90.5 14q156 0 156 -137q0 -25 -6 -57l-62 -318h-42l13 65l12 46h-2q1 0 -6.5 -12.5t-23.5 -30.5t-38 -36.5t-55.5 -31
t-69.5 -12.5q-64 0 -107 34t-43 91zM58 117q0 -38 28 -64t82 -26q75 0 135 67t78 149l5 23h-32q-296 0 -296 -149zM365 627l14 73h46l-14 -73h-46zM228 627l14 73h46l-14 -73h-46z" />
    <glyph glyph-name="aring" unicode="&#xe5;" horiz-adv-x="516" 
d="M14 113q0 57 32 97.5t86.5 59.5t108 27t113.5 8h39q7 39 7 64q0 102 -112 102q-39 0 -77 -12t-57 -24l-18 -12l-18 38q8 6 21.5 14.5t58 22.5t90.5 14q156 0 156 -137q0 -25 -6 -57l-62 -318h-42l13 65l12 46h-2q1 0 -6.5 -12.5t-23.5 -30.5t-38 -36.5t-55.5 -31
t-69.5 -12.5q-64 0 -107 34t-43 91zM58 117q0 -38 28 -64t82 -26q75 0 135 67t78 149l5 23h-32q-296 0 -296 -149zM316 579q-30 0 -46 15.5t-16 43.5q0 29 22.5 52t51.5 23q30 0 46 -16t16 -43q0 -29 -22.5 -52t-51.5 -23zM316 614q16 0 27.5 11.5t11.5 28.5q0 11 -7.5 18
t-19.5 7q-16 0 -27.5 -11.5t-11.5 -29.5q0 -24 27 -24z" />
    <glyph glyph-name="ae" unicode="&#xe6;" horiz-adv-x="879" 
d="M14 113q0 58 30 97.5t84 58t105.5 25t117.5 6.5h40l4 22q13 74 -12 111.5t-100 37.5q-35 0 -72 -12t-56 -24l-19 -12l-18 38q8 6 22 14.5t57.5 22.5t85.5 14q150 0 157 -108h2q80 108 213 108q86 0 130.5 -48t44.5 -130q0 -14 -3 -32.5t-6 -29.5l-3 -11h-392
q-7 -32 -7 -64q0 -80 45 -124t121 -44q43 0 85 15.5t62 31.5l21 16l16 -38q-9 -7 -25 -18t-64 -29.5t-93 -18.5q-82 0 -137 40t-69 109h-2q-6 -15 -20.5 -35.5t-40.5 -48.5t-67.5 -46.5t-89.5 -18.5q-64 0 -105.5 33t-41.5 92zM437 300h345q3 21 3 40q0 67 -36.5 100
t-93.5 33q-71 0 -130 -44.5t-88 -128.5zM59 116q0 -38 28 -63.5t81 -25.5q76 0 134.5 65t76.5 147l5 22h-69q-256 0 -256 -145z" />
    <glyph glyph-name="ccedilla" unicode="&#xe7;" horiz-adv-x="554" 
d="M155 -162q16 -5 39 -5q24 0 43 10t19 33q0 32 -54 32l-12 -1l34 84q-83 11 -133.5 66t-50.5 140q0 136 94 225.5t211 89.5q55 0 99 -18t60 -36l17 -17l-30 -31q-5 7 -16 17t-48 27t-80 17q-100 0 -181.5 -77t-81.5 -193q0 -78 50.5 -125t127.5 -47q49 0 94 18t66 36
l21 18l16 -38q-3 -3 -9 -8t-25.5 -18t-41 -23t-54 -18t-65.5 -8h-6l-18 -48q24 -4 40.5 -20.5t16.5 -43.5q0 -39 -31.5 -59.5t-70.5 -20.5l-48 5z" />
    <glyph glyph-name="egrave" unicode="&#xe8;" horiz-adv-x="554" 
d="M40 197q0 124 84 219.5t207 95.5q87 0 130.5 -48.5t43.5 -128.5q0 -16 -3.5 -35.5t-6.5 -31.5l-3 -11h-401q-6 -29 -6 -55q0 -76 46 -124.5t130 -48.5q42 0 84 15.5t63 31.5l20 16l16 -38q-9 -7 -25 -18t-64 -29.5t-94 -18.5q-98 0 -159.5 57t-61.5 152zM101 296h355
q4 19 4 42q0 67 -35.5 101t-93.5 34q-73 0 -136.5 -46.5t-93.5 -130.5zM334 589l-57 111h52l45 -111h-40z" />
    <glyph glyph-name="eacute" unicode="&#xe9;" horiz-adv-x="554" 
d="M40 197q0 124 84 219.5t207 95.5q87 0 130.5 -48.5t43.5 -128.5q0 -16 -3.5 -35.5t-6.5 -31.5l-3 -11h-401q-6 -29 -6 -55q0 -76 46 -124.5t130 -48.5q42 0 84 15.5t63 31.5l20 16l16 -38q-9 -7 -25 -18t-64 -29.5t-94 -18.5q-98 0 -159.5 57t-61.5 152zM101 296h355
q4 19 4 42q0 67 -35.5 101t-93.5 34q-73 0 -136.5 -46.5t-93.5 -130.5zM329 589l89 111h60l-101 -111h-48z" />
    <glyph glyph-name="ecircumflex" unicode="&#xea;" horiz-adv-x="554" 
d="M40 197q0 124 84 219.5t207 95.5q87 0 130.5 -48.5t43.5 -128.5q0 -16 -3.5 -35.5t-6.5 -31.5l-3 -11h-401q-6 -29 -6 -55q0 -76 46 -124.5t130 -48.5q42 0 84 15.5t63 31.5l20 16l16 -38q-9 -7 -25 -18t-64 -29.5t-94 -18.5q-98 0 -159.5 57t-61.5 152zM101 296h355
q4 19 4 42q0 67 -35.5 101t-93.5 34q-73 0 -136.5 -46.5t-93.5 -130.5zM245 589l102 111h52l58 -111h-46l-40 80h-2l-72 -80h-52z" />
    <glyph glyph-name="edieresis" unicode="&#xeb;" horiz-adv-x="554" 
d="M40 197q0 124 84 219.5t207 95.5q87 0 130.5 -48.5t43.5 -128.5q0 -16 -3.5 -35.5t-6.5 -31.5l-3 -11h-401q-6 -29 -6 -55q0 -76 46 -124.5t130 -48.5q42 0 84 15.5t63 31.5l20 16l16 -38q-9 -7 -25 -18t-64 -29.5t-94 -18.5q-98 0 -159.5 57t-61.5 152zM101 296h355
q4 19 4 42q0 67 -35.5 101t-93.5 34q-73 0 -136.5 -46.5t-93.5 -130.5zM408 627l14 73h46l-14 -73h-46zM271 627l14 73h46l-14 -73h-46z" />
    <glyph glyph-name="igrave" unicode="&#xec;" horiz-adv-x="219" 
d="M147 589l-57 111h52l45 -111h-40zM31 0l97 500h42l-97 -500h-42z" />
    <glyph glyph-name="iacute" unicode="&#xed;" horiz-adv-x="219" 
d="M142 589l89 111h60l-101 -111h-48zM31 0l97 500h42l-97 -500h-42z" />
    <glyph glyph-name="icircumflex" unicode="&#xee;" horiz-adv-x="219" 
d="M31 0l97 500h42l-97 -500h-42zM58 589l102 111h52l58 -111h-46l-40 80h-2l-72 -80h-52z" />
    <glyph glyph-name="idieresis" unicode="&#xef;" horiz-adv-x="219" 
d="M221 627l14 73h46l-14 -73h-46zM84 627l14 73h46l-14 -73h-46zM31 0l97 500h42l-97 -500h-42z" />
    <glyph glyph-name="eth" unicode="&#xf0;" horiz-adv-x="591" 
d="M193 505l-10 37l161 69q-59 35 -143 59l18 35q102 -28 169 -75l139 59l11 -37l-116 -49q106 -95 106 -249q0 -56 -17.5 -117t-51.5 -118t-93.5 -94t-134.5 -37q-93 0 -143 56t-50 139q0 109 78 197t206 88q32 0 60.5 -7t45.5 -17t29.5 -20.5t17.5 -17.5l5 -7h2
q-17 117 -102 186zM82 185q0 -67 39 -112t110 -45q103 0 173.5 88.5t70.5 180.5q0 59 -41.5 95t-112.5 36q-97 0 -168 -72t-71 -171z" />
    <glyph glyph-name="ntilde" unicode="&#xf1;" horiz-adv-x="587" 
d="M30 0l97 500h42l-15 -83l-14 -46h2q25 49 89 95t146 46q69 0 104 -32.5t35 -93.5q0 -29 -8 -69l-61 -317h-42l58 302q9 47 9 76q0 46 -26 69.5t-70 23.5q-92 0 -166 -70t-93 -167l-45 -234h-42zM226 592q20 108 96 108q22 0 38.5 -11.5t25 -25.5t21 -25.5t26.5 -11.5
q40 0 52 71h40q-11 -55 -34 -81.5t-63 -26.5q-22 0 -38 11.5t-24.5 25.5t-21 25.5t-27.5 11.5q-21 0 -34 -23t-17 -48h-40z" />
    <glyph glyph-name="ograve" unicode="&#xf2;" horiz-adv-x="623" 
d="M39 205q0 125 93.5 216t212.5 91q98 0 159.5 -60t61.5 -154q0 -126 -94 -218t-212 -92q-98 0 -159.5 61t-61.5 156zM83 206q0 -78 49.5 -127.5t127.5 -49.5q100 0 181 79.5t81 188.5q0 76 -49.5 125t-127.5 49q-102 0 -182 -78.5t-80 -186.5zM348 589l-57 111h52l45 -111
h-40z" />
    <glyph glyph-name="oacute" unicode="&#xf3;" horiz-adv-x="623" 
d="M39 205q0 125 93.5 216t212.5 91q98 0 159.5 -60t61.5 -154q0 -126 -94 -218t-212 -92q-98 0 -159.5 61t-61.5 156zM83 206q0 -78 49.5 -127.5t127.5 -49.5q100 0 181 79.5t81 188.5q0 76 -49.5 125t-127.5 49q-102 0 -182 -78.5t-80 -186.5zM343 589l89 111h60
l-101 -111h-48z" />
    <glyph glyph-name="ocircumflex" unicode="&#xf4;" horiz-adv-x="623" 
d="M39 205q0 125 93.5 216t212.5 91q98 0 159.5 -60t61.5 -154q0 -126 -94 -218t-212 -92q-98 0 -159.5 61t-61.5 156zM83 206q0 -78 49.5 -127.5t127.5 -49.5q100 0 181 79.5t81 188.5q0 76 -49.5 125t-127.5 49q-102 0 -182 -78.5t-80 -186.5zM259 589l102 111h52l58 -111
h-46l-40 80h-2l-72 -80h-52z" />
    <glyph glyph-name="otilde" unicode="&#xf5;" horiz-adv-x="623" 
d="M39 205q0 125 93.5 216t212.5 91q98 0 159.5 -60t61.5 -154q0 -126 -94 -218t-212 -92q-98 0 -159.5 61t-61.5 156zM83 206q0 -78 49.5 -127.5t127.5 -49.5q100 0 181 79.5t81 188.5q0 76 -49.5 125t-127.5 49q-102 0 -182 -78.5t-80 -186.5zM230 592q20 108 96 108
q22 0 38.5 -11.5t25 -25.5t21 -25.5t26.5 -11.5q40 0 52 71h40q-11 -55 -34 -81.5t-63 -26.5q-22 0 -38 11.5t-24.5 25.5t-21 25.5t-27.5 11.5q-21 0 -34 -23t-17 -48h-40z" />
    <glyph glyph-name="odieresis" unicode="&#xf6;" horiz-adv-x="623" 
d="M39 205q0 125 93.5 216t212.5 91q98 0 159.5 -60t61.5 -154q0 -126 -94 -218t-212 -92q-98 0 -159.5 61t-61.5 156zM83 206q0 -78 49.5 -127.5t127.5 -49.5q100 0 181 79.5t81 188.5q0 76 -49.5 125t-127.5 49q-102 0 -182 -78.5t-80 -186.5zM422 627l14 73h46l-14 -73
h-46zM285 627l14 73h46l-14 -73h-46z" />
    <glyph glyph-name="divide" unicode="&#xf7;" horiz-adv-x="664" 
d="M299 431v59h57v-59h-57zM90 263v40h476v-40h-476zM299 76v59h57v-59h-57z" />
    <glyph glyph-name="oslash" unicode="&#xf8;" horiz-adv-x="624" 
d="M39 205q0 125 93.5 216t212.5 91q79 0 137 -41l50 55l32 -28l-51 -56q53 -59 53 -144q0 -126 -94 -218t-212 -92q-74 0 -129 36l-49 -53l-32 28l48 52q-59 61 -59 154zM83 206q0 -74 44 -123l325 356q-46 32 -107 32q-102 0 -182 -78.5t-80 -186.5zM522 297q0 66 -39 113
l-323 -354q44 -27 100 -27q100 0 181 79.5t81 188.5z" />
    <glyph glyph-name="ugrave" unicode="&#xf9;" horiz-adv-x="582" 
d="M52 114q0 29 8 69l61 317h42l-58 -300q-9 -44 -9 -78q0 -44 22 -68.5t77 -24.5q90 0 162 73t89 166l45 232h42l-97 -500h-42l16 83l13 46h-2q-27 -51 -88.5 -96t-144.5 -45q-60 0 -98 30.5t-38 95.5zM324 589l-57 111h52l45 -111h-40z" />
    <glyph glyph-name="uacute" unicode="&#xfa;" horiz-adv-x="582" 
d="M52 114q0 29 8 69l61 317h42l-58 -300q-9 -44 -9 -78q0 -44 22 -68.5t77 -24.5q90 0 162 73t89 166l45 232h42l-97 -500h-42l16 83l13 46h-2q-27 -51 -88.5 -96t-144.5 -45q-60 0 -98 30.5t-38 95.5zM319 589l89 111h60l-101 -111h-48z" />
    <glyph glyph-name="ucircumflex" unicode="&#xfb;" horiz-adv-x="582" 
d="M52 114q0 29 8 69l61 317h42l-58 -300q-9 -44 -9 -78q0 -44 22 -68.5t77 -24.5q90 0 162 73t89 166l45 232h42l-97 -500h-42l16 83l13 46h-2q-27 -51 -88.5 -96t-144.5 -45q-60 0 -98 30.5t-38 95.5zM235 589l102 111h52l58 -111h-46l-40 80h-2l-72 -80h-52z" />
    <glyph glyph-name="udieresis" unicode="&#xfc;" horiz-adv-x="582" 
d="M52 114q0 29 8 69l61 317h42l-58 -300q-9 -44 -9 -78q0 -44 22 -68.5t77 -24.5q90 0 162 73t89 166l45 232h42l-97 -500h-42l16 83l13 46h-2q-27 -51 -88.5 -96t-144.5 -45q-60 0 -98 30.5t-38 95.5zM398 627l14 73h46l-14 -73h-46zM261 627l14 73h46l-14 -73h-46z" />
    <glyph glyph-name="yacute" unicode="&#xfd;" horiz-adv-x="490" 
d="M-65 -149q21 -21 58 -21q61 0 116 89l53 85l-112 496h44l87 -406l9 -47h1l27 47l244 406h48l-379 -620q-56 -90 -138 -90q-23 0 -43.5 7t-29.5 14l-9 7zM273 589l89 111h60l-101 -111h-48z" />
    <glyph glyph-name="thorn" unicode="&#xfe;" horiz-adv-x="583" 
d="M-8 -200l174 900h42l-49 -255l-12 -45h2q27 47 77 79.5t115 32.5q87 0 135 -52.5t48 -144.5q0 -140 -81.5 -233.5t-188.5 -93.5q-61 0 -104.5 29t-58.5 84h-2q-1 -23 -6 -49l-49 -252h-42zM115 187q0 -69 35 -113.5t102 -44.5q87 0 157 79t70 205q0 74 -37 116t-101 42
q-67 0 -120 -44.5t-79.5 -108.5t-26.5 -131z" />
    <glyph glyph-name="ydieresis" unicode="&#xff;" horiz-adv-x="490" 
d="M-65 -149q21 -21 58 -21q61 0 116 89l53 85l-112 496h44l87 -406l9 -47h1l27 47l244 406h48l-379 -620q-56 -90 -138 -90q-23 0 -43.5 7t-29.5 14l-9 7zM352 627l14 73h46l-14 -73h-46zM215 627l14 73h46l-14 -73h-46z" />
    <glyph glyph-name="Amacron" unicode="&#x100;" horiz-adv-x="607" 
d="M12 0h-48l397 700h45l127 -700h-44l-43 242h-297zM171 282h267l-50 284l-12 84h-2q-25 -54 -42 -84zM282 786l7 40h239l-7 -40h-239z" />
    <glyph glyph-name="amacron" unicode="&#x101;" horiz-adv-x="516" 
d="M14 113q0 57 32 97.5t86.5 59.5t108 27t113.5 8h39q7 39 7 64q0 102 -112 102q-39 0 -77 -12t-57 -24l-18 -12l-18 38q8 6 21.5 14.5t58 22.5t90.5 14q156 0 156 -137q0 -25 -6 -57l-62 -318h-42l13 65l12 46h-2q1 0 -6.5 -12.5t-23.5 -30.5t-38 -36.5t-55.5 -31
t-69.5 -12.5q-64 0 -107 34t-43 91zM58 117q0 -38 28 -64t82 -26q75 0 135 67t78 149l5 23h-32q-296 0 -296 -149zM199 625l7 40h239l-7 -40h-239z" />
    <glyph glyph-name="Abreve" unicode="&#x102;" horiz-adv-x="607" 
d="M12 0h-48l397 700h45l127 -700h-44l-43 242h-297zM171 282h267l-50 284l-12 84h-2q-25 -54 -42 -84zM394 747q-40 0 -66.5 27.5t-17.5 70.5l3 16h40l-3 -14q-6 -31 8 -46.5t41 -15.5q26 0 46.5 15.5t26.5 47.5l3 13h40l-3 -16q-8 -50 -41 -74t-77 -24z" />
    <glyph glyph-name="abreve" unicode="&#x103;" horiz-adv-x="516" 
d="M14 113q0 57 32 97.5t86.5 59.5t108 27t113.5 8h39q7 39 7 64q0 102 -112 102q-39 0 -77 -12t-57 -24l-18 -12l-18 38q8 6 21.5 14.5t58 22.5t90.5 14q156 0 156 -137q0 -25 -6 -57l-62 -318h-42l13 65l12 46h-2q1 0 -6.5 -12.5t-23.5 -30.5t-38 -36.5t-55.5 -31
t-69.5 -12.5q-64 0 -107 34t-43 91zM58 117q0 -38 28 -64t82 -26q75 0 135 67t78 149l5 23h-32q-296 0 -296 -149zM311 586q-40 0 -66.5 27.5t-17.5 70.5l3 16h40l-3 -14q-6 -31 8 -46.5t41 -15.5q26 0 46.5 15.5t26.5 47.5l3 13h40l-3 -16q-8 -50 -41 -74t-77 -24z" />
    <glyph glyph-name="Aogonek" unicode="&#x104;" horiz-adv-x="607" 
d="M389 -125q0 65 98 134l-41 233h-297l-137 -242h-48l397 700h45l127 -700q-34 -21 -66.5 -54t-32.5 -65q0 -18 14.5 -29.5t29.5 -13.5l14 -3l-16 -39q-4 0 -9.5 1t-20.5 5.5t-26.5 12.5t-21 23.5t-9.5 36.5zM171 282h267l-50 284l-12 84h-2q-25 -54 -42 -84z" />
    <glyph glyph-name="aogonek" unicode="&#x105;" horiz-adv-x="516" 
d="M232 -125q0 67 105 139l10 51l12 46h-2q1 0 -6.5 -12.5t-23.5 -30.5t-38 -36.5t-55.5 -31t-69.5 -12.5q-64 0 -107 34t-43 91t32 97.5t86.5 59.5t108 27t113.5 8h39l3 17q5 30 5 48q0 101 -113 101q-39 0 -77 -12t-57 -24l-18 -12l-18 38q8 6 21.5 14.5t58 22.5t90.5 14
q156 0 156 -138q0 -26 -6 -56l-62 -318q-34 -21 -66.5 -54t-32.5 -65q0 -18 14.5 -29.5t28.5 -13.5l15 -3l-16 -39q-4 0 -9.5 1t-20.5 5.5t-26.5 12.5t-21 23.5t-9.5 36.5zM58 117q0 -38 28 -64t82 -26q75 0 135 67t78 149l5 23h-32q-296 0 -296 -149z" />
    <glyph glyph-name="Cacute" unicode="&#x106;" horiz-adv-x="736" 
d="M65 286q0 114 59.5 213t155.5 156t202 57q47 0 89 -9t68.5 -22t46 -26t28.5 -22l8 -9l-30 -31l-8.5 8.5t-24.5 19t-41.5 23.5t-59 18.5t-76.5 8.5q-95 0 -180.5 -51t-138.5 -140.5t-53 -193.5q0 -112 68.5 -184.5t181.5 -72.5q42 0 83.5 10t71 23.5t53.5 27.5t36 24
l11 10l25 -33l-13.5 -11t-37.5 -25t-59.5 -31.5t-77 -24.5t-92.5 -11q-136 0 -215.5 83t-79.5 215zM467 750l89 111h60l-101 -111h-48z" />
    <glyph glyph-name="cacute" unicode="&#x107;" horiz-adv-x="553" 
d="M39 197q0 136 94 225.5t211 89.5q55 0 99 -18t61 -36l16 -17l-30 -31q-5 7 -16 17t-48 27t-80 17q-100 0 -181.5 -77t-81.5 -193q0 -78 50.5 -125t127.5 -47q49 0 94 18t66 36l21 18l16 -38q-3 -3 -9 -8t-25.5 -18t-41 -23t-54 -18t-65.5 -8q-98 0 -161 57t-63 152z
M328 589l89 111h60l-101 -111h-48z" />
    <glyph glyph-name="Ccircumflex" unicode="&#x108;" horiz-adv-x="736" 
d="M65 286q0 114 59.5 213t155.5 156t202 57q47 0 89 -9t68.5 -22t46 -26t28.5 -22l8 -9l-30 -31l-8.5 8.5t-24.5 19t-41.5 23.5t-59 18.5t-76.5 8.5q-95 0 -180.5 -51t-138.5 -140.5t-53 -193.5q0 -112 68.5 -184.5t181.5 -72.5q42 0 83.5 10t71 23.5t53.5 27.5t36 24
l11 10l25 -33l-13.5 -11t-37.5 -25t-59.5 -31.5t-77 -24.5t-92.5 -11q-136 0 -215.5 83t-79.5 215zM383 750l102 111h52l58 -111h-46l-40 80h-2l-72 -80h-52z" />
    <glyph glyph-name="ccircumflex" unicode="&#x109;" horiz-adv-x="553" 
d="M39 197q0 136 94 225.5t211 89.5q55 0 99 -18t61 -36l16 -17l-30 -31q-5 7 -16 17t-48 27t-80 17q-100 0 -181.5 -77t-81.5 -193q0 -78 50.5 -125t127.5 -47q49 0 94 18t66 36l21 18l16 -38q-3 -3 -9 -8t-25.5 -18t-41 -23t-54 -18t-65.5 -8q-98 0 -161 57t-63 152z
M244 589l102 111h52l58 -111h-46l-40 80h-2l-72 -80h-52z" />
    <glyph glyph-name="Cdotaccent" unicode="&#x10a;" horiz-adv-x="736" 
d="M65 286q0 114 59.5 213t155.5 156t202 57q47 0 89 -9t68.5 -22t46 -26t28.5 -22l8 -9l-30 -31l-8.5 8.5t-24.5 19t-41.5 23.5t-59 18.5t-76.5 8.5q-95 0 -180.5 -51t-138.5 -140.5t-53 -193.5q0 -112 68.5 -184.5t181.5 -72.5q42 0 83.5 10t71 23.5t53.5 27.5t36 24
l11 10l25 -33l-13.5 -11t-37.5 -25t-59.5 -31.5t-77 -24.5t-92.5 -11q-136 0 -215.5 83t-79.5 215zM477 788l14 73h46l-14 -73h-46z" />
    <glyph glyph-name="cdotaccent" unicode="&#x10b;" horiz-adv-x="553" 
d="M39 197q0 136 94 225.5t211 89.5q55 0 99 -18t61 -36l16 -17l-30 -31q-5 7 -16 17t-48 27t-80 17q-100 0 -181.5 -77t-81.5 -193q0 -78 50.5 -125t127.5 -47q49 0 94 18t66 36l21 18l16 -38q-3 -3 -9 -8t-25.5 -18t-41 -23t-54 -18t-65.5 -8q-98 0 -161 57t-63 152z
M338 627l14 73h46l-14 -73h-46z" />
    <glyph glyph-name="Ccaron" unicode="&#x10c;" horiz-adv-x="736" 
d="M65 286q0 114 59.5 213t155.5 156t202 57q47 0 89 -9t68.5 -22t46 -26t28.5 -22l8 -9l-30 -31l-8.5 8.5t-24.5 19t-41.5 23.5t-59 18.5t-76.5 8.5q-95 0 -180.5 -51t-138.5 -140.5t-53 -193.5q0 -112 68.5 -184.5t181.5 -72.5q42 0 83.5 10t71 23.5t53.5 27.5t36 24
l11 10l25 -33l-13.5 -11t-37.5 -25t-59.5 -31.5t-77 -24.5t-92.5 -11q-136 0 -215.5 83t-79.5 215zM469 750l-58 111h46l40 -80h2l72 80h52l-102 -111h-52z" />
    <glyph glyph-name="ccaron" unicode="&#x10d;" horiz-adv-x="553" 
d="M39 197q0 136 94 225.5t211 89.5q55 0 99 -18t61 -36l16 -17l-30 -31q-5 7 -16 17t-48 27t-80 17q-100 0 -181.5 -77t-81.5 -193q0 -78 50.5 -125t127.5 -47q49 0 94 18t66 36l21 18l16 -38q-3 -3 -9 -8t-25.5 -18t-41 -23t-54 -18t-65.5 -8q-98 0 -161 57t-63 152z
M330 589l-58 111h46l40 -80h2l72 80h52l-102 -111h-52z" />
    <glyph glyph-name="Dcaron" unicode="&#x10e;" horiz-adv-x="741" 
d="M50 0l137 700h209q140 0 219.5 -70.5t79.5 -199.5q0 -180 -117.5 -305t-298.5 -125h-229zM100 40h170q163 0 271.5 111t108.5 277q0 111 -69 171.5t-190 60.5h-169zM407 750l-58 111h46l40 -80h2l72 80h52l-102 -111h-52z" />
    <glyph glyph-name="dcaron" unicode="&#x10f;" horiz-adv-x="612" 
d="M40 185q0 141 81.5 234t190.5 93q59 0 102.5 -29.5t58.5 -83.5h2q0 23 5 46l50 255h42l-136 -700h-42l11 58l12 43h-2q-28 -47 -78.5 -80t-113.5 -33q-88 0 -135.5 52.5t-47.5 144.5zM84 187q0 -74 37 -116t102 -42q67 0 120.5 45t79.5 110t26 132q0 68 -34.5 111.5
t-102.5 43.5q-87 0 -157.5 -79t-70.5 -205zM638 700h48v-13q0 -53 -42 -121h-39q36 61 36 106q0 13 -3 28z" />
    <glyph glyph-name="Dcroat" unicode="&#x110;" horiz-adv-x="754" 
d="M68 333l8 40h60l64 327h209q140 0 219.5 -70.5t79.5 -199.5q0 -180 -117.5 -305t-298.5 -125h-229l65 333h-60zM113 40h170q163 0 271.5 111t108.5 277q0 111 -69 171.5t-190 60.5h-169l-57 -287h184l-8 -40h-184z" />
    <glyph glyph-name="dcroat" unicode="&#x111;" horiz-adv-x="581" 
d="M371 569l8 40h133l18 91h42l-18 -91h83l-8 -40h-83l-110 -569h-42l11 58l12 43h-2q-28 -47 -78.5 -80t-113.5 -33q-88 0 -135.5 52.5t-47.5 144.5q0 141 81.5 234t190.5 93q59 0 102.5 -29.5t58.5 -83.5h2q0 23 5 46l24 124h-133zM84 187q0 -74 37 -116t102 -42
q67 0 120.5 45t79.5 110t26 132q0 68 -34.5 111.5t-102.5 43.5q-87 0 -157.5 -79t-70.5 -205z" />
    <glyph glyph-name="Emacron" unicode="&#x112;" horiz-adv-x="569" 
d="M50 0l137 700h383l-9 -40h-339l-56 -287h279l-8 -40h-278l-58 -293h358l-7 -40h-402zM288 786l7 40h239l-7 -40h-239z" />
    <glyph glyph-name="emacron" unicode="&#x113;" horiz-adv-x="554" 
d="M40 197q0 124 84 219.5t207 95.5q87 0 130.5 -48.5t43.5 -128.5q0 -16 -3.5 -35.5t-6.5 -31.5l-3 -11h-401q-6 -29 -6 -55q0 -76 46 -124.5t130 -48.5q42 0 84 15.5t63 31.5l20 16l16 -38q-9 -7 -25 -18t-64 -29.5t-94 -18.5q-98 0 -159.5 57t-61.5 152zM101 296h355
q4 19 4 42q0 67 -35.5 101t-93.5 34q-73 0 -136.5 -46.5t-93.5 -130.5zM242 625l7 40h239l-7 -40h-239z" />
    <glyph glyph-name="Ebreve" unicode="&#x114;" horiz-adv-x="569" 
d="M50 0l137 700h383l-9 -40h-339l-56 -287h279l-8 -40h-278l-58 -293h358l-7 -40h-402zM400 747q-40 0 -66.5 27.5t-17.5 70.5l3 16h40l-3 -14q-6 -31 8 -46.5t41 -15.5q26 0 46.5 15.5t26.5 47.5l3 13h40l-3 -16q-8 -50 -41 -74t-77 -24z" />
    <glyph glyph-name="ebreve" unicode="&#x115;" horiz-adv-x="554" 
d="M40 197q0 124 84 219.5t207 95.5q87 0 130.5 -48.5t43.5 -128.5q0 -16 -3.5 -35.5t-6.5 -31.5l-3 -11h-401q-6 -29 -6 -55q0 -76 46 -124.5t130 -48.5q42 0 84 15.5t63 31.5l20 16l16 -38q-9 -7 -25 -18t-64 -29.5t-94 -18.5q-98 0 -159.5 57t-61.5 152zM101 296h355
q4 19 4 42q0 67 -35.5 101t-93.5 34q-73 0 -136.5 -46.5t-93.5 -130.5zM354 586q-40 0 -66.5 27.5t-17.5 70.5l3 16h40l-3 -14q-6 -31 8 -46.5t41 -15.5q26 0 46.5 15.5t26.5 47.5l3 13h40l-3 -16q-8 -50 -41 -74t-77 -24z" />
    <glyph glyph-name="Edotaccent" unicode="&#x116;" horiz-adv-x="569" 
d="M50 0l137 700h383l-9 -40h-339l-56 -287h279l-8 -40h-278l-58 -293h358l-7 -40h-402zM385 788l14 73h46l-14 -73h-46z" />
    <glyph glyph-name="edotaccent" unicode="&#x117;" horiz-adv-x="554" 
d="M40 197q0 124 84 219.5t207 95.5q87 0 130.5 -48.5t43.5 -128.5q0 -16 -3.5 -35.5t-6.5 -31.5l-3 -11h-401q-6 -29 -6 -55q0 -76 46 -124.5t130 -48.5q42 0 84 15.5t63 31.5l20 16l16 -38q-9 -7 -25 -18t-64 -29.5t-94 -18.5q-98 0 -159.5 57t-61.5 152zM101 296h355
q4 19 4 42q0 67 -35.5 101t-93.5 34q-73 0 -136.5 -46.5t-93.5 -130.5zM339 627l14 73h46l-14 -73h-46z" />
    <glyph glyph-name="Eogonek" unicode="&#x118;" horiz-adv-x="569" 
d="M50 0l137 700h383l-9 -40h-339l-56 -287h279l-8 -40h-278l-58 -293h358l-7 -40q-34 -21 -66.5 -54t-32.5 -65q0 -18 14.5 -29.5t28.5 -13.5l15 -3l-16 -39q-4 0 -9.5 1t-20.5 5.5t-26.5 12.5t-21 23.5t-9.5 36.5q0 59 84 123v2h-342z" />
    <glyph glyph-name="eogonek" unicode="&#x119;" horiz-adv-x="555" 
d="M209 -125q0 55 75 113v2q-15 -2 -23 -2q-98 0 -159.5 57t-61.5 152q0 124 84 219.5t207 95.5q87 0 130.5 -48.5t43.5 -128.5q0 -16 -3.5 -35.5t-6.5 -31.5l-3 -11h-401q-6 -33 -6 -55q0 -81 49 -127t127 -46q42 0 84 15.5t63 31.5l20 16l16 -38q-9 -7 -63 -40.5
t-90.5 -67t-36.5 -65.5q0 -18 14.5 -29.5t29.5 -13.5l14 -3l-16 -39q-4 0 -9.5 1t-20.5 5.5t-26.5 12.5t-21 23.5t-9.5 36.5zM101 296h355q4 19 4 42q0 67 -35.5 101t-93.5 34q-73 0 -136.5 -46.5t-93.5 -130.5z" />
    <glyph glyph-name="Ecaron" unicode="&#x11a;" horiz-adv-x="569" 
d="M50 0l137 700h383l-9 -40h-339l-56 -287h279l-8 -40h-278l-58 -293h358l-7 -40h-402zM377 750l-58 111h46l40 -80h2l72 80h52l-102 -111h-52z" />
    <glyph glyph-name="ecaron" unicode="&#x11b;" horiz-adv-x="554" 
d="M40 197q0 124 84 219.5t207 95.5q87 0 130.5 -48.5t43.5 -128.5q0 -16 -3.5 -35.5t-6.5 -31.5l-3 -11h-401q-6 -29 -6 -55q0 -76 46 -124.5t130 -48.5q42 0 84 15.5t63 31.5l20 16l16 -38q-9 -7 -25 -18t-64 -29.5t-94 -18.5q-98 0 -159.5 57t-61.5 152zM101 296h355
q4 19 4 42q0 67 -35.5 101t-93.5 34q-73 0 -136.5 -46.5t-93.5 -130.5zM331 589l-58 111h46l40 -80h2l72 80h52l-102 -111h-52z" />
    <glyph glyph-name="Gcircumflex" unicode="&#x11c;" horiz-adv-x="759" 
d="M64 277q0 174 127 304.5t292 130.5q45 0 86 -8t67.5 -19.5t46 -23t28.5 -19.5l9 -8l-30 -32q-3 3 -8.5 7.5t-25.5 16.5t-42 21t-57.5 16.5t-73.5 7.5q-148 0 -261 -117.5t-113 -276.5q0 -110 66.5 -179t176.5 -69q43 0 86 12.5t74 31t55.5 36.5t36.5 31l13 12l25 127
h-124l7 40h168l-62 -319h-43l12 62l7 30h-2q-4 -4 -12 -11t-34 -25t-53.5 -32t-69.5 -25t-84 -11q-130 0 -209 81t-79 208zM379 750l102 111h52l58 -111h-46l-40 80h-2l-72 -80h-52z" />
    <glyph glyph-name="gcircumflex" unicode="&#x11d;" horiz-adv-x="574" 
d="M33 -136q58 -33 130 -33q84 0 144.5 43t78.5 129l11 53l13 46h-2q-64 -102 -178 -102q-87 0 -138 53t-51 143q0 73 29 144t91 121.5t142 50.5q61 0 106.5 -23t58.5 -75h2q-1 12 1 24l12 62h42l-97 -502q-21 -107 -93 -157.5t-167 -50.5q-87 0 -159 39zM85 197
q0 -73 39 -114.5t107 -41.5q53 0 95 28t67.5 72.5t38.5 95t13 100.5q0 134 -140 134q-100 0 -160 -84t-60 -190zM231 589l102 111h52l58 -111h-46l-40 80h-2l-72 -80h-52z" />
    <glyph glyph-name="Gbreve" unicode="&#x11e;" horiz-adv-x="759" 
d="M64 277q0 174 127 304.5t292 130.5q45 0 86 -8t67.5 -19.5t46 -23t28.5 -19.5l9 -8l-30 -32q-3 3 -8.5 7.5t-25.5 16.5t-42 21t-57.5 16.5t-73.5 7.5q-148 0 -261 -117.5t-113 -276.5q0 -110 66.5 -179t176.5 -69q43 0 86 12.5t74 31t55.5 36.5t36.5 31l13 12l25 127
h-124l7 40h168l-62 -319h-43l12 62l7 30h-2q-4 -4 -12 -11t-34 -25t-53.5 -32t-69.5 -25t-84 -11q-130 0 -209 81t-79 208zM488 747q-40 0 -66.5 27.5t-17.5 70.5l3 16h40l-3 -14q-6 -31 8 -46.5t41 -15.5q26 0 46.5 15.5t26.5 47.5l3 13h40l-3 -16q-8 -50 -41 -74t-77 -24z
" />
    <glyph glyph-name="gbreve" unicode="&#x11f;" horiz-adv-x="574" 
d="M33 -136q58 -33 130 -33q84 0 144.5 43t78.5 129l11 53l13 46h-2q-64 -102 -178 -102q-87 0 -138 53t-51 143q0 73 29 144t91 121.5t142 50.5q61 0 106.5 -23t58.5 -75h2q-1 12 1 24l12 62h42l-97 -502q-21 -107 -93 -157.5t-167 -50.5q-87 0 -159 39zM85 197
q0 -73 39 -114.5t107 -41.5q53 0 95 28t67.5 72.5t38.5 95t13 100.5q0 134 -140 134q-100 0 -160 -84t-60 -190zM340 586q-40 0 -66.5 27.5t-17.5 70.5l3 16h40l-3 -14q-6 -31 8 -46.5t41 -15.5q26 0 46.5 15.5t26.5 47.5l3 13h40l-3 -16q-8 -50 -41 -74t-77 -24z" />
    <glyph glyph-name="Gdotaccent" unicode="&#x120;" horiz-adv-x="759" 
d="M64 277q0 174 127 304.5t292 130.5q45 0 86 -8t67.5 -19.5t46 -23t28.5 -19.5l9 -8l-30 -32q-3 3 -8.5 7.5t-25.5 16.5t-42 21t-57.5 16.5t-73.5 7.5q-148 0 -261 -117.5t-113 -276.5q0 -110 66.5 -179t176.5 -69q43 0 86 12.5t74 31t55.5 36.5t36.5 31l13 12l25 127
h-124l7 40h168l-62 -319h-43l12 62l7 30h-2q-4 -4 -12 -11t-34 -25t-53.5 -32t-69.5 -25t-84 -11q-130 0 -209 81t-79 208zM473 788l14 73h46l-14 -73h-46z" />
    <glyph glyph-name="gdotaccent" unicode="&#x121;" horiz-adv-x="574" 
d="M33 -136q58 -33 130 -33q84 0 144.5 43t78.5 129l11 53l13 46h-2q-64 -102 -178 -102q-87 0 -138 53t-51 143q0 73 29 144t91 121.5t142 50.5q61 0 106.5 -23t58.5 -75h2q-1 12 1 24l12 62h42l-97 -502q-21 -107 -93 -157.5t-167 -50.5q-87 0 -159 39zM85 197
q0 -73 39 -114.5t107 -41.5q53 0 95 28t67.5 72.5t38.5 95t13 100.5q0 134 -140 134q-100 0 -160 -84t-60 -190zM325 627l14 73h46l-14 -73h-46z" />
    <glyph glyph-name="Gcommaaccent" unicode="&#x122;" horiz-adv-x="759" 
d="M64 277q0 174 127 304.5t292 130.5q45 0 86 -8t67.5 -19.5t46 -23t28.5 -19.5l9 -8l-30 -32q-3 3 -8.5 7.5t-25.5 16.5t-42 21t-57.5 16.5t-73.5 7.5q-148 0 -261 -117.5t-113 -276.5q0 -110 66.5 -179t176.5 -69q43 0 86 12.5t74 31t55.5 36.5t36.5 31l13 12l25 127
h-124l7 40h168l-62 -319h-43l12 62l7 30h-2q-4 -4 -12 -11t-34 -25t-53.5 -32t-69.5 -25t-84 -11q-130 0 -209 81t-79 208zM311 -66h48v-13q0 -53 -42 -121h-39q36 61 36 106q0 13 -3 28z" />
    <glyph glyph-name="gcommaaccent" unicode="&#x123;" horiz-adv-x="574" 
d="M33 -136q58 -33 130 -33q84 0 144.5 43t78.5 129l11 53l13 46h-2q-64 -102 -178 -102q-87 0 -138 53t-51 143q0 73 29 144t91 121.5t142 50.5q61 0 106.5 -23t58.5 -75h2q-1 12 1 24l12 62h42l-97 -502q-21 -107 -93 -157.5t-167 -50.5q-87 0 -159 39zM85 197
q0 -73 39 -114.5t107 -41.5q53 0 95 28t67.5 72.5t38.5 95t13 100.5q0 134 -140 134q-100 0 -160 -84t-60 -190zM476 566h-48v13q0 53 42 121h39q-36 -61 -36 -106q0 -13 3 -28z" />
    <glyph glyph-name="Hcircumflex" unicode="&#x124;" horiz-adv-x="747" 
d="M50 0l137 700h43l-64 -329h444l64 329h43l-137 -700h-43l65 331h-444l-65 -331h-43zM354 750l102 111h52l58 -111h-46l-40 80h-2l-72 -80h-52z" />
    <glyph glyph-name="hcircumflex" unicode="&#x125;" horiz-adv-x="587" 
d="M30 0l136 700h42l-54 -283l-13 -46h2q25 50 88.5 95.5t145.5 45.5q69 0 104 -32.5t35 -93.5q0 -29 -8 -69l-61 -317h-42l58 302q9 47 9 76q0 46 -26 69.5t-70 23.5q-91 0 -165.5 -70t-93.5 -167l-45 -234h-42zM89 750l102 111h52l58 -111h-46l-40 80h-2l-72 -80h-52z" />
    <glyph glyph-name="Hbar" unicode="&#x126;" horiz-adv-x="786" 
d="M105 511l7 40h65l29 149h43l-29 -149h444l29 149h43l-29 -149h65l-7 -40h-66l-100 -511h-43l65 331h-444l-65 -331h-43l100 511h-64zM185 371h444l27 140h-444z" />
    <glyph glyph-name="hbar" unicode="&#x127;" horiz-adv-x="588" 
d="M61 569l8 40h80l18 91h42l-18 -91h134l-8 -40h-133l-29 -152l-13 -46h2q25 50 88.5 95.5t145.5 45.5q69 0 104 -32.5t35 -93.5q0 -29 -8 -69l-61 -317h-42l58 302q9 47 9 76q0 46 -26 69.5t-70 23.5q-91 0 -165.5 -70t-93.5 -167l-45 -234h-42l110 569h-80z" />
    <glyph glyph-name="Itilde" unicode="&#x128;" horiz-adv-x="260" 
d="M50 0l137 700h43l-137 -700h-43zM81 753q20 108 96 108q22 0 38.5 -11.5t25 -25.5t21 -25.5t26.5 -11.5q40 0 52 71h40q-11 -55 -34 -81.5t-63 -26.5q-22 0 -38 11.5t-24.5 25.5t-21 25.5t-27.5 11.5q-21 0 -34 -23t-17 -48h-40z" />
    <glyph glyph-name="itilde" unicode="&#x129;" horiz-adv-x="219" 
d="M29 592q20 108 96 108q22 0 38.5 -11.5t25 -25.5t21 -25.5t26.5 -11.5q40 0 52 71h40q-11 -55 -34 -81.5t-63 -26.5q-22 0 -38 11.5t-24.5 25.5t-21 25.5t-27.5 11.5q-21 0 -34 -23t-17 -48h-40zM31 0l97 500h42l-97 -500h-42z" />
    <glyph glyph-name="Imacron" unicode="&#x12a;" horiz-adv-x="260" 
d="M50 0l137 700h43l-137 -700h-43zM107 786l7 40h239l-7 -40h-239z" />
    <glyph glyph-name="imacron" unicode="&#x12b;" horiz-adv-x="219" 
d="M55 625l7 40h239l-7 -40h-239zM31 0l97 500h42l-97 -500h-42z" />
    <glyph glyph-name="Ibreve" unicode="&#x12c;" horiz-adv-x="260" 
d="M50 0l137 700h43l-137 -700h-43zM219 747q-40 0 -66.5 27.5t-17.5 70.5l3 16h40l-3 -14q-6 -31 8 -46.5t41 -15.5q26 0 46.5 15.5t26.5 47.5l3 13h40l-3 -16q-8 -50 -41 -74t-77 -24z" />
    <glyph glyph-name="ibreve" unicode="&#x12d;" horiz-adv-x="219" 
d="M167 586q-40 0 -66.5 27.5t-17.5 70.5l3 16h40l-3 -14q-6 -31 8 -46.5t41 -15.5q26 0 46.5 15.5t26.5 47.5l3 13h40l-3 -16q-8 -50 -41 -74t-77 -24zM31 0l97 500h42l-97 -500h-42z" />
    <glyph glyph-name="Iogonek" unicode="&#x12e;" horiz-adv-x="261" 
d="M-50 -125q0 40 28 72t75 66l135 687h43l-137 -700q-34 -21 -66.5 -54t-32.5 -65q0 -18 14.5 -29.5t28.5 -13.5l15 -3l-16 -39q-4 0 -9.5 1t-20.5 5.5t-26.5 12.5t-21 23.5t-9.5 36.5z" />
    <glyph glyph-name="iogonek" unicode="&#x12f;" horiz-adv-x="220" 
d="M-71 -125q0 67 104 138l96 487h42l-98 -500q-34 -21 -66.5 -54t-32.5 -65q0 -18 14.5 -29.5t29.5 -13.5l14 -3l-16 -39q-4 0 -9.5 1t-20.5 5.5t-26.5 12.5t-21 23.5t-9.5 36.5zM149 627l15 73h50l-15 -73h-50z" />
    <glyph glyph-name="Idotaccent" unicode="&#x130;" horiz-adv-x="260" 
d="M50 0l137 700h43l-137 -700h-43zM203 788l14 73h46l-14 -73h-46z" />
    <glyph glyph-name="dotlessi" unicode="&#x131;" horiz-adv-x="219" 
d="M31 0l97 500h42l-97 -500h-42z" />
    <glyph glyph-name="IJ" unicode="&#x132;" horiz-adv-x="557" 
d="M202 -5l8 41q153 0 189 182l94 482h43l-94 -482q-13 -68 -38 -114t-59 -68.5t-67.5 -31.5t-75.5 -9zM50 0l137 700h43l-137 -700h-43z" />
    <glyph glyph-name="ij" unicode="&#x133;" horiz-adv-x="434" 
d="M148 627l15 73h50l-15 -73h-50zM30 0l98 500h42l-98 -500h-42zM363 627l14 73h50l-14 -73h-50zM242 -21l101 521h42l-101 -520q-11 -58 -34.5 -98t-52.5 -57.5t-51.5 -23.5t-45.5 -6l-35 2l8 39q8 -2 22 -2q18 0 36.5 5t41.5 18.5t41.5 45t27.5 76.5z" />
    <glyph glyph-name="Jcircumflex" unicode="&#x134;" horiz-adv-x="510" 
d="M11 139q0 19 6 52l4 22h43l-4 -22q-5 -25 -5 -45q0 -117 116 -117q59 0 109.5 39t66.5 123l90 469h-166l8 40h209l-100 -515q-20 -103 -81 -150t-136 -47q-69 0 -114.5 37t-45.5 114zM285 750l102 111h52l58 -111h-46l-40 80h-2l-72 -80h-52z" />
    <glyph glyph-name="jcircumflex" unicode="&#x135;" horiz-adv-x="219" 
d="M55 589l102 111h52l58 -111h-46l-40 80h-2l-72 -80h-52zM26 -21l102 521h42l-101 -520q-11 -58 -34.5 -98t-52.5 -57.5t-51.5 -23.5t-45.5 -6l-35 2l8 39q8 -2 22 -2q18 0 36.5 5t41 18.5t41 45t27.5 76.5z" />
    <glyph glyph-name="Kcommaaccent" unicode="&#x136;" horiz-adv-x="580" 
d="M50 0l137 700h43l-61 -312h126l265 312h52l-281 -331v-2l158 -367h-47l-148 348h-133l-68 -348h-43zM207 -66h48v-13q0 -53 -42 -121h-39q36 61 36 106q0 13 -3 28z" />
    <glyph glyph-name="kcommaaccent" unicode="&#x137;" horiz-adv-x="478" 
d="M30 0l137 700h42l-78 -397h85l202 197h57l-222 -216v-2l142 -282h-48l-131 264h-92l-52 -264h-42zM159 -66h48v-13q0 -53 -42 -121h-39q36 61 36 106q0 13 -3 28z" />
    <glyph glyph-name="kgreenlandic" unicode="&#x138;" horiz-adv-x="486" 
d="M30 0l97 500h42l-41 -213h86l214 213h59l-237 -232v-2l135 -266h-49l-123 250h-92l-49 -250h-42z" />
    <glyph glyph-name="Lacute" unicode="&#x139;" horiz-adv-x="502" 
d="M50 0l137 700h43l-129 -660h334l-9 -40h-376zM193 750l89 111h60l-101 -111h-48z" />
    <glyph glyph-name="lacute" unicode="&#x13a;" horiz-adv-x="232" 
d="M43 77q0 13 3 29l116 594h42l-114 -587q-3 -16 -3 -29q0 -21 8.5 -32.5t17.5 -13.5t23 -2l13 1l-9 -39q-8 -2 -17 -2q-17 0 -33 4.5t-31.5 24t-15.5 52.5zM169 750l89 111h60l-101 -111h-48z" />
    <glyph glyph-name="Lcommaaccent" unicode="&#x13b;" horiz-adv-x="502" 
d="M50 0l137 700h43l-129 -660h334l-9 -40h-376zM209 -66h48v-13q0 -53 -42 -121h-39q36 61 36 106q0 13 -3 28z" />
    <glyph glyph-name="lcommaaccent" unicode="&#x13c;" horiz-adv-x="232" 
d="M43 77q0 13 3 29l116 594h42l-114 -587q-3 -16 -3 -29q0 -21 8.5 -32.5t17.5 -13.5t23 -2l13 1l-9 -39q-8 -2 -17 -2q-17 0 -33 4.5t-31.5 24t-15.5 52.5zM47 -66h48v-13q0 -53 -42 -121h-39q36 61 36 106q0 13 -3 28z" />
    <glyph glyph-name="Lcaron" unicode="&#x13d;" horiz-adv-x="502" 
d="M50 0l137 700h43l-129 -660h334l-9 -40h-376zM326 700h48v-13q0 -53 -42 -121h-39q36 61 36 106q0 13 -3 28z" />
    <glyph glyph-name="lcaron" unicode="&#x13e;" horiz-adv-x="262" 
d="M43 77q0 13 3 29l116 594h42l-114 -587q-3 -16 -3 -29q0 -21 8.5 -32.5t17.5 -13.5t23 -2l13 1l-9 -39q-8 -2 -17 -2q-17 0 -33 4.5t-31.5 24t-15.5 52.5zM272 700h48v-13q0 -53 -42 -121h-39q36 61 36 106q0 13 -3 28z" />
    <glyph glyph-name="Ldot" unicode="&#x13f;" horiz-adv-x="502" 
d="M50 0l137 700h43l-129 -660h334l-9 -40h-376zM291 333l12 63h61l-12 -63h-61z" />
    <glyph glyph-name="ldot" unicode="&#x140;" horiz-adv-x="265" 
d="M43 77q0 13 3 29l116 594h42l-114 -587q-3 -16 -3 -29q0 -21 8.5 -32.5t17.5 -13.5t23 -2l13 1l-9 -39q-8 -2 -17 -2q-17 0 -33 4.5t-31.5 24t-15.5 52.5zM198 333l12 63h61l-12 -63h-61z" />
    <glyph glyph-name="Lslash" unicode="&#x141;" horiz-adv-x="525" 
d="M74 333l9 47l73 38l55 282h43l-51 -257l128 66l-9 -48l-128 -66l-69 -355h334l-8 -40h-377l72 370z" />
    <glyph glyph-name="lslash" unicode="&#x142;" horiz-adv-x="293" 
d="M43 333l8 47l98 51l53 269h42l-48 -245l103 54l-10 -48l-102 -53l-57 -295q-3 -16 -3 -29q0 -21 8.5 -32.5t17.5 -13.5t23 -2l13 1l-9 -39q-8 -2 -17 -2q-17 0 -33 4.5t-31.5 24t-15.5 52.5q0 13 3 29l54 277z" />
    <glyph glyph-name="Nacute" unicode="&#x143;" horiz-adv-x="747" 
d="M50 0l137 700h35l292 -549l40 -88h2q4 53 11 88l107 549h43l-137 -700h-35l-292 549l-40 88h-2q-4 -53 -11 -88l-107 -549h-43zM436 750l89 111h60l-101 -111h-48z" />
    <glyph glyph-name="nacute" unicode="&#x144;" horiz-adv-x="587" 
d="M30 0l97 500h42l-15 -83l-14 -46h2q25 49 89 95t146 46q69 0 104 -32.5t35 -93.5q0 -29 -8 -69l-61 -317h-42l58 302q9 47 9 76q0 46 -26 69.5t-70 23.5q-92 0 -166 -70t-93 -167l-45 -234h-42zM339 589l89 111h60l-101 -111h-48z" />
    <glyph glyph-name="Ncommaaccent" unicode="&#x145;" horiz-adv-x="747" 
d="M50 0l137 700h35l292 -549l40 -88h2q4 53 11 88l107 549h43l-137 -700h-35l-292 549l-40 88h-2q-4 -53 -11 -88l-107 -549h-43zM278 -66h48v-13q0 -53 -42 -121h-39q36 61 36 106q0 13 -3 28z" />
    <glyph glyph-name="ncommaaccent" unicode="&#x146;" horiz-adv-x="587" 
d="M30 0l97 500h42l-15 -83l-14 -46h2q25 49 89 95t146 46q69 0 104 -32.5t35 -93.5q0 -29 -8 -69l-61 -317h-42l58 302q9 47 9 76q0 46 -26 69.5t-70 23.5q-92 0 -166 -70t-93 -167l-45 -234h-42zM209 -66h48v-13q0 -53 -42 -121h-39q36 61 36 106q0 13 -3 28z" />
    <glyph glyph-name="Ncaron" unicode="&#x147;" horiz-adv-x="747" 
d="M50 0l137 700h35l292 -549l40 -88h2q4 53 11 88l107 549h43l-137 -700h-35l-292 549l-40 88h-2q-4 -53 -11 -88l-107 -549h-43zM438 750l-58 111h46l40 -80h2l72 80h52l-102 -111h-52z" />
    <glyph glyph-name="ncaron" unicode="&#x148;" horiz-adv-x="587" 
d="M30 0l97 500h42l-15 -83l-14 -46h2q25 49 89 95t146 46q69 0 104 -32.5t35 -93.5q0 -29 -8 -69l-61 -317h-42l58 302q9 47 9 76q0 46 -26 69.5t-70 23.5q-92 0 -166 -70t-93 -167l-45 -234h-42zM341 589l-58 111h46l40 -80h2l72 80h52l-102 -111h-52z" />
    <glyph glyph-name="napostrophe" unicode="&#x149;" horiz-adv-x="587" 
d="M30 0l97 500h42l-15 -83l-14 -46h2q25 49 89 95t146 46q69 0 104 -32.5t35 -93.5q0 -29 -8 -69l-61 -317h-42l58 302q9 47 9 76q0 46 -26 69.5t-70 23.5q-92 0 -166 -70t-93 -167l-45 -234h-42zM110 700h48v-13q0 -53 -42 -121h-39q36 61 36 106q0 13 -3 28z" />
    <glyph glyph-name="Eng" unicode="&#x14a;" horiz-adv-x="746" 
d="M50 0l137 700h35l292 -549l40 -88h2q4 53 11 88l107 549h43l-134 -682q-13 -68 -38 -114t-58.5 -69t-67 -31.5t-75.5 -8.5l8 41q150 0 187 174l-286 539l-40 88h-2q-4 -53 -11 -88l-107 -549h-43z" />
    <glyph glyph-name="eng" unicode="&#x14b;" horiz-adv-x="586" 
d="M30 0l97 500h42l-15 -83l-14 -46h2q25 49 89 95t146 46q69 0 104 -32.5t35 -93.5q0 -29 -8 -69l-66 -342q-11 -58 -34.5 -98t-52.5 -57.5t-51.5 -23.5t-45.5 -6l-35 2l8 39q8 -2 22 -2q18 0 36.5 5t41.5 18.5t41.5 45t27.5 76.5l63 328q9 47 9 76q0 46 -26 69.5t-70 23.5
q-92 0 -166 -70t-93 -167l-45 -234h-42z" />
    <glyph glyph-name="Omacron" unicode="&#x14c;" horiz-adv-x="828" 
d="M64 288q0 112 61 210.5t159 156t203 57.5q132 0 215 -82t83 -210q0 -114 -61.5 -214.5t-159 -159t-202.5 -58.5q-132 0 -215 84t-83 216zM109 288q0 -114 70.5 -186.5t182.5 -72.5q93 0 180.5 52.5t142.5 143.5t55 194q0 111 -70.5 181.5t-182.5 70.5q-95 0 -182 -51
t-141.5 -140.5t-54.5 -191.5zM388 786l7 40h239l-7 -40h-239z" />
    <glyph glyph-name="omacron" unicode="&#x14d;" horiz-adv-x="623" 
d="M39 205q0 125 93.5 216t212.5 91q98 0 159.5 -60t61.5 -154q0 -126 -94 -218t-212 -92q-98 0 -159.5 61t-61.5 156zM83 206q0 -78 49.5 -127.5t127.5 -49.5q100 0 181 79.5t81 188.5q0 76 -49.5 125t-127.5 49q-102 0 -182 -78.5t-80 -186.5zM256 625l7 40h239l-7 -40
h-239z" />
    <glyph glyph-name="Obreve" unicode="&#x14e;" horiz-adv-x="828" 
d="M64 288q0 112 61 210.5t159 156t203 57.5q132 0 215 -82t83 -210q0 -114 -61.5 -214.5t-159 -159t-202.5 -58.5q-132 0 -215 84t-83 216zM109 288q0 -114 70.5 -186.5t182.5 -72.5q93 0 180.5 52.5t142.5 143.5t55 194q0 111 -70.5 181.5t-182.5 70.5q-95 0 -182 -51
t-141.5 -140.5t-54.5 -191.5zM500 747q-40 0 -66.5 27.5t-17.5 70.5l3 16h40l-3 -14q-6 -31 8 -46.5t41 -15.5q26 0 46.5 15.5t26.5 47.5l3 13h40l-3 -16q-8 -50 -41 -74t-77 -24z" />
    <glyph glyph-name="obreve" unicode="&#x14f;" horiz-adv-x="623" 
d="M39 205q0 125 93.5 216t212.5 91q98 0 159.5 -60t61.5 -154q0 -126 -94 -218t-212 -92q-98 0 -159.5 61t-61.5 156zM83 206q0 -78 49.5 -127.5t127.5 -49.5q100 0 181 79.5t81 188.5q0 76 -49.5 125t-127.5 49q-102 0 -182 -78.5t-80 -186.5zM368 586q-40 0 -66.5 27.5
t-17.5 70.5l3 16h40l-3 -14q-6 -31 8 -46.5t41 -15.5q26 0 46.5 15.5t26.5 47.5l3 13h40l-3 -16q-8 -50 -41 -74t-77 -24z" />
    <glyph glyph-name="Ohungarumlaut" unicode="&#x150;" horiz-adv-x="828" 
d="M64 288q0 112 61 210.5t159 156t203 57.5q132 0 215 -82t83 -210q0 -114 -61.5 -214.5t-159 -159t-202.5 -58.5q-132 0 -215 84t-83 216zM109 288q0 -114 70.5 -186.5t182.5 -72.5q93 0 180.5 52.5t142.5 143.5t55 194q0 111 -70.5 181.5t-182.5 70.5q-95 0 -182 -51
t-141.5 -140.5t-54.5 -191.5zM518 750l89 111h60l-101 -111h-48zM403 750l84 111h54l-87 -111h-51z" />
    <glyph glyph-name="ohungarumlaut" unicode="&#x151;" horiz-adv-x="623" 
d="M39 205q0 125 93.5 216t212.5 91q98 0 159.5 -60t61.5 -154q0 -126 -94 -218t-212 -92q-98 0 -159.5 61t-61.5 156zM83 206q0 -78 49.5 -127.5t127.5 -49.5q100 0 181 79.5t81 188.5q0 76 -49.5 125t-127.5 49q-102 0 -182 -78.5t-80 -186.5zM386 589l89 111h60
l-101 -111h-48zM271 589l84 111h54l-87 -111h-51z" />
    <glyph glyph-name="OE" unicode="&#x152;" horiz-adv-x="944" 
d="M65 282q0 173 125 300.5t294 127.5q19 0 64.5 -5t60.5 -5h337l-8 -40h-340l-56 -287h279l-8 -40h-279l-57 -293h359l-8 -40h-345q-13 0 -56.5 -5t-61.5 -5q-137 0 -218.5 81t-81.5 211zM110 277q0 -110 68 -178t185 -68q16 0 34 2t27 4l10 2l121 622q-32 8 -69 8
q-155 0 -265.5 -115.5t-110.5 -276.5z" />
    <glyph glyph-name="oe" unicode="&#x153;" horiz-adv-x="1027" 
d="M39 205q0 125 93.5 216t212.5 91q79 0 135 -41t76 -109h2q39 68 103.5 109t142.5 41q87 0 130.5 -48.5t43.5 -128.5q0 -16 -3 -35.5t-7 -31.5l-3 -11h-401q-6 -33 -6 -55q0 -81 49 -127t127 -46q42 0 84 15.5t62 31.5l21 16l16 -38q-9 -7 -25 -18t-64 -29.5t-94 -18.5
q-81 0 -138.5 40t-75.5 111h-2q-42 -69 -112 -110t-146 -41q-98 0 -159.5 61t-61.5 156zM574 296h355q4 19 4 42q0 67 -35.5 101t-93.5 34q-73 0 -136.5 -46.5t-93.5 -130.5zM83 206q0 -78 49.5 -127.5t127.5 -49.5q100 0 181 79.5t81 188.5q0 76 -49.5 125t-127.5 49
q-102 0 -182 -78.5t-80 -186.5z" />
    <glyph glyph-name="Racute" unicode="&#x154;" horiz-adv-x="618" 
d="M51 0l136 700h222q60 0 97 -19q77 -40 77 -137q0 -86 -53 -148.5t-132 -77.5v-2q4 -8 10 -25l102 -291h-46l-108 310h-202l-60 -310h-43zM162 350h185q80 0 135.5 54.5t55.5 139.5q0 54 -34 85t-95 31h-187zM361 750l89 111h60l-101 -111h-48z" />
    <glyph glyph-name="racute" unicode="&#x155;" horiz-adv-x="340" 
d="M30 0l97 500h42l-18 -90l-13 -46h2q29 60 77.5 100t108.5 40q14 0 30 -3l-9 -42q-16 2 -22 2q-43 0 -82 -27.5t-65 -70t-43.5 -86.5t-25.5 -86l-37 -191h-42zM236 589l89 111h60l-101 -111h-48z" />
    <glyph glyph-name="Rcommaaccent" unicode="&#x156;" horiz-adv-x="618" 
d="M51 0l136 700h222q60 0 97 -19q77 -40 77 -137q0 -86 -53 -148.5t-132 -77.5v-2q4 -8 10 -25l102 -291h-46l-108 310h-202l-60 -310h-43zM162 350h185q80 0 135.5 54.5t55.5 139.5q0 54 -34 85t-95 31h-187zM230 -66h48v-13q0 -53 -42 -121h-39q36 61 36 106q0 13 -3 28z
" />
    <glyph glyph-name="rcommaaccent" unicode="&#x157;" horiz-adv-x="340" 
d="M30 0l97 500h42l-18 -90l-13 -46h2q29 60 77.5 100t108.5 40q14 0 30 -3l-9 -42q-16 2 -22 2q-43 0 -82 -27.5t-65 -70t-43.5 -86.5t-25.5 -86l-37 -191h-42zM18 -66h48v-13q0 -53 -42 -121h-39q36 61 36 106q0 13 -3 28z" />
    <glyph glyph-name="Rcaron" unicode="&#x158;" horiz-adv-x="618" 
d="M51 0l136 700h222q60 0 97 -19q77 -40 77 -137q0 -86 -53 -148.5t-132 -77.5v-2q4 -8 10 -25l102 -291h-46l-108 310h-202l-60 -310h-43zM162 350h185q80 0 135.5 54.5t55.5 139.5q0 54 -34 85t-95 31h-187zM363 750l-58 111h46l40 -80h2l72 80h52l-102 -111h-52z" />
    <glyph glyph-name="rcaron" unicode="&#x159;" horiz-adv-x="340" 
d="M30 0l97 500h42l-18 -90l-13 -46h2q29 60 77.5 100t108.5 40q14 0 30 -3l-9 -42q-16 2 -22 2q-43 0 -82 -27.5t-65 -70t-43.5 -86.5t-25.5 -86l-37 -191h-42zM238 589l-58 111h46l40 -80h2l72 80h52l-102 -111h-52z" />
    <glyph glyph-name="Sacute" unicode="&#x15a;" horiz-adv-x="534" 
d="M17 75l32 30q2 -3 6.5 -8t21 -18t34.5 -23t48.5 -18t62.5 -8q74 0 130.5 46.5t56.5 118.5q0 44 -30.5 76t-74.5 52.5l-87.5 42.5t-74 57.5t-30.5 85.5q0 79 69.5 141t170.5 62q52 0 95.5 -16t60.5 -32l17 -16l-28 -34q-6 6 -17 15.5t-48.5 25t-78.5 15.5
q-84 0 -140 -50.5t-56 -110.5q0 -33 22 -59.5t55 -42.5t71.5 -36.5t71.5 -40.5t55 -55t22 -80q0 -83 -67 -145t-165 -62q-39 0 -75 9t-58.5 21.5t-39.5 25.5t-25 22zM332 750l89 111h60l-101 -111h-48z" />
    <glyph glyph-name="sacute" unicode="&#x15b;" horiz-adv-x="441" 
d="M4 60l29 29q2 -2 6 -6.5t17.5 -14.5t29 -18t41 -14.5t53.5 -6.5q52 0 93.5 29.5t41.5 79.5q0 28 -24 49t-58.5 35.5l-69.5 30.5t-59 44t-24 66q0 70 54 109.5t124 39.5q45 0 81.5 -13.5t50.5 -26.5l13 -14l-29 -31q-4 5 -12 12.5t-38.5 19.5t-66.5 12q-51 0 -92 -27
t-41 -79q0 -29 24 -50.5t59 -36t69.5 -30.5t58.5 -43.5t24 -66.5q0 -64 -53 -107t-125 -43q-35 0 -66 7.5t-50.5 18t-34 21t-20.5 17.5zM257 589l89 111h60l-101 -111h-48z" />
    <glyph glyph-name="Scircumflex" unicode="&#x15c;" horiz-adv-x="534" 
d="M17 75l32 30q2 -3 6.5 -8t21 -18t34.5 -23t48.5 -18t62.5 -8q74 0 130.5 46.5t56.5 118.5q0 44 -30.5 76t-74.5 52.5l-87.5 42.5t-74 57.5t-30.5 85.5q0 79 69.5 141t170.5 62q52 0 95.5 -16t60.5 -32l17 -16l-28 -34q-6 6 -17 15.5t-48.5 25t-78.5 15.5
q-84 0 -140 -50.5t-56 -110.5q0 -33 22 -59.5t55 -42.5t71.5 -36.5t71.5 -40.5t55 -55t22 -80q0 -83 -67 -145t-165 -62q-39 0 -75 9t-58.5 21.5t-39.5 25.5t-25 22zM248 750l102 111h52l58 -111h-46l-40 80h-2l-72 -80h-52z" />
    <glyph glyph-name="scircumflex" unicode="&#x15d;" horiz-adv-x="441" 
d="M4 60l29 29q2 -2 6 -6.5t17.5 -14.5t29 -18t41 -14.5t53.5 -6.5q52 0 93.5 29.5t41.5 79.5q0 28 -24 49t-58.5 35.5l-69.5 30.5t-59 44t-24 66q0 70 54 109.5t124 39.5q45 0 81.5 -13.5t50.5 -26.5l13 -14l-29 -31q-4 5 -12 12.5t-38.5 19.5t-66.5 12q-51 0 -92 -27
t-41 -79q0 -29 24 -50.5t59 -36t69.5 -30.5t58.5 -43.5t24 -66.5q0 -64 -53 -107t-125 -43q-35 0 -66 7.5t-50.5 18t-34 21t-20.5 17.5zM173 589l102 111h52l58 -111h-46l-40 80h-2l-72 -80h-52z" />
    <glyph glyph-name="Scedilla" unicode="&#x15e;" horiz-adv-x="534" 
d="M123 -162q16 -5 39 -5q24 0 43 10t19 33q0 32 -54 32l-12 -1l33 83q-53 4 -96.5 25.5t-60.5 40.5l-17 19l32 30q2 -3 6.5 -8t21 -18t34.5 -23t48.5 -18t62.5 -8q74 0 130.5 46.5t56.5 118.5q0 44 -30.5 76t-74.5 52.5l-87.5 42.5t-74 57.5t-30.5 85.5q0 79 69.5 141
t170.5 62q52 0 95.5 -16t60.5 -32l17 -16l-28 -34q-6 6 -17 15.5t-48.5 25t-78.5 15.5q-84 0 -140 -50.5t-56 -110.5q0 -33 22 -59.5t55 -42.5t71.5 -36.5t71.5 -40.5t55 -55t22 -80q0 -82 -66 -144t-162 -63l-18 -48q24 -4 40.5 -20.5t16.5 -43.5q0 -39 -31.5 -59.5
t-70.5 -20.5l-48 5z" />
    <glyph glyph-name="scedilla" unicode="&#x15f;" horiz-adv-x="441" 
d="M76 -162q16 -5 39 -5q24 0 43 10t19 33q0 32 -54 32l-12 -1l33 83q-27 3 -51.5 11.5t-40 18.5t-27 19t-16.5 15l-5 6l29 29q2 -2 6 -6.5t17.5 -14.5t29 -18t41 -14.5t53.5 -6.5q52 0 93.5 29.5t41.5 79.5q0 28 -24 49t-58.5 35.5l-69.5 30.5t-59 44t-24 66q0 70 54 109.5
t124 39.5q45 0 81.5 -13.5t50.5 -26.5l13 -14l-29 -31q-4 5 -12 12.5t-38.5 19.5t-66.5 12q-51 0 -92 -27t-41 -79q0 -29 24 -50.5t59 -36t69.5 -30.5t58.5 -43.5t24 -66.5q0 -64 -53 -107t-125 -43h-2l-18 -48q24 -4 40.5 -20.5t16.5 -43.5q0 -39 -31.5 -59.5t-70.5 -20.5
l-48 5z" />
    <glyph glyph-name="Scaron" unicode="&#x160;" horiz-adv-x="534" 
d="M17 75l32 30q2 -3 6.5 -8t21 -18t34.5 -23t48.5 -18t62.5 -8q74 0 130.5 46.5t56.5 118.5q0 44 -30.5 76t-74.5 52.5l-87.5 42.5t-74 57.5t-30.5 85.5q0 79 69.5 141t170.5 62q52 0 95.5 -16t60.5 -32l17 -16l-28 -34q-6 6 -17 15.5t-48.5 25t-78.5 15.5
q-84 0 -140 -50.5t-56 -110.5q0 -33 22 -59.5t55 -42.5t71.5 -36.5t71.5 -40.5t55 -55t22 -80q0 -83 -67 -145t-165 -62q-39 0 -75 9t-58.5 21.5t-39.5 25.5t-25 22zM334 750l-58 111h46l40 -80h2l72 80h52l-102 -111h-52z" />
    <glyph glyph-name="scaron" unicode="&#x161;" horiz-adv-x="441" 
d="M4 60l29 29q2 -2 6 -6.5t17.5 -14.5t29 -18t41 -14.5t53.5 -6.5q52 0 93.5 29.5t41.5 79.5q0 28 -24 49t-58.5 35.5l-69.5 30.5t-59 44t-24 66q0 70 54 109.5t124 39.5q45 0 81.5 -13.5t50.5 -26.5l13 -14l-29 -31q-4 5 -12 12.5t-38.5 19.5t-66.5 12q-51 0 -92 -27
t-41 -79q0 -29 24 -50.5t59 -36t69.5 -30.5t58.5 -43.5t24 -66.5q0 -64 -53 -107t-125 -43q-35 0 -66 7.5t-50.5 18t-34 21t-20.5 17.5zM259 589l-58 111h46l40 -80h2l72 80h52l-102 -111h-52z" />
    <glyph glyph-name="Tcommaaccent" unicode="&#x162;" horiz-adv-x="580" 
d="M208 0l128 660h-260l7 40h565l-7 -40h-262l-128 -660h-4l-23 -60q24 -4 40.5 -20.5t16.5 -43.5q0 -39 -31.5 -59.5t-70.5 -20.5l-48 5l8 37q16 -5 39 -5q24 0 43 10t19 33q0 32 -54 32l-12 -1l37 93h-3z" />
    <glyph glyph-name="tcommaaccent" unicode="&#x163;" horiz-adv-x="314" 
d="M45 -162q16 -5 39 -5q24 0 43 10t19 33q0 32 -54 32l-12 -1l45 111q-47 33 -47 115q0 25 6 58l52 268h-66l7 38h66l28 142h42l-28 -142h131l-7 -38h-131l-53 -275q-5 -24 -5 -49q0 -100 89 -100l29 2l-8 -39q-8 -2 -21 -2q-28 0 -55 7l-24 -63q24 -4 40.5 -20.5
t16.5 -43.5q0 -39 -31.5 -59.5t-70.5 -20.5l-48 5z" />
    <glyph glyph-name="Tcaron" unicode="&#x164;" horiz-adv-x="580" 
d="M208 0l128 660h-260l7 40h565l-7 -40h-262l-128 -660h-43zM351 750l-58 111h46l40 -80h2l72 80h52l-102 -111h-52z" />
    <glyph glyph-name="tcaron" unicode="&#x165;" horiz-adv-x="313" 
d="M77 133q0 25 6 58l52 268h-66l7 38h66l28 142h42l-28 -142h131l-7 -38h-131l-53 -275q-5 -24 -5 -49q0 -100 89 -100l29 2l-8 -39q-8 -2 -21 -2q-131 0 -131 137zM297 700h48v-13q0 -53 -42 -121h-39q36 61 36 106q0 13 -3 28z" />
    <glyph glyph-name="Tbar" unicode="&#x166;" horiz-adv-x="604" 
d="M118 337l8 40h166l55 283h-260l7 40h565l-7 -40h-262l-55 -283h170l-8 -40h-170l-65 -337h-43l65 337h-166z" />
    <glyph glyph-name="tbar" unicode="&#x167;" horiz-adv-x="337" 
d="M46 295l7 40h66l24 124h-66l7 38h66l28 142h42l-28 -142h131l-7 -38h-131l-24 -124h131l-7 -40h-132l-21 -111q-5 -24 -5 -49q0 -100 89 -100l29 2l-8 -39q-8 -2 -21 -2q-131 0 -131 137q0 25 6 58l20 104h-65z" />
    <glyph glyph-name="Utilde" unicode="&#x168;" horiz-adv-x="719" 
d="M82 187q0 27 6 57l89 456h43l-89 -457q-5 -23 -5 -52q0 -77 48 -119.5t134 -42.5q99 0 169.5 58t90.5 158l89 455h43l-92 -465q-22 -115 -103.5 -181t-196.5 -66q-105 0 -165.5 53t-60.5 146zM309 753q20 108 96 108q22 0 38.5 -11.5t25 -25.5t21 -25.5t26.5 -11.5
q40 0 52 71h40q-11 -55 -34 -81.5t-63 -26.5q-22 0 -38 11.5t-24.5 25.5t-21 25.5t-27.5 11.5q-21 0 -34 -23t-17 -48h-40z" />
    <glyph glyph-name="utilde" unicode="&#x169;" horiz-adv-x="582" 
d="M52 114q0 29 8 69l61 317h42l-58 -300q-9 -44 -9 -78q0 -44 22 -68.5t77 -24.5q90 0 162 73t89 166l45 232h42l-97 -500h-42l16 83l13 46h-2q-27 -51 -88.5 -96t-144.5 -45q-60 0 -98 30.5t-38 95.5zM206 592q20 108 96 108q22 0 38.5 -11.5t25 -25.5t21 -25.5
t26.5 -11.5q40 0 52 71h40q-11 -55 -34 -81.5t-63 -26.5q-22 0 -38 11.5t-24.5 25.5t-21 25.5t-27.5 11.5q-21 0 -34 -23t-17 -48h-40z" />
    <glyph glyph-name="Umacron" unicode="&#x16a;" horiz-adv-x="719" 
d="M82 187q0 27 6 57l89 456h43l-89 -457q-5 -23 -5 -52q0 -77 48 -119.5t134 -42.5q99 0 169.5 58t90.5 158l89 455h43l-92 -465q-22 -115 -103.5 -181t-196.5 -66q-105 0 -165.5 53t-60.5 146zM335 786l7 40h239l-7 -40h-239z" />
    <glyph glyph-name="umacron" unicode="&#x16b;" horiz-adv-x="582" 
d="M52 114q0 29 8 69l61 317h42l-58 -300q-9 -44 -9 -78q0 -44 22 -68.5t77 -24.5q90 0 162 73t89 166l45 232h42l-97 -500h-42l16 83l13 46h-2q-27 -51 -88.5 -96t-144.5 -45q-60 0 -98 30.5t-38 95.5zM232 625l7 40h239l-7 -40h-239z" />
    <glyph glyph-name="Ubreve" unicode="&#x16c;" horiz-adv-x="719" 
d="M82 187q0 27 6 57l89 456h43l-89 -457q-5 -23 -5 -52q0 -77 48 -119.5t134 -42.5q99 0 169.5 58t90.5 158l89 455h43l-92 -465q-22 -115 -103.5 -181t-196.5 -66q-105 0 -165.5 53t-60.5 146zM447 747q-40 0 -66.5 27.5t-17.5 70.5l3 16h40l-3 -14q-6 -31 8 -46.5
t41 -15.5q26 0 46.5 15.5t26.5 47.5l3 13h40l-3 -16q-8 -50 -41 -74t-77 -24z" />
    <glyph glyph-name="ubreve" unicode="&#x16d;" horiz-adv-x="582" 
d="M52 114q0 29 8 69l61 317h42l-58 -300q-9 -44 -9 -78q0 -44 22 -68.5t77 -24.5q90 0 162 73t89 166l45 232h42l-97 -500h-42l16 83l13 46h-2q-27 -51 -88.5 -96t-144.5 -45q-60 0 -98 30.5t-38 95.5zM344 586q-40 0 -66.5 27.5t-17.5 70.5l3 16h40l-3 -14q-6 -31 8 -46.5
t41 -15.5q26 0 46.5 15.5t26.5 47.5l3 13h40l-3 -16q-8 -50 -41 -74t-77 -24z" />
    <glyph glyph-name="Uring" unicode="&#x16e;" horiz-adv-x="719" 
d="M82 187q0 27 6 57l89 456h43l-89 -457q-5 -23 -5 -52q0 -77 48 -119.5t134 -42.5q99 0 169.5 58t90.5 158l89 455h43l-92 -465q-22 -115 -103.5 -181t-196.5 -66q-105 0 -165.5 53t-60.5 146zM452 740q-30 0 -46 15.5t-16 43.5q0 29 22.5 52t51.5 23q30 0 46 -16t16 -43
q0 -29 -22.5 -52t-51.5 -23zM452 775q16 0 27.5 11.5t11.5 28.5q0 11 -7.5 18t-19.5 7q-16 0 -27.5 -11.5t-11.5 -29.5q0 -24 27 -24z" />
    <glyph glyph-name="uring" unicode="&#x16f;" horiz-adv-x="582" 
d="M52 114q0 29 8 69l61 317h42l-58 -300q-9 -44 -9 -78q0 -44 22 -68.5t77 -24.5q90 0 162 73t89 166l45 232h42l-97 -500h-42l16 83l13 46h-2q-27 -51 -88.5 -96t-144.5 -45q-60 0 -98 30.5t-38 95.5zM349 579q-30 0 -46 15.5t-16 43.5q0 29 22.5 52t51.5 23q30 0 46 -16
t16 -43q0 -29 -22.5 -52t-51.5 -23zM349 614q16 0 27.5 11.5t11.5 28.5q0 11 -7.5 18t-19.5 7q-16 0 -27.5 -11.5t-11.5 -29.5q0 -24 27 -24z" />
    <glyph glyph-name="Uhungarumlaut" unicode="&#x170;" horiz-adv-x="719" 
d="M82 187q0 27 6 57l89 456h43l-89 -457q-5 -23 -5 -52q0 -77 48 -119.5t134 -42.5q99 0 169.5 58t90.5 158l89 455h43l-92 -465q-22 -115 -103.5 -181t-196.5 -66q-105 0 -165.5 53t-60.5 146zM465 750l89 111h60l-101 -111h-48zM350 750l84 111h54l-87 -111h-51z" />
    <glyph glyph-name="uhungarumlaut" unicode="&#x171;" horiz-adv-x="582" 
d="M52 114q0 29 8 69l61 317h42l-58 -300q-9 -44 -9 -78q0 -44 22 -68.5t77 -24.5q90 0 162 73t89 166l45 232h42l-97 -500h-42l16 83l13 46h-2q-27 -51 -88.5 -96t-144.5 -45q-60 0 -98 30.5t-38 95.5zM362 589l89 111h60l-101 -111h-48zM247 589l84 111h54l-87 -111h-51z
" />
    <glyph glyph-name="Uogonek" unicode="&#x172;" horiz-adv-x="719" 
d="M265 -125q0 56 69 112v2q-17 -1 -26 -1q-105 0 -165.5 53t-60.5 146q0 27 6 57l89 456h43l-89 -457q-5 -23 -5 -52q0 -77 48 -119.5t134 -42.5q99 0 169.5 58t90.5 158l89 455h43l-92 -465q-29 -149 -165 -219q-133 -69 -133 -135q0 -18 14.5 -29.5t29.5 -13.5l14 -3
l-16 -39q-4 0 -9.5 1t-20.5 5.5t-26.5 12.5t-21 23.5t-9.5 36.5z" />
    <glyph glyph-name="uogonek" unicode="&#x173;" horiz-adv-x="582" 
d="M292 -125q0 67 104 138l14 70l13 46h-2q-27 -51 -88.5 -96t-144.5 -45q-60 0 -98 30.5t-38 95.5q0 29 8 69l61 317h42l-58 -300q-9 -44 -9 -78q0 -44 22 -68.5t77 -24.5q90 0 162 73t89 166l45 232h42l-97 -500q-34 -21 -66.5 -54t-32.5 -65q0 -18 14.5 -29.5t28.5 -13.5
l15 -3l-16 -39q-4 0 -9.5 1t-20.5 5.5t-26.5 12.5t-21 23.5t-9.5 36.5z" />
    <glyph glyph-name="Wcircumflex" unicode="&#x174;" horiz-adv-x="915" 
d="M169 0l-48 700h43l36 -570l2 -75h2l35 75l278 570h50l39 -570l2 -75h2l32 75l259 570h48l-321 -700h-54l-38 528l-3 111h-2q-28 -65 -50 -110l-260 -529h-52zM443 750l102 111h52l58 -111h-46l-40 80h-2l-72 -80h-52z" />
    <glyph glyph-name="wcircumflex" unicode="&#x175;" horiz-adv-x="797" 
d="M135 0l-79 500h43l60 -395l6 -54h2l28 54l212 393h49l60 -393l7 -54h2l27 54l214 395h46l-273 -500h-45l-64 391l-6 54h-2l-28 -54l-212 -391h-47zM340 589l102 111h52l58 -111h-46l-40 80h-2l-72 -80h-52z" />
    <glyph glyph-name="Ycircumflex" unicode="&#x176;" horiz-adv-x="550" 
d="M190 0l60 304l-160 396h46l111 -276l29 -79h2l58 78l219 277h53l-315 -397l-60 -303h-43zM249 750l102 111h52l58 -111h-46l-40 80h-2l-72 -80h-52z" />
    <glyph glyph-name="ycircumflex" unicode="&#x177;" horiz-adv-x="490" 
d="M-65 -149q21 -21 58 -21q61 0 116 89l53 85l-112 496h44l87 -406l9 -47h1l27 47l244 406h48l-379 -620q-56 -90 -138 -90q-23 0 -43.5 7t-29.5 14l-9 7zM189 589l102 111h52l58 -111h-46l-40 80h-2l-72 -80h-52z" />
    <glyph glyph-name="Ydieresis" unicode="&#x178;" horiz-adv-x="550" 
d="M190 0l60 304l-160 396h46l111 -276l29 -79h2l58 78l219 277h53l-315 -397l-60 -303h-43zM412 788l14 73h46l-14 -73h-46zM275 788l14 73h46l-14 -73h-46z" />
    <glyph glyph-name="Zacute" unicode="&#x179;" horiz-adv-x="583" 
d="M-14 0l7 34l489 562l61 64v2q-15 -2 -50 -2h-358l9 40h463l-7 -34l-490 -562l-61 -64v-2q15 2 50 2h381l-7 -40h-487zM366 750l89 111h60l-101 -111h-48z" />
    <glyph glyph-name="zacute" unicode="&#x17a;" horiz-adv-x="499" 
d="M-13 0l6 34l374 381q44 46 47 46v2q-17 -2 -50 -2h-275l7 39h386l-7 -34l-375 -381l-22.5 -22t-18.5 -17l-7 -7v-2q18 2 51 2h300l-7 -39h-409zM280 589l89 111h60l-101 -111h-48z" />
    <glyph glyph-name="Zdotaccent" unicode="&#x17b;" horiz-adv-x="583" 
d="M-14 0l7 34l489 562l61 64v2q-15 -2 -50 -2h-358l9 40h463l-7 -34l-490 -562l-61 -64v-2q15 2 50 2h381l-7 -40h-487zM376 788l14 73h46l-14 -73h-46z" />
    <glyph glyph-name="zdotaccent" unicode="&#x17c;" horiz-adv-x="499" 
d="M-13 0l6 34l374 381q44 46 47 46v2q-17 -2 -50 -2h-275l7 39h386l-7 -34l-375 -381l-22.5 -22t-18.5 -17l-7 -7v-2q18 2 51 2h300l-7 -39h-409zM290 627l14 73h46l-14 -73h-46z" />
    <glyph glyph-name="Zcaron" unicode="&#x17d;" horiz-adv-x="583" 
d="M-14 0l7 34l489 562l61 64v2q-15 -2 -50 -2h-358l9 40h463l-7 -34l-490 -562l-61 -64v-2q15 2 50 2h381l-7 -40h-487zM368 750l-58 111h46l40 -80h2l72 80h52l-102 -111h-52z" />
    <glyph glyph-name="zcaron" unicode="&#x17e;" horiz-adv-x="499" 
d="M-13 0l6 34l374 381q44 46 47 46v2q-17 -2 -50 -2h-275l7 39h386l-7 -34l-375 -381l-22.5 -22t-18.5 -17l-7 -7v-2q18 2 51 2h300l-7 -39h-409zM282 589l-58 111h46l40 -80h2l72 80h52l-102 -111h-52z" />
    <glyph glyph-name="longs" unicode="&#x17f;" horiz-adv-x="240" 
d="M52 0l89 459h-63l7 38h63l5 25q9 47 28 82t39.5 53.5t45.5 30t42 14.5t34 3l31 -2l-9 -39q-8 2 -22 2q-19 0 -37 -5t-41 -18.5t-41.5 -45t-27.5 -76.5l-101 -521h-42z" />
    <glyph glyph-name="florin" unicode="&#x192;" horiz-adv-x="565" 
d="M-30 -57q26 -5 60 -5q19 0 37.5 5t42.5 18.5t45 45t34 76.5l84 295h-96l7 38h99l34 118q16 56 42.5 94.5t56.5 55t53.5 22.5t46.5 6q21 0 43.5 -2t34.5 -4l11 -2l-7 -38q-41 7 -81 7q-116 0 -159 -145l-33 -112h133l-7 -38h-136l-87 -304q-16 -56 -42.5 -93.5t-56.5 -54
t-52.5 -22t-45.5 -5.5q-19 0 -36 1.5t-25 3.5l-8 1z" />
    <glyph glyph-name="Scommaaccent" unicode="&#x218;" horiz-adv-x="534" 
d="M17 75l32 30q2 -3 6.5 -8t21 -18t34.5 -23t48.5 -18t62.5 -8q74 0 130.5 46.5t56.5 118.5q0 44 -30.5 76t-74.5 52.5l-87.5 42.5t-74 57.5t-30.5 85.5q0 79 69.5 141t170.5 62q52 0 95.5 -16t60.5 -32l17 -16l-28 -34q-6 6 -17 15.5t-48.5 25t-78.5 15.5
q-84 0 -140 -50.5t-56 -110.5q0 -33 22 -59.5t55 -42.5t71.5 -36.5t71.5 -40.5t55 -55t22 -80q0 -83 -67 -145t-165 -62q-39 0 -75 9t-58.5 21.5t-39.5 25.5t-25 22zM176 -66h48v-13q0 -53 -42 -121h-39q36 61 36 106q0 13 -3 28z" />
    <glyph glyph-name="scommaaccent" unicode="&#x219;" horiz-adv-x="441" 
d="M4 60l29 29q2 -2 6 -6.5t17.5 -14.5t29 -18t41 -14.5t53.5 -6.5q52 0 93.5 29.5t41.5 79.5q0 28 -24 49t-58.5 35.5l-69.5 30.5t-59 44t-24 66q0 70 54 109.5t124 39.5q45 0 81.5 -13.5t50.5 -26.5l13 -14l-29 -31q-4 5 -12 12.5t-38.5 19.5t-66.5 12q-51 0 -92 -27
t-41 -79q0 -29 24 -50.5t59 -36t69.5 -30.5t58.5 -43.5t24 -66.5q0 -64 -53 -107t-125 -43q-35 0 -66 7.5t-50.5 18t-34 21t-20.5 17.5zM133 -66h48v-13q0 -53 -42 -121h-39q36 61 36 106q0 13 -3 28z" />
    <glyph glyph-name="uni021A" unicode="&#x21a;" horiz-adv-x="580" 
d="M208 0l128 660h-260l7 40h565l-7 -40h-262l-128 -660h-43zM196 -66h48v-13q0 -53 -42 -121h-39q36 61 36 106q0 13 -3 28z" />
    <glyph glyph-name="uni021B" unicode="&#x21b;" horiz-adv-x="313" 
d="M77 133q0 25 6 58l52 268h-66l7 38h66l28 142h42l-28 -142h131l-7 -38h-131l-53 -275q-5 -24 -5 -49q0 -100 89 -100l29 2l-8 -39q-8 -2 -21 -2q-131 0 -131 137zM117 -66h48v-13q0 -53 -42 -121h-39q36 61 36 106q0 13 -3 28z" />
    <glyph glyph-name="circumflex" unicode="&#x2c6;" horiz-adv-x="508" 
d="M79 750l102 111h52l58 -111h-46l-40 80h-2l-72 -80h-52z" />
    <glyph glyph-name="caron" unicode="&#x2c7;" horiz-adv-x="508" 
d="M165 750l-58 111h46l40 -80h2l72 80h52l-102 -111h-52z" />
    <glyph glyph-name="breve" unicode="&#x2d8;" horiz-adv-x="510" 
d="M189 747q-40 0 -66.5 27.5t-17.5 70.5l3 16h40l-3 -14q-6 -31 8 -46.5t41 -15.5q26 0 46.5 15.5t26.5 47.5l3 13h40l-3 -16q-8 -50 -41 -74t-77 -24z" />
    <glyph glyph-name="dotaccent" unicode="&#x2d9;" horiz-adv-x="510" 
d="M174 788l14 73h46l-14 -73h-46z" />
    <glyph glyph-name="ring" unicode="&#x2da;" horiz-adv-x="510" 
d="M193 740q-30 0 -46 15.5t-16 43.5q0 29 22.5 52t51.5 23q30 0 46 -16t16 -43q0 -29 -22.5 -52t-51.5 -23zM193 775q16 0 27.5 11.5t11.5 28.5q0 11 -7.5 18t-19.5 7q-16 0 -27.5 -11.5t-11.5 -29.5q0 -24 27 -24z" />
    <glyph glyph-name="ogonek" unicode="&#x2db;" horiz-adv-x="509" 
d="M124 -125q0 43 32 77.5t84 67.5l43 -13q-13 -7 -32 -19.5t-50.5 -46t-31.5 -60.5q0 -18 14.5 -29.5t28.5 -13.5l15 -3l-16 -39q-4 0 -9.5 1t-20.5 5.5t-26.5 12.5t-21 23.5t-9.5 36.5z" />
    <glyph glyph-name="tilde" unicode="&#x2dc;" horiz-adv-x="509" 
d="M50 753q20 108 96 108q22 0 38.5 -11.5t25 -25.5t21 -25.5t26.5 -11.5q40 0 52 71h40q-11 -55 -34 -81.5t-63 -26.5q-22 0 -38 11.5t-24.5 25.5t-21 25.5t-27.5 11.5q-21 0 -34 -23t-17 -48h-40z" />
    <glyph glyph-name="hungarumlaut" unicode="&#x2dd;" horiz-adv-x="509" 
d="M183 750l89 111h60l-101 -111h-48zM68 750l84 111h54l-87 -111h-51z" />
    <glyph glyph-name="uni1E9E" unicode="&#x1e9e;" horiz-adv-x="665" 
d="M42 0l103 528q14 75 71.5 123.5t134.5 48.5h302l-6 -30l-220 -242l-34 -36v-2q194 0 194 -163q0 -69 -44 -129.5t-111 -83.5q-42 -14 -119 -14h-132l8 40h126q70 0 100 10q54 18 91 68.5t37 108.5q0 123 -159 123h-59l6 32l198 220l56 58v2q-6 -2 -42 -2h-191
q-60 0 -106.5 -39t-57.5 -96l-103 -525h-43z" />
    <glyph glyph-name="thinspace" unicode="&#x2009;" horiz-adv-x="10" 
 />
    <glyph glyph-name="endash" unicode="&#x2013;" horiz-adv-x="553" 
d="M32 263l7 40h476l-7 -40h-476z" />
    <glyph glyph-name="emdash" unicode="&#x2014;" horiz-adv-x="753" 
d="M32 263l7 40h676l-7 -40h-676z" />
    <glyph glyph-name="quoteleft" unicode="&#x2018;" horiz-adv-x="205" 
d="M111 557l77 151h41l-64 -151h-54z" />
    <glyph glyph-name="quoteright" unicode="&#x2019;" horiz-adv-x="201" 
d="M113 557l64 151h54l-77 -151h-41z" />
    <glyph glyph-name="quotesinglbase" unicode="&#x201a;" horiz-adv-x="240" 
d="M-10 -90l64 151h54l-77 -151h-41z" />
    <glyph glyph-name="quotedblleft" unicode="&#x201c;" horiz-adv-x="305" 
d="M211 557l77 151h41l-64 -151h-54zM111 557l77 151h41l-64 -151h-54z" />
    <glyph glyph-name="quotedblright" unicode="&#x201d;" horiz-adv-x="301" 
d="M213 557l64 151h54l-77 -151h-41zM113 557l64 151h54l-77 -151h-41z" />
    <glyph glyph-name="quotedblbase" unicode="&#x201e;" horiz-adv-x="340" 
d="M90 -90l64 151h54l-77 -151h-41zM-10 -90l64 151h54l-77 -151h-41z" />
    <glyph glyph-name="dagger" unicode="&#x2020;" horiz-adv-x="370" 
d="M94 -50l99 510h-114l8 40h114l38 200h42l-38 -200h119l-8 -40h-119l-99 -510h-42z" />
    <glyph glyph-name="daggerdbl" unicode="&#x2021;" horiz-adv-x="408" 
d="M113 -50l45 236h-114l8 40h114l46 234h-114l8 40h114l38 200h42l-38 -200h119l-8 -40h-119l-46 -234h119l-8 -40h-119l-45 -236h-42z" />
    <glyph glyph-name="bullet" unicode="&#x2022;" horiz-adv-x="393" 
d="M194 159q-55 0 -93.5 38.5t-38.5 93.5t38.5 93.5t93.5 38.5t93.5 -38.5t38.5 -93.5t-38.5 -93.5t-93.5 -38.5z" />
    <glyph glyph-name="ellipsis" unicode="&#x2026;" horiz-adv-x="665" 
d="M460 0l13 63h61l-13 -63h-61zM247 0l13 63h61l-13 -63h-61zM34 0l13 63h61l-13 -63h-61z" />
    <glyph glyph-name="perthousand" unicode="&#x2030;" horiz-adv-x="1021" 
d="M232 451q-52 0 -83 31t-31 84q0 55 47 100.5t106 45.5q51 0 82 -31t31 -82q0 -58 -46.5 -103t-105.5 -45zM7 0l662 700h57l-663 -700h-56zM234 491q42 0 74.5 32.5t32.5 76.5q0 31 -20 51.5t-52 20.5q-42 0 -75 -33t-33 -76q0 -31 20 -51.5t53 -20.5zM665 103
q0 55 47 100.5t106 45.5q51 0 82 -31t31 -82q0 -58 -46.5 -103t-105.5 -45q-52 0 -83 31t-31 84zM344 103q0 55 47 100.5t106 45.5q51 0 82 -31t31 -82q0 -58 -46.5 -103t-105.5 -45q-52 0 -83 31t-31 84zM708 100q0 -31 20 -51.5t53 -20.5q42 0 74.5 32.5t32.5 76.5
q0 31 -20 51.5t-52 20.5q-42 0 -75 -33t-33 -76zM387 100q0 -31 20 -51.5t53 -20.5q42 0 74.5 32.5t32.5 76.5q0 31 -20 51.5t-52 20.5q-42 0 -75 -33t-33 -76z" />
    <glyph glyph-name="guilsinglleft" unicode="&#x2039;" horiz-adv-x="326" 
d="M178 77l-128 208l192 203h57l-199 -208l126 -203h-48z" />
    <glyph glyph-name="guilsinglright" unicode="&#x203a;" horiz-adv-x="325" 
d="M21 77l199 208l-126 203h48l128 -208l-192 -203h-57z" />
    <glyph glyph-name="fraction" unicode="&#x2044;" horiz-adv-x="149" 
d="M-194 0h-47l472 700h46z" />
    <glyph glyph-name="zerosuperior" unicode="&#x2070;" 
d="M134 413q-121 0 -121 138q0 45 10 95.5t30.5 102t61 85t94.5 33.5q121 0 121 -141q0 -45 -10 -94.5t-31 -101t-61.5 -84.5t-93.5 -33zM134 449q42 0 74.5 29t49.5 73.5t25 89t8 84.5q0 106 -82 106q-42 0 -74.5 -29.5t-49.5 -74.5t-25 -89.5t-8 -85.5q0 -103 82 -103z
" />
    <glyph glyph-name="foursuperior" unicode="&#x2074;" 
d="M200 423l24 121h-218l5 26l278 287h34l-54 -277h68l-7 -36h-68l-24 -121h-38zM71 580h160l28 147l16 65h-2q-22 -27 -45 -50l-157 -160v-2z" />
    <glyph glyph-name="fivesuperior" unicode="&#x2075;" 
d="M145 413q-42 0 -74 17.5t-43 35.5l-11 17l33 20q3 -6 9 -15t30 -24t55 -15q50 0 90.5 38.5t40.5 89.5q0 38 -26.5 63t-67.5 25q-21 0 -42.5 -6.5t-32.5 -13.5l-11 -7l-24 10l67 209h206l-7 -36h-174l-28 -91l-15 -43h2q27 14 59 14q60 0 96.5 -34.5t36.5 -89.5
q0 -65 -52.5 -114.5t-116.5 -49.5z" />
    <glyph glyph-name="sixsuperior" unicode="&#x2076;" 
d="M152 413q-62 0 -94 41.5t-32 110.5q0 40 16 90.5t44 98.5t74.5 80.5t99.5 32.5q23 0 44.5 -5.5t31.5 -10.5l10 -5l-23 -30q-25 15 -63 15q-60 0 -108 -52t-72 -126h2q48 48 119 48q52 0 83 -30.5t31 -83.5q0 -81 -50.5 -127.5t-112.5 -46.5zM152 449q54 0 89 40.5
t35 96.5q0 36 -22.5 57.5t-60.5 21.5q-44 0 -86 -32t-42 -72q0 -44 23 -78t64 -34z" />
    <glyph glyph-name="sevensuperior" unicode="&#x2077;" 
d="M13 423l239 333l50 65v2q-20 -2 -55 -2h-176l7 36h279l-5 -26l-294 -408h-45z" />
    <glyph glyph-name="eightsuperior" unicode="&#x2078;" 
d="M152 413q-56 0 -93.5 29.5t-37.5 83.5q0 82 100 144q-39 31 -39 73q0 57 45.5 90.5t101.5 33.5q50 0 84 -25t34 -70q0 -31 -19 -64t-34.5 -48.5t-29.5 -27.5q50 -34 50 -82q0 -54 -48.5 -95.5t-113.5 -41.5zM275 548q0 15 -7 27.5t-21.5 23t-27 17.5t-34.5 17.5t-33 16.5
q-92 -50 -92 -123q0 -35 27 -56.5t65 -21.5q45 0 84 29t39 70zM121 745q0 -14 5.5 -25.5t20 -22t23 -16t32.5 -17t31 -14.5q14 10 28.5 24t30.5 41.5t16 54.5q0 29 -23.5 45t-56.5 16q-40 0 -73.5 -23t-33.5 -63z" />
    <glyph glyph-name="ninesuperior" unicode="&#x2079;" 
d="M19 434l23 30q25 -15 63 -15q60 0 108 52t72 126h-2q-48 -48 -119 -48q-52 0 -83 30.5t-31 83.5q0 81 50.5 127.5t112.5 46.5t94 -41.5t32 -110.5q0 -40 -16 -90.5t-44 -98.5t-74.5 -80.5t-99.5 -32.5q-23 0 -44.5 5.5t-31.5 10.5zM172 615q44 0 86 32t42 72q0 44 -23 78
t-64 34q-54 0 -89 -40.5t-35 -96.5q0 -36 22.5 -57.5t60.5 -21.5z" />
    <glyph glyph-name="zeroinferior" unicode="&#x2080;" 
d="M38 -167q-121 0 -121 138q0 45 10 95.5t30.5 102t61 85t94.5 33.5q121 0 121 -141q0 -45 -10 -94.5t-31 -101t-61.5 -84.5t-93.5 -33zM38 -131q42 0 74.5 29t49.5 73.5t25 89t8 84.5q0 106 -82 106q-42 0 -74.5 -29.5t-49.5 -74.5t-25 -89.5t-8 -85.5q0 -103 82 -103z
" />
    <glyph glyph-name="oneinferior" unicode="&#x2081;" 
d="M-58 -157l7 36h96l62 322l6 22h-2q-5 -8 -27 -27l-51 -42l-22 29l112 94h38l-78 -398h93l-7 -36h-227z" />
    <glyph glyph-name="twoinferior" unicode="&#x2082;" 
d="M-76 -157q1 44 23 81t53.5 59.5t68 46l67.5 43t51.5 47.5t20.5 61q0 30 -20.5 50t-55.5 20q-25 0 -51 -12.5t-39 -24.5l-14 -13l-21 28q6 6 17 16t44 26t65 16q56 0 85 -29t29 -75q0 -45 -25 -80t-62.5 -59t-76 -45.5t-71 -52t-42.5 -67.5h227l-7 -36h-266z" />
    <glyph glyph-name="threeinferior" unicode="&#x2083;" 
d="M43 -168q-25 0 -49 6.5t-39.5 16.5t-28 19.5t-18.5 15.5l-5 7l30 24q2 -2 5 -5.5t13.5 -13t22.5 -16.5t31 -12.5t39 -5.5q45 0 81.5 35t36.5 84q0 36 -27 57t-64 21h-32l-7 24l133 127l30 25v2q-18 -3 -38 -3h-164l7 36h255l-5 -26l-158 -150q38 -3 73.5 -30t35.5 -83
q0 -61 -47.5 -108t-110.5 -47z" />
    <glyph glyph-name="fourinferior" unicode="&#x2084;" 
d="M101 -157l24 121h-218l5 26l278 287h34l-54 -277h68l-7 -36h-68l-24 -121h-38zM-28 0h160l28 147l16 65h-2q-22 -27 -45 -50l-157 -160v-2z" />
    <glyph glyph-name="fiveinferior" unicode="&#x2085;" 
d="M45 -167q-42 0 -74 17.5t-43 35.5l-11 17l33 20q3 -6 9 -15t30 -24t55 -15q50 0 90.5 38.5t40.5 89.5q0 38 -26.5 63t-67.5 25q-21 0 -42.5 -6.5t-32.5 -13.5l-11 -7l-24 10l67 209h206l-7 -36h-174l-28 -91l-15 -43h2q27 14 59 14q60 0 96.5 -34.5t36.5 -89.5
q0 -65 -52.5 -114.5t-116.5 -49.5z" />
    <glyph glyph-name="sixinferior" unicode="&#x2086;" 
d="M58 -167q-62 0 -94 41.5t-32 110.5q0 40 16 90.5t44 98.5t74.5 80.5t99.5 32.5q23 0 44.5 -5.5t31.5 -10.5l10 -5l-23 -30q-25 15 -63 15q-60 0 -108 -52t-72 -126h2q48 48 119 48q52 0 83 -30.5t31 -83.5q0 -81 -50.5 -127.5t-112.5 -46.5zM58 -131q54 0 89 40.5
t35 96.5q0 36 -22.5 57.5t-60.5 21.5q-44 0 -86 -32t-42 -72q0 -44 23 -78t64 -34z" />
    <glyph glyph-name="seveninferior" unicode="&#x2087;" 
d="M-77 -158l239 333l50 65v2q-20 -2 -55 -2h-176l7 36h279l-5 -26l-294 -408h-45z" />
    <glyph glyph-name="eightinferior" unicode="&#x2088;" 
d="M55 -166q-56 0 -93.5 29.5t-37.5 83.5q0 82 100 144q-39 31 -39 73q0 57 45.5 90.5t101.5 33.5q50 0 84 -25t34 -70q0 -31 -19 -64t-34.5 -48.5t-29.5 -27.5q50 -34 50 -82q0 -54 -48.5 -95.5t-113.5 -41.5zM178 -31q0 15 -7 27.5t-21.5 23t-27 17.5t-34.5 17.5t-33 16.5
q-92 -50 -92 -123q0 -35 27 -56.5t65 -21.5q45 0 84 29t39 70zM24 166q0 -14 5.5 -25.5t20 -22t23 -16t32.5 -17t31 -14.5q14 10 28.5 24t30.5 41.5t16 54.5q0 29 -23.5 45t-56.5 16q-40 0 -73.5 -23t-33.5 -63z" />
    <glyph glyph-name="nineinferior" unicode="&#x2089;" 
d="M-85 -146l23 30q25 -15 63 -15q60 0 108 52t72 126h-2q-48 -48 -119 -48q-52 0 -83 30.5t-31 83.5q0 81 50.5 127.5t112.5 46.5t94 -41.5t32 -110.5q0 -40 -16 -90.5t-44 -98.5t-74.5 -80.5t-99.5 -32.5q-23 0 -44.5 5.5t-31.5 10.5zM68 35q44 0 86 32t42 72q0 44 -23 78
t-64 34q-54 0 -89 -40.5t-35 -96.5q0 -36 22.5 -57.5t60.5 -21.5z" />
    <glyph glyph-name="Euro" unicode="&#x20ac;" horiz-adv-x="587" 
d="M64 402l7 40h61q50 119 155 194.5t226 75.5q24 0 47.5 -3t35.5 -6l11 -3l-18 -40q-34 10 -77 10q-104 0 -195.5 -63.5t-137.5 -164.5h328l-15 -40h-328q-14 -42 -19 -89h313l-14 -40h-300q2 -106 65 -174.5t178 -68.5q23 0 45.5 3t33.5 7l12 3l4 -42q-42 -13 -96 -13
q-128 0 -207 79t-80 206h-60l7 40h55q3 44 17 89h-54z" />
    <glyph glyph-name="trademark" unicode="&#x2122;" horiz-adv-x="983" 
d="M493 264l35 436h35l126 -270l14 -40h2q5 20 14 40l126 270h35l35 -436h-38l-28 328l1 28h-2l-127 -274h-34l-127 274h-2l1 -28l-28 -328h-38zM252 264v398h-160v38h360v-38h-161v-398h-39z" />
    <glyph glyph-name="minus" unicode="&#x2212;" horiz-adv-x="600" 
d="M-6 263v40h496v-40h-496z" />
    <glyph glyph-name="infinity" unicode="&#x221e;" horiz-adv-x="491" 
d="M188 184q-68 0 -116.5 48.5t-48.5 116.5t48.5 116t116.5 48t116 -48t48 -116t-48 -116.5t-116 -48.5z" />
    <glyph glyph-name="approxequal" unicode="&#x2248;" horiz-adv-x="600" 
d="M27 321l-25 30q64 66 141 66q50 0 107.5 -35t90.5 -35q60 0 116 56l25 -30q-64 -66 -141 -66q-50 0 -107.5 35t-90.5 35q-60 0 -116 -56zM27 161l-25 30q64 66 141 66q50 0 107.5 -35t90.5 -35q60 0 116 56l25 -30q-64 -66 -141 -66q-50 0 -107.5 35t-90.5 35
q-60 0 -116 -56z" />
    <glyph glyph-name="notequal" unicode="&#x2260;" horiz-adv-x="600" 
d="M72 92l68 91h-126v40h156l91 120h-247v40h277l90 119l33 -25l-71 -94h127v-40h-157l-91 -120h248v-40h-278l-87 -116z" />
    <glyph glyph-name="lessequal" unicode="&#x2264;" horiz-adv-x="600" 
d="M14 265v36l439 197v-48l-377 -166v-2l377 -166v-48zM14 -113h439v-40h-439v40z" />
    <glyph glyph-name="greaterequal" unicode="&#x2265;" horiz-adv-x="600" 
d="M32 68v48l377 166v2l-377 166v48l439 -197v-36zM31 -113h439v-40h-439v40z" />
    <glyph glyph-name="commaaccent" horiz-adv-x="335" 
d="M71 -66h48v-13q0 -53 -42 -121h-39q36 61 36 106q0 13 -3 28z" />
    <glyph glyph-name="apple" horiz-adv-x="1130" 
d="M110 -5v152l-126 72v278l126 71v151l265 142l134 -71l132 71l265 -142v-151l124 -71v-278l-124 -72v-152l-265 -141l-132 71l-134 -71zM150 30l238 -126l121 66l118 -66l238 126v139l114 64v249l-114 66v136l-238 126l-118 -64l-121 64l-238 -126v-136l-114 -66v-249
l114 -64v-139zM184 64v121l-99 60v225l99 58v123l215 114l110 -59l107 59l214 -114v-123l100 -58v-225l-100 -60v-121l-214 -114l-107 58l-110 -58zM389 91h43v228h228v40h-228v192h199q17 0 23 -6.5t6 -22.5v-42h42v54q0 30 -13 43.5t-45 13.5h-320v-40h65v-460z" />
    <glyph glyph-name="zero.tnum" horiz-adv-x="556" 
d="M-31 209q0 58 9.5 122t33.5 133t58.5 123t90 89.5t123.5 35.5q188 0 188 -223q0 -74 -16.5 -155t-51 -161.5t-99 -132.5t-148.5 -52q-188 0 -188 221zM13 207q0 -177 145 -177q58 0 106 32.5t77.5 82t49.5 113t28 121.5t8 111q0 180 -144 180q-68 0 -122.5 -45
t-85 -116.5t-46.5 -149t-16 -152.5z" />
    <glyph glyph-name="one.tnum" horiz-adv-x="556" 
d="M-14 0l7 40h159l110 565l8 35h-2q-10 -13 -46 -43l-96 -81l-26 32l181 152h43l-129 -660h155l-8 -40h-356z" />
    <glyph glyph-name="two.tnum" horiz-adv-x="556" 
d="M-54 0q2 57 29 106t68.5 84.5t92 68l100.5 63t91.5 62.5t67 74t25.5 90q0 55 -36 88.5t-101 33.5q-50 0 -97.5 -25t-70.5 -49l-23 -25l-31 25q4 5 11 12.5t30 27.5t47 35.5t61 28t74 12.5q90 0 135.5 -45t45.5 -118q0 -71 -44 -129t-109 -99.5l-131 -80.5t-119 -90
t-65 -110h382l-8 -40h-425z" />
    <glyph glyph-name="three.tnum" horiz-adv-x="556" 
d="M-54 85l34 29q2 -3 6.5 -9t21 -20.5t35.5 -25.5t50.5 -20t65.5 -9q78 0 143.5 60t65.5 145q0 65 -45.5 99.5t-114.5 34.5h-52l-6 30l241 229l37 32v2q-19 -2 -54 -2h-283l8 40h401l-6 -30l-277 -261q24 0 48 -4.5t51.5 -16.5t48 -30.5t34.5 -50.5t14 -72
q0 -99 -78.5 -173t-177.5 -74q-41 0 -77.5 10t-60 24t-41 28.5t-24.5 24.5z" />
    <glyph glyph-name="four.tnum" horiz-adv-x="556" 
d="M-59 200l6 30l449 470h45l-90 -460h104l-8 -40h-104l-39 -200h-43l39 200h-359zM13 240h295l64 328l15 63h-2l-44 -48l-328 -342v-1z" />
    <glyph glyph-name="five.tnum" horiz-adv-x="556" 
d="M-44 89l37 25q2 -3 5 -9t16 -20.5t29 -25.5t43.5 -20t59.5 -9q90 0 160 65t70 155q0 65 -45 106.5t-118 41.5q-36 0 -72 -10.5t-54 -21.5l-18 -10l-31 11l105 333h326l-8 -40h-287l-65 -207l-15 -43h2q51 30 119 30q93 0 149.5 -53t56.5 -137q0 -107 -83 -184.5
t-192 -77.5q-41 0 -75.5 10.5t-54.5 25t-34.5 29.5t-19.5 25z" />
    <glyph glyph-name="six.tnum" horiz-adv-x="556" 
d="M177 -12q-97 0 -149 68.5t-52 179.5q0 50 14.5 111t46 125.5t75 118t107 87.5t135.5 34q35 0 66.5 -7t45.5 -14l14 -7l-26 -37q-40 23 -100 23q-59 0 -112.5 -28.5t-93 -75.5t-67.5 -102.5t-44 -115.5h2q37 44 92.5 70t114.5 26q85 0 135.5 -47.5t50.5 -130.5
q0 -68 -30.5 -131t-90 -105t-134.5 -42zM174 30q89 0 151 68.5t62 167.5q0 64 -38.5 100t-105.5 36q-45 0 -95.5 -21.5t-88.5 -65t-38 -94.5q0 -75 40.5 -133t112.5 -58z" />
    <glyph glyph-name="seven.tnum" horiz-adv-x="556" 
d="M1 0l408 595l50 65v2q-20 -2 -55 -2h-336l8 40h443l-6 -30l-463 -670h-49z" />
    <glyph glyph-name="eight.tnum" horiz-adv-x="556" 
d="M-41 168q0 39 16.5 77t37.5 62.5t48.5 47.5t40.5 31t23 13q-70 48 -70 119q0 76 65.5 135t168.5 59q90 0 137.5 -39.5t47.5 -109.5q0 -40 -18.5 -82t-45.5 -73.5t-43.5 -48t-27.5 -24.5q82 -52 82 -127q0 -94 -78 -157t-181 -63q-87 0 -145 47t-58 133zM375 207
q0 25 -12 46t-36.5 38t-47 28.5t-59 28.5t-56.5 28q-18 -10 -38 -23.5t-51 -40t-50.5 -64.5t-19.5 -80q0 -64 45.5 -101t111.5 -37q82 0 147.5 50t65.5 127zM101 519q0 -25 10.5 -45t35 -37t43.5 -27.5t56.5 -28l53.5 -25.5q14 10 29.5 24.5t41 43t41.5 65.5t16 74
q0 49 -38 78t-101 29q-81 0 -134.5 -44.5t-53.5 -106.5z" />
    <glyph glyph-name="nine.tnum" horiz-adv-x="556" 
d="M-39 16l26 37q40 -23 100 -23q59 0 112.5 28.5t93 75.5t67.5 102.5t44 115.5h-2q-37 -44 -92.5 -70t-114.5 -26q-85 0 -135.5 47.5t-50.5 130.5q0 68 30.5 131t90 105t134.5 42q97 0 149 -68.5t52 -179.5q0 -50 -14.5 -111t-46 -125.5t-75 -118t-107 -87.5t-135.5 -34
q-35 0 -66.5 7t-45.5 14zM195 298q45 0 96 21.5t90 65t39 94.5q0 75 -40.5 133t-112.5 58q-89 0 -151 -68.5t-62 -167.5q0 -63 38 -99.5t103 -36.5z" />
    <glyph glyph-name="hyphen.case" horiz-adv-x="393" 
d="M65 329l7 40h276l-7 -40h-276z" />
    <glyph glyph-name="parenleft.case" horiz-adv-x="314" 
d="M145 -65q-46 125 -46 263q0 306 201 557h46q-206 -262 -206 -558q0 -136 47 -262h-42z" />
    <glyph glyph-name="parenright.case" horiz-adv-x="314" 
d="M32 -65h-46q206 262 206 558q0 136 -47 262h42q46 -125 46 -263q0 -306 -201 -557z" />
    <glyph glyph-name="bracketleft.case" horiz-adv-x="302" 
d="M59 -65l159 820h108l-8 -40h-65l-143 -740h65l-8 -40h-108z" />
    <glyph glyph-name="bracketright.case" horiz-adv-x="303" 
d="M5 -25h64l143 740h-65l8 40h108l-159 -820h-107z" />
    <glyph glyph-name="braceleft.case" horiz-adv-x="363" 
d="M118 59q0 21 7 60l18 94q3 18 3 32q0 22 -6.5 38.5t-16.5 25.5t-19.5 14.5t-15.5 6.5l-7 2l8 40q4 0 10 1.5t22 9.5t29.5 19.5t27 35t19.5 53.5l16 81q36 183 172 183h8l-7 -39h-5q-12 0 -25 -3.5t-34 -16t-39 -44t-27 -79.5l-18 -93q-6 -30 -19 -54t-27 -37t-27.5 -22
t-22.5 -11l-8 -3v-2q2 -1 6 -3.5t14 -11t17.5 -19t13.5 -28t6 -37.5q0 -13 -3 -28l-21 -106q-6 -30 -6 -52q0 -30 8.5 -50t23 -28t24.5 -10.5t20 -2.5h5l-8 -39q-3 -1 -9 -1q-13 0 -27.5 4t-34.5 15.5t-32.5 38.5t-12.5 66z" />
    <glyph glyph-name="braceright.case" horiz-adv-x="362" 
d="M0 -26q13 0 26 3.5t34 16t38.5 44t26.5 79.5l20 105q6 31 19 56t27 38.5t27.5 22t21.5 11.5l9 2v2q-6 3 -15.5 9.5t-25 31.5t-15.5 55q0 13 3 28l18 94q6 30 6 52q0 30 -9 50t-23 28t-24 10.5t-20 2.5h-5l8 39q4 1 9 1q13 0 27.5 -4t34.5 -15.5t32.5 -38.5t12.5 -66
q0 -21 -7 -60l-16 -82q-3 -18 -3 -32q0 -34 16.5 -56t32.5 -27l16 -4l-8 -40q-4 0 -10 -1.5t-22 -9.5t-29.5 -19.5t-27 -35t-19.5 -53.5l-18 -93q-37 -184 -172 -184l-8 1l7 39h5z" />
    <glyph glyph-name="at.case" horiz-adv-x="804" 
d="M89 281q0 112 61 213.5t158 161t200 59.5q107 0 156 -41t49 -106q0 -17 -3 -35l-66 -339h70l-8 -40h-257q-74 0 -120.5 46t-46.5 117q0 88 70.5 157.5t156.5 69.5h158q2 14 2 22q0 48 -37 78.5t-120 30.5q-149 0 -263.5 -118.5t-114.5 -275.5q0 -111 69.5 -183t182.5 -72
l-8 -41q-124 0 -206.5 84t-82.5 212zM327 318q0 -54 35.5 -89t91.5 -35h145l60 310h-143q-73 0 -131 -56.5t-58 -129.5z" />
    <glyph glyph-name="guillemotleft.case" horiz-adv-x="525" 
d="M365 137l-128 208l204 203h57l-211 -208l126 -203h-48zM210 137l-128 208l192 203h57l-199 -208l126 -203h-48z" />
    <glyph glyph-name="guillemotright.case" horiz-adv-x="525" 
d="M211 137l199 208l-126 203h48l128 -208l-192 -203h-57zM44 137l211 208l-126 203h48l128 -208l-204 -203h-57z" />
    <glyph glyph-name="guilsinglleft.case" horiz-adv-x="364" 
d="M210 137l-128 208l192 203h57l-199 -208l126 -203h-48z" />
    <glyph glyph-name="guilsinglright.case" horiz-adv-x="364" 
d="M50 137l199 208l-126 203h48l128 -208l-192 -203h-57z" />
    <glyph glyph-name="endash.case" horiz-adv-x="593" 
d="M63 323l7 40h476l-7 -40h-476z" />
    <glyph glyph-name="emdash.case" horiz-adv-x="793" 
d="M63 323l7 40h676l-7 -40h-676z" />
    <glyph glyph-name="periodcentered.case" horiz-adv-x="308" 
d="M124 315l12 63h61l-12 -63h-61z" />
    <glyph glyph-name="questiondown.case" horiz-adv-x="493" 
d="M321 639l13 61h59l-13 -61h-59zM53 133q0 49 22.5 89.5t55.5 69t67.5 55t63.5 61t37 73.5l9 44h43l-9 -44q-10 -47 -39 -86.5t-62.5 -66.5l-66 -54t-54 -62t-21.5 -77q0 -46 33 -75.5t89 -29.5q33 0 67 10.5t52 21.5l17 10l17 -37q-8 -5 -22 -13t-54.5 -21t-78.5 -13
q-77 0 -121.5 40t-44.5 105z" />
    <glyph glyph-name="exclamdown.case" horiz-adv-x="327" 
d="M200 639l13 61h59l-13 -61h-59zM84 0l103 525h43l-103 -525h-43z" />
    <glyph glyph-name="bullet.case" horiz-adv-x="430" 
d="M223 219q-55 0 -93.5 38.5t-38.5 93.5t38.5 93.5t93.5 38.5t93.5 -38.5t38.5 -93.5t-38.5 -93.5t-93.5 -38.5z" />
    <glyph glyph-name="zero.p_osf" horiz-adv-x="588" 
d="M51 201q0 82 34 161.5t102 134.5t151 55q92 0 139.5 -61t47.5 -155q0 -81 -33.5 -159.5t-100.5 -133.5t-152 -55q-93 0 -140.5 60t-47.5 153zM96 204q0 -76 37 -125.5t109 -49.5q69 0 125.5 48t85 117.5t28.5 139.5q0 77 -37 127t-109 50q-53 0 -99 -28.5t-76 -73.5
t-47 -99t-17 -106z" />
    <glyph glyph-name="one.p_osf" horiz-adv-x="438" 
d="M12 0l8 39h159l78 404l10 48h-2q-18 -12 -44 -26l-128 -70l-15 35l198 110h42l-97 -501h140l-8 -39h-341z" />
    <glyph glyph-name="two.p_osf" horiz-adv-x="515" 
d="M3 0l6 32q229 136 317.5 217t88.5 164q0 48 -36 73t-93 25q-43 0 -87 -20.5t-67 -40.5l-22 -21l-23 33q10 10 28 25t71 40t102 25q89 0 130.5 -40t41.5 -97q0 -94 -86 -178.5t-285 -197.5v-2q19 2 54 2h272l-7 -39h-405z" />
    <glyph glyph-name="three.p_osf" horiz-adv-x="469" 
d="M-77 -37l34 27l5.5 -8.5t17.5 -18.5t31 -23t45 -18.5t59 -8.5q76 0 142 53.5t66 136.5q0 60 -45.5 91.5t-116.5 31.5h-51l-5 32l233 213l37 30v2q-19 -2 -54 -2h-251l7 39h372l-5 -28l-274 -245q31 0 61.5 -7t63 -23.5t53 -50t20.5 -80.5q0 -101 -77.5 -167.5
t-177.5 -66.5q-38 0 -72 9.5t-54.5 23t-35.5 26.5t-21 23z" />
    <glyph glyph-name="four.p_osf" horiz-adv-x="572" 
d="M-15 41l6 29l439 470h38l-89 -460h113l-8 -39h-113l-30 -157h-42l30 157h-344zM56 80h281l63 325l15 63h-2q-23 -31 -46 -55l-311 -332v-1z" />
    <glyph glyph-name="five.p_osf" horiz-adv-x="504" 
d="M-40 -24l36 23q2 -3 5 -8t15.5 -18t27.5 -23t41 -18t56 -8q85 0 156 55.5t71 147.5q0 62 -45.5 97t-111.5 35q-34 0 -70 -9.5t-55 -19.5l-18 -9l-30 10l100 309h315l-7 -39h-277l-60 -186l-15 -40h2q54 25 120 25q84 0 140.5 -44.5t56.5 -126.5q0 -109 -82.5 -177.5
t-189.5 -68.5q-38 0 -70.5 9.5t-52 23.5t-33.5 27.5t-19 22.5z" />
    <glyph glyph-name="six.p_osf" horiz-adv-x="584" 
d="M64 218q0 49 14.5 107.5t46 119t74 110.5t105 81.5t133.5 31.5q35 0 66.5 -7t45.5 -13l14 -7l-26 -35q-40 21 -100 21q-114 0 -198 -90.5t-116 -215.5h2q38 44 93 68.5t115 24.5q86 0 137 -45t51 -123q0 -101 -75 -179.5t-183 -78.5q-96 0 -147.5 63.5t-51.5 166.5z
M108 206q0 -69 42 -123t115 -54q89 0 150 62.5t61 153.5q0 60 -39.5 94t-108.5 34q-79 0 -149.5 -51t-70.5 -116z" />
    <glyph glyph-name="seven.p_osf" horiz-adv-x="490" 
d="M10 -116l388 557l46 60v2q-20 -2 -55 -2h-320l7 39h429l-5 -28l-439 -628h-51z" />
    <glyph glyph-name="eight.p_osf" horiz-adv-x="577" 
d="M38 158q0 45 21 86t53 68.5t52 41t35 21.5q-70 48 -70 113q0 70 64 125.5t164 55.5q86 0 133.5 -38t47.5 -102q0 -38 -17 -76.5t-44 -68.5t-41.5 -44t-27.5 -24q81 -49 81 -121q0 -84 -77 -145.5t-176 -61.5q-82 0 -140 45.5t-58 124.5zM444 193q0 24 -11.5 43.5t-36 36
t-45.5 27.5t-57.5 27t-55.5 26q-19 -9 -38.5 -22t-49 -38t-48.5 -60.5t-19 -74.5q0 -59 45 -94t109 -35q74 0 140.5 48t66.5 116zM174 489q0 -23 10.5 -41.5t34 -34.5t43 -26t55.5 -26t54 -25q14 10 28.5 23t38.5 39.5t39.5 60.5t15.5 68q0 47 -37.5 74t-99.5 27
q-77 0 -129.5 -41t-52.5 -98z" />
    <glyph glyph-name="nine.p_osf" horiz-adv-x="584" 
d="M36 -66q40 -21 100 -21q114 0 198 90.5t116 215.5h-2q-38 -44 -93 -68.5t-115 -24.5q-86 0 -137 45t-51 123q0 101 75 179.5t183 78.5q96 0 147.5 -63.5t51.5 -166.5q0 -49 -14.5 -107.5t-46 -119t-74 -110.5t-105 -81.5t-133.5 -31.5q-35 0 -66.5 7t-45.5 13l-14 7z
M242 167q79 0 151 51t72 116q0 69 -42 123t-115 54q-89 0 -150 -62.5t-61 -153.5q0 -60 39 -94t106 -34z" />
    <glyph glyph-name="zero.t_osf" horiz-adv-x="556" 
d="M-32 201q0 82 34 161.5t102 134.5t151 55q92 0 139.5 -61t47.5 -155q0 -81 -33.5 -159.5t-100.5 -133.5t-152 -55q-93 0 -140.5 60t-47.5 153zM13 204q0 -76 37 -125.5t109 -49.5q69 0 125.5 48t85 117.5t28.5 139.5q0 77 -37 127t-109 50q-53 0 -99 -28.5t-76 -73.5
t-47 -99t-17 -106z" />
    <glyph glyph-name="one.t_osf" horiz-adv-x="556" 
d="M6 0l8 39h159l78 404l10 48h-2q-18 -12 -44 -26l-128 -70l-15 35l198 110h42l-97 -501h140l-8 -39h-341z" />
    <glyph glyph-name="two.t_osf" horiz-adv-x="556" 
d="M-33 0l6 32q229 136 317.5 217t88.5 164q0 48 -36 73t-93 25q-43 0 -87 -20.5t-67 -40.5l-22 -21l-23 33q10 10 28 25t71 40t102 25q89 0 130.5 -40t41.5 -97q0 -94 -86 -178.5t-285 -197.5v-2q19 2 54 2h272l-7 -39h-405z" />
    <glyph glyph-name="three.t_osf" horiz-adv-x="556" 
d="M-66 -37l34 27l5.5 -8.5t17.5 -18.5t31 -23t45 -18.5t59 -8.5q76 0 142 53.5t66 136.5q0 60 -45.5 91.5t-116.5 31.5h-51l-5 32l233 213l37 30v2q-19 -2 -54 -2h-251l7 39h372l-5 -28l-274 -245q31 0 61.5 -7t63 -23.5t53 -50t20.5 -80.5q0 -101 -77.5 -167.5
t-177.5 -66.5q-38 0 -72 9.5t-54.5 23t-35.5 26.5t-22 23z" />
    <glyph glyph-name="four.t_osf" horiz-adv-x="556" 
d="M-78 41l6 29l439 470h38l-89 -460h113l-8 -39h-113l-30 -157h-42l30 157h-344zM-7 80h281l63 325l15 63h-2q-23 -31 -46 -55l-311 -332v-1z" />
    <glyph glyph-name="five.t_osf" horiz-adv-x="556" 
d="M-62 -24l36 23q2 -3 5 -8t15.5 -18t27.5 -23t41 -18t56 -8q85 0 156 55.5t71 147.5q0 62 -45.5 97t-111.5 35q-34 0 -70 -9.5t-55 -19.5l-18 -9l-30 10l100 309h315l-7 -39h-277l-60 -186l-15 -40h2q54 25 120 25q84 0 140.5 -44.5t56.5 -126.5q0 -109 -82.5 -177.5
t-189.5 -68.5q-38 0 -70.5 9.5t-52 23.5t-33.5 27.5t-19 22.5z" />
    <glyph glyph-name="six.t_osf" horiz-adv-x="556" 
d="M-25 218q0 49 14.5 107.5t46 119t74 110.5t105 81.5t133.5 31.5q35 0 66.5 -7t45.5 -13l14 -7l-26 -35q-40 21 -100 21q-114 0 -198 -90.5t-116 -215.5h2q38 44 93 68.5t115 24.5q86 0 137 -45t51 -123q0 -101 -75 -179.5t-183 -78.5q-96 0 -147.5 63.5t-51.5 166.5z
M19 206q0 -69 42 -123t115 -54q89 0 150 62.5t61 153.5q0 60 -39.5 94t-108.5 34q-79 0 -149.5 -51t-70.5 -116z" />
    <glyph glyph-name="seven.t_osf" horiz-adv-x="556" 
d="M-20 -116l388 557l46 60v2q-20 -2 -55 -2h-320l7 39h429l-5 -28l-439 -628h-51z" />
    <glyph glyph-name="eight.t_osf" horiz-adv-x="556" 
d="M-42 158q0 45 21 86t53 68.5t52 41t35 21.5q-70 48 -70 113q0 70 64 125.5t164 55.5q86 0 133.5 -38t47.5 -102q0 -38 -17 -76.5t-44 -68.5t-41.5 -44t-27.5 -24q81 -49 81 -121q0 -84 -77 -145.5t-176 -61.5q-82 0 -140 45.5t-58 124.5zM364 193q0 24 -11.5 43.5t-36 36
t-45.5 27.5t-57.5 27t-55.5 26q-19 -9 -38.5 -22t-49 -38t-48.5 -60.5t-19 -74.5q0 -59 45 -94t109 -35q74 0 140.5 48t66.5 116zM94 489q0 -23 10.5 -41.5t34 -34.5t43 -26t55.5 -26t54 -25q14 10 28.5 23t38.5 39.5t39.5 60.5t15.5 68q0 47 -37.5 74t-99.5 27
q-77 0 -129.5 -41t-52.5 -98z" />
    <glyph glyph-name="nine.t_osf" horiz-adv-x="556" 
d="M-37 -66q40 -21 100 -21q114 0 198 90.5t116 215.5h-2q-38 -44 -93 -68.5t-115 -24.5q-86 0 -137 45t-51 123q0 101 75 179.5t183 78.5q96 0 147.5 -63.5t51.5 -166.5q0 -49 -14.5 -107.5t-46 -119t-74 -110.5t-105 -81.5t-133.5 -31.5q-35 0 -66.5 7t-45.5 13l-14 7z
M169 167q79 0 151 51t72 116q0 69 -42 123t-115 54q-89 0 -150 -62.5t-61 -153.5q0 -60 39 -94t106 -34z" />
    <glyph glyph-name="dollar.osf" horiz-adv-x="513" 
d="M15 86l35 27l6 -9t19.5 -20.5t33 -25.5t46 -20t60.5 -9q61 0 110.5 35.5t49.5 95.5q0 33 -27 57t-66 40.5t-78 35t-66 49t-27 72.5q0 73 55.5 118.5t136.5 50.5l17 85h43l-17 -86q38 -4 70.5 -19t45.5 -27l14 -13l-31 -30q-5 6 -14.5 14.5t-44 22.5t-75.5 14
q-60 0 -108 -32t-48 -95q0 -34 27 -58.5t66 -40.5t78 -34t66 -49t27 -75q0 -71 -57 -120.5t-144 -50.5l-18 -93h-43l19 96q-32 4 -60.5 15.5t-46 24.5t-30.5 25.5t-19 20.5z" />
    <glyph glyph-name="cent.osf" horiz-adv-x="572" 
d="M60 255q0 116 82 195t190 88l17 86h43l-18 -86q48 -4 86.5 -23.5t53.5 -36.5l14 -18l-27 -32q-2 3 -5.5 7.5t-16.5 16.5t-28.5 21.5t-42 17t-56.5 7.5q-95 0 -171 -69t-76 -173q0 -72 47 -115t122 -43q46 0 90 18t65 36l21 18l17 -37q-3 -3 -8.5 -8t-24.5 -17.5
t-39 -22.5t-51 -18.5t-62 -9.5l-17 -82h-43l17 84q-81 9 -130 61t-49 135z" />
    <glyph glyph-name="sterling.osf" horiz-adv-x="605" 
d="M5 0l6 39h66l41 209h-46l7 39h46l25 128q14 74 78 122t149 48q44 0 82 -13t54 -26l16 -13l-32 -30q-5 5 -14.5 11.5t-41 18t-66.5 11.5q-74 0 -123.5 -40.5t-61.5 -99.5l-23 -117h243l-7 -39h-243l-41 -209h351l-7 -39h-458z" />
    <glyph glyph-name="yen.osf" horiz-adv-x="582" 
d="M75 157l8 40h168l6 32l-21 48h-138l8 40h114l-109 258h46l96 -232l31 -76h2q29 42 56 76l184 232h53l-208 -258h111l-8 -40h-136l-38 -48l-6 -32h165l-8 -40h-165l-30 -157h-43l30 157h-168z" />
    <glyph glyph-name="florin.osf" horiz-adv-x="569" 
d="M-36 -84q26 -5 60 -5q19 0 37.5 5t42.5 18.5t45 45t34 76.5l78 275h-96l7 38h100l34 122q16 56 42.5 94.5t56.5 55t53.5 22.5t46.5 6q21 0 43.5 -2t33.5 -4l12 -2l-7 -38q-41 7 -81 7q-116 0 -159 -145l-33 -116h132l-7 -38h-136l-81 -284q-16 -56 -42.5 -93.5t-56.5 -54
t-52.5 -22t-45.5 -5.5q-19 0 -36 1.5t-25 2.5l-8 2z" />
    <glyph glyph-name="Euro.osf" horiz-adv-x="622" 
d="M69 321l8 40h68q40 97 128.5 160.5t213.5 63.5q24 0 48.5 -3.5t36.5 -7.5l12 -3l-19 -38q-38 10 -79 10q-104 0 -180 -51t-113 -131h301l-17 -40h-300q-11 -32 -14 -73h288l-17 -40h-270q7 -78 63.5 -128t159.5 -50q23 0 45.5 3t33.5 7l11 3l4 -42q-42 -13 -95 -13
q-123 0 -191 62.5t-75 157.5h-73l8 40h64q4 43 12 73h-62z" />
    <glyph glyph-name="zero.numerator" 
d="M118 256q-121 0 -121 138q0 45 10 95.5t30.5 102t61 85t94.5 33.5q121 0 121 -141q0 -45 -10 -94.5t-31 -101t-61.5 -84.5t-93.5 -33zM118 292q42 0 74.5 29t49.5 73.5t25 89t8 84.5q0 106 -82 106q-42 0 -74.5 -29.5t-49.5 -74.5t-25 -89.5t-8 -85.5q0 -103 82 -103z
" />
    <glyph glyph-name="one.numerator" 
d="M1 266l7 36h96l62 322l6 22h-2q-5 -8 -27 -27l-51 -42l-22 29l112 94h38l-78 -398h93l-7 -36h-227z" />
    <glyph glyph-name="two.numerator" 
d="M-15 266q1 44 23 81t53.5 59.5t68 46l67.5 43t51.5 47.5t20.5 61q0 30 -20.5 50t-55.5 20q-25 0 -51 -12.5t-40 -25.5l-13 -12l-21 28q6 6 17 16t44 26t65 16q56 0 85 -29t29 -75q0 -45 -25 -80t-62.5 -59t-76 -45.5t-71 -52t-42.5 -67.5h227l-7 -36h-266z" />
    <glyph glyph-name="three.numerator" 
d="M121 256q-25 0 -49 6.5t-39.5 16t-28 19.5t-18.5 16l-5 7l30 24q2 -2 5 -5.5t13.5 -13t22.5 -16.5t31 -12.5t39 -5.5q45 0 81.5 35t36.5 84q0 36 -27 57t-64 21h-32l-7 24l133 127l30 25v2q-18 -3 -38 -3h-164l7 36h255l-5 -26l-158 -150q38 -3 73.5 -30t35.5 -83
q0 -61 -47.5 -108t-110.5 -47z" />
    <glyph glyph-name="four.numerator" 
d="M161 266l24 121h-218l5 26l278 287h34l-54 -277h68l-7 -36h-68l-24 -121h-38zM32 423h160l28 147l16 65h-2q-22 -27 -45 -50l-157 -160v-2z" />
    <glyph glyph-name="five.numerator" 
d="M110 256q-42 0 -74 17.5t-43 34.5l-11 18l33 20q3 -6 9 -15t30 -24t55 -15q50 0 90.5 38.5t40.5 89.5q0 38 -26.5 63t-67.5 25q-21 0 -42.5 -7t-32.5 -13l-11 -7l-24 10l67 209h206l-7 -36h-174l-28 -91l-15 -43h2q27 14 59 14q60 0 96.5 -34.5t36.5 -89.5
q0 -65 -52.5 -114.5t-116.5 -49.5z" />
    <glyph glyph-name="six.numerator" 
d="M120 256q-62 0 -94 41.5t-32 110.5q0 40 16 90.5t44 98.5t74.5 80.5t99.5 32.5q23 0 44.5 -5t31.5 -11l10 -5l-23 -30q-25 15 -63 15q-60 0 -108 -52t-72 -126h2q48 48 119 48q52 0 83 -30.5t31 -83.5q0 -81 -50.5 -127.5t-112.5 -46.5zM120 292q54 0 89 40.5t35 96.5
q0 36 -22.5 57.5t-60.5 21.5q-44 0 -86 -32t-42 -72q0 -44 23 -78t64 -34z" />
    <glyph glyph-name="seven.numerator" 
d="M-1 266l239 333l50 65v2q-20 -2 -55 -2h-176l7 36h279l-5 -26l-294 -408h-45z" />
    <glyph glyph-name="eight.numerator" 
d="M125 255q-56 0 -93.5 29.5t-37.5 83.5q0 82 100 144q-39 31 -39 73q0 57 45.5 90.5t101.5 33.5q50 0 84 -25t34 -70q0 -31 -19 -64t-34.5 -48.5t-29.5 -27.5q50 -34 50 -82q0 -54 -48.5 -95.5t-113.5 -41.5zM248 390q0 15 -7 27.5t-21.5 23t-27 17.5t-34.5 17.5t-33 16.5
q-92 -50 -92 -123q0 -35 27 -56.5t65 -21.5q45 0 84 29t39 70zM94 587q0 -14 5.5 -25.5t20 -22t23 -16t32.5 -17t31 -14.5q14 10 28.5 24t30.5 41.5t16 54.5q0 29 -23.5 45t-56.5 16q-40 0 -73.5 -23t-33.5 -63z" />
    <glyph glyph-name="nine.numerator" 
d="M5 277l23 30q25 -15 63 -15q60 0 108 52t72 126h-2q-48 -48 -119 -48q-52 0 -83 30.5t-31 83.5q0 81 50.5 127.5t112.5 46.5t94 -41.5t32 -110.5q0 -40 -16 -90.5t-44 -98.5t-74.5 -80.5t-99.5 -32.5q-23 0 -44.5 5t-31.5 11zM158 458q44 0 86 32t42 72q0 44 -23 78
t-64 34q-54 0 -89 -40.5t-35 -96.5q0 -36 22.5 -57.5t60.5 -21.5z" />
    <glyph glyph-name="zero.denominator" 
d="M68 -10q-121 0 -121 138q0 45 10 95.5t30.5 102t61 85t94.5 33.5q121 0 121 -141q0 -45 -10 -94.5t-31 -101t-61.5 -84.5t-93.5 -33zM68 26q42 0 74.5 29t49.5 73.5t25 89t8 84.5q0 106 -82 106q-42 0 -74.5 -29.5t-49.5 -74.5t-25 -89.5t-8 -85.5q0 -103 82 -103z" />
    <glyph glyph-name="one.denominator" 
d="M-33 0l7 36h96l62 322l6 22h-2q-5 -8 -27 -27l-51 -42l-22 29l112 94h38l-78 -398h93l-7 -36h-227z" />
    <glyph glyph-name="two.denominator" 
d="M-61 0q1 44 23 81t53.5 59.5t68 46l67.5 43t51.5 47.5t20.5 61q0 30 -20.5 50t-55.5 20q-25 0 -51 -12.5t-40 -25.5l-13 -12l-21 28q6 6 17 16t44 26t65 16q56 0 85 -29t29 -75q0 -45 -25 -80t-62.5 -59t-76 -45.5t-71 -52t-42.5 -67.5h227l-7 -36h-266z" />
    <glyph glyph-name="three.denominator" 
d="M68 -10q-25 0 -49 6.5t-39.5 16t-28 19.5t-17.5 16l-6 7l30 24q2 -2 5 -5.5t13.5 -13t22.5 -16.5t31 -12.5t39 -5.5q45 0 81.5 35t36.5 84q0 36 -27 57t-64 21h-32l-7 24l133 127l30 25v2q-18 -3 -38 -3h-164l7 36h255l-5 -26l-158 -150q38 -3 73.5 -30t35.5 -83
q0 -61 -47.5 -108t-110.5 -47z" />
    <glyph glyph-name="four.denominator" 
d="M124 0l24 121h-218l5 26l278 287h34l-54 -277h68l-7 -36h-68l-24 -121h-38zM-5 157h160l28 147l16 65h-2q-22 -27 -45 -50l-157 -160v-2z" />
    <glyph glyph-name="five.denominator" 
d="M60 -10q-42 0 -74 17.5t-43 34.5l-11 18l33 20q3 -6 9 -15t30 -24t55 -15q50 0 90.5 38.5t40.5 89.5q0 38 -26.5 63t-67.5 25q-21 0 -42.5 -7t-32.5 -13l-11 -7l-24 10l67 209h206l-7 -36h-174l-28 -91l-15 -43h2q27 14 59 14q60 0 96.5 -34.5t36.5 -89.5
q0 -65 -52.5 -114.5t-116.5 -49.5z" />
    <glyph glyph-name="six.denominator" 
d="M83 -10q-62 0 -94 41.5t-32 110.5q0 40 16 90.5t44 98.5t74.5 80.5t99.5 32.5q23 0 44.5 -5t31.5 -11l10 -5l-23 -30q-25 15 -63 15q-60 0 -108 -52t-72 -126h2q48 48 119 48q52 0 83 -30.5t31 -83.5q0 -81 -50.5 -127.5t-112.5 -46.5zM83 26q54 0 89 40.5t35 96.5
q0 36 -22.5 57.5t-60.5 21.5q-44 0 -86 -32t-42 -72q0 -44 23 -78t64 -34z" />
    <glyph glyph-name="seven.denominator" 
d="M-46 0l239 333l50 65v2q-20 -2 -55 -2h-176l7 36h279l-5 -26l-294 -408h-45z" />
    <glyph glyph-name="eight.denominator" 
d="M75 -10q-56 0 -93.5 29.5t-37.5 83.5q0 81 100 144q-39 31 -39 73q0 57 45.5 90.5t101.5 33.5q50 0 84 -25t34 -70q0 -31 -19 -64t-34.5 -48.5t-29.5 -27.5q50 -34 50 -82q0 -54 -48.5 -95.5t-113.5 -41.5zM198 125q0 15 -7 27.5t-21.5 23t-27 17.5t-34.5 17.5t-33 16.5
q-92 -50 -92 -123q0 -35 27 -56.5t65 -21.5q45 0 84 29t39 70zM44 322q0 -14 5.5 -25.5t20 -22t23 -16t32.5 -17t31 -14.5q14 10 28.5 24t30.5 41.5t16 54.5q0 29 -23.5 45t-56.5 16q-40 0 -73.5 -23t-33.5 -63z" />
    <glyph glyph-name="nine.denominator" 
d="M-55 11l23 30q25 -15 63 -15q60 0 108 52t72 126h-2q-48 -48 -119 -48q-52 0 -83 30.5t-31 83.5q0 81 50.5 127.5t112.5 46.5t94 -41.5t32 -110.5q0 -40 -16 -90.5t-44 -98.5t-74.5 -80.5t-99.5 -32.5q-23 0 -44.5 5t-31.5 11zM98 192q44 0 86 32t42 72q0 44 -23 78
t-64 34q-54 0 -89 -40.5t-35 -96.5q0 -36 22.5 -57.5t60.5 -21.5z" />
    </font>
</defs>
</svg>
