<?xml version="1.0" standalone="no"?>
<!DOCTYPE svg PUBLIC "-//W3C//DTD SVG 1.1//EN" "http://www.w3.org/Graphics/SVG/1.1/DTD/svg11.dtd" >
<svg>
<metadata>
Created by FontForge 20090622 at Fri May  6 09:19:58 2016
 By deploy user
Copyright (c) 2008 by Jos Buivenga. All rights reserved.
</metadata>
<defs>
<font id="MuseoSans-500Italic" horiz-adv-x="389" >
  <font-face 
    font-family="Museo Sans 500"
    font-weight="400"
    font-style="italic"
    font-stretch="normal"
    units-per-em="1000"
    panose-1="2 0 0 0 0 0 0 0 0 0"
    ascent="750"
    descent="-250"
    x-height="506"
    cap-height="706"
    bbox="-249 -210 1047 892"
    underline-thickness="50"
    underline-position="-50"
    unicode-range="U+0020-U+FB04"
  />
<missing-glyph horiz-adv-x="510" 
d="M-53 0v700h500v-700h-500zM197 395l170 255h-340zM227 350l170 -255v510zM-3 95l170 255l-170 255v-510zM27 50h340l-170 255z" />
    <glyph glyph-name="f_f" unicode="ff" horiz-adv-x="670" 
d="M380 0l83 427h-238l-83 -427h-97l83 427h-63l15 79h63l4 19q9 47 29.5 82.5t43.5 54.5t52.5 31t51 15t42.5 3l44 -3l-18 -83q-8 2 -23 2q-106 0 -126 -106l-3 -15h238l4 19q9 47 29.5 82.5t43.5 54.5t52.5 31t51 15t42.5 3l44 -3l-18 -83q-8 2 -23 2q-106 0 -126 -106
l-3 -15h119l-15 -79h-119l-83 -427h-97z" />
    <glyph glyph-name="fi" unicode="fi" horiz-adv-x="583" 
d="M352 0l83 427h-210l-83 -427h-97l83 427h-63l15 79h63l4 19q9 47 29.5 82.5t43.5 54.5t52.5 31t51 15t42.5 3l44 -3l-18 -83q-8 2 -23 2q-106 0 -126 -106l-3 -15h308l-99 -506h-97zM469 607l19 99h100l-20 -99h-99z" />
    <glyph glyph-name="fl" unicode="fl" horiz-adv-x="599" 
d="M45 0l82 422h-63l15 79h63l5 24q9 47 29.5 82.5t43.5 54.5t52.5 31t51 15t42.5 3l44 -3l-18 -83q-8 2 -23 2q-106 0 -126 -106l-4 -20h119l-15 -79h-119l-82 -422h-97zM370 102q0 16 5 43l109 561h97l-105 -544q-5 -23 -5 -38q0 -41 45 -41l16 1l-18 -86q-14 -2 -29 -2
q-48 0 -81.5 24t-33.5 82z" />
    <glyph glyph-name="f_f_i" unicode="ffi" horiz-adv-x="918" 
d="M45 0l83 427h-63l15 79h63l4 19q9 47 29.5 82.5t43.5 54.5t52.5 31t51 15t42.5 3l44 -3l-18 -83q-8 2 -23 2q-106 0 -126 -106l-3 -15h238l4 19q9 47 29.5 82.5t43.5 54.5t52.5 31t51 15t42.5 3l44 -3l-18 -83q-8 2 -23 2q-106 0 -126 -106l-3 -15h308l-99 -506h-97
l83 427h-210l-83 -427h-97l83 427h-238l-83 -427h-97zM804 607l19 99h100l-20 -99h-99z" />
    <glyph glyph-name="f_f_l" unicode="ffl" horiz-adv-x="934" 
d="M380 0l83 427h-238l-83 -427h-97l83 427h-63l15 79h63l4 19q9 47 29.5 82.5t43.5 54.5t52.5 31t51 15t42.5 3l44 -3l-18 -83q-8 2 -23 2q-106 0 -126 -106l-3 -15h238l4 19q9 47 29.5 82.5t43.5 54.5t52.5 31t51 15t42.5 3l44 -3l-18 -83q-8 2 -23 2q-106 0 -126 -106
l-3 -15h119l-15 -79h-119l-83 -427h-97zM705 102q0 16 5 43l109 561h97l-105 -544q-5 -23 -5 -38q0 -41 45 -41l16 1l-18 -86q-14 -2 -29 -2q-48 0 -81.5 24t-33.5 82z" />
    <glyph glyph-name="f_j" unicode="fj" horiz-adv-x="583" 
d="M45 0l83 427h-63l15 79h63l4 19q9 47 29.5 82.5t43.5 54.5t52.5 31t51 15t42.5 3l44 -3l-18 -83q-8 2 -23 2q-106 0 -126 -106l-3 -15h308l-102 -522q-9 -48 -29.5 -84.5t-43 -56t-51.5 -31.5t-50 -15t-43 -3l-46 2l16 83q9 -1 22 -1q17 0 33.5 4t37.5 14t36.5 34
t22.5 59l84 438h-210l-83 -427h-97zM469 607l19 99h100l-19 -99h-100z" />
    <glyph glyph-name=".notdef" horiz-adv-x="510" 
d="M-53 0v700h500v-700h-500zM197 395l170 255h-340zM227 350l170 -255v510zM-3 95l170 255l-170 255v-510zM27 50h340l-170 255z" />
    <glyph glyph-name=".null" horiz-adv-x="0" 
 />
    <glyph glyph-name="nonmarkingreturn" horiz-adv-x="333" 
 />
    <glyph glyph-name="space" unicode=" " horiz-adv-x="257" 
 />
    <glyph glyph-name="exclam" unicode="!" horiz-adv-x="314" 
d="M93 194l93 512h101l-107 -512h-87zM49 0l20 98h100l-19 -98h-101z" />
    <glyph glyph-name="quotedbl" unicode="&#x22;" horiz-adv-x="339" 
d="M246 530l37 188h76l-37 -188h-76zM106 530l36 188h76l-36 -188h-76z" />
    <glyph glyph-name="numbersign" unicode="#" horiz-adv-x="714" 
d="M79 0l70 191h-128l26 74h129l63 168h-128l27 73h127l74 200h83l-74 -200h156l74 200h83l-74 -200h128l-27 -73h-128l-63 -168h128l-27 -74h-128l-70 -191h-83l70 191h-155l-70 -191h-83zM259 265h155l63 168h-155z" />
    <glyph glyph-name="dollar" unicode="$" horiz-adv-x="566" 
d="M13 81l63 70q7 -8 20 -20t57.5 -31.5t93.5 -19.5q56 0 100.5 33.5t44.5 88.5q0 34 -29.5 60.5t-71 47t-83.5 44t-71.5 62.5t-29.5 91q0 82 66 142t161 68l18 92h70l-18 -94q48 -6 87 -23t55 -32l15 -14l-56 -73q-6 6 -18 15t-50.5 23.5t-79.5 14.5q-61 0 -105.5 -36
t-44.5 -83q0 -31 29.5 -56t71.5 -45.5t83.5 -44t71 -64.5t29.5 -95q0 -84 -65.5 -146t-163.5 -67l-18 -91h-70l17 94q-54 8 -99 30t-63 40z" />
    <glyph glyph-name="percent" unicode="%" horiz-adv-x="767" 
d="M232 422q-61 0 -98 36t-37 95q0 63 53.5 114t120.5 51q60 0 97.5 -37t37.5 -95q0 -64 -53.5 -114t-120.5 -50zM12 0l667 706h99l-667 -706h-99zM239 496q35 0 61.5 26t26.5 62q0 27 -17.5 44t-45.5 17q-34 0 -61 -27t-27 -63q0 -26 17 -42.5t46 -16.5zM383 119
q0 63 53 114t120 51q60 0 97.5 -37t37.5 -95q0 -64 -53.5 -114t-119.5 -50q-61 0 -98 36t-37 95zM461 121q0 -26 17.5 -42.5t46.5 -16.5q34 0 61 26.5t27 61.5q0 27 -17.5 44t-45.5 17q-34 0 -61.5 -27.5t-27.5 -62.5z" />
    <glyph glyph-name="ampersand" unicode="&#x26;" horiz-adv-x="681" 
d="M31 174q0 68 47 127t119 79v2q-3 1 -7.5 3.5t-16.5 12t-21 21.5t-16.5 34.5t-7.5 49.5q0 98 72 156.5t174 58.5q21 0 44.5 -3.5t35.5 -6.5l13 -4l-39 -76q-28 6 -52 6q-60 0 -104.5 -36.5t-44.5 -96.5q0 -86 111 -86h131l19 96h97l-18 -96h93l-17 -86h-93l-19 -94
q-49 -247 -276 -247q-105 0 -164.5 51.5t-59.5 134.5zM135 180q0 -45 32.5 -73t89.5 -28q146 0 178 160l18 90h-135q-75 0 -129 -38.5t-54 -110.5z" />
    <glyph glyph-name="quotesingle" unicode="'" horiz-adv-x="200" 
d="M106 530l36 188h78l-37 -188h-77z" />
    <glyph glyph-name="parenleft" unicode="(" horiz-adv-x="299" 
d="M116 -95q-52 131 -52 268q0 320 207 562h88q-208 -260 -208 -564q0 -140 46 -266h-81z" />
    <glyph glyph-name="parenright" unicode=")" horiz-adv-x="300" 
d="M35 -95h-88q208 262 208 564q0 140 -46 266h81q52 -129 52 -268q0 -318 -207 -562z" />
    <glyph glyph-name="asterisk" unicode="*" horiz-adv-x="463" 
d="M158 329l-65 53l111 112v2l-126 36l43 82l123 -50l20 142h91l-36 -142l144 50l12 -85l-147 -39l-1 -2l66 -108l-76 -52l-57 119h-2z" />
    <glyph glyph-name="plus" unicode="+" horiz-adv-x="672" 
d="M238 0l48 246h-224l15 78h223l49 246h82l-49 -246h223l-14 -78h-223l-48 -246h-82z" />
    <glyph glyph-name="comma" unicode="," horiz-adv-x="258" 
d="M-49 -101l102 206h103l-126 -206h-79z" />
    <glyph glyph-name="hyphen" unicode="-" horiz-adv-x="467" 
d="M76 242l16 86h292l-16 -86h-292z" />
    <glyph glyph-name="period" unicode="." horiz-adv-x="250" 
d="M17 0l20 105h104l-20 -105h-104z" />
    <glyph glyph-name="slash" unicode="/" horiz-adv-x="403" 
d="M58 -42h-91l406 786h92z" />
    <glyph glyph-name="zero" unicode="0" horiz-adv-x="629" 
d="M60 221q0 58 10 121.5t34 131.5t59.5 121.5t92 88t125.5 34.5q209 0 209 -233q0 -58 -10 -121.5t-34 -131.5t-59.5 -121.5t-92 -88t-126.5 -34.5q-208 0 -208 233zM162 223q0 -144 110 -144q45 0 82.5 28.5t61.5 72.5t40.5 99t23.5 106t7 96q0 146 -109 146
q-54 0 -97.5 -40.5t-68 -104t-37.5 -130.5t-13 -129z" />
    <glyph glyph-name="one" unicode="1" horiz-adv-x="486" 
d="M1 0l15 86h156l88 448l9 43h-2q-11 -16 -41 -41l-77 -63l-52 68l204 165h89l-121 -620h153l-16 -86h-405z" />
    <glyph glyph-name="two" unicode="2" horiz-adv-x="572" 
d="M5 0q1 63 25.5 116t63.5 90.5t86 70t94 61t85.5 56.5t62.5 63t24 74q0 43 -29 68.5t-77 25.5q-27 0 -53.5 -9.5t-45 -22.5t-33.5 -26t-22 -23l-8 -9l-70 55l11 13.5t31.5 31t51 39t67 30.5t82.5 14q90 0 145.5 -48.5t55.5 -128.5q0 -68 -40 -124.5t-98.5 -96t-118.5 -74
t-107.5 -75.5t-57.5 -85h345l-16 -86h-454z" />
    <glyph glyph-name="three" unicode="3" horiz-adv-x="566" 
d="M-4 84l62 69q2 -3 6 -7.5t19.5 -17t32.5 -22t46 -17t60 -7.5q67 0 119 45t52 109q0 52 -40 78.5t-103 26.5h-51l-12 53l185 181l53 46v2q-21 -3 -60 -3h-233l17 86h422l-13 -63l-233 -224q28 -3 55.5 -13.5t54 -30.5t43 -55t16.5 -80q0 -101 -78 -176.5t-192 -75.5
q-45 0 -84.5 10t-64.5 24t-44 28t-27 24z" />
    <glyph glyph-name="four" unicode="4" horiz-adv-x="607" 
d="M10 189l12 62l406 455h122l-85 -433h96l-16 -84h-96l-37 -189h-97l36 189h-341zM144 273h224l50 257l17 70h-2q-23 -32 -46 -58l-243 -268v-1z" />
    <glyph glyph-name="five" unicode="5" horiz-adv-x="566" 
d="M8 86l64 67q2 -3 5.5 -7.5t17 -17t29 -22t41.5 -17t55 -7.5q70 0 126.5 49.5t56.5 121.5q0 52 -37.5 84.5t-98.5 32.5q-32 0 -63.5 -9t-47.5 -17l-15 -9l-56 22l104 349h359l-17 -86h-271l-45 -147l-12 -37h2q40 20 91 20q92 0 151 -56t59 -142q0 -112 -85.5 -191
t-199.5 -79q-44 0 -82 10t-61 24.5t-39.5 29t-23.5 24.5z" />
    <glyph glyph-name="six" unicode="6" horiz-adv-x="600" 
d="M281 -12q-103 0 -164.5 69.5t-61.5 188.5q0 70 26.5 150t73.5 153t123.5 121t166.5 48q41 0 77 -7.5t52 -14.5l15 -8l-45 -81q-42 20 -98 20q-91 0 -159 -69.5t-100 -167.5h2q27 30 71 48.5t87 18.5q90 0 141.5 -53.5t51.5 -140.5q0 -105 -73 -190t-186 -85zM280 79
q68 0 114.5 53t46.5 128q0 52 -31.5 82.5t-89.5 30.5q-59 0 -112 -39.5t-53 -96.5q0 -64 34.5 -111t90.5 -47z" />
    <glyph glyph-name="seven" unicode="7" horiz-adv-x="530" 
d="M19 0l383 556q13 18 26.5 34.5t20.5 23.5l7 7v2q-16 -3 -51 -3h-309l17 86h472l-13 -68l-443 -638h-110z" />
    <glyph glyph-name="eight" unicode="8" horiz-adv-x="610" 
d="M37 180q0 42 19.5 81.5t50 68t49 43t34.5 23.5q-60 50 -60 117q0 81 67.5 143t177.5 62q95 0 149.5 -44t54.5 -122q0 -35 -15.5 -72t-39.5 -66.5t-39.5 -45.5t-28.5 -27q75 -52 75 -127q0 -92 -78.5 -159t-191.5 -67q-102 0 -163 52t-61 140zM429 213q0 19 -8.5 34.5
t-29.5 31t-35 23.5t-49 25.5l-47 23.5q-16 -9 -33 -22t-38 -34.5t-34.5 -50t-13.5 -59.5q0 -49 35 -78.5t87 -29.5q65 0 115.5 38t50.5 98zM230 514q0 -14 4.5 -26.5t15 -24t19 -19.5t26.5 -18l27.5 -15t31.5 -15.5l30 -14.5q94 81 94 164q0 39 -28.5 61.5t-78.5 22.5
q-62 0 -101.5 -33.5t-39.5 -81.5z" />
    <glyph glyph-name="nine" unicode="9" horiz-adv-x="601" 
d="M32 18l45 81q43 -20 99 -20q91 0 158.5 69.5t99.5 167.5h-2q-22 -27 -66 -46.5t-91 -19.5q-91 0 -142 53t-51 140q0 105 73.5 190t186.5 85q103 0 164 -69.5t61 -188.5q0 -55 -16 -118t-49.5 -125.5t-78.5 -113.5t-109.5 -83t-136.5 -32q-41 0 -77 7.5t-52 14.5zM300 333
q59 0 112.5 40t53.5 97q0 64 -34 110.5t-91 46.5q-68 0 -114.5 -53t-46.5 -128q0 -51 31.5 -82t88.5 -31z" />
    <glyph glyph-name="colon" unicode=":" horiz-adv-x="291" 
d="M113 401l21 105h104l-20 -105h-105zM35 0l20 105h105l-21 -105h-104z" />
    <glyph glyph-name="semicolon" unicode=";" horiz-adv-x="296" 
d="M123 401l20 105h102l-20 -105h-102zM-36 -101l102 206h103l-125 -206h-80z" />
    <glyph glyph-name="less" unicode="&#x3c;" horiz-adv-x="572" 
d="M29 252v66l466 208v-89l-358 -151v-2l358 -151v-89z" />
    <glyph glyph-name="equal" unicode="=" horiz-adv-x="672" 
d="M93 340v78h477v-78h-477zM93 151v78h477v-78h-477z" />
    <glyph glyph-name="greater" unicode="&#x3e;" horiz-adv-x="569" 
d="M69 44v89l357 151v2l-357 151v89l466 -208v-66z" />
    <glyph glyph-name="question" unicode="?" horiz-adv-x="483" 
d="M122 194l9 47q9 44 35.5 81t58 61.5l62 48.5t51 53t20.5 63q0 36 -26 58.5t-70 22.5q-29 0 -59.5 -10.5t-46.5 -20.5l-16 -11l-43 75l25 16t62.5 26t90.5 16q81 0 133.5 -43.5t52.5 -116.5q0 -49 -22 -90t-54.5 -68.5t-66 -51.5t-60.5 -53.5t-33 -61.5l-9 -41h-94zM82 0
l20 98h100l-19 -98h-101z" />
    <glyph glyph-name="at" unicode="@" horiz-adv-x="810" 
d="M41 175q0 86 36 166.5t95.5 139.5t139 94.5t162.5 35.5q123 0 178 -46.5t55 -124.5q0 -24 -6 -54l-50 -261h71l-14 -73h-262q-85 0 -134.5 46.5t-49.5 117.5q0 83 68.5 147.5t167.5 64.5h118q2 10 2 16q0 39 -37.5 63t-105.5 24q-134 0 -235.5 -107.5t-101.5 -243.5
q0 -100 63 -164t172 -64l-15 -77q-138 0 -227.5 85t-89.5 215zM360 218q0 -41 26.5 -67t70.5 -26h100l46 236h-98q-59 0 -102 -43t-43 -100z" />
    <glyph glyph-name="A" unicode="A" horiz-adv-x="626" 
d="M58 0h-106l387 706h110l115 -706h-99l-31 203h-266zM209 285h215l-35 224l-10 100h-2q-27 -64 -46 -100z" />
    <glyph glyph-name="B" unicode="B" horiz-adv-x="636" 
d="M38 0l138 706h227q61 0 96 -13q45 -17 70 -53.5t25 -87.5q0 -60 -32.5 -108t-86.5 -71v-2q41 -15 64 -52t23 -87q0 -76 -41 -132t-108 -82q-46 -18 -104 -18h-271zM216 409h149q54 0 91 38t37 94q0 37 -22.5 58t-65.5 21h-147zM154 86h159q38 0 66 14q37 18 59 53.5
t22 80.5q0 43 -26.5 68t-74.5 25h-158z" />
    <glyph glyph-name="C" unicode="C" horiz-adv-x="723" 
d="M54 294q0 113 58 211.5t154.5 155.5t205.5 57q50 0 94.5 -9.5t72.5 -23.5t49 -28t30 -23l9 -10l-59 -68q-8 8 -23 20t-65 31.5t-105 19.5q-132 0 -225.5 -98.5t-93.5 -229.5q0 -96 57.5 -158t157.5 -62q37 0 75 9.5t65.5 23t49.5 26.5t33 22l12 10l43 -78l-14 -11
t-38 -25t-60 -32t-78 -25t-93 -11q-143 0 -227.5 85t-84.5 221z" />
    <glyph glyph-name="D" unicode="D" horiz-adv-x="739" 
d="M39 0l137 706h218q146 0 229 -72t83 -203q0 -118 -52.5 -216t-148.5 -156.5t-216 -58.5h-250zM154 86h128q141 0 232 96.5t91 240.5q0 95 -58 146t-160 51h-129z" />
    <glyph glyph-name="E" unicode="E" horiz-adv-x="572" 
d="M38 0l139 706h409l-17 -86h-311l-43 -221h253l-17 -86h-253l-44 -227h328l-16 -86h-428z" />
    <glyph glyph-name="F" unicode="F" horiz-adv-x="522" 
d="M38 0l138 706h388l-17 -86h-290l-45 -232h246l-16 -86h-247l-59 -302h-98z" />
    <glyph glyph-name="G" unicode="G" horiz-adv-x="760" 
d="M54 288q0 175 126 302.5t298 127.5q76 0 139 -21t89 -42l25 -21l-60 -69q-3 3 -8.5 7t-24 14.5t-39 19t-53 15t-66.5 6.5q-137 0 -230 -100t-93 -234q0 -98 58.5 -156t152.5 -58q55 0 110 23.5t82 46.5l27 23l19 97h-114l16 86h205l-69 -355h-86l8 44l7 30h-2
q-3 -3 -9.5 -9t-28.5 -21t-46 -26t-61 -20.5t-75 -9.5q-127 0 -212 83t-85 217z" />
    <glyph glyph-name="H" unicode="H" horiz-adv-x="755" 
d="M38 0l138 706h98l-61 -311h367l61 311h98l-138 -706h-98l60 310h-367l-60 -310h-98z" />
    <glyph glyph-name="I" unicode="I" horiz-adv-x="291" 
d="M38 0l138 706h98l-137 -706h-99z" />
    <glyph glyph-name="J" unicode="J" horiz-adv-x="532" 
d="M5 155q0 27 5 52l6 31h98l-5 -29q-4 -26 -4 -40q0 -90 89 -90q46 0 83.5 30.5t50.5 94.5l81 416h-177l17 86h275l-99 -511q-14 -71 -51.5 -119t-83 -68t-98.5 -20q-80 0 -133.5 42.5t-53.5 124.5z" />
    <glyph glyph-name="K" unicode="K" horiz-adv-x="623" 
d="M38 0l138 706h98l-58 -297h101l240 297h115l-276 -339v-2l146 -365h-105l-126 324h-112l-63 -324h-98z" />
    <glyph glyph-name="L" unicode="L" horiz-adv-x="523" 
d="M38 0l138 706h99l-121 -620h316l-18 -86h-414z" />
    <glyph glyph-name="M" unicode="M" horiz-adv-x="865" 
d="M15 0l193 706h103l88 -382l16 -95h2q30 55 54 95l237 382h106l-81 -706h-97l53 445l18 104h-2q-34 -66 -58 -104l-202 -318h-89l-79 318l-18 106h-2q-9 -63 -21 -106l-122 -445h-99z" />
    <glyph glyph-name="N" unicode="N" horiz-adv-x="750" 
d="M38 0l138 706h91l226 -459q8 -16 17.5 -41.5t15.5 -43.5l5 -17h2q5 63 13 102l89 459h99l-138 -706h-91l-226 458q-8 17 -18 43t-15 43l-6 17h-2q-5 -63 -13 -103l-89 -458h-98z" />
    <glyph glyph-name="O" unicode="O" horiz-adv-x="819" 
d="M53 296q0 111 60 209.5t157.5 155.5t203.5 57q141 0 228 -84t87 -216q0 -113 -61 -213.5t-158.5 -158.5t-202.5 -58q-141 0 -227.5 86.5t-86.5 221.5zM154 300q0 -98 60 -159.5t154 -61.5q122 0 220.5 99.5t98.5 234.5q0 95 -59.5 154.5t-154.5 59.5q-123 0 -221 -97
t-98 -230z" />
    <glyph glyph-name="P" unicode="P" horiz-adv-x="608" 
d="M38 0l138 706h242q67 0 110 -23q42 -22 65.5 -63t23.5 -94q0 -83 -42.5 -148.5t-111.5 -95.5q-49 -21 -105 -21h-170l-51 -261h-99zM204 347h144q43 0 75 16q42 20 67 61t25 95q0 48 -29.5 74.5t-84.5 26.5h-143z" />
    <glyph glyph-name="Q" unicode="Q" horiz-adv-x="830" 
d="M53 296q0 111 60 209.5t157.5 155.5t203.5 57q140 0 227 -84t87 -216q0 -171 -131 -300l65 -78l-63 -58l-66 83q-102 -77 -226 -77q-141 0 -227.5 86.5t-86.5 221.5zM154 300q0 -98 59.5 -159.5t154.5 -61.5q87 0 167 56l-68 83l63 58l67 -85q89 97 89 222
q0 95 -59.5 154.5t-153.5 59.5q-123 0 -221 -97t-98 -230z" />
    <glyph glyph-name="R" unicode="R" horiz-adv-x="638" 
d="M38 0l138 706h240q61 0 100 -18q90 -42 90 -148q0 -80 -46 -145.5t-124 -87.5v-2q5 -10 13 -32l98 -273h-105l-97 281h-154l-54 -281h-99zM208 367h139q66 0 111.5 44t45.5 115q0 44 -28 69t-77 25h-142z" />
    <glyph glyph-name="S" unicode="S" horiz-adv-x="547" 
d="M3 81l62 70q2 -3 7 -7.5t21.5 -17t35 -22t48 -17t60.5 -7.5q56 0 100 33.5t44 88.5q0 34 -29.5 60.5t-71 47t-83 44t-71 62.5t-29.5 91q0 88 74 149.5t177 61.5q62 0 112.5 -18t70.5 -36l20 -18l-56 -73q-6 6 -18 15t-50.5 23.5t-79.5 14.5q-61 0 -106 -36t-45 -83
q0 -31 29.5 -56t71.5 -45.5t84 -44t71.5 -64.5t29.5 -95q0 -87 -71 -150.5t-176 -63.5q-44 0 -84.5 9.5t-66 23t-45 27.5t-27.5 24z" />
    <glyph glyph-name="T" unicode="T" horiz-adv-x="589" 
d="M185 0l121 620h-242l16 86h583l-16 -86h-243l-120 -620h-99z" />
    <glyph glyph-name="U" unicode="U" horiz-adv-x="727" 
d="M72 197q0 27 6 57l88 452h98l-88 -455q-4 -19 -4 -42q0 -62 39 -96t110 -34q82 0 139 46t73 128l89 453h98l-90 -461q-23 -118 -107 -187.5t-204 -69.5q-110 0 -178.5 55.5t-68.5 153.5z" />
    <glyph glyph-name="V" unicode="V" horiz-adv-x="630" 
d="M201 0l-120 706h103l78 -499l8 -97h2q26 59 46 97l273 499h111l-395 -706h-106z" />
    <glyph glyph-name="W" unicode="W" horiz-adv-x="953" 
d="M157 0l-47 706h101l26 -518v-75h2q13 36 31 75l244 518h90l31 -518v-75h2q13 38 29 75l225 518h108l-318 -706h-116l-31 458v100h-2q-21 -54 -42 -99l-219 -459h-114z" />
    <glyph glyph-name="X" unicode="X" horiz-adv-x="605" 
d="M-36 0l292 368l-142 338h107l75 -188l30 -84h2q27 43 58 82l148 190h117l-279 -346l155 -360h-105l-89 214l-29 81h-2q-27 -40 -57 -79l-169 -216h-112z" />
    <glyph glyph-name="Y" unicode="Y" horiz-adv-x="579" 
d="M177 0l59 299l-156 407h106l85 -232l26 -89h2q30 48 60 88l173 233h119l-318 -410l-58 -296h-98z" />
    <glyph glyph-name="Z" unicode="Z" horiz-adv-x="602" 
d="M-18 0l13 66l427 490q16 18 32 34l24 24l8 7v2q-18 -3 -52 -3h-314l17 86h495l-13 -65l-428 -491q-16 -18 -32 -34t-24 -23l-8 -7v-2q18 2 52 2h335l-16 -86h-516z" />
    <glyph glyph-name="bracketleft" unicode="[" horiz-adv-x="299" 
d="M121 -21h81l-15 -74h-166l162 830h166l-15 -73h-81z" />
    <glyph glyph-name="backslash" unicode="\" horiz-adv-x="394" 
d="M213 -42l-101 786h82l101 -786h-82z" />
    <glyph glyph-name="bracketright" unicode="]" horiz-adv-x="294" 
d="M-31 -21h80l132 683h-80l14 73h166l-161 -830h-166z" />
    <glyph glyph-name="asciicircum" unicode="^" horiz-adv-x="613" 
d="M11 247l200 459h63l199 -459h-87l-144 352l-143 -352h-88z" />
    <glyph glyph-name="underscore" unicode="_" horiz-adv-x="588" 
d="M-33 0h538l-15 -78h-537z" />
    <glyph glyph-name="grave" unicode="`" horiz-adv-x="499" 
d="M191 755l-70 127h100l47 -127h-77z" />
    <glyph glyph-name="a" unicode="a" horiz-adv-x="524" 
d="M0 116q0 58 32.5 100t86 62.5t107 29t111.5 8.5h25q4 20 4 41q0 79 -91 79q-35 0 -72.5 -12t-58.5 -24l-20 -12l-26 77q9 6 26 15t67 23.5t98 14.5q79 0 127.5 -36.5t48.5 -113.5q0 -28 -6 -56l-61 -312h-90l10 51q7 40 11 40h-2q1 0 -6.5 -10.5t-22.5 -25.5t-35 -30.5
t-50 -26t-62 -10.5q-63 0 -107 34.5t-44 93.5zM99 132q0 -28 20.5 -47t60.5 -19q57 0 104 49.5t62 110.5l4 17h-25q-226 0 -226 -111z" />
    <glyph glyph-name="b" unicode="b" horiz-adv-x="599" 
d="M17 0l137 706h97l-44 -229l-13 -46h2q27 39 73 63t95 24q90 0 140 -56t50 -152q0 -139 -83.5 -230.5t-193.5 -91.5q-53 0 -94.5 24t-59.5 68h-2q0 -19 -4 -41l-8 -39h-92zM155 200q0 -56 28.5 -92t84.5 -36q71 0 129 64t58 167q0 61 -30.5 95.5t-83.5 34.5
q-77 0 -131.5 -70t-54.5 -163z" />
    <glyph glyph-name="c" unicode="c" horiz-adv-x="546" 
d="M26 208q0 128 93 219t219 91q37 0 70.5 -7.5t54.5 -18t36.5 -21.5t22.5 -19l7 -7l-54 -63q-5 6 -15.5 14.5t-45 23t-71.5 14.5q-87 0 -152.5 -64.5t-65.5 -154.5q0 -64 40.5 -103.5t107.5 -39.5q42 0 84.5 17t64.5 34l21 17l27 -77q-9 -8 -26 -20.5t-71 -33.5t-109 -21
q-109 0 -173.5 61t-64.5 159z" />
    <glyph glyph-name="d" unicode="d" horiz-adv-x="600" 
d="M27 195q0 140 83.5 231.5t196.5 91.5q49 0 90 -21.5t58 -63.5h2q0 19 4 37l46 236h97l-137 -706h-93l10 48l9 37h-2q-28 -42 -73 -69.5t-100 -27.5q-90 0 -140.5 55.5t-50.5 151.5zM126 202q0 -61 31 -95.5t84 -34.5q77 0 131 71.5t54 161.5q0 56 -28.5 92t-84.5 36
q-71 0 -129 -64t-58 -167z" />
    <glyph glyph-name="e" unicode="e" horiz-adv-x="551" 
d="M27 204q0 128 84.5 221t209.5 93q95 0 144 -51t49 -136q0 -18 -4 -41t-8 -37l-4 -14h-369q-3 -15 -3 -30q0 -59 38 -98t106 -39q39 0 79 15t61 29l21 15l28 -77q-9 -7 -26 -18t-68 -29.5t-99 -18.5q-109 0 -174 60t-65 156zM145 312h270q2 11 2 27q0 49 -27 75.5
t-71 26.5q-56 0 -103.5 -35t-70.5 -94z" />
    <glyph glyph-name="f" unicode="f" horiz-adv-x="335" 
d="M45 0l82 422h-63l15 79h63l5 24q9 47 29.5 82.5t43.5 54.5t52.5 31t51 15t42.5 3l44 -3l-18 -83q-8 2 -23 2q-106 0 -126 -106l-4 -20h119l-15 -79h-119l-82 -422h-97z" />
    <glyph glyph-name="g" unicode="g" horiz-adv-x="591" 
d="M41 -93q55 -33 135 -33q71 0 122 35t65 107l8 37l9 35h-1q-60 -82 -156 -82q-91 0 -142 56.5t-51 148.5q0 73 30 142t92.5 117t144.5 48q121 0 154 -80h2q0 11 2 21l9 47h92l-95 -492q-23 -116 -101 -170t-179 -54t-182 45zM129 218q0 -60 30.5 -94t87.5 -34
q81 0 127.5 74t46.5 161q0 109 -116 109q-80 0 -128 -65t-48 -151z" />
    <glyph glyph-name="h" unicode="h" horiz-adv-x="601" 
d="M17 0l137 706h97l-50 -259l-11 -45h2q24 43 80 79.5t124 36.5q70 0 109.5 -33.5t39.5 -100.5q0 -27 -8 -64l-62 -320h-97l58 299q7 37 7 57q0 73 -75 73q-74 0 -134 -58.5t-75 -139.5l-45 -231h-97z" />
    <glyph glyph-name="i" unicode="i" horiz-adv-x="248" 
d="M134 607l19 99h100l-20 -99h-99zM17 0l99 506h97l-99 -506h-97z" />
    <glyph glyph-name="j" unicode="j" horiz-adv-x="248" 
d="M134 607l19 99h100l-19 -99h-100zM16 -11l100 517h97l-102 -522q-9 -48 -29.5 -84.5t-43 -56t-51.5 -31.5t-50 -15t-43 -3l-46 2l16 83q9 -1 22 -1q17 0 33.5 4t37.5 14t36.5 34t22.5 59z" />
    <glyph glyph-name="k" unicode="k" horiz-adv-x="524" 
d="M17 0l138 706h97l-76 -385h69l175 185h117l-216 -227v-2l131 -277h-105l-107 237h-80l-46 -237h-97z" />
    <glyph glyph-name="l" unicode="l" horiz-adv-x="264" 
d="M35 102q0 16 5 43l109 561h97l-105 -544q-5 -23 -5 -38q0 -41 45 -41l16 1l-18 -86q-14 -2 -29 -2q-48 0 -81.5 24t-33.5 82z" />
    <glyph glyph-name="m" unicode="m" horiz-adv-x="912" 
d="M18 0l98 506h95l-13 -65l-12 -42h2q28 49 81.5 84t112.5 35q122 0 133 -115h2q30 49 84 82t113 33q69 0 105.5 -33.5t36.5 -100.5q0 -28 -8 -68l-61 -316h-97l59 301q6 33 6 55q0 74 -72 74q-67 0 -119.5 -60.5t-67.5 -138.5l-45 -231h-96l58 301q6 33 6 57q0 72 -70 72
q-66 0 -120 -60.5t-69 -139.5l-45 -230h-97z" />
    <glyph glyph-name="n" unicode="n" horiz-adv-x="602" 
d="M18 0l98 506h95l-11 -59l-14 -48h2q24 44 82 81.5t127 37.5q70 0 109 -33.5t39 -100.5q0 -24 -7 -64l-62 -320h-97l58 299q7 37 7 57q0 73 -75 73t-134.5 -58t-75.5 -140l-44 -231h-97z" />
    <glyph glyph-name="o" unicode="o" horiz-adv-x="622" 
d="M26 211q0 127 95.5 217t217.5 90q106 0 173 -61.5t67 -159.5q0 -128 -95.5 -218.5t-216.5 -90.5q-107 0 -174 62t-67 161zM125 215q0 -64 40 -103.5t103 -39.5q81 0 146.5 64.5t65.5 155.5q0 63 -40 102.5t-102 39.5q-83 0 -148 -64t-65 -155z" />
    <glyph glyph-name="p" unicode="p" horiz-adv-x="599" 
d="M120 29l-44 -229h-97l137 706h90l-8 -43l-11 -40h2q28 42 73.5 68.5t102.5 26.5q90 0 140 -56t50 -152q0 -139 -83 -230.5t-192 -91.5q-52 0 -92.5 22.5t-58.5 65.5h-2q-2 -21 -7 -47zM156 202q0 -57 29 -93.5t84 -36.5q71 0 129 64t58 167q0 61 -30.5 95.5t-83.5 34.5
q-76 0 -131 -70.5t-55 -160.5z" />
    <glyph glyph-name="q" unicode="q" horiz-adv-x="600" 
d="M27 194q0 140 83.5 232t196.5 92q114 0 151 -88h2q1 15 5 35l7 41h93l-137 -706h-97l44 231l13 47h-2q-24 -37 -68 -63.5t-101 -26.5q-90 0 -140 55.5t-50 150.5zM126 202q0 -61 31 -95.5t84 -34.5q77 0 131 71.5t54 161.5q0 56 -28.5 92t-84.5 36q-71 0 -129 -64
t-58 -167z" />
    <glyph glyph-name="r" unicode="r" horiz-adv-x="374" 
d="M18 0l98 506h94l-18 -88l-10 -41h1q27 57 76.5 96t106.5 39q18 0 30 -2l-19 -96q-11 3 -27 3q-67 0 -124.5 -70.5t-75.5 -162.5l-35 -184h-97z" />
    <glyph glyph-name="s" unicode="s" horiz-adv-x="444" 
d="M-11 61l53 64q6 -6 16.5 -15t47 -24.5t76.5 -15.5q39 0 70.5 20t31.5 55q0 21 -23 37.5t-55.5 30.5t-65 31t-55.5 47t-23 71q0 71 58.5 113.5t135.5 42.5q49 0 90.5 -14t57.5 -28l17 -14l-48 -67q-4 5 -12.5 11.5t-39 18t-66.5 11.5q-38 0 -69.5 -18.5t-31.5 -54.5
q0 -21 23 -37.5t56 -30.5t65.5 -31t55.5 -47.5t23 -71.5q0 -69 -56.5 -113t-138.5 -44q-35 0 -68 7.5t-54.5 18t-38 21.5t-24.5 19z" />
    <glyph glyph-name="t" unicode="t" horiz-adv-x="353" 
d="M70 144q0 22 6 51l44 227h-66l15 79h68l29 144h94l-29 -144h122l-15 -79h-122l-42 -221q-4 -20 -4 -40q0 -79 83 -79l29 2l-17 -86q-16 -2 -32 -2q-163 0 -163 148z" />
    <glyph glyph-name="u" unicode="u" horiz-adv-x="596" 
d="M39 122q0 24 7 64l62 320h97l-58 -298q-6 -33 -6 -58q0 -35 17.5 -53.5t58.5 -18.5q73 0 130 60t72 138l45 230h97l-98 -506h-95l12 59l13 48h-2q-26 -45 -81 -82t-124 -37q-65 0 -106 32.5t-41 101.5z" />
    <glyph glyph-name="v" unicode="v" horiz-adv-x="493" 
d="M132 0l-90 506h96l55 -344l5 -69h2q17 41 32 69l189 344h104l-286 -506h-107z" />
    <glyph glyph-name="w" unicode="w" horiz-adv-x="810" 
d="M120 0l-64 506h97l36 -357l2 -54h2q12 29 24 54l178 356h90l39 -356l3 -54h2q10 28 23 54l176 357h104l-261 -506h-107l-42 327l-3 54h-2q-12 -28 -25 -54l-167 -327h-105z" />
    <glyph glyph-name="x" unicode="x" horiz-adv-x="504" 
d="M-37 0l227 263l-122 243h104l70 -151l11 -32h2q11 17 21 30l124 153h115l-214 -250l127 -256h-102l-78 166l-12 30h-2q-9 -16 -19 -28l-138 -168h-114z" />
    <glyph glyph-name="y" unicode="y" horiz-adv-x="509" 
d="M-47 -108q21 -18 55 -18q63 0 107 73l37 60l-116 499h101l68 -342l8 -60h1q15 33 29 58l190 344h109l-355 -599q-70 -117 -175 -117q-28 0 -54 8t-38 16l-12 9z" />
    <glyph glyph-name="z" unicode="z" horiz-adv-x="511" 
d="M-20 0l10 56l313 320l50 47v2q-15 -2 -48 -2h-233l16 83h416l-10 -56l-314 -321l-51 -46v-2q16 2 49 2h252l-16 -83h-434z" />
    <glyph glyph-name="braceleft" unicode="{" horiz-adv-x="349" 
d="M85 32q0 24 6 51l17 90q3 16 3 29q0 21 -7 36.5t-16.5 23.5t-19.5 13t-17 6l-7 1l17 86q3 0 9 1t22 8t29.5 18t26.5 33t19 51l18 90q33 168 195 168q5 0 10.5 -0.5t8.5 -0.5h4l-15 -74h-13q-86 0 -107 -105l-22 -110q-5 -28 -18 -51t-27.5 -35.5t-28.5 -20.5t-23 -11
l-9 -3v-2q2 -1 6.5 -3t14.5 -10.5t18 -19.5t14.5 -29.5t6.5 -40.5q0 -13 -3 -29l-22 -109q-4 -20 -4 -35q0 -70 71 -70h14l-15 -74q-10 -2 -24 -2q-13 0 -27 2.5t-34 10.5t-35 21.5t-25.5 38t-10.5 57.5z" />
    <glyph glyph-name="bar" unicode="|" horiz-adv-x="318" 
d="M119 -159v951h85v-951h-85z" />
    <glyph glyph-name="braceright" unicode="}" horiz-adv-x="345" 
d="M-22 -22q88 0 108 105l23 119q6 29 19 52.5t27.5 36t28 21t22.5 11.5l9 3v2q-7 3 -16.5 9t-26 31.5t-16.5 59.5q0 14 3 30l19 99q4 17 4 35q0 70 -71 70h-13l14 74q11 2 24 2t27 -2.5t34 -10.5t35 -21.5t26 -38t11 -57.5q0 -15 -6 -51l-15 -80q-3 -17 -3 -29
q0 -33 16.5 -53t32.5 -23l17 -4l-16 -86q-4 0 -10 -1t-22 -8t-29 -18t-26.5 -33t-19.5 -51l-19 -100q-32 -169 -196 -169l-22 2l14 74h13z" />
    <glyph glyph-name="asciitilde" unicode="~" horiz-adv-x="591" 
d="M55 204q0 85 36.5 127t103.5 42q35 0 63.5 -15.5t43.5 -33.5t37 -33.5t47 -15.5q36 0 51.5 28t15.5 66h79q0 -169 -139 -169q-35 0 -63.5 15t-43.5 33.5t-37.5 33.5t-47.5 15q-35 0 -51 -28t-16 -65h-79z" />
    <glyph glyph-name="uni00A0" unicode="&#xa0;" horiz-adv-x="257" 
 />
    <glyph glyph-name="exclamdown" unicode="&#xa1;" horiz-adv-x="286" 
d="M113 408l20 98h101l-20 -98h-101zM-4 -200l107 512h87l-93 -512h-101z" />
    <glyph glyph-name="cent" unicode="&#xa2;" horiz-adv-x="577" 
d="M204 -13l17 88q-75 15 -119.5 72.5t-44.5 146.5q0 84 36 160t99 125t138 56l16 83h71l-17 -87q38 -7 68 -25t45.5 -39t26 -41.5t13.5 -33.5l3 -13l-88 -33l-2.5 10.5t-9.5 23.5t-19.5 30t-34 23.5t-51.5 10.5q-83 0 -138.5 -73.5t-55.5 -176.5q0 -61 30.5 -96t89.5 -35
q44 0 83 24.5t56 48.5l16 24l86 -36q-3 -6 -9 -15.5t-27.5 -34.5t-46 -45t-63.5 -37.5t-81 -20.5l-16 -84h-71z" />
    <glyph glyph-name="sterling" unicode="&#xa3;" horiz-adv-x="583" 
d="M74 319l14 70h44l28 143q15 80 82.5 133t156.5 53q48 0 89.5 -17t59.5 -34l17 -17l-65 -62q-4 4 -12.5 11t-35.5 18t-55 11q-54 0 -92 -30.5t-47 -76.5l-26 -132h185l-14 -70h-185l-45 -233h326l-17 -86h-485l17 86h59l45 233h-44z" />
    <glyph glyph-name="yen" unicode="&#xa5;" horiz-adv-x="605" 
d="M192 0l39 199h-163l12 63h163l8 37l-18 48h-136l12 63h103l-108 296h108l75 -220q7 -20 14 -45.5t10 -40.5l3 -16h2q28 55 61 101l160 221h118l-223 -296h102l-13 -63h-135l-35 -48l-8 -37h162l-12 -63h-162l-39 -199h-100z" />
    <glyph glyph-name="section" unicode="&#xa7;" horiz-adv-x="437" 
d="M101 111l7 390q2 91 56.5 154t151.5 63q40 0 76 -13.5t52 -26.5l15 -14l-53 -58q-34 31 -90 31q-61 0 -94.5 -39.5t-34.5 -101.5l-7 -385h-79zM42 51q34 -31 91 -31q60 0 93.5 39t34.5 101l7 385h79l-7 -389q-2 -91 -57 -154.5t-151 -63.5q-40 0 -76 13.5t-52 26.5
l-15 14z" />
    <glyph glyph-name="dieresis" unicode="&#xa8;" horiz-adv-x="499" 
d="M232 781l19 101h80l-20 -101h-79zM64 781l20 101h80l-20 -101h-80z" />
    <glyph glyph-name="copyright" unicode="&#xa9;" horiz-adv-x="829" 
d="M67 353q0 152 103.5 258.5t251.5 106.5q149 0 253.5 -106.5t104.5 -258.5t-104.5 -258.5t-253.5 -106.5q-148 0 -251.5 106.5t-103.5 258.5zM140 353q0 -125 81.5 -211t200.5 -86q121 0 203 86t82 211t-82 211t-203 86q-119 0 -200.5 -86t-81.5 -211zM232 352
q0 82 54.5 141t142.5 59q32 0 60.5 -10t46.5 -25t31.5 -29.5t18.5 -24.5l6 -10l-61 -33q-4 7 -11.5 17.5t-33 28t-54.5 17.5q-57 0 -90.5 -38.5t-33.5 -92.5q0 -56 33 -93.5t91 -37.5q18 0 35 6.5t28.5 15.5t19.5 18.5t12 16.5l4 6l61 -33q-2 -4 -6 -10.5t-18.5 -24
t-31.5 -30.5t-46 -23.5t-61 -10.5q-88 0 -142.5 58.5t-54.5 141.5z" />
    <glyph glyph-name="ordfeminine" unicode="&#xaa;" horiz-adv-x="418" 
d="M197 382q-37 0 -65 22.5t-28 62.5q0 122 205 122h17q3 17 3 25q0 44 -53 44q-20 0 -42.5 -7t-35.5 -13l-12 -7l-20 51q52 34 126 34q109 0 109 -97q0 -19 -5 -42l-37 -188h-68l9 46h-2q-4 -6 -12 -15t-34 -23.5t-55 -14.5zM222 441q32 0 59 29.5t33 58.5l2 9h-12
q-125 0 -125 -63q0 -15 11 -24.5t32 -9.5zM64 265l11 57h275l-12 -57h-274z" />
    <glyph glyph-name="guillemotleft" unicode="&#xab;" horiz-adv-x="554" 
d="M365 77l-129 207l207 204h104l-218 -210l128 -201h-92zM166 77l-129 207l191 204h102l-200 -210l128 -201h-92z" />
    <glyph glyph-name="logicalnot" unicode="&#xac;" horiz-adv-x="630" 
d="M70 340v78h477v-267h-81v189h-396z" />
    <glyph glyph-name="uni00AD" unicode="&#xad;" horiz-adv-x="431" 
d="M3 242l16 86h292l-16 -86h-292z" />
    <glyph glyph-name="registered" unicode="&#xae;" horiz-adv-x="829" 
d="M67 353q0 152 103.5 258.5t251.5 106.5q149 0 253.5 -106.5t104.5 -258.5t-104.5 -258.5t-253.5 -106.5q-148 0 -251.5 106.5t-103.5 258.5zM140 353q0 -125 81.5 -211t200.5 -86q121 0 203 86t82 211t-82 211t-203 86q-119 0 -200.5 -86t-81.5 -211zM300 166v377h145
q54 0 86.5 -31.5t32.5 -83.5q0 -40 -21 -66.5t-48 -33.5v-2q4 -4 13 -21l72 -139h-78l-70 146h-61v-146h-71zM371 364h60q28 0 44.5 17t16.5 47q0 29 -16.5 45t-44.5 16h-60v-125z" />
    <glyph glyph-name="macron" unicode="&#xaf;" horiz-adv-x="499" 
d="M64 784l13 70h254l-13 -70h-254z" />
    <glyph glyph-name="degree" unicode="&#xb0;" horiz-adv-x="387" 
d="M228 422q-60 0 -98.5 36.5t-38.5 93.5q0 65 52.5 115.5t117.5 50.5q60 0 98.5 -37t38.5 -93q0 -66 -53 -116t-117 -50zM232 496q34 0 61 26t27 61q0 27 -17.5 44.5t-45.5 17.5q-35 0 -61.5 -27t-26.5 -62q0 -27 17 -43.5t46 -16.5z" />
    <glyph glyph-name="plusminus" unicode="&#xb1;" horiz-adv-x="700" 
d="M71 246v78h224v246h82v-246h223v-78h-223v-246h-82v246h-224zM87 -95h497v-78h-497v78z" />
    <glyph glyph-name="twosuperior" unicode="&#xb2;" 
d="M-4 423q1 58 29.5 102t68 70t79 48t67 48.5t27.5 57.5q0 23 -16.5 37.5t-43.5 14.5q-22 0 -45.5 -12t-35.5 -24l-13 -12l-44 49q7 8 19.5 19t50 30t73.5 19q59 0 96 -31.5t37 -83.5q0 -43 -23.5 -77t-58 -56.5t-70 -41.5t-65 -42t-37.5 -49h210l-13 -66h-292z" />
    <glyph glyph-name="threesuperior" unicode="&#xb3;" 
d="M153 413q-43 0 -80.5 16.5t-52.5 32.5l-16 17l47 49q4 -5 11.5 -12.5t34.5 -20.5t57 -13q38 0 66 25.5t28 62.5q0 27 -22.5 43t-53.5 16h-34l-12 38l108 103l29 24v2q-19 -3 -36 -3h-138l12 67h272l-9 -48l-134 -126q37 -7 66 -36t29 -79q0 -62 -49.5 -110t-122.5 -48z
" />
    <glyph glyph-name="acute" unicode="&#xb4;" horiz-adv-x="499" 
d="M91 755l98 127h109l-120 -127h-87z" />
    <glyph glyph-name="mu" unicode="&#xb5;" horiz-adv-x="618" 
d="M-14 -200l137 706h97l-58 -298q-6 -33 -6 -58q0 -35 17.5 -53.5t58.5 -18.5q73 0 130 60t72 138l45 230h97l-98 -506h-95l12 59l13 48h-2q-26 -45 -81 -82t-124 -37q-61 0 -90 33h-2q-3 -51 -9 -80l-28 -141h-86z" />
    <glyph glyph-name="mu" unicode="&#x3bc;" horiz-adv-x="618" 
d="M-14 -200l137 706h97l-58 -298q-6 -33 -6 -58q0 -35 17.5 -53.5t58.5 -18.5q73 0 130 60t72 138l45 230h97l-98 -506h-95l12 59l13 48h-2q-26 -45 -81 -82t-124 -37q-61 0 -90 33h-2q-3 -51 -9 -80l-28 -141h-86z" />
    <glyph glyph-name="paragraph" unicode="&#xb6;" horiz-adv-x="591" 
d="M212 -50l56 291q-79 0 -137.5 58.5t-58.5 144.5q0 105 84.5 183.5t189.5 78.5h284l-16 -86h-197l-130 -670h-75zM349 -50l118 613h75l-119 -613h-74z" />
    <glyph glyph-name="periodcentered" unicode="&#xb7;" horiz-adv-x="270" 
d="M72 237l20 105h101l-20 -105h-101z" />
    <glyph glyph-name="cedilla" unicode="&#xb8;" horiz-adv-x="499" 
d="M101 -143q19 -6 41 -6t38 8.5t16 27.5q0 26 -47 26l-18 -1l50 111l47 -10l-1 -8l-23 -55q25 -4 42.5 -20.5t17.5 -44.5q0 -46 -35.5 -69t-79.5 -23q-16 0 -30.5 1.5t-21.5 3.5l-7 2z" />
    <glyph glyph-name="onesuperior" unicode="&#xb9;" 
d="M21 423l12 66h93l47 244l8 26h-2q-6 -8 -22 -22l-40 -32l-38 52l127 103h67l-72 -371h92l-13 -66h-259z" />
    <glyph glyph-name="ordmasculine" unicode="&#xba;" horiz-adv-x="464" 
d="M255 384q-65 0 -107 39t-42 100q0 80 60.5 137t136.5 57q66 0 108 -39t42 -101q0 -80 -60.5 -136.5t-137.5 -56.5zM260 448q46 0 83 36.5t37 88.5q0 35 -22.5 57.5t-57.5 22.5q-47 0 -84 -36.5t-37 -87.5q0 -37 22.5 -59t58.5 -22zM69 265l11 57h313l-11 -57h-313z" />
    <glyph glyph-name="guillemotright" unicode="&#xbb;" horiz-adv-x="554" 
d="M218 77l200 210l-128 201h92l129 -207l-191 -204h-102zM1 77l218 210l-128 201h92l129 -207l-208 -204h-103z" />
    <glyph glyph-name="onequarter" unicode="&#xbc;" horiz-adv-x="960" 
d="M280 0h-80l472 706h80zM51 269l12 66h93l47 244l8 26h-2q-6 -8 -22 -22l-40 -32l-38 52l127 103h67l-72 -371h92l-13 -66h-259zM719 0l21 107h-209l9 50l252 280h86l-52 -264h62l-12 -66h-62l-21 -107h-74zM630 173h122l24 123l15 58h-2q-18 -27 -38 -48l-121 -131v-2z
" />
    <glyph glyph-name="onehalf" unicode="&#xbd;" horiz-adv-x="951" 
d="M282 0h-80l472 706h80zM51 269l12 66h93l47 244l8 26h-2q-6 -8 -22 -22l-40 -32l-38 52l127 103h67l-72 -371h92l-13 -66h-259zM543 0q1 58 29.5 102t68 70t79 48t67 48.5t27.5 57.5q0 23 -16.5 37.5t-43.5 14.5q-22 0 -45.5 -12t-36.5 -24l-12 -12l-44 49q7 8 19.5 19
t50 30t73.5 19q59 0 96 -31.5t37 -83.5q0 -43 -23.5 -77t-58 -56.5t-70 -41.5t-65 -42t-37.5 -49h210l-13 -66h-292z" />
    <glyph glyph-name="threequarters" unicode="&#xbe;" horiz-adv-x="969" 
d="M289 0h-80l472 706h80zM728 0l21 107h-209l9 50l252 280h86l-52 -264h62l-12 -66h-62l-21 -107h-74zM639 173h122l24 123l15 58h-2q-18 -27 -38 -48l-121 -131v-2zM190 259q-43 0 -80.5 16.5t-53.5 32.5l-15 17l47 49q4 -5 11.5 -12.5t34.5 -20.5t57 -13q38 0 66 25.5
t28 62.5q0 27 -22.5 43t-53.5 16h-34l-12 38l108 103l29 24v2q-19 -3 -36 -3h-138l12 67h272l-9 -48l-134 -126q37 -7 66 -36t29 -79q0 -62 -49.5 -110t-122.5 -48z" />
    <glyph glyph-name="questiondown" unicode="&#xbf;" horiz-adv-x="451" 
d="M233 408l20 98h100l-19 -98h-101zM-25 -50q0 49 22 89.5t54.5 68t66 52t60.5 54t33 61.5l8 37h95l-9 -43q-9 -44 -35.5 -81t-58.5 -62l-62 -48.5t-50.5 -52.5t-20.5 -63q0 -36 26 -59t70 -23q29 0 59.5 11t46.5 21l16 11l43 -75l-25 -16t-62.5 -26t-90.5 -16
q-81 0 -133.5 43.5t-52.5 116.5z" />
    <glyph glyph-name="Agrave" unicode="&#xc0;" horiz-adv-x="626" 
d="M58 0h-106l387 706h110l115 -706h-99l-31 203h-266zM209 285h215l-35 224l-10 100h-2q-27 -64 -46 -100zM362 755l-70 127h100l47 -127h-77z" />
    <glyph glyph-name="Aacute" unicode="&#xc1;" horiz-adv-x="626" 
d="M58 0h-106l387 706h110l115 -706h-99l-31 203h-266zM209 285h215l-35 224l-10 100h-2q-27 -64 -46 -100zM358 755l98 127h109l-120 -127h-87z" />
    <glyph glyph-name="Acircumflex" unicode="&#xc2;" horiz-adv-x="626" 
d="M58 0h-106l387 706h110l115 -706h-99l-31 203h-266zM209 285h215l-35 224l-10 100h-2q-27 -64 -46 -100zM262 755l113 127h101l63 -127h-82l-36 80h-2l-68 -80h-89z" />
    <glyph glyph-name="Atilde" unicode="&#xc3;" horiz-adv-x="626" 
d="M58 0h-106l387 706h110l115 -706h-99l-31 203h-266zM209 285h215l-35 224l-10 100h-2q-27 -64 -46 -100zM243 756q24 127 119 127q27 0 46 -17t33 -34t30 -17q38 0 49 65h71q-25 -127 -119 -127q-26 0 -45 17t-34 34t-31 17q-35 0 -48 -65h-71z" />
    <glyph glyph-name="Adieresis" unicode="&#xc4;" horiz-adv-x="626" 
d="M58 0h-106l387 706h110l115 -706h-99l-31 203h-266zM209 285h215l-35 224l-10 100h-2q-27 -64 -46 -100zM455 781l19 101h80l-20 -101h-79zM287 781l20 101h80l-20 -101h-80z" />
    <glyph glyph-name="Aring" unicode="&#xc5;" horiz-adv-x="626" 
d="M58 0h-106l387 706h110l115 -706h-99l-31 203h-266zM209 285h215l-35 224l-10 100h-2q-27 -64 -46 -100zM408 743q-34 0 -55.5 17t-21.5 48q0 37 29 60.5t65 23.5q35 0 56.5 -17.5t21.5 -48.5q0 -36 -29.5 -59.5t-65.5 -23.5zM411 784q16 0 28 12t12 29q0 12 -7.5 19.5
t-20.5 7.5q-16 0 -28 -12.5t-12 -30.5q0 -25 28 -25z" />
    <glyph glyph-name="AE" unicode="&#xc6;" horiz-adv-x="887" 
d="M60 0h-110l427 706h525l-17 -86h-312l-43 -221h253l-17 -86h-253l-44 -227h328l-17 -86h-426l61 314h-168zM429 620l-133 -224h135l43 224h-45z" />
    <glyph glyph-name="Ccedilla" unicode="&#xc7;" horiz-adv-x="725" 
d="M248 -143q19 -6 41 -6t38 8.5t16 27.5q0 26 -47 26l-18 -1l36 80q-120 16 -189 98t-69 204q0 113 58 211.5t154.5 155.5t205.5 57q50 0 94.5 -9.5t72.5 -23.5t49 -28t30 -23l9 -10l-59 -68q-8 8 -23 20t-65 31.5t-105 19.5q-132 0 -225.5 -98.5t-93.5 -229.5
q0 -96 57.5 -158t157.5 -62q37 0 75 9.5t65.5 23t49.5 26.5t33 22l12 10l43 -78l-14 -11t-38 -25t-60 -32t-78 -25t-93 -11h-1l-16 -38q25 -4 42.5 -20.5t17.5 -44.5q0 -46 -35.5 -69t-79.5 -23q-16 0 -30.5 1.5t-21.5 3.5l-7 2z" />
    <glyph glyph-name="Egrave" unicode="&#xc8;" horiz-adv-x="572" 
d="M38 0l139 706h409l-17 -86h-311l-43 -221h253l-17 -86h-253l-44 -227h328l-16 -86h-428zM359 755l-70 127h100l47 -127h-77z" />
    <glyph glyph-name="Eacute" unicode="&#xc9;" horiz-adv-x="572" 
d="M38 0l139 706h409l-17 -86h-311l-43 -221h253l-17 -86h-253l-44 -227h328l-16 -86h-428zM355 755l98 127h109l-120 -127h-87z" />
    <glyph glyph-name="Ecircumflex" unicode="&#xca;" horiz-adv-x="572" 
d="M38 0l139 706h409l-17 -86h-311l-43 -221h253l-17 -86h-253l-44 -227h328l-16 -86h-428zM259 755l113 127h101l63 -127h-82l-36 80h-2l-68 -80h-89z" />
    <glyph glyph-name="Edieresis" unicode="&#xcb;" horiz-adv-x="572" 
d="M38 0l139 706h409l-17 -86h-311l-43 -221h253l-17 -86h-253l-44 -227h328l-16 -86h-428zM451 781l19 101h80l-20 -101h-79zM283 781l20 101h80l-20 -101h-80z" />
    <glyph glyph-name="Igrave" unicode="&#xcc;" horiz-adv-x="291" 
d="M38 0l138 706h98l-137 -706h-99zM193 755l-70 127h100l47 -127h-77z" />
    <glyph glyph-name="Iacute" unicode="&#xcd;" horiz-adv-x="291" 
d="M38 0l138 706h98l-137 -706h-99zM188 755l98 127h109l-120 -127h-87z" />
    <glyph glyph-name="Icircumflex" unicode="&#xce;" horiz-adv-x="291" 
d="M38 0l138 706h98l-137 -706h-99zM93 755l113 127h101l63 -127h-82l-36 80h-2l-68 -80h-89z" />
    <glyph glyph-name="Idieresis" unicode="&#xcf;" horiz-adv-x="291" 
d="M38 0l138 706h98l-137 -706h-99zM286 781l19 101h80l-20 -101h-79zM118 781l20 101h80l-20 -101h-80z" />
    <glyph glyph-name="Eth" unicode="&#xd0;" horiz-adv-x="757" 
d="M58 312l16 82h58l61 312h218q146 0 229 -72t83 -203q0 -118 -52.5 -216t-148.5 -156.5t-216 -58.5h-250l60 312h-58zM170 86h129q140 0 231 96.5t91 240.5q0 95 -58 146t-160 51h-128l-45 -226h151l-16 -82h-151z" />
    <glyph glyph-name="Ntilde" unicode="&#xd1;" horiz-adv-x="750" 
d="M38 0l138 706h91l226 -459q8 -16 17.5 -41.5t15.5 -43.5l5 -17h2q5 63 13 102l89 459h99l-138 -706h-91l-226 458q-8 17 -18 43t-15 43l-6 17h-2q-5 -63 -13 -103l-89 -458h-98zM302 756q24 127 119 127q27 0 46 -17t33 -34t30 -17q38 0 49 65h71q-25 -127 -119 -127
q-26 0 -45 17t-34 34t-31 17q-35 0 -48 -65h-71z" />
    <glyph glyph-name="Ograve" unicode="&#xd2;" horiz-adv-x="819" 
d="M53 296q0 111 60 209.5t157.5 155.5t203.5 57q141 0 228 -84t87 -216q0 -113 -61 -213.5t-158.5 -158.5t-202.5 -58q-141 0 -227.5 86.5t-86.5 221.5zM154 300q0 -98 60 -159.5t154 -61.5q122 0 220.5 99.5t98.5 234.5q0 95 -59.5 154.5t-154.5 59.5q-123 0 -221 -97
t-98 -230zM454 755l-70 127h100l47 -127h-77z" />
    <glyph glyph-name="Oacute" unicode="&#xd3;" horiz-adv-x="819" 
d="M53 296q0 111 60 209.5t157.5 155.5t203.5 57q141 0 228 -84t87 -216q0 -113 -61 -213.5t-158.5 -158.5t-202.5 -58q-141 0 -227.5 86.5t-86.5 221.5zM154 300q0 -98 60 -159.5t154 -61.5q122 0 220.5 99.5t98.5 234.5q0 95 -59.5 154.5t-154.5 59.5q-123 0 -221 -97
t-98 -230zM450 755l98 127h109l-120 -127h-87z" />
    <glyph glyph-name="Ocircumflex" unicode="&#xd4;" horiz-adv-x="819" 
d="M53 296q0 111 60 209.5t157.5 155.5t203.5 57q141 0 228 -84t87 -216q0 -113 -61 -213.5t-158.5 -158.5t-202.5 -58q-141 0 -227.5 86.5t-86.5 221.5zM154 300q0 -98 60 -159.5t154 -61.5q122 0 220.5 99.5t98.5 234.5q0 95 -59.5 154.5t-154.5 59.5q-123 0 -221 -97
t-98 -230zM354 755l113 127h101l63 -127h-82l-36 80h-2l-68 -80h-89z" />
    <glyph glyph-name="Otilde" unicode="&#xd5;" horiz-adv-x="819" 
d="M53 296q0 111 60 209.5t157.5 155.5t203.5 57q141 0 228 -84t87 -216q0 -113 -61 -213.5t-158.5 -158.5t-202.5 -58q-141 0 -227.5 86.5t-86.5 221.5zM154 300q0 -98 60 -159.5t154 -61.5q122 0 220.5 99.5t98.5 234.5q0 95 -59.5 154.5t-154.5 59.5q-123 0 -221 -97
t-98 -230zM335 756q24 127 119 127q27 0 46 -17t33 -34t30 -17q38 0 49 65h71q-25 -127 -119 -127q-26 0 -45 17t-34 34t-31 17q-35 0 -48 -65h-71z" />
    <glyph glyph-name="Odieresis" unicode="&#xd6;" horiz-adv-x="819" 
d="M53 296q0 111 60 209.5t157.5 155.5t203.5 57q141 0 228 -84t87 -216q0 -113 -61 -213.5t-158.5 -158.5t-202.5 -58q-141 0 -227.5 86.5t-86.5 221.5zM154 300q0 -98 60 -159.5t154 -61.5q122 0 220.5 99.5t98.5 234.5q0 95 -59.5 154.5t-154.5 59.5q-123 0 -221 -97
t-98 -230zM547 781l19 101h80l-20 -101h-79zM379 781l20 101h80l-20 -101h-80z" />
    <glyph glyph-name="multiply" unicode="&#xd7;" horiz-adv-x="688" 
d="M83 55l206 230l-206 230l55 55l204 -228l205 228l55 -55l-207 -230l207 -230l-55 -55l-205 227l-204 -227z" />
    <glyph glyph-name="Oslash" unicode="&#xd8;" horiz-adv-x="821" 
d="M55 296q0 111 60 209.5t157.5 155.5t203.5 57q108 0 188 -53l62 67l46 -38l-62 -67q80 -83 80 -209q0 -113 -60.5 -213.5t-158 -158.5t-202.5 -58q-112 0 -194 58l-65 -71l-46 37l67 73q-76 84 -76 211zM688 413q0 82 -46 139l-400 -434q53 -39 128 -39q121 0 219.5 99.5
t98.5 234.5zM156 300q0 -84 43 -141l399 433q-54 35 -123 35q-123 0 -221 -97t-98 -230z" />
    <glyph glyph-name="Ugrave" unicode="&#xd9;" horiz-adv-x="727" 
d="M72 197q0 27 6 57l88 452h98l-88 -455q-4 -19 -4 -42q0 -62 39 -96t110 -34q82 0 139 46t73 128l89 453h98l-90 -461q-23 -118 -107 -187.5t-204 -69.5q-110 0 -178.5 55.5t-68.5 153.5zM410 755l-70 127h100l47 -127h-77z" />
    <glyph glyph-name="Uacute" unicode="&#xda;" horiz-adv-x="727" 
d="M72 197q0 27 6 57l88 452h98l-88 -455q-4 -19 -4 -42q0 -62 39 -96t110 -34q82 0 139 46t73 128l89 453h98l-90 -461q-23 -118 -107 -187.5t-204 -69.5q-110 0 -178.5 55.5t-68.5 153.5zM406 755l98 127h109l-120 -127h-87z" />
    <glyph glyph-name="Ucircumflex" unicode="&#xdb;" horiz-adv-x="727" 
d="M72 197q0 27 6 57l88 452h98l-88 -455q-4 -19 -4 -42q0 -62 39 -96t110 -34q82 0 139 46t73 128l89 453h98l-90 -461q-23 -118 -107 -187.5t-204 -69.5q-110 0 -178.5 55.5t-68.5 153.5zM310 755l113 127h101l63 -127h-82l-36 80h-2l-68 -80h-89z" />
    <glyph glyph-name="Udieresis" unicode="&#xdc;" horiz-adv-x="727" 
d="M72 197q0 27 6 57l88 452h98l-88 -455q-4 -19 -4 -42q0 -62 39 -96t110 -34q82 0 139 46t73 128l89 453h98l-90 -461q-23 -118 -107 -187.5t-204 -69.5q-110 0 -178.5 55.5t-68.5 153.5zM502 781l19 101h80l-20 -101h-79zM334 781l20 101h80l-20 -101h-80z" />
    <glyph glyph-name="Yacute" unicode="&#xdd;" horiz-adv-x="579" 
d="M177 0l59 299l-156 407h106l85 -232l26 -89h2q30 48 60 88l173 233h119l-318 -410l-58 -296h-98zM327 755l98 127h109l-120 -127h-87z" />
    <glyph glyph-name="Thorn" unicode="&#xde;" horiz-adv-x="609" 
d="M38 0l138 706h99l-24 -120h144q66 0 111 -23q88 -46 88 -157q0 -83 -42.5 -148.5t-111.5 -95.5q-50 -21 -105 -21h-170l-28 -141h-99zM181 227h144q43 0 75 16q42 20 67 60.5t25 95.5q0 48 -29.5 74.5t-83.5 26.5h-145z" />
    <glyph glyph-name="germandbls" unicode="&#xdf;" horiz-adv-x="586" 
d="M18 0l104 538q16 84 85 132t151 48q80 0 128.5 -39.5t48.5 -101.5q0 -40 -22 -74t-48 -52.5t-48 -42t-22 -44.5q0 -20 21.5 -43.5t47.5 -42.5t47.5 -51t21.5 -67q0 -69 -57.5 -118t-132.5 -49q-42 0 -79 7.5t-53 14.5l-16 7l17 84q49 -29 124 -29q37 0 67.5 21t30.5 62
q0 21 -14.5 41t-35 37l-40.5 34t-34.5 39.5t-14.5 46.5q0 34 22 64.5t48.5 50t48.5 45t22 50.5q0 28 -21 47t-61 19q-48 0 -87 -29t-50 -82l-102 -523h-97z" />
    <glyph glyph-name="agrave" unicode="&#xe0;" horiz-adv-x="524" 
d="M0 116q0 58 32.5 100t86 62.5t107 29t111.5 8.5h25q4 20 4 41q0 79 -91 79q-35 0 -72.5 -12t-58.5 -24l-20 -12l-26 77q9 6 26 15t67 23.5t98 14.5q79 0 127.5 -36.5t48.5 -113.5q0 -28 -6 -56l-61 -312h-90l10 51q7 40 11 40h-2q1 0 -6.5 -10.5t-22.5 -25.5t-35 -30.5
t-50 -26t-62 -10.5q-63 0 -107 34.5t-44 93.5zM99 132q0 -28 20.5 -47t60.5 -19q57 0 104 49.5t62 110.5l4 17h-25q-226 0 -226 -111zM270 579l-70 127h100l47 -127h-77z" />
    <glyph glyph-name="aacute" unicode="&#xe1;" horiz-adv-x="524" 
d="M0 116q0 58 32.5 100t86 62.5t107 29t111.5 8.5h25q4 20 4 41q0 79 -91 79q-35 0 -72.5 -12t-58.5 -24l-20 -12l-26 77q9 6 26 15t67 23.5t98 14.5q79 0 127.5 -36.5t48.5 -113.5q0 -28 -6 -56l-61 -312h-90l10 51q7 40 11 40h-2q1 0 -6.5 -10.5t-22.5 -25.5t-35 -30.5
t-50 -26t-62 -10.5q-63 0 -107 34.5t-44 93.5zM99 132q0 -28 20.5 -47t60.5 -19q57 0 104 49.5t62 110.5l4 17h-25q-226 0 -226 -111zM266 579l98 127h109l-120 -127h-87z" />
    <glyph glyph-name="acircumflex" unicode="&#xe2;" horiz-adv-x="524" 
d="M0 116q0 58 32.5 100t86 62.5t107 29t111.5 8.5h25q4 20 4 41q0 79 -91 79q-35 0 -72.5 -12t-58.5 -24l-20 -12l-26 77q9 6 26 15t67 23.5t98 14.5q79 0 127.5 -36.5t48.5 -113.5q0 -28 -6 -56l-61 -312h-90l10 51q7 40 11 40h-2q1 0 -6.5 -10.5t-22.5 -25.5t-35 -30.5
t-50 -26t-62 -10.5q-63 0 -107 34.5t-44 93.5zM99 132q0 -28 20.5 -47t60.5 -19q57 0 104 49.5t62 110.5l4 17h-25q-226 0 -226 -111zM170 579l113 127h101l63 -127h-82l-36 80h-2l-68 -80h-89z" />
    <glyph glyph-name="atilde" unicode="&#xe3;" horiz-adv-x="524" 
d="M0 116q0 58 32.5 100t86 62.5t107 29t111.5 8.5h25q4 20 4 41q0 79 -91 79q-35 0 -72.5 -12t-58.5 -24l-20 -12l-26 77q9 6 26 15t67 23.5t98 14.5q79 0 127.5 -36.5t48.5 -113.5q0 -28 -6 -56l-61 -312h-90l10 51q7 40 11 40h-2q1 0 -6.5 -10.5t-22.5 -25.5t-35 -30.5
t-50 -26t-62 -10.5q-63 0 -107 34.5t-44 93.5zM99 132q0 -28 20.5 -47t60.5 -19q57 0 104 49.5t62 110.5l4 17h-25q-226 0 -226 -111zM151 580q24 127 119 127q27 0 46 -17t33 -34t30 -17q38 0 49 65h71q-25 -127 -119 -127q-26 0 -45 17t-34 34t-31 17q-35 0 -48 -65h-71z
" />
    <glyph glyph-name="adieresis" unicode="&#xe4;" horiz-adv-x="524" 
d="M0 116q0 58 32.5 100t86 62.5t107 29t111.5 8.5h25q4 20 4 41q0 79 -91 79q-35 0 -72.5 -12t-58.5 -24l-20 -12l-26 77q9 6 26 15t67 23.5t98 14.5q79 0 127.5 -36.5t48.5 -113.5q0 -28 -6 -56l-61 -312h-90l10 51q7 40 11 40h-2q1 0 -6.5 -10.5t-22.5 -25.5t-35 -30.5
t-50 -26t-62 -10.5q-63 0 -107 34.5t-44 93.5zM99 132q0 -28 20.5 -47t60.5 -19q57 0 104 49.5t62 110.5l4 17h-25q-226 0 -226 -111zM362 605l19 101h80l-20 -101h-79zM194 605l20 101h80l-20 -101h-80z" />
    <glyph glyph-name="aring" unicode="&#xe5;" horiz-adv-x="524" 
d="M0 116q0 58 32.5 100t86 62.5t107 29t111.5 8.5h25q4 20 4 41q0 79 -91 79q-35 0 -72.5 -12t-58.5 -24l-20 -12l-26 77q9 6 26 15t67 23.5t98 14.5q79 0 127.5 -36.5t48.5 -113.5q0 -28 -6 -56l-61 -312h-90l10 51q7 40 11 40h-2q1 0 -6.5 -10.5t-22.5 -25.5t-35 -30.5
t-50 -26t-62 -10.5q-63 0 -107 34.5t-44 93.5zM99 132q0 -28 20.5 -47t60.5 -19q57 0 104 49.5t62 110.5l4 17h-25q-226 0 -226 -111zM315 567q-34 0 -55.5 17t-21.5 48q0 37 29 60.5t65 23.5q35 0 56.5 -17.5t21.5 -48.5q0 -36 -29.5 -59.5t-65.5 -23.5zM318 608
q16 0 28 12t12 29q0 12 -7.5 19.5t-20.5 7.5q-16 0 -28 -12.5t-12 -30.5q0 -25 28 -25z" />
    <glyph glyph-name="ae" unicode="&#xe6;" horiz-adv-x="860" 
d="M1 116q0 59 31 100t84 61t106 28t114 8h26q5 32 5 43q0 80 -94 80q-33 0 -70 -12t-57 -24l-21 -12l-26 77q10 6 26.5 15t66 23.5t95.5 14.5q121 0 152 -85h2q75 85 188 85q95 0 144.5 -50.5t49.5 -137.5q0 -17 -3.5 -39t-7.5 -36l-4 -14h-364q-3 -18 -3 -33
q0 -61 36 -98.5t102 -37.5q39 0 79 15t61 29l21 15l28 -77q-9 -7 -26 -18t-68 -29.5t-99 -18.5q-78 0 -133 33.5t-76 91.5h-2q-6 -13 -19 -30t-37.5 -40.5t-64 -39t-85.5 -15.5q-67 0 -112 34t-45 94zM462 314h262q2 16 2 26q0 49 -27.5 75t-70.5 26q-56 0 -100 -33.5
t-66 -93.5zM100 132q0 -29 21 -47.5t60 -18.5q58 0 104.5 50t60.5 111l3 13h-46q-203 0 -203 -108z" />
    <glyph glyph-name="ccedilla" unicode="&#xe7;" horiz-adv-x="547" 
d="M144 -143q19 -6 41 -6t38 8.5t16 27.5q0 26 -47 26l-18 -1l36 81q-85 14 -134 72t-49 143q0 128 93 219t219 91q37 0 70.5 -7.5t54.5 -18t36.5 -21.5t22.5 -19l7 -7l-54 -63q-5 6 -15.5 14.5t-45 23t-71.5 14.5q-87 0 -152.5 -64.5t-65.5 -154.5q0 -64 40.5 -103.5
t107.5 -39.5q42 0 84.5 17t63.5 34l22 17l27 -77q-9 -8 -26 -20.5t-71 -33.5t-109 -21h-2l-16 -38q25 -4 42.5 -20.5t17.5 -44.5q0 -46 -35.5 -69t-79.5 -23q-16 0 -30.5 1.5t-21.5 3.5l-7 2z" />
    <glyph glyph-name="egrave" unicode="&#xe8;" horiz-adv-x="551" 
d="M27 204q0 128 84.5 221t209.5 93q95 0 144 -51t49 -136q0 -18 -4 -41t-8 -37l-4 -14h-369q-3 -15 -3 -30q0 -59 38 -98t106 -39q39 0 79 15t61 29l21 15l28 -77q-9 -7 -26 -18t-68 -29.5t-99 -18.5q-109 0 -174 60t-65 156zM145 312h270q2 11 2 27q0 49 -27 75.5
t-71 26.5q-56 0 -103.5 -35t-70.5 -94zM304 579l-70 127h100l47 -127h-77z" />
    <glyph glyph-name="eacute" unicode="&#xe9;" horiz-adv-x="551" 
d="M27 204q0 128 84.5 221t209.5 93q95 0 144 -51t49 -136q0 -18 -4 -41t-8 -37l-4 -14h-369q-3 -15 -3 -30q0 -59 38 -98t106 -39q39 0 79 15t61 29l21 15l28 -77q-9 -7 -26 -18t-68 -29.5t-99 -18.5q-109 0 -174 60t-65 156zM145 312h270q2 11 2 27q0 49 -27 75.5
t-71 26.5q-56 0 -103.5 -35t-70.5 -94zM300 579l98 127h109l-120 -127h-87z" />
    <glyph glyph-name="ecircumflex" unicode="&#xea;" horiz-adv-x="551" 
d="M27 204q0 128 84.5 221t209.5 93q95 0 144 -51t49 -136q0 -18 -4 -41t-8 -37l-4 -14h-369q-3 -15 -3 -30q0 -59 38 -98t106 -39q39 0 79 15t61 29l21 15l28 -77q-9 -7 -26 -18t-68 -29.5t-99 -18.5q-109 0 -174 60t-65 156zM145 312h270q2 11 2 27q0 49 -27 75.5
t-71 26.5q-56 0 -103.5 -35t-70.5 -94zM204 579l113 127h101l63 -127h-82l-36 80h-2l-68 -80h-89z" />
    <glyph glyph-name="edieresis" unicode="&#xeb;" horiz-adv-x="551" 
d="M27 204q0 128 84.5 221t209.5 93q95 0 144 -51t49 -136q0 -18 -4 -41t-8 -37l-4 -14h-369q-3 -15 -3 -30q0 -59 38 -98t106 -39q39 0 79 15t61 29l21 15l28 -77q-9 -7 -26 -18t-68 -29.5t-99 -18.5q-109 0 -174 60t-65 156zM145 312h270q2 11 2 27q0 49 -27 75.5
t-71 26.5q-56 0 -103.5 -35t-70.5 -94zM397 605l19 101h80l-20 -101h-79zM229 605l20 101h80l-20 -101h-80z" />
    <glyph glyph-name="igrave" unicode="&#xec;" horiz-adv-x="248" 
d="M137 579l-70 127h100l47 -127h-77zM18 0l98 506h97l-98 -506h-97z" />
    <glyph glyph-name="iacute" unicode="&#xed;" horiz-adv-x="248" 
d="M133 579l98 127h109l-120 -127h-87zM18 0l98 506h97l-98 -506h-97z" />
    <glyph glyph-name="icircumflex" unicode="&#xee;" horiz-adv-x="248" 
d="M18 0l98 506h97l-98 -506h-97zM37 579l113 127h101l63 -127h-82l-36 80h-2l-68 -80h-89z" />
    <glyph glyph-name="idieresis" unicode="&#xef;" horiz-adv-x="248" 
d="M229 605l19 101h80l-20 -101h-79zM61 605l20 101h80l-20 -101h-80zM18 0l98 506h97l-98 -506h-97z" />
    <glyph glyph-name="eth" unicode="&#xf0;" horiz-adv-x="587" 
d="M150 479l2 63l139 56q-54 31 -122 49l40 72q106 -27 182 -81l159 64l-1 -63l-108 -43q97 -99 97 -245q0 -44 -10.5 -91.5t-34 -96.5t-57 -87.5t-85.5 -63t-113 -24.5q-102 0 -157.5 58t-55.5 145q0 106 78.5 190.5t203.5 84.5q37 0 68 -11.5t43 -22.5l13 -12h2
q-17 80 -85 138zM124 193q0 -53 29.5 -87t85.5 -34q81 0 136 69t55 144q0 46 -32 74.5t-87 28.5q-79 0 -133 -58t-54 -137z" />
    <glyph glyph-name="ntilde" unicode="&#xf1;" horiz-adv-x="602" 
d="M18 0l98 506h95l-11 -59l-14 -48h2q24 44 82 81.5t127 37.5q70 0 109 -33.5t39 -100.5q0 -24 -7 -64l-62 -320h-97l58 299q7 37 7 57q0 73 -75 73t-134.5 -58t-75.5 -140l-44 -231h-97zM206 580q24 127 119 127q27 0 46 -17t33 -34t30 -17q38 0 49 65h71
q-25 -127 -119 -127q-26 0 -45 17t-34 34t-31 17q-35 0 -48 -65h-71z" />
    <glyph glyph-name="ograve" unicode="&#xf2;" horiz-adv-x="622" 
d="M26 211q0 127 95.5 217t217.5 90q106 0 173 -61.5t67 -159.5q0 -128 -95.5 -218.5t-216.5 -90.5q-107 0 -174 62t-67 161zM125 215q0 -64 40 -103.5t103 -39.5q81 0 146.5 64.5t65.5 155.5q0 63 -40 102.5t-102 39.5q-83 0 -148 -64t-65 -155zM324 579l-70 127h100
l47 -127h-77z" />
    <glyph glyph-name="oacute" unicode="&#xf3;" horiz-adv-x="622" 
d="M26 211q0 127 95.5 217t217.5 90q106 0 173 -61.5t67 -159.5q0 -128 -95.5 -218.5t-216.5 -90.5q-107 0 -174 62t-67 161zM125 215q0 -64 40 -103.5t103 -39.5q81 0 146.5 64.5t65.5 155.5q0 63 -40 102.5t-102 39.5q-83 0 -148 -64t-65 -155zM320 579l98 127h109
l-120 -127h-87z" />
    <glyph glyph-name="ocircumflex" unicode="&#xf4;" horiz-adv-x="622" 
d="M26 211q0 127 95.5 217t217.5 90q106 0 173 -61.5t67 -159.5q0 -128 -95.5 -218.5t-216.5 -90.5q-107 0 -174 62t-67 161zM125 215q0 -64 40 -103.5t103 -39.5q81 0 146.5 64.5t65.5 155.5q0 63 -40 102.5t-102 39.5q-83 0 -148 -64t-65 -155zM224 579l113 127h101
l63 -127h-82l-36 80h-2l-68 -80h-89z" />
    <glyph glyph-name="otilde" unicode="&#xf5;" horiz-adv-x="622" 
d="M26 211q0 127 95.5 217t217.5 90q106 0 173 -61.5t67 -159.5q0 -128 -95.5 -218.5t-216.5 -90.5q-107 0 -174 62t-67 161zM125 215q0 -64 40 -103.5t103 -39.5q81 0 146.5 64.5t65.5 155.5q0 63 -40 102.5t-102 39.5q-83 0 -148 -64t-65 -155zM204 580q24 127 119 127
q27 0 46 -17t33 -34t30 -17q38 0 49 65h71q-25 -127 -119 -127q-26 0 -45 17t-34 34t-31 17q-35 0 -48 -65h-71z" />
    <glyph glyph-name="odieresis" unicode="&#xf6;" horiz-adv-x="622" 
d="M26 211q0 127 95.5 217t217.5 90q106 0 173 -61.5t67 -159.5q0 -128 -95.5 -218.5t-216.5 -90.5q-107 0 -174 62t-67 161zM125 215q0 -64 40 -103.5t103 -39.5q81 0 146.5 64.5t65.5 155.5q0 63 -40 102.5t-102 39.5q-83 0 -148 -64t-65 -155zM416 605l19 101h80
l-20 -101h-79zM248 605l20 101h80l-20 -101h-80z" />
    <glyph glyph-name="divide" unicode="&#xf7;" horiz-adv-x="631" 
d="M265 435v91h94v-91h-94zM60 246v78h505v-78h-505zM265 44v91h94v-91h-94z" />
    <glyph glyph-name="oslash" unicode="&#xf8;" horiz-adv-x="622" 
d="M26 211q0 127 95.5 217t217.5 90q80 0 140 -37l54 59l45 -37l-54 -59q55 -60 55 -147q0 -128 -95.5 -218.5t-216.5 -90.5q-74 0 -134 33l-54 -59l-44 38l52 56q-61 61 -61 155zM125 215q0 -53 27 -89l264 287q-36 21 -78 21q-83 0 -148 -64t-65 -155zM480 292
q0 45 -22 81l-262 -284q31 -17 72 -17q81 0 146.5 64.5t65.5 155.5z" />
    <glyph glyph-name="ugrave" unicode="&#xf9;" horiz-adv-x="596" 
d="M39 122q0 24 7 64l62 320h97l-58 -298q-6 -33 -6 -58q0 -35 17.5 -53.5t58.5 -18.5q73 0 130 60t72 138l45 230h97l-98 -506h-95l12 59l13 48h-2q-26 -45 -81 -82t-124 -37q-65 0 -106 32.5t-41 101.5zM306 579l-70 127h100l47 -127h-77z" />
    <glyph glyph-name="uacute" unicode="&#xfa;" horiz-adv-x="596" 
d="M39 122q0 24 7 64l62 320h97l-58 -298q-6 -33 -6 -58q0 -35 17.5 -53.5t58.5 -18.5q73 0 130 60t72 138l45 230h97l-98 -506h-95l12 59l13 48h-2q-26 -45 -81 -82t-124 -37q-65 0 -106 32.5t-41 101.5zM302 579l98 127h109l-120 -127h-87z" />
    <glyph glyph-name="ucircumflex" unicode="&#xfb;" horiz-adv-x="596" 
d="M39 122q0 24 7 64l62 320h97l-58 -298q-6 -33 -6 -58q0 -35 17.5 -53.5t58.5 -18.5q73 0 130 60t72 138l45 230h97l-98 -506h-95l12 59l13 48h-2q-26 -45 -81 -82t-124 -37q-65 0 -106 32.5t-41 101.5zM206 579l113 127h101l63 -127h-82l-36 80h-2l-68 -80h-89z" />
    <glyph glyph-name="udieresis" unicode="&#xfc;" horiz-adv-x="596" 
d="M39 122q0 24 7 64l62 320h97l-58 -298q-6 -33 -6 -58q0 -35 17.5 -53.5t58.5 -18.5q73 0 130 60t72 138l45 230h97l-98 -506h-95l12 59l13 48h-2q-26 -45 -81 -82t-124 -37q-65 0 -106 32.5t-41 101.5zM399 605l19 101h80l-20 -101h-79zM231 605l20 101h80l-20 -101h-80z
" />
    <glyph glyph-name="yacute" unicode="&#xfd;" horiz-adv-x="509" 
d="M-47 -108q21 -18 55 -18q63 0 107 73l37 60l-116 499h101l68 -342l8 -60h1q15 33 29 58l190 344h109l-355 -599q-70 -117 -175 -117q-28 0 -54 8t-38 16l-12 9zM260 579l98 127h109l-120 -127h-87z" />
    <glyph glyph-name="thorn" unicode="&#xfe;" horiz-adv-x="599" 
d="M-21 -200l175 906h96l-46 -235l-10 -40h2q27 38 71.5 62.5t97.5 24.5q89 0 139 -56t50 -152q0 -139 -83 -230.5t-192 -91.5q-50 0 -91.5 22.5t-59.5 65.5h-2q-1 -21 -6 -47l-45 -229h-96zM156 202q0 -57 28.5 -93.5t84.5 -36.5q71 0 128.5 64t57.5 167q0 61 -30.5 95.5
t-83.5 34.5q-76 0 -130.5 -70.5t-54.5 -160.5z" />
    <glyph glyph-name="ydieresis" unicode="&#xff;" horiz-adv-x="509" 
d="M-47 -108q21 -18 55 -18q63 0 107 73l37 60l-116 499h101l68 -342l8 -60h1q15 33 29 58l190 344h109l-355 -599q-70 -117 -175 -117q-28 0 -54 8t-38 16l-12 9zM357 605l19 101h80l-20 -101h-79zM189 605l20 101h80l-20 -101h-80z" />
    <glyph glyph-name="Amacron" unicode="&#x100;" horiz-adv-x="626" 
d="M58 0h-106l387 706h110l115 -706h-99l-31 203h-266zM209 285h215l-35 224l-10 100h-2q-27 -64 -46 -100zM283 784l13 70h254l-13 -70h-254z" />
    <glyph glyph-name="amacron" unicode="&#x101;" horiz-adv-x="524" 
d="M0 116q0 58 32.5 100t86 62.5t107 29t111.5 8.5h25q4 20 4 41q0 79 -91 79q-35 0 -72.5 -12t-58.5 -24l-20 -12l-26 77q9 6 26 15t67 23.5t98 14.5q79 0 127.5 -36.5t48.5 -113.5q0 -28 -6 -56l-61 -312h-90l10 51q7 40 11 40h-2q1 0 -6.5 -10.5t-22.5 -25.5t-35 -30.5
t-50 -26t-62 -10.5q-63 0 -107 34.5t-44 93.5zM99 132q0 -28 20.5 -47t60.5 -19q57 0 104 49.5t62 110.5l4 17h-25q-226 0 -226 -111zM191 608l13 70h254l-13 -70h-254z" />
    <glyph glyph-name="Abreve" unicode="&#x102;" horiz-adv-x="626" 
d="M58 0h-106l387 706h110l115 -706h-99l-31 203h-266zM209 285h215l-35 224l-10 100h-2q-27 -64 -46 -100zM409 751q-57 0 -92.5 32.5t-24.5 84.5l3 14h72l-2 -13q-6 -30 8 -45t39 -15t45 15.5t26 45.5l3 12h72l-2 -14q-11 -59 -51.5 -88t-95.5 -29z" />
    <glyph glyph-name="abreve" unicode="&#x103;" horiz-adv-x="524" 
d="M0 116q0 58 32.5 100t86 62.5t107 29t111.5 8.5h25q4 20 4 41q0 79 -91 79q-35 0 -72.5 -12t-58.5 -24l-20 -12l-26 77q9 6 26 15t67 23.5t98 14.5q79 0 127.5 -36.5t48.5 -113.5q0 -28 -6 -56l-61 -312h-90l10 51q7 40 11 40h-2q1 0 -6.5 -10.5t-22.5 -25.5t-35 -30.5
t-50 -26t-62 -10.5q-63 0 -107 34.5t-44 93.5zM99 132q0 -28 20.5 -47t60.5 -19q57 0 104 49.5t62 110.5l4 17h-25q-226 0 -226 -111zM317 575q-57 0 -92.5 32.5t-24.5 84.5l3 14h72l-2 -13q-6 -30 8 -45t39 -15t45 15.5t26 45.5l3 12h72l-2 -14q-11 -59 -51.5 -88
t-95.5 -29z" />
    <glyph glyph-name="Aogonek" unicode="&#x104;" horiz-adv-x="626" 
d="M392 -128q0 65 87 126v2h-14l-31 203h-266l-110 -203h-106l387 706h110l115 -706q-84 -58 -84 -96q0 -14 12.5 -23t24.5 -11l12 -2l-37 -75q-4 0 -11 1t-24 6.5t-30 13t-24 23t-11 35.5zM209 285h215l-35 224l-10 100h-2q-27 -64 -46 -100z" />
    <glyph glyph-name="aogonek" unicode="&#x105;" horiz-adv-x="524" 
d="M0 116q0 58 32.5 100t86 62.5t107 29t111.5 8.5h25q4 20 4 41q0 79 -91 79q-35 0 -72.5 -12t-58.5 -24l-20 -12l-26 77q9 6 26 15t67 23.5t98 14.5q79 0 127.5 -36.5t48.5 -113.5q0 -28 -6 -56l-61 -312q-83 -60 -83 -96q0 -14 12.5 -23t24.5 -11l12 -2l-37 -75
q-4 0 -11 1t-24 6.5t-30 13t-24 23t-11 35.5q0 61 79 121l12 58q9 40 11 40h-2q1 0 -6.5 -10.5t-22.5 -25.5t-35 -30.5t-50 -26t-62 -10.5q-63 0 -107 34.5t-44 93.5zM99 132q0 -28 20.5 -47t60.5 -19q57 0 104 49.5t62 110.5l4 17h-25q-226 0 -226 -111z" />
    <glyph glyph-name="Cacute" unicode="&#x106;" horiz-adv-x="723" 
d="M54 294q0 113 58 211.5t154.5 155.5t205.5 57q50 0 94.5 -9.5t72.5 -23.5t49 -28t30 -23l9 -10l-59 -68q-8 8 -23 20t-65 31.5t-105 19.5q-132 0 -225.5 -98.5t-93.5 -229.5q0 -96 57.5 -158t157.5 -62q37 0 75 9.5t65.5 23t49.5 26.5t33 22l12 10l43 -78l-14 -11
t-38 -25t-60 -32t-78 -25t-93 -11q-143 0 -227.5 85t-84.5 221zM443 755l98 127h109l-120 -127h-87z" />
    <glyph glyph-name="cacute" unicode="&#x107;" horiz-adv-x="546" 
d="M26 208q0 128 93 219t219 91q37 0 70.5 -7.5t54.5 -18t36.5 -21.5t22.5 -19l7 -7l-54 -63q-5 6 -15.5 14.5t-45 23t-71.5 14.5q-87 0 -152.5 -64.5t-65.5 -154.5q0 -64 40.5 -103.5t107.5 -39.5q42 0 84.5 17t64.5 34l21 17l27 -77q-9 -8 -26 -20.5t-71 -33.5t-109 -21
q-109 0 -173.5 61t-64.5 159zM300 579l98 127h109l-120 -127h-87z" />
    <glyph glyph-name="Ccircumflex" unicode="&#x108;" horiz-adv-x="723" 
d="M54 294q0 113 58 211.5t154.5 155.5t205.5 57q50 0 94.5 -9.5t72.5 -23.5t49 -28t30 -23l9 -10l-59 -68q-8 8 -23 20t-65 31.5t-105 19.5q-132 0 -225.5 -98.5t-93.5 -229.5q0 -96 57.5 -158t157.5 -62q37 0 75 9.5t65.5 23t49.5 26.5t33 22l12 10l43 -78l-14 -11
t-38 -25t-60 -32t-78 -25t-93 -11q-143 0 -227.5 85t-84.5 221zM347 755l113 127h101l63 -127h-82l-36 80h-2l-68 -80h-89z" />
    <glyph glyph-name="ccircumflex" unicode="&#x109;" horiz-adv-x="546" 
d="M26 208q0 128 93 219t219 91q37 0 70.5 -7.5t54.5 -18t36.5 -21.5t22.5 -19l7 -7l-54 -63q-5 6 -15.5 14.5t-45 23t-71.5 14.5q-87 0 -152.5 -64.5t-65.5 -154.5q0 -64 40.5 -103.5t107.5 -39.5q42 0 84.5 17t64.5 34l21 17l27 -77q-9 -8 -26 -20.5t-71 -33.5t-109 -21
q-109 0 -173.5 61t-64.5 159zM204 579l113 127h101l63 -127h-82l-36 80h-2l-68 -80h-89z" />
    <glyph glyph-name="Cdotaccent" unicode="&#x10a;" horiz-adv-x="723" 
d="M54 294q0 113 58 211.5t154.5 155.5t205.5 57q50 0 94.5 -9.5t72.5 -23.5t49 -28t30 -23l9 -10l-59 -68q-8 8 -23 20t-65 31.5t-105 19.5q-132 0 -225.5 -98.5t-93.5 -229.5q0 -96 57.5 -158t157.5 -62q37 0 75 9.5t65.5 23t49.5 26.5t33 22l12 10l43 -78l-14 -11
t-38 -25t-60 -32t-78 -25t-93 -11q-143 0 -227.5 85t-84.5 221zM452 784l20 98h86l-19 -98h-87z" />
    <glyph glyph-name="cdotaccent" unicode="&#x10b;" horiz-adv-x="546" 
d="M26 208q0 128 93 219t219 91q37 0 70.5 -7.5t54.5 -18t36.5 -21.5t22.5 -19l7 -7l-54 -63q-5 6 -15.5 14.5t-45 23t-71.5 14.5q-87 0 -152.5 -64.5t-65.5 -154.5q0 -64 40.5 -103.5t107.5 -39.5q42 0 84.5 17t64.5 34l21 17l27 -77q-9 -8 -26 -20.5t-71 -33.5t-109 -21
q-109 0 -173.5 61t-64.5 159zM309 608l20 98h86l-19 -98h-87z" />
    <glyph glyph-name="Ccaron" unicode="&#x10c;" horiz-adv-x="723" 
d="M54 294q0 113 58 211.5t154.5 155.5t205.5 57q50 0 94.5 -9.5t72.5 -23.5t49 -28t30 -23l9 -10l-59 -68q-8 8 -23 20t-65 31.5t-105 19.5q-132 0 -225.5 -98.5t-93.5 -229.5q0 -96 57.5 -158t157.5 -62q37 0 75 9.5t65.5 23t49.5 26.5t33 22l12 10l43 -78l-14 -11
t-38 -25t-60 -32t-78 -25t-93 -11q-143 0 -227.5 85t-84.5 221zM443 755l-63 127h81l36 -81h2l69 81h89l-114 -127h-100z" />
    <glyph glyph-name="ccaron" unicode="&#x10d;" horiz-adv-x="546" 
d="M26 208q0 128 93 219t219 91q37 0 70.5 -7.5t54.5 -18t36.5 -21.5t22.5 -19l7 -7l-54 -63q-5 6 -15.5 14.5t-45 23t-71.5 14.5q-87 0 -152.5 -64.5t-65.5 -154.5q0 -64 40.5 -103.5t107.5 -39.5q42 0 84.5 17t64.5 34l21 17l27 -77q-9 -8 -26 -20.5t-71 -33.5t-109 -21
q-109 0 -173.5 61t-64.5 159zM300 579l-63 127h81l36 -81h2l69 81h89l-114 -127h-100z" />
    <glyph glyph-name="Dcaron" unicode="&#x10e;" horiz-adv-x="739" 
d="M39 0l137 706h218q146 0 229 -72t83 -203q0 -118 -52.5 -216t-148.5 -156.5t-216 -58.5h-250zM154 86h128q141 0 232 96.5t91 240.5q0 95 -58 146t-160 51h-129zM388 755l-63 127h81l36 -81h2l69 81h89l-114 -127h-100z" />
    <glyph glyph-name="dcaron" unicode="&#x10f;" horiz-adv-x="630" 
d="M27 195q0 140 83.5 231.5t196.5 91.5q49 0 90 -21.5t58 -63.5h2q0 19 4 37l46 236h97l-137 -706h-93l10 48l9 37h-2q-28 -42 -73 -69.5t-100 -27.5q-90 0 -140.5 55.5t-50.5 151.5zM126 202q0 -61 31 -95.5t84 -34.5q77 0 131 71.5t54 161.5q0 56 -28.5 92t-84.5 36
q-71 0 -129 -64t-58 -167zM661 706h85v-15q0 -59 -46 -130h-74q38 68 38 116q0 14 -3 29z" />
    <glyph glyph-name="Dcroat" unicode="&#x110;" horiz-adv-x="757" 
d="M58 312l16 82h58l61 312h218q146 0 229 -72t83 -203q0 -118 -52.5 -216t-148.5 -156.5t-216 -58.5h-250l60 312h-58zM170 86h129q140 0 231 96.5t91 240.5q0 95 -58 146t-160 51h-128l-45 -226h151l-16 -82h-151z" />
    <glyph glyph-name="dcroat" unicode="&#x111;" horiz-adv-x="599" 
d="M348 563l13 63h130l16 80h97l-16 -80h76l-13 -63h-75l-110 -563h-92l9 48l10 37h-2q-27 -42 -73 -69.5t-101 -27.5q-90 0 -140 55.5t-50 151.5q0 140 83.5 231.5t195.5 91.5q50 0 90.5 -21.5t57.5 -63.5h2q1 19 4 37l18 93h-130zM126 202q0 -61 30.5 -95.5t84.5 -34.5
q77 0 131 71.5t54 161.5q0 56 -28.5 92t-84.5 36q-71 0 -129 -64t-58 -167z" />
    <glyph glyph-name="Emacron" unicode="&#x112;" horiz-adv-x="572" 
d="M38 0l139 706h409l-17 -86h-311l-43 -221h253l-17 -86h-253l-44 -227h328l-16 -86h-428zM280 784l13 70h254l-13 -70h-254z" />
    <glyph glyph-name="emacron" unicode="&#x113;" horiz-adv-x="551" 
d="M27 204q0 128 84.5 221t209.5 93q95 0 144 -51t49 -136q0 -18 -4 -41t-8 -37l-4 -14h-369q-3 -15 -3 -30q0 -59 38 -98t106 -39q39 0 79 15t61 29l21 15l28 -77q-9 -7 -26 -18t-68 -29.5t-99 -18.5q-109 0 -174 60t-65 156zM145 312h270q2 11 2 27q0 49 -27 75.5
t-71 26.5q-56 0 -103.5 -35t-70.5 -94zM225 608l13 70h254l-13 -70h-254z" />
    <glyph glyph-name="Ebreve" unicode="&#x114;" horiz-adv-x="572" 
d="M38 0l139 706h409l-17 -86h-311l-43 -221h253l-17 -86h-253l-44 -227h328l-16 -86h-428zM406 751q-57 0 -92.5 32.5t-24.5 84.5l3 14h72l-2 -13q-6 -30 8 -45t39 -15t45 15.5t26 45.5l3 12h72l-2 -14q-11 -59 -51.5 -88t-95.5 -29z" />
    <glyph glyph-name="ebreve" unicode="&#x115;" horiz-adv-x="551" 
d="M27 204q0 128 84.5 221t209.5 93q95 0 144 -51t49 -136q0 -18 -4 -41t-8 -37l-4 -14h-369q-3 -15 -3 -30q0 -59 38 -98t106 -39q39 0 79 15t61 29l21 15l28 -77q-9 -7 -26 -18t-68 -29.5t-99 -18.5q-109 0 -174 60t-65 156zM145 312h270q2 11 2 27q0 49 -27 75.5
t-71 26.5q-56 0 -103.5 -35t-70.5 -94zM351 575q-57 0 -92.5 32.5t-24.5 84.5l3 14h72l-2 -13q-6 -30 8 -45t39 -15t45 15.5t26 45.5l3 12h72l-2 -14q-11 -59 -51.5 -88t-95.5 -29z" />
    <glyph glyph-name="Edotaccent" unicode="&#x116;" horiz-adv-x="572" 
d="M38 0l139 706h409l-17 -86h-311l-43 -221h253l-17 -86h-253l-44 -227h328l-16 -86h-428zM364 784l20 98h86l-19 -98h-87z" />
    <glyph glyph-name="edotaccent" unicode="&#x117;" horiz-adv-x="551" 
d="M27 204q0 128 84.5 221t209.5 93q95 0 144 -51t49 -136q0 -18 -4 -41t-8 -37l-4 -14h-369q-3 -15 -3 -30q0 -59 38 -98t106 -39q39 0 79 15t61 29l21 15l28 -77q-9 -7 -26 -18t-68 -29.5t-99 -18.5q-109 0 -174 60t-65 156zM145 312h270q2 11 2 27q0 49 -27 75.5
t-71 26.5q-56 0 -103.5 -35t-70.5 -94zM309 608l20 98h86l-19 -98h-87z" />
    <glyph glyph-name="Eogonek" unicode="&#x118;" horiz-adv-x="572" 
d="M38 0l139 706h409l-17 -86h-311l-43 -221h253l-17 -86h-253l-44 -227h328l-16 -86q-84 -58 -84 -96q0 -14 12 -23t24 -11l13 -2l-37 -75q-4 0 -11 1t-24 6.5t-30 13t-24 23t-11 35.5q0 65 87 126v2h-343z" />
    <glyph glyph-name="eogonek" unicode="&#x119;" horiz-adv-x="552" 
d="M27 204q0 128 84.5 221t209.5 93q95 0 144 -51t49 -136q0 -18 -4 -41t-8 -37l-4 -14h-369q-3 -15 -3 -30q0 -60 37.5 -98.5t106.5 -38.5q39 0 79 15t61 29l21 15l28 -77q-7 -6 -54.5 -34t-80.5 -58t-33 -58q0 -14 12.5 -23t24.5 -11l13 -2l-37 -75q-4 0 -11 1t-24 6.5
t-30 13t-24 23t-11 35.5q0 58 73 114v2h-11q-109 0 -174 60t-65 156zM145 312h270q2 11 2 27q0 49 -27 75.5t-71 26.5q-56 0 -103.5 -35t-70.5 -94z" />
    <glyph glyph-name="Ecaron" unicode="&#x11a;" horiz-adv-x="572" 
d="M38 0l139 706h409l-17 -86h-311l-43 -221h253l-17 -86h-253l-44 -227h328l-16 -86h-428zM355 755l-63 127h81l36 -81h2l69 81h89l-114 -127h-100z" />
    <glyph glyph-name="ecaron" unicode="&#x11b;" horiz-adv-x="551" 
d="M27 204q0 128 84.5 221t209.5 93q95 0 144 -51t49 -136q0 -18 -4 -41t-8 -37l-4 -14h-369q-3 -15 -3 -30q0 -59 38 -98t106 -39q39 0 79 15t61 29l21 15l28 -77q-9 -7 -26 -18t-68 -29.5t-99 -18.5q-109 0 -174 60t-65 156zM145 312h270q2 11 2 27q0 49 -27 75.5
t-71 26.5q-56 0 -103.5 -35t-70.5 -94zM300 579l-63 127h81l36 -81h2l69 81h89l-114 -127h-100z" />
    <glyph glyph-name="Gcircumflex" unicode="&#x11c;" horiz-adv-x="760" 
d="M54 288q0 175 126 302.5t298 127.5q76 0 139 -21t89 -42l25 -21l-60 -69q-3 3 -8.5 7t-24 14.5t-39 19t-53 15t-66.5 6.5q-137 0 -230 -100t-93 -234q0 -98 58.5 -156t152.5 -58q55 0 110 23.5t82 46.5l27 23l19 97h-114l16 86h205l-69 -355h-86l8 44l7 30h-2
q-3 -3 -9.5 -9t-28.5 -21t-46 -26t-61 -20.5t-75 -9.5q-127 0 -212 83t-85 217zM345 755l113 127h101l63 -127h-82l-36 80h-2l-68 -80h-89z" />
    <glyph glyph-name="gcircumflex" unicode="&#x11d;" horiz-adv-x="591" 
d="M41 -93q55 -33 135 -33q71 0 122 35t65 107l8 37l9 35h-1q-60 -82 -156 -82q-91 0 -142 56.5t-51 148.5q0 73 30 142t92.5 117t144.5 48q121 0 154 -80h2q0 11 2 21l9 47h92l-95 -492q-23 -116 -101 -170t-179 -54t-182 45zM129 218q0 -60 30.5 -94t87.5 -34
q81 0 127.5 74t46.5 161q0 109 -116 109q-80 0 -128 -65t-48 -151zM200 579l113 127h101l63 -127h-82l-36 80h-2l-68 -80h-89z" />
    <glyph glyph-name="Gbreve" unicode="&#x11e;" horiz-adv-x="760" 
d="M54 288q0 175 126 302.5t298 127.5q76 0 139 -21t89 -42l25 -21l-60 -69q-3 3 -8.5 7t-24 14.5t-39 19t-53 15t-66.5 6.5q-137 0 -230 -100t-93 -234q0 -98 58.5 -156t152.5 -58q55 0 110 23.5t82 46.5l27 23l19 97h-114l16 86h205l-69 -355h-86l8 44l7 30h-2
q-3 -3 -9.5 -9t-28.5 -21t-46 -26t-61 -20.5t-75 -9.5q-127 0 -212 83t-85 217zM492 751q-57 0 -92.5 32.5t-24.5 84.5l3 14h72l-2 -13q-6 -30 8 -45t39 -15t45 15.5t26 45.5l3 12h72l-2 -14q-11 -59 -51.5 -88t-95.5 -29z" />
    <glyph glyph-name="gbreve" unicode="&#x11f;" horiz-adv-x="591" 
d="M41 -93q55 -33 135 -33q71 0 122 35t65 107l8 37l9 35h-1q-60 -82 -156 -82q-91 0 -142 56.5t-51 148.5q0 73 30 142t92.5 117t144.5 48q121 0 154 -80h2q0 11 2 21l9 47h92l-95 -492q-23 -116 -101 -170t-179 -54t-182 45zM129 218q0 -60 30.5 -94t87.5 -34
q81 0 127.5 74t46.5 161q0 109 -116 109q-80 0 -128 -65t-48 -151zM347 575q-57 0 -92.5 32.5t-24.5 84.5l3 14h72l-2 -13q-6 -30 8 -45t39 -15t45 15.5t26 45.5l3 12h72l-2 -14q-11 -59 -51.5 -88t-95.5 -29z" />
    <glyph glyph-name="Gdotaccent" unicode="&#x120;" horiz-adv-x="760" 
d="M54 288q0 175 126 302.5t298 127.5q76 0 139 -21t89 -42l25 -21l-60 -69q-3 3 -8.5 7t-24 14.5t-39 19t-53 15t-66.5 6.5q-137 0 -230 -100t-93 -234q0 -98 58.5 -156t152.5 -58q55 0 110 23.5t82 46.5l27 23l19 97h-114l16 86h205l-69 -355h-86l8 44l7 30h-2
q-3 -3 -9.5 -9t-28.5 -21t-46 -26t-61 -20.5t-75 -9.5q-127 0 -212 83t-85 217zM450 784l20 98h86l-19 -98h-87z" />
    <glyph glyph-name="gdotaccent" unicode="&#x121;" horiz-adv-x="591" 
d="M41 -93q55 -33 135 -33q71 0 122 35t65 107l8 37l9 35h-1q-60 -82 -156 -82q-91 0 -142 56.5t-51 148.5q0 73 30 142t92.5 117t144.5 48q121 0 154 -80h2q0 11 2 21l9 47h92l-95 -492q-23 -116 -101 -170t-179 -54t-182 45zM129 218q0 -60 30.5 -94t87.5 -34
q81 0 127.5 74t46.5 161q0 109 -116 109q-80 0 -128 -65t-48 -151zM305 608l20 98h86l-19 -98h-87z" />
    <glyph glyph-name="Gcommaaccent" unicode="&#x122;" horiz-adv-x="760" 
d="M54 288q0 175 126 302.5t298 127.5q76 0 139 -21t89 -42l25 -21l-60 -69q-3 3 -8.5 7t-24 14.5t-39 19t-53 15t-66.5 6.5q-137 0 -230 -100t-93 -234q0 -98 58.5 -156t152.5 -58q55 0 110 23.5t82 46.5l27 23l19 97h-114l16 86h205l-69 -355h-86l8 44l7 30h-2
q-3 -3 -9.5 -9t-28.5 -21t-46 -26t-61 -20.5t-75 -9.5q-127 0 -212 83t-85 217zM284 -59h85v-15q0 -59 -46 -130h-74q38 68 38 116q0 14 -3 29z" />
    <glyph glyph-name="gcommaaccent" unicode="&#x123;" horiz-adv-x="591" 
d="M41 -93q55 -33 135 -33q71 0 122 35t65 107l8 37l9 35h-1q-60 -82 -156 -82q-91 0 -142 56.5t-51 148.5q0 73 30 142t92.5 117t144.5 48q121 0 154 -80h2q0 11 2 21l9 47h92l-95 -492q-23 -116 -101 -170t-179 -54t-182 45zM129 218q0 -60 30.5 -94t87.5 -34
q81 0 127.5 74t46.5 161q0 109 -116 109q-80 0 -128 -65t-48 -151zM499 563h-85v15q0 58 46 128h74q-38 -68 -38 -114q0 -14 3 -29z" />
    <glyph glyph-name="Hcircumflex" unicode="&#x124;" horiz-adv-x="755" 
d="M38 0l138 706h98l-61 -311h367l61 311h98l-138 -706h-98l60 310h-367l-60 -310h-98zM325 755l113 127h101l63 -127h-82l-36 80h-2l-68 -80h-89z" />
    <glyph glyph-name="hcircumflex" unicode="&#x125;" horiz-adv-x="601" 
d="M17 0l137 706h97l-50 -259l-11 -45h2q24 43 80 79.5t124 36.5q70 0 109.5 -33.5t39.5 -100.5q0 -27 -8 -64l-62 -320h-97l58 299q7 37 7 57q0 73 -75 73q-74 0 -134 -58.5t-75 -139.5l-45 -231h-97zM71 755l113 127h101l63 -127h-82l-36 80h-2l-68 -80h-89z" />
    <glyph glyph-name="Hbar" unicode="&#x126;" horiz-adv-x="798" 
d="M97 514l13 68h63l24 124h99l-24 -124h366l24 124h99l-24 -124h62l-13 -68h-63l-100 -514h-98l60 310h-367l-60 -310h-99l100 514h-62zM235 395h367l23 119h-367z" />
    <glyph glyph-name="hbar" unicode="&#x127;" horiz-adv-x="602" 
d="M57 563l12 63h70l16 80h97l-15 -80h133l-12 -63h-133l-22 -116l-12 -45h2q24 43 80.5 79.5t123.5 36.5q70 0 109.5 -33.5t39.5 -100.5q0 -27 -8 -64l-62 -320h-97l58 299q7 37 7 57q0 73 -75 73q-74 0 -134 -58.5t-75 -139.5l-45 -231h-97l109 563h-70z" />
    <glyph glyph-name="Itilde" unicode="&#x128;" horiz-adv-x="291" 
d="M38 0l138 706h98l-137 -706h-99zM74 756q24 127 119 127q27 0 46 -17t33 -34t30 -17q38 0 49 65h71q-25 -127 -119 -127q-26 0 -45 17t-34 34t-31 17q-35 0 -48 -65h-71z" />
    <glyph glyph-name="itilde" unicode="&#x129;" horiz-adv-x="248" 
d="M17 580q24 127 119 127q27 0 46 -17t33 -34t30 -17q38 0 49 65h71q-25 -127 -119 -127q-26 0 -45 17t-34 34t-31 17q-35 0 -48 -65h-71zM18 0l98 506h97l-98 -506h-97z" />
    <glyph glyph-name="Imacron" unicode="&#x12a;" horiz-adv-x="291" 
d="M38 0l138 706h98l-137 -706h-99zM114 784l13 70h254l-13 -70h-254z" />
    <glyph glyph-name="imacron" unicode="&#x12b;" horiz-adv-x="248" 
d="M58 608l13 70h254l-13 -70h-254zM18 0l98 506h97l-98 -506h-97z" />
    <glyph glyph-name="Ibreve" unicode="&#x12c;" horiz-adv-x="291" 
d="M38 0l138 706h98l-137 -706h-99zM240 751q-57 0 -92.5 32.5t-24.5 84.5l3 14h72l-2 -13q-6 -30 8 -45t39 -15t45 15.5t26 45.5l3 12h72l-2 -14q-11 -59 -51.5 -88t-95.5 -29z" />
    <glyph glyph-name="ibreve" unicode="&#x12d;" horiz-adv-x="248" 
d="M184 575q-57 0 -92.5 32.5t-24.5 84.5l3 14h72l-2 -13q-6 -30 8 -45t39 -15t45 15.5t26 45.5l3 12h72l-2 -14q-11 -59 -51.5 -88t-95.5 -29zM18 0l98 506h97l-98 -506h-97z" />
    <glyph glyph-name="Iogonek" unicode="&#x12e;" horiz-adv-x="291" 
d="M38 0l138 706h98l-137 -706q-84 -58 -84 -96q0 -14 12.5 -23t24.5 -11l12 -2l-37 -75q-4 0 -11 1t-24 6.5t-30 13t-24 23t-11 35.5q0 65 87 126v2h-14z" />
    <glyph glyph-name="iogonek" unicode="&#x12f;" horiz-adv-x="249" 
d="M214 506l-99 -506q-84 -58 -84 -96q0 -14 12.5 -23t24.5 -11l12 -2l-37 -75q-4 0 -11 1t-24 6.5t-30 13t-24 23t-11 35.5q0 60 72 115l102 519h97zM135 607l19 99h100l-20 -99h-99z" />
    <glyph glyph-name="Idotaccent" unicode="&#x130;" horiz-adv-x="291" 
d="M38 0l138 706h98l-137 -706h-99zM198 784l20 98h86l-19 -98h-87z" />
    <glyph glyph-name="dotlessi" unicode="&#x131;" horiz-adv-x="248" 
d="M18 0l98 506h97l-98 -506h-97z" />
    <glyph glyph-name="IJ" unicode="&#x132;" horiz-adv-x="611" 
d="M228 -5l17 90q25 0 48 6t48 21.5t44.5 48t28.5 79.5l91 466h98l-91 -467q-14 -74 -43 -124.5t-69.5 -75.5t-80.5 -34.5t-91 -9.5zM38 0l138 706h98l-138 -706h-98z" />
    <glyph glyph-name="ij" unicode="&#x133;" horiz-adv-x="498" 
d="M134 607l19 99h100l-20 -99h-99zM17 0l99 506h97l-99 -506h-97zM384 607l19 99h100l-19 -99h-100zM266 -11l100 517h97l-102 -522q-9 -48 -29.5 -84.5t-43 -56t-51.5 -31.5t-50 -15t-43 -3l-46 2l16 83q9 -1 22 -1q17 0 33.5 4t37.5 14t36.5 34t22.5 59z" />
    <glyph glyph-name="Jcircumflex" unicode="&#x134;" horiz-adv-x="532" 
d="M5 155q0 27 5 52l6 31h98l-5 -29q-4 -26 -4 -40q0 -90 89 -90q46 0 83.5 30.5t50.5 94.5l81 416h-177l17 86h275l-99 -511q-14 -71 -51.5 -119t-83 -68t-98.5 -20q-80 0 -133.5 42.5t-53.5 124.5zM252 755l113 127h101l63 -127h-82l-36 80h-2l-68 -80h-89z" />
    <glyph glyph-name="jcircumflex" unicode="&#x135;" horiz-adv-x="248" 
d="M35 579l113 127h100l63 -127h-81l-36 81h-2l-69 -81h-88zM15 -11l101 517h97l-102 -522q-9 -48 -29.5 -84.5t-43 -56t-51.5 -31.5t-50 -15t-43 -3l-46 2l16 83q9 -1 22 -1q17 0 33.5 4t37 14t36 34t22.5 59z" />
    <glyph glyph-name="Kcommaaccent" unicode="&#x136;" horiz-adv-x="623" 
d="M38 0l138 706h98l-58 -297h101l240 297h115l-276 -339v-2l146 -365h-105l-126 324h-112l-63 -324h-98zM212 -59h85v-15q0 -59 -46 -130h-74q38 68 38 116q0 14 -3 29z" />
    <glyph glyph-name="kcommaaccent" unicode="&#x137;" horiz-adv-x="524" 
d="M17 0l138 706h97l-76 -385h69l175 185h117l-216 -227v-2l131 -277h-105l-107 237h-80l-46 -237h-97zM176 -59h85v-15q0 -59 -46 -130h-74q38 68 38 116q0 14 -3 29z" />
    <glyph glyph-name="kgreenlandic" unicode="&#x138;" horiz-adv-x="522" 
d="M18 0l99 506h96l-38 -199h70l183 199h119l-228 -241v-2l126 -263h-107l-99 225h-80l-44 -225h-97z" />
    <glyph glyph-name="Lacute" unicode="&#x139;" horiz-adv-x="523" 
d="M38 0l138 706h99l-121 -620h316l-18 -86h-414zM187 755l98 127h109l-120 -127h-87z" />
    <glyph glyph-name="lacute" unicode="&#x13a;" horiz-adv-x="264" 
d="M35 102q0 16 5 43l109 561h97l-105 -544q-5 -23 -5 -38q0 -41 45 -41l16 1l-18 -86q-14 -2 -29 -2q-48 0 -81.5 24t-33.5 82zM161 755l98 127h109l-120 -127h-87z" />
    <glyph glyph-name="Lcommaaccent" unicode="&#x13b;" horiz-adv-x="523" 
d="M38 0l138 706h99l-121 -620h316l-18 -86h-414zM197 -59h85v-15q0 -59 -46 -130h-74q38 68 38 116q0 14 -3 29z" />
    <glyph glyph-name="lcommaaccent" unicode="&#x13c;" horiz-adv-x="264" 
d="M35 102q0 16 5 43l109 561h97l-105 -544q-5 -23 -5 -38q0 -41 45 -41l16 1l-18 -86q-14 -2 -29 -2q-48 0 -81.5 24t-33.5 82zM44 -59h85v-15q0 -59 -46 -130h-74q38 68 38 116q0 14 -3 29z" />
    <glyph glyph-name="Lcaron" unicode="&#x13d;" horiz-adv-x="523" 
d="M38 0l138 706h99l-121 -620h316l-18 -86h-414zM359 706h85v-15q0 -59 -46 -130h-74q38 68 38 116q0 14 -3 29z" />
    <glyph glyph-name="lcaron" unicode="&#x13e;" horiz-adv-x="294" 
d="M35 102q0 16 5 43l109 561h97l-105 -544q-5 -23 -5 -38q0 -41 45 -41l16 1l-18 -86q-14 -2 -29 -2q-48 0 -81.5 24t-33.5 82zM305 706h85v-15q0 -59 -46 -130h-74q38 68 38 116q0 14 -3 29z" />
    <glyph glyph-name="Ldot" unicode="&#x13f;" horiz-adv-x="523" 
d="M38 0l138 706h99l-121 -620h316l-18 -86h-414zM317 326l20 105h101l-20 -105h-101z" />
    <glyph glyph-name="ldot" unicode="&#x140;" horiz-adv-x="340" 
d="M35 102q0 16 5 43l109 561h97l-105 -544q-5 -23 -5 -38q0 -41 45 -41l16 1l-18 -86q-14 -2 -29 -2q-48 0 -81.5 24t-33.5 82zM244 326l20 105h101l-20 -105h-101z" />
    <glyph glyph-name="Lslash" unicode="&#x141;" horiz-adv-x="545" 
d="M54 267l18 97l67 34l60 308h98l-49 -252l121 63l-19 -97l-121 -63l-53 -271h316l-17 -86h-414l59 301z" />
    <glyph glyph-name="lslash" unicode="&#x142;" horiz-adv-x="318" 
d="M31 275l18 97l80 41l57 293h97l-46 -237l92 48l-19 -97l-92 -48l-41 -215q-4 -22 -4 -33q0 -41 45 -41l16 1l-18 -86q-14 -2 -29 -2q-48 0 -81.5 24t-33.5 82q0 16 5 43l33 171z" />
    <glyph glyph-name="Nacute" unicode="&#x143;" horiz-adv-x="750" 
d="M38 0l138 706h91l226 -459q8 -16 17.5 -41.5t15.5 -43.5l5 -17h2q5 63 13 102l89 459h99l-138 -706h-91l-226 458q-8 17 -18 43t-15 43l-6 17h-2q-5 -63 -13 -103l-89 -458h-98zM417 755l98 127h109l-120 -127h-87z" />
    <glyph glyph-name="nacute" unicode="&#x144;" horiz-adv-x="602" 
d="M18 0l98 506h95l-11 -59l-14 -48h2q24 44 82 81.5t127 37.5q70 0 109 -33.5t39 -100.5q0 -24 -7 -64l-62 -320h-97l58 299q7 37 7 57q0 73 -75 73t-134.5 -58t-75.5 -140l-44 -231h-97zM321 579l98 127h109l-120 -127h-87z" />
    <glyph glyph-name="Ncommaaccent" unicode="&#x145;" horiz-adv-x="750" 
d="M38 0l138 706h91l226 -459q8 -16 17.5 -41.5t15.5 -43.5l5 -17h2q5 63 13 102l89 459h99l-138 -706h-91l-226 458q-8 17 -18 43t-15 43l-6 17h-2q-5 -63 -13 -103l-89 -458h-98zM268 -59h85v-15q0 -59 -46 -130h-74q38 68 38 116q0 14 -3 29z" />
    <glyph glyph-name="ncommaaccent" unicode="&#x146;" horiz-adv-x="602" 
d="M18 0l98 506h95l-11 -59l-14 -48h2q24 44 82 81.5t127 37.5q70 0 109 -33.5t39 -100.5q0 -24 -7 -64l-62 -320h-97l58 299q7 37 7 57q0 73 -75 73t-134.5 -58t-75.5 -140l-44 -231h-97zM200 -59h85v-15q0 -59 -46 -130h-74q38 68 38 116q0 14 -3 29z" />
    <glyph glyph-name="Ncaron" unicode="&#x147;" horiz-adv-x="750" 
d="M38 0l138 706h91l226 -459q8 -16 17.5 -41.5t15.5 -43.5l5 -17h2q5 63 13 102l89 459h99l-138 -706h-91l-226 458q-8 17 -18 43t-15 43l-6 17h-2q-5 -63 -13 -103l-89 -458h-98zM417 755l-63 127h81l36 -81h2l69 81h89l-114 -127h-100z" />
    <glyph glyph-name="ncaron" unicode="&#x148;" horiz-adv-x="602" 
d="M18 0l98 506h95l-11 -59l-14 -48h2q24 44 82 81.5t127 37.5q70 0 109 -33.5t39 -100.5q0 -24 -7 -64l-62 -320h-97l58 299q7 37 7 57q0 73 -75 73t-134.5 -58t-75.5 -140l-44 -231h-97zM321 579l-63 127h81l36 -81h2l69 81h89l-114 -127h-100z" />
    <glyph glyph-name="napostrophe" unicode="&#x149;" horiz-adv-x="602" 
d="M18 0l98 506h95l-11 -59l-14 -48h2q24 44 82 81.5t127 37.5q70 0 109 -33.5t39 -100.5q0 -24 -7 -64l-62 -320h-97l58 299q7 37 7 57q0 73 -75 73t-134.5 -58t-75.5 -140l-44 -231h-97zM81 706h85v-15q0 -59 -46 -130h-74q38 68 38 116q0 14 -3 29z" />
    <glyph glyph-name="Eng" unicode="&#x14a;" horiz-adv-x="750" 
d="M38 0l138 706h92l225 -459q8 -17 17.5 -42.5l15.5 -42.5l5 -17h2q5 63 13 102l90 459h98l-130 -667q-15 -76 -45 -127.5t-71 -75t-80 -32.5t-88 -9l17 90q125 0 163 126l-221 447q-8 17 -17.5 42.5t-15.5 43.5l-5 17h-2q-5 -63 -13 -103l-89 -458h-99z" />
    <glyph glyph-name="eng" unicode="&#x14b;" horiz-adv-x="602" 
d="M18 0l99 506h94l-11 -59l-13 -48h2q24 44 81.5 81.5t126.5 37.5q70 0 109.5 -33.5t39.5 -100.5q0 -27 -8 -64l-65 -339q-9 -48 -29.5 -84.5t-43.5 -56t-52 -31.5t-50 -15t-43 -3l-46 2l17 83q8 -1 22 -1q17 0 33.5 4t37 14.5t36 34.5t22.5 59l60 312q7 37 7 57
q0 73 -75 73q-74 0 -134 -58.5t-75 -139.5l-45 -231h-97z" />
    <glyph glyph-name="Omacron" unicode="&#x14c;" horiz-adv-x="819" 
d="M53 296q0 111 60 209.5t157.5 155.5t203.5 57q141 0 228 -84t87 -216q0 -113 -61 -213.5t-158.5 -158.5t-202.5 -58q-141 0 -227.5 86.5t-86.5 221.5zM154 300q0 -98 60 -159.5t154 -61.5q122 0 220.5 99.5t98.5 234.5q0 95 -59.5 154.5t-154.5 59.5q-123 0 -221 -97
t-98 -230zM375 784l13 70h254l-13 -70h-254z" />
    <glyph glyph-name="omacron" unicode="&#x14d;" horiz-adv-x="622" 
d="M26 211q0 127 95.5 217t217.5 90q106 0 173 -61.5t67 -159.5q0 -128 -95.5 -218.5t-216.5 -90.5q-107 0 -174 62t-67 161zM125 215q0 -64 40 -103.5t103 -39.5q81 0 146.5 64.5t65.5 155.5q0 63 -40 102.5t-102 39.5q-83 0 -148 -64t-65 -155zM245 608l13 70h254l-13 -70
h-254z" />
    <glyph glyph-name="Obreve" unicode="&#x14e;" horiz-adv-x="819" 
d="M53 296q0 111 60 209.5t157.5 155.5t203.5 57q141 0 228 -84t87 -216q0 -113 -61 -213.5t-158.5 -158.5t-202.5 -58q-141 0 -227.5 86.5t-86.5 221.5zM154 300q0 -98 60 -159.5t154 -61.5q122 0 220.5 99.5t98.5 234.5q0 95 -59.5 154.5t-154.5 59.5q-123 0 -221 -97
t-98 -230zM501 751q-57 0 -92.5 32.5t-24.5 84.5l3 14h72l-2 -13q-6 -30 8 -45t39 -15t45 15.5t26 45.5l3 12h72l-2 -14q-11 -59 -51.5 -88t-95.5 -29z" />
    <glyph glyph-name="obreve" unicode="&#x14f;" horiz-adv-x="622" 
d="M26 211q0 127 95.5 217t217.5 90q106 0 173 -61.5t67 -159.5q0 -128 -95.5 -218.5t-216.5 -90.5q-107 0 -174 62t-67 161zM125 215q0 -64 40 -103.5t103 -39.5q81 0 146.5 64.5t65.5 155.5q0 63 -40 102.5t-102 39.5q-83 0 -148 -64t-65 -155zM370 575q-57 0 -92.5 32.5
t-24.5 84.5l3 14h72l-2 -13q-6 -30 8 -45t39 -15t45 15.5t26 45.5l3 12h72l-2 -14q-11 -59 -51.5 -88t-95.5 -29z" />
    <glyph glyph-name="Ohungarumlaut" unicode="&#x150;" horiz-adv-x="819" 
d="M53 296q0 111 60 209.5t157.5 155.5t203.5 57q141 0 228 -84t87 -216q0 -113 -61 -213.5t-158.5 -158.5t-202.5 -58q-141 0 -227.5 86.5t-86.5 221.5zM154 300q0 -98 60 -159.5t154 -61.5q122 0 220.5 99.5t98.5 234.5q0 95 -59.5 154.5t-154.5 59.5q-123 0 -221 -97
t-98 -230zM516 755l99 127h105l-120 -127h-84zM362 755l94 127h92l-96 -127h-90z" />
    <glyph glyph-name="ohungarumlaut" unicode="&#x151;" horiz-adv-x="622" 
d="M26 211q0 127 95.5 217t217.5 90q106 0 173 -61.5t67 -159.5q0 -128 -95.5 -218.5t-216.5 -90.5q-107 0 -174 62t-67 161zM125 215q0 -64 40 -103.5t103 -39.5q81 0 146.5 64.5t65.5 155.5q0 63 -40 102.5t-102 39.5q-83 0 -148 -64t-65 -155zM385 579l99 127h105
l-120 -127h-84zM231 579l94 127h92l-96 -127h-90z" />
    <glyph glyph-name="OE" unicode="&#x152;" horiz-adv-x="959" 
d="M53 292q0 112 59 210.5t156 155.5t206 57q31 0 76.5 -4.5t64.5 -4.5h359l-17 -86h-312l-43 -221h253l-17 -86h-253l-44 -227h329l-17 -86h-363q-15 0 -56.5 -4.5t-67.5 -4.5q-141 0 -227 84.5t-86 216.5zM154 292q0 -94 59 -153.5t158 -59.5q18 0 36 2t27 4l9 2l103 533
q-29 7 -69 7q-131 0 -227 -99t-96 -236z" />
    <glyph glyph-name="oe" unicode="&#x153;" horiz-adv-x="996" 
d="M26 211q0 127 95 217t217 90q71 0 124 -32t79 -88h2q39 56 97 88t126 32q95 0 144 -51t49 -136q0 -18 -4 -41t-8 -37l-4 -14h-368q-3 -17 -3 -31q0 -62 40 -99t104 -37q38 0 78.5 15t61.5 29l21 15l27 -77q-9 -7 -26 -18t-68 -29.5t-99 -18.5q-75 0 -129 32.5t-79 90.5
h-2q-43 -57 -105.5 -90t-129.5 -33q-107 0 -173.5 62t-66.5 161zM591 312h269q3 13 3 27q0 49 -27 75.5t-71 26.5q-57 0 -104 -34.5t-70 -94.5zM125 215q0 -64 39.5 -103.5t102.5 -39.5q81 0 146.5 64.5t65.5 155.5q0 63 -39.5 102.5t-102.5 39.5q-82 0 -147 -64t-65 -155z
" />
    <glyph glyph-name="Racute" unicode="&#x154;" horiz-adv-x="638" 
d="M38 0l138 706h240q61 0 100 -18q90 -42 90 -148q0 -80 -46 -145.5t-124 -87.5v-2q5 -10 13 -32l98 -273h-105l-97 281h-154l-54 -281h-99zM208 367h139q66 0 111.5 44t45.5 115q0 44 -28 69t-77 25h-142zM350 755l98 127h109l-120 -127h-87z" />
    <glyph glyph-name="racute" unicode="&#x155;" horiz-adv-x="374" 
d="M18 0l98 506h94l-18 -88l-10 -41h1q27 57 76.5 96t106.5 39q18 0 30 -2l-19 -96q-11 3 -27 3q-67 0 -124.5 -70.5t-75.5 -162.5l-35 -184h-97zM233 579l98 127h109l-120 -127h-87z" />
    <glyph glyph-name="Rcommaaccent" unicode="&#x156;" horiz-adv-x="638" 
d="M38 0l138 706h240q61 0 100 -18q90 -42 90 -148q0 -80 -46 -145.5t-124 -87.5v-2q5 -10 13 -32l98 -273h-105l-97 281h-154l-54 -281h-99zM208 367h139q66 0 111.5 44t45.5 115q0 44 -28 69t-77 25h-142zM225 -59h85v-15q0 -59 -46 -130h-74q38 68 38 116q0 14 -3 29z
" />
    <glyph glyph-name="rcommaaccent" unicode="&#x157;" horiz-adv-x="374" 
d="M18 0l98 506h94l-18 -88l-10 -41h1q27 57 76.5 96t106.5 39q18 0 30 -2l-19 -96q-11 3 -27 3q-67 0 -124.5 -70.5t-75.5 -162.5l-35 -184h-97zM16 -59h85v-15q0 -59 -46 -130h-74q38 68 38 116q0 14 -3 29z" />
    <glyph glyph-name="Rcaron" unicode="&#x158;" horiz-adv-x="638" 
d="M38 0l138 706h240q61 0 100 -18q90 -42 90 -148q0 -80 -46 -145.5t-124 -87.5v-2q5 -10 13 -32l98 -273h-105l-97 281h-154l-54 -281h-99zM208 367h139q66 0 111.5 44t45.5 115q0 44 -28 69t-77 25h-142zM350 755l-63 127h81l36 -81h2l69 81h89l-114 -127h-100z" />
    <glyph glyph-name="rcaron" unicode="&#x159;" horiz-adv-x="374" 
d="M18 0l98 506h94l-18 -88l-10 -41h1q27 57 76.5 96t106.5 39q18 0 30 -2l-19 -96q-11 3 -27 3q-67 0 -124.5 -70.5t-75.5 -162.5l-35 -184h-97zM233 579l-63 127h81l36 -81h2l69 81h89l-114 -127h-100z" />
    <glyph glyph-name="Sacute" unicode="&#x15a;" horiz-adv-x="547" 
d="M3 81l62 70q2 -3 7 -7.5t21.5 -17t35 -22t48 -17t60.5 -7.5q56 0 100 33.5t44 88.5q0 34 -29.5 60.5t-71 47t-83 44t-71 62.5t-29.5 91q0 88 74 149.5t177 61.5q62 0 112.5 -18t70.5 -36l20 -18l-56 -73q-6 6 -18 15t-50.5 23.5t-79.5 14.5q-61 0 -106 -36t-45 -83
q0 -31 29.5 -56t71.5 -45.5t84 -44t71.5 -64.5t29.5 -95q0 -87 -71 -150.5t-176 -63.5q-44 0 -84.5 9.5t-66 23t-45 27.5t-27.5 24zM318 755l98 127h109l-120 -127h-87z" />
    <glyph glyph-name="sacute" unicode="&#x15b;" horiz-adv-x="444" 
d="M-11 61l53 64q6 -6 16.5 -15t47 -24.5t76.5 -15.5q39 0 70.5 20t31.5 55q0 21 -23 37.5t-55.5 30.5t-65 31t-55.5 47t-23 71q0 71 58.5 113.5t135.5 42.5q49 0 90.5 -14t57.5 -28l17 -14l-48 -67q-4 5 -12.5 11.5t-39 18t-66.5 11.5q-38 0 -69.5 -18.5t-31.5 -54.5
q0 -21 23 -37.5t56 -30.5t65.5 -31t55.5 -47.5t23 -71.5q0 -69 -56.5 -113t-138.5 -44q-35 0 -68 7.5t-54.5 18t-38 21.5t-24.5 19zM232 579l98 127h109l-120 -127h-87z" />
    <glyph glyph-name="Scircumflex" unicode="&#x15c;" horiz-adv-x="547" 
d="M3 81l62 70q2 -3 7 -7.5t21.5 -17t35 -22t48 -17t60.5 -7.5q56 0 100 33.5t44 88.5q0 34 -29.5 60.5t-71 47t-83 44t-71 62.5t-29.5 91q0 88 74 149.5t177 61.5q62 0 112.5 -18t70.5 -36l20 -18l-56 -73q-6 6 -18 15t-50.5 23.5t-79.5 14.5q-61 0 -106 -36t-45 -83
q0 -31 29.5 -56t71.5 -45.5t84 -44t71.5 -64.5t29.5 -95q0 -87 -71 -150.5t-176 -63.5q-44 0 -84.5 9.5t-66 23t-45 27.5t-27.5 24zM222 755l113 127h101l63 -127h-82l-36 80h-2l-68 -80h-89z" />
    <glyph glyph-name="scircumflex" unicode="&#x15d;" horiz-adv-x="444" 
d="M-11 61l53 64q6 -6 16.5 -15t47 -24.5t76.5 -15.5q39 0 70.5 20t31.5 55q0 21 -23 37.5t-55.5 30.5t-65 31t-55.5 47t-23 71q0 71 58.5 113.5t135.5 42.5q49 0 90.5 -14t57.5 -28l17 -14l-48 -67q-4 5 -12.5 11.5t-39 18t-66.5 11.5q-38 0 -69.5 -18.5t-31.5 -54.5
q0 -21 23 -37.5t56 -30.5t65.5 -31t55.5 -47.5t23 -71.5q0 -69 -56.5 -113t-138.5 -44q-35 0 -68 7.5t-54.5 18t-38 21.5t-24.5 19zM136 579l113 127h101l63 -127h-82l-36 80h-2l-68 -80h-89z" />
    <glyph glyph-name="Scedilla" unicode="&#x15e;" horiz-adv-x="547" 
d="M123 -143q19 -6 41 -6t38 8.5t16 27.5q0 26 -47 26l-18 -1l35 79q-56 7 -102 29.5t-64 41.5l-19 19l62 70q2 -3 7 -7.5t21.5 -17t35 -22t48 -17t60.5 -7.5q56 0 100 33.5t44 88.5q0 34 -29.5 60.5t-71 47t-83 44t-71 62.5t-29.5 91q0 88 74 149.5t177 61.5
q62 0 112.5 -18t70.5 -36l20 -18l-56 -73q-6 6 -18 15t-50.5 23.5t-79.5 14.5q-61 0 -106 -36t-45 -83q0 -31 29.5 -56t71.5 -45.5t84 -44t71.5 -64.5t29.5 -95q0 -85 -69 -148t-171 -66l-16 -38q25 -4 42.5 -20.5t17.5 -44.5q0 -46 -35.5 -69t-79.5 -23q-16 0 -30.5 1.5
t-21.5 3.5l-7 2z" />
    <glyph glyph-name="scedilla" unicode="&#x15f;" horiz-adv-x="444" 
d="M66 -143q19 -6 41 -6t38 8.5t16 27.5q0 26 -47 26l-18 -1l36 80q-41 7 -77 24t-51 31l-15 14l53 64q6 -6 16.5 -15t47 -24.5t76.5 -15.5q39 0 70.5 20t31.5 55q0 21 -23 37.5t-55.5 30.5t-65 31t-55.5 47t-23 71q0 71 58.5 113.5t135.5 42.5q49 0 90.5 -14t57.5 -28
l17 -14l-48 -67q-4 5 -12.5 11.5t-39 18t-66.5 11.5q-38 0 -69.5 -18.5t-31.5 -54.5q0 -21 23 -37.5t56 -30.5t65.5 -31t55.5 -47.5t23 -71.5q0 -68 -55.5 -112t-136.5 -45l-16 -38q25 -4 42.5 -20.5t17.5 -44.5q0 -46 -35.5 -69t-79.5 -23q-16 0 -30.5 1.5t-21.5 3.5l-7 2z
" />
    <glyph glyph-name="Scaron" unicode="&#x160;" horiz-adv-x="547" 
d="M3 81l62 70q2 -3 7 -7.5t21.5 -17t35 -22t48 -17t60.5 -7.5q56 0 100 33.5t44 88.5q0 34 -29.5 60.5t-71 47t-83 44t-71 62.5t-29.5 91q0 88 74 149.5t177 61.5q62 0 112.5 -18t70.5 -36l20 -18l-56 -73q-6 6 -18 15t-50.5 23.5t-79.5 14.5q-61 0 -106 -36t-45 -83
q0 -31 29.5 -56t71.5 -45.5t84 -44t71.5 -64.5t29.5 -95q0 -87 -71 -150.5t-176 -63.5q-44 0 -84.5 9.5t-66 23t-45 27.5t-27.5 24zM318 755l-63 127h81l36 -81h2l69 81h89l-114 -127h-100z" />
    <glyph glyph-name="scaron" unicode="&#x161;" horiz-adv-x="444" 
d="M-11 61l53 64q6 -6 16.5 -15t47 -24.5t76.5 -15.5q39 0 70.5 20t31.5 55q0 21 -23 37.5t-55.5 30.5t-65 31t-55.5 47t-23 71q0 71 58.5 113.5t135.5 42.5q49 0 90.5 -14t57.5 -28l17 -14l-48 -67q-4 5 -12.5 11.5t-39 18t-66.5 11.5q-38 0 -69.5 -18.5t-31.5 -54.5
q0 -21 23 -37.5t56 -30.5t65.5 -31t55.5 -47.5t23 -71.5q0 -69 -56.5 -113t-138.5 -44q-35 0 -68 7.5t-54.5 18t-38 21.5t-24.5 19zM232 579l-63 127h81l36 -81h2l69 81h89l-114 -127h-100z" />
    <glyph glyph-name="Tcommaaccent" unicode="&#x162;" horiz-adv-x="589" 
d="M185 0l121 620h-242l16 86h583l-16 -86h-243l-120 -620h-21l-21 -50q25 -4 42.5 -20.5t17.5 -44.5q0 -46 -35.5 -69t-79.5 -23q-16 0 -30.5 1.5t-21.5 3.5l-7 2l11 57q19 -6 41 -6t38 8.5t16 27.5q0 26 -47 26l-18 -1l39 88h-23z" />
    <glyph glyph-name="tcommaaccent" unicode="&#x163;" horiz-adv-x="354" 
d="M52 -143q19 -6 41 -6t38 8.5t16 27.5q0 26 -47 26l-18 -1l49 108q-60 36 -60 124q0 22 6 51l44 227h-66l15 79h68l29 144h94l-29 -144h122l-15 -79h-122l-42 -221q-4 -20 -4 -40q0 -79 83 -79l29 2l-17 -86q-16 -2 -32 -2q-30 0 -57 6l-22 -52q25 -4 42.5 -20.5
t17.5 -44.5q0 -46 -35.5 -69t-79.5 -23q-16 0 -30.5 1.5t-21.5 3.5l-7 2z" />
    <glyph glyph-name="Tcaron" unicode="&#x164;" horiz-adv-x="589" 
d="M185 0l121 620h-242l16 86h583l-16 -86h-243l-120 -620h-99zM334 755l-63 127h81l36 -81h2l69 81h89l-114 -127h-100z" />
    <glyph glyph-name="tcaron" unicode="&#x165;" horiz-adv-x="353" 
d="M70 144q0 22 6 51l44 227h-66l15 79h68l29 144h94l-29 -144h122l-15 -79h-122l-42 -221q-4 -20 -4 -40q0 -79 83 -79l29 2l-17 -86q-16 -2 -32 -2q-163 0 -163 148zM332 707h85v-15q0 -57 -46 -127h-74q38 67 38 113q0 14 -3 29z" />
    <glyph glyph-name="Tbar" unicode="&#x166;" horiz-adv-x="613" 
d="M100 310l16 76h155l46 234h-242l17 86h582l-16 -86h-243l-46 -234h162l-15 -76h-161l-60 -310h-99l60 310h-156z" />
    <glyph glyph-name="tbar" unicode="&#x167;" horiz-adv-x="375" 
d="M32 259l13 68h66l19 95h-66l15 79h68l28 144h94l-28 -144h122l-15 -79h-122l-19 -95h122l-13 -68h-122l-11 -58q-4 -20 -4 -40q0 -79 84 -79l28 2l-17 -86q-15 -2 -31 -2q-32 0 -59 6.5t-52 22t-39 46t-14 73.5q0 22 6 51l12 64h-65z" />
    <glyph glyph-name="Utilde" unicode="&#x168;" horiz-adv-x="727" 
d="M72 197q0 27 6 57l88 452h98l-88 -455q-4 -19 -4 -42q0 -62 39 -96t110 -34q82 0 139 46t73 128l89 453h98l-90 -461q-23 -118 -107 -187.5t-204 -69.5q-110 0 -178.5 55.5t-68.5 153.5zM290 756q24 127 119 127q27 0 46 -17t33 -34t30 -17q38 0 49 65h71
q-25 -127 -119 -127q-26 0 -45 17t-34 34t-31 17q-35 0 -48 -65h-71z" />
    <glyph glyph-name="utilde" unicode="&#x169;" horiz-adv-x="596" 
d="M39 122q0 24 7 64l62 320h97l-58 -298q-6 -33 -6 -58q0 -35 17.5 -53.5t58.5 -18.5q73 0 130 60t72 138l45 230h97l-98 -506h-95l12 59l13 48h-2q-26 -45 -81 -82t-124 -37q-65 0 -106 32.5t-41 101.5zM187 580q24 127 119 127q27 0 46 -17t33 -34t30 -17q38 0 49 65h71
q-25 -127 -119 -127q-26 0 -45 17t-34 34t-31 17q-35 0 -48 -65h-71z" />
    <glyph glyph-name="Umacron" unicode="&#x16a;" horiz-adv-x="727" 
d="M72 197q0 27 6 57l88 452h98l-88 -455q-4 -19 -4 -42q0 -62 39 -96t110 -34q82 0 139 46t73 128l89 453h98l-90 -461q-23 -118 -107 -187.5t-204 -69.5q-110 0 -178.5 55.5t-68.5 153.5zM331 784l13 70h254l-13 -70h-254z" />
    <glyph glyph-name="umacron" unicode="&#x16b;" horiz-adv-x="596" 
d="M39 122q0 24 7 64l62 320h97l-58 -298q-6 -33 -6 -58q0 -35 17.5 -53.5t58.5 -18.5q73 0 130 60t72 138l45 230h97l-98 -506h-95l12 59l13 48h-2q-26 -45 -81 -82t-124 -37q-65 0 -106 32.5t-41 101.5zM228 608l13 70h254l-13 -70h-254z" />
    <glyph glyph-name="Ubreve" unicode="&#x16c;" horiz-adv-x="727" 
d="M72 197q0 27 6 57l88 452h98l-88 -455q-4 -19 -4 -42q0 -62 39 -96t110 -34q82 0 139 46t73 128l89 453h98l-90 -461q-23 -118 -107 -187.5t-204 -69.5q-110 0 -178.5 55.5t-68.5 153.5zM457 751q-57 0 -92.5 32.5t-24.5 84.5l3 14h72l-2 -13q-6 -30 8 -45t39 -15
t45 15.5t26 45.5l3 12h72l-2 -14q-11 -59 -51.5 -88t-95.5 -29z" />
    <glyph glyph-name="ubreve" unicode="&#x16d;" horiz-adv-x="596" 
d="M39 122q0 24 7 64l62 320h97l-58 -298q-6 -33 -6 -58q0 -35 17.5 -53.5t58.5 -18.5q73 0 130 60t72 138l45 230h97l-98 -506h-95l12 59l13 48h-2q-26 -45 -81 -82t-124 -37q-65 0 -106 32.5t-41 101.5zM353 575q-57 0 -92.5 32.5t-24.5 84.5l3 14h72l-2 -13q-6 -30 8 -45
t39 -15t45 15.5t26 45.5l3 12h72l-2 -14q-11 -59 -51.5 -88t-95.5 -29z" />
    <glyph glyph-name="Uring" unicode="&#x16e;" horiz-adv-x="727" 
d="M72 197q0 27 6 57l88 452h98l-88 -455q-4 -19 -4 -42q0 -62 39 -96t110 -34q82 0 139 46t73 128l89 453h98l-90 -461q-23 -118 -107 -187.5t-204 -69.5q-110 0 -178.5 55.5t-68.5 153.5zM455 743q-34 0 -55.5 17t-21.5 48q0 37 29 60.5t65 23.5q35 0 56.5 -17.5
t21.5 -48.5q0 -36 -29.5 -59.5t-65.5 -23.5zM458 784q16 0 28 12t12 29q0 12 -7.5 19.5t-20.5 7.5q-16 0 -28 -12.5t-12 -30.5q0 -25 28 -25z" />
    <glyph glyph-name="uring" unicode="&#x16f;" horiz-adv-x="596" 
d="M39 122q0 24 7 64l62 320h97l-58 -298q-6 -33 -6 -58q0 -35 17.5 -53.5t58.5 -18.5q73 0 130 60t72 138l45 230h97l-98 -506h-95l12 59l13 48h-2q-26 -45 -81 -82t-124 -37q-65 0 -106 32.5t-41 101.5zM352 567q-34 0 -55.5 17t-21.5 48q0 37 29 60.5t65 23.5
q35 0 56.5 -17.5t21.5 -48.5q0 -36 -29.5 -59.5t-65.5 -23.5zM355 608q16 0 28 12t12 29q0 12 -7.5 19.5t-20.5 7.5q-16 0 -28 -12.5t-12 -30.5q0 -25 28 -25z" />
    <glyph glyph-name="Uhungarumlaut" unicode="&#x170;" horiz-adv-x="727" 
d="M72 197q0 27 6 57l88 452h98l-88 -455q-4 -19 -4 -42q0 -62 39 -96t110 -34q82 0 139 46t73 128l89 453h98l-90 -461q-23 -118 -107 -187.5t-204 -69.5q-110 0 -178.5 55.5t-68.5 153.5zM472 755l99 127h105l-120 -127h-84zM318 755l94 127h92l-96 -127h-90z" />
    <glyph glyph-name="uhungarumlaut" unicode="&#x171;" horiz-adv-x="596" 
d="M39 122q0 24 7 64l62 320h97l-58 -298q-6 -33 -6 -58q0 -35 17.5 -53.5t58.5 -18.5q73 0 130 60t72 138l45 230h97l-98 -506h-95l12 59l13 48h-2q-26 -45 -81 -82t-124 -37q-65 0 -106 32.5t-41 101.5zM368 579l99 127h105l-120 -127h-84zM214 579l94 127h92l-96 -127
h-90z" />
    <glyph glyph-name="Uogonek" unicode="&#x172;" horiz-adv-x="726" 
d="M255 -128q0 61 73 114v2h-9q-109 0 -178 56t-69 153q0 27 6 57l88 452h98l-88 -455q-4 -19 -4 -42q0 -62 39 -96t110 -34q82 0 139 46t73 128l89 453h98l-91 -461q-10 -48 -28.5 -86.5t-44.5 -65.5t-48 -43.5t-53 -34.5q-54 -31 -83.5 -57.5t-29.5 -53.5q0 -14 12.5 -23
t25.5 -11l12 -2l-37 -75q-4 0 -11 1t-24 6.5t-30 13t-24 23t-11 35.5z" />
    <glyph glyph-name="uogonek" unicode="&#x173;" horiz-adv-x="596" 
d="M291 -128q0 62 75 118l14 69l13 48h-2q-26 -45 -81 -82t-124 -37q-65 0 -106 32.5t-41 101.5q0 24 7 64l62 320h97l-58 -298q-6 -33 -6 -58q0 -35 17.5 -53.5t58.5 -18.5q73 0 130 60t72 138l45 230h97l-98 -506q-84 -58 -84 -96q0 -14 12.5 -23t24.5 -11l12 -2l-37 -75
q-4 0 -11 1t-24 6.5t-30 13t-24 23t-11 35.5z" />
    <glyph glyph-name="Wcircumflex" unicode="&#x174;" horiz-adv-x="953" 
d="M157 0l-47 706h101l26 -518v-75h2q13 36 31 75l244 518h90l31 -518v-75h2q13 38 29 75l225 518h108l-318 -706h-116l-31 458v100h-2q-21 -54 -42 -99l-219 -459h-114zM426 755l113 127h101l63 -127h-82l-36 80h-2l-68 -80h-89z" />
    <glyph glyph-name="wcircumflex" unicode="&#x175;" horiz-adv-x="810" 
d="M120 0l-64 506h97l36 -357l2 -54h2q12 29 24 54l178 356h90l39 -356l3 -54h2q10 28 23 54l176 357h104l-261 -506h-107l-42 327l-3 54h-2q-12 -28 -25 -54l-167 -327h-105zM312 579l113 127h101l63 -127h-82l-36 80h-2l-68 -80h-89z" />
    <glyph glyph-name="Ycircumflex" unicode="&#x176;" horiz-adv-x="579" 
d="M177 0l59 299l-156 407h106l85 -232l26 -89h2q30 48 60 88l173 233h119l-318 -410l-58 -296h-98zM231 755l113 127h101l63 -127h-82l-36 80h-2l-68 -80h-89z" />
    <glyph glyph-name="ycircumflex" unicode="&#x177;" horiz-adv-x="509" 
d="M-47 -108q21 -18 55 -18q63 0 107 73l37 60l-116 499h101l68 -342l8 -60h1q15 33 29 58l190 344h109l-355 -599q-70 -117 -175 -117q-28 0 -54 8t-38 16l-12 9zM164 579l113 127h101l63 -127h-82l-36 80h-2l-68 -80h-89z" />
    <glyph glyph-name="Ydieresis" unicode="&#x178;" horiz-adv-x="579" 
d="M177 0l59 299l-156 407h106l85 -232l26 -89h2q30 48 60 88l173 233h119l-318 -410l-58 -296h-98zM423 781l19 101h80l-20 -101h-79zM255 781l20 101h80l-20 -101h-80z" />
    <glyph glyph-name="Zacute" unicode="&#x179;" horiz-adv-x="602" 
d="M-18 0l13 66l427 490q16 18 32 34l24 24l8 7v2q-18 -3 -52 -3h-314l17 86h495l-13 -65l-428 -491q-16 -18 -32 -34t-24 -23l-8 -7v-2q18 2 52 2h335l-16 -86h-516zM355 755l98 127h109l-120 -127h-87z" />
    <glyph glyph-name="zacute" unicode="&#x17a;" horiz-adv-x="511" 
d="M-20 0l10 56l313 320l50 47v2q-15 -2 -48 -2h-233l16 83h416l-10 -56l-314 -321l-51 -46v-2q16 2 49 2h252l-16 -83h-434zM261 579l98 127h109l-120 -127h-87z" />
    <glyph glyph-name="Zdotaccent" unicode="&#x17b;" horiz-adv-x="602" 
d="M-18 0l13 66l427 490q16 18 32 34l24 24l8 7v2q-18 -3 -52 -3h-314l17 86h495l-13 -65l-428 -491q-16 -18 -32 -34t-24 -23l-8 -7v-2q18 2 52 2h335l-16 -86h-516zM363 784l20 98h86l-19 -98h-87z" />
    <glyph glyph-name="zdotaccent" unicode="&#x17c;" horiz-adv-x="511" 
d="M-20 0l10 56l313 320l50 47v2q-15 -2 -48 -2h-233l16 83h416l-10 -56l-314 -321l-51 -46v-2q16 2 49 2h252l-16 -83h-434zM270 608l20 98h86l-19 -98h-87z" />
    <glyph glyph-name="Zcaron" unicode="&#x17d;" horiz-adv-x="602" 
d="M-18 0l13 66l427 490q16 18 32 34l24 24l8 7v2q-18 -3 -52 -3h-314l17 86h495l-13 -65l-428 -491q-16 -18 -32 -34t-24 -23l-8 -7v-2q18 2 52 2h335l-16 -86h-516zM355 755l-63 127h81l36 -81h2l69 81h89l-114 -127h-100z" />
    <glyph glyph-name="zcaron" unicode="&#x17e;" horiz-adv-x="511" 
d="M-20 0l10 56l313 320l50 47v2q-15 -2 -48 -2h-233l16 83h416l-10 -56l-314 -321l-51 -46v-2q16 2 49 2h252l-16 -83h-434zM261 579l-63 127h81l36 -81h2l69 81h89l-114 -127h-100z" />
    <glyph glyph-name="longs" unicode="&#x17f;" horiz-adv-x="275" 
d="M45 0l82 422h-63l15 79h63l5 24q9 47 29.5 82.5t43.5 54.5t52.5 31t51 15t42.5 3l44 -3l-18 -83q-9 2 -23 2q-106 0 -126 -106l-101 -521h-97z" />
    <glyph glyph-name="florin" unicode="&#x192;" horiz-adv-x="566" 
d="M-36 -22q32 -5 63 -5q17 0 33.5 4t37 14.5t38 34.5t27.5 58l75 266h-82l15 78h89l32 111q16 56 45 94.5t64 55.5t62.5 23t57.5 6q19 0 42.5 -2t37.5 -4l14 -2l-16 -83q-48 7 -78 7q-102 0 -135 -111l-28 -95h117l-15 -78h-124l-80 -284q-16 -56 -45 -94t-64.5 -54.5
t-63 -22.5t-56.5 -6q-18 0 -38 1.5t-31 3.5l-11 2z" />
    <glyph glyph-name="Scommaaccent" unicode="&#x218;" horiz-adv-x="547" 
d="M3 81l62 70q2 -3 7 -7.5t21.5 -17t35 -22t48 -17t60.5 -7.5q56 0 100 33.5t44 88.5q0 34 -29.5 60.5t-71 47t-83 44t-71 62.5t-29.5 91q0 88 74 149.5t177 61.5q62 0 112.5 -18t70.5 -36l20 -18l-56 -73q-6 6 -18 15t-50.5 23.5t-79.5 14.5q-61 0 -106 -36t-45 -83
q0 -31 29.5 -56t71.5 -45.5t84 -44t71.5 -64.5t29.5 -95q0 -87 -71 -150.5t-176 -63.5q-44 0 -84.5 9.5t-66 23t-45 27.5t-27.5 24zM160 -59h85v-15q0 -59 -46 -130h-74q38 68 38 116q0 14 -3 29z" />
    <glyph glyph-name="scommaaccent" unicode="&#x219;" horiz-adv-x="444" 
d="M-11 61l53 64q6 -6 16.5 -15t47 -24.5t76.5 -15.5q39 0 70.5 20t31.5 55q0 21 -23 37.5t-55.5 30.5t-65 31t-55.5 47t-23 71q0 71 58.5 113.5t135.5 42.5q49 0 90.5 -14t57.5 -28l17 -14l-48 -67q-4 5 -12.5 11.5t-39 18t-66.5 11.5q-38 0 -69.5 -18.5t-31.5 -54.5
q0 -21 23 -37.5t56 -30.5t65.5 -31t55.5 -47.5t23 -71.5q0 -69 -56.5 -113t-138.5 -44q-35 0 -68 7.5t-54.5 18t-38 21.5t-24.5 19zM110 -59h85v-15q0 -59 -46 -130h-74q38 68 38 116q0 14 -3 29z" />
    <glyph glyph-name="uni021A" unicode="&#x21a;" horiz-adv-x="589" 
d="M185 0l121 620h-242l16 86h583l-16 -86h-243l-120 -620h-99zM181 -59h85v-15q0 -59 -46 -130h-74q38 68 38 116q0 14 -3 29z" />
    <glyph glyph-name="uni021B" unicode="&#x21b;" horiz-adv-x="353" 
d="M70 144q0 22 6 51l44 227h-66l15 79h68l29 144h94l-29 -144h122l-15 -79h-122l-42 -221q-4 -20 -4 -40q0 -79 83 -79l29 2l-17 -86q-16 -2 -32 -2q-163 0 -163 148zM108 -59h85v-15q0 -59 -46 -130h-74q38 68 38 116q0 14 -3 29z" />
    <glyph glyph-name="circumflex" unicode="&#x2c6;" horiz-adv-x="499" 
d="M40 755l113 127h101l63 -127h-82l-36 80h-2l-68 -80h-89z" />
    <glyph glyph-name="caron" unicode="&#x2c7;" horiz-adv-x="499" 
d="M136 755l-63 127h81l36 -81h2l69 81h89l-114 -127h-100z" />
    <glyph glyph-name="breve" unicode="&#x2d8;" horiz-adv-x="499" 
d="M187 751q-57 0 -92.5 32.5t-24.5 84.5l3 14h72l-2 -13q-6 -30 8 -45t39 -15t45 15.5t26 45.5l3 12h72l-2 -14q-11 -59 -51.5 -88t-95.5 -29z" />
    <glyph glyph-name="dotaccent" unicode="&#x2d9;" horiz-adv-x="500" 
d="M145 784l20 98h86l-19 -98h-87z" />
    <glyph glyph-name="ring" unicode="&#x2da;" horiz-adv-x="500" 
d="M185 743q-34 0 -55.5 17t-21.5 48q0 37 29 60.5t65 23.5q35 0 56.5 -17.5t21.5 -48.5q0 -36 -29.5 -59.5t-65.5 -23.5zM188 784q16 0 28 12t12 29q0 12 -7.5 19.5t-20.5 7.5q-16 0 -28 -12.5t-12 -30.5q0 -25 28 -25z" />
    <glyph glyph-name="ogonek" unicode="&#x2db;" horiz-adv-x="499" 
d="M105 -128q0 82 128 151l58 -13l-27 -18t-42.5 -39.5t-26.5 -48.5q0 -14 11.5 -23t23.5 -11l12 -2l-37 -75q-4 0 -11 1t-24 6.5t-30 13t-24 23t-11 35.5z" />
    <glyph glyph-name="tilde" unicode="&#x2dc;" horiz-adv-x="499" 
d="M19 756q24 127 119 127q27 0 46 -17t33 -34t30 -17q38 0 49 65h71q-25 -127 -119 -127q-26 0 -45 17t-34 34t-31 17q-35 0 -48 -65h-71z" />
    <glyph glyph-name="hungarumlaut" unicode="&#x2dd;" horiz-adv-x="499" 
d="M170 755l99 127h105l-120 -127h-84zM16 755l94 127h92l-96 -127h-90z" />
    <glyph glyph-name="uni1E9E" unicode="&#x1e9e;" horiz-adv-x="679" 
d="M30 0l100 514q17 85 78.5 138.5t146.5 53.5h324l-13 -67l-177 -203l-31 -34v-2q67 -6 110.5 -47.5t43.5 -116.5q0 -71 -43.5 -133t-111.5 -87q-43 -16 -132 -16h-112l17 86h102q62 0 89 11q39 16 64.5 53.5t25.5 79.5q0 45 -27.5 68.5t-92.5 23.5h-63l14 69l143 169
l31 35.5t20 20.5l5 5v2q-6 -3 -42 -3h-143q-47 0 -83 -32t-45 -80l-100 -508h-98z" />
    <glyph glyph-name="thinspace" unicode="&#x2009;" horiz-adv-x="14" 
 />
    <glyph glyph-name="endash" unicode="&#x2013;" horiz-adv-x="701" 
d="M77 246l15 78h526l-15 -78h-526z" />
    <glyph glyph-name="emdash" unicode="&#x2014;" horiz-adv-x="901" 
d="M77 246l15 78h726l-15 -78h-726z" />
    <glyph glyph-name="quoteleft" unicode="&#x2018;" horiz-adv-x="227" 
d="M89 523l103 194h75l-80 -194h-98z" />
    <glyph glyph-name="quoteright" unicode="&#x2019;" horiz-adv-x="221" 
d="M92 523l80 194h98l-103 -194h-75z" />
    <glyph glyph-name="quotesinglbase" unicode="&#x201a;" horiz-adv-x="249" 
d="M-32 -90l80 195h98l-103 -195h-75z" />
    <glyph glyph-name="quotedblleft" unicode="&#x201c;" horiz-adv-x="368" 
d="M230 523l103 194h75l-80 -194h-98zM89 523l103 194h75l-80 -194h-98z" />
    <glyph glyph-name="quotedblright" unicode="&#x201d;" horiz-adv-x="362" 
d="M233 523l81 194h97l-102 -194h-76zM92 523l81 194h97l-102 -194h-76z" />
    <glyph glyph-name="quotedblbase" unicode="&#x201e;" horiz-adv-x="390" 
d="M109 -90l81 195h97l-102 -195h-76zM-32 -90l80 195h98l-102 -195h-76z" />
    <glyph glyph-name="dagger" unicode="&#x2020;" horiz-adv-x="419" 
d="M94 -50l93 479h-121l15 77h121l38 200h94l-38 -200h124l-16 -77h-124l-93 -479h-93z" />
    <glyph glyph-name="daggerdbl" unicode="&#x2021;" horiz-adv-x="453" 
d="M111 -50l42 221h-120l15 78h120l36 180h-121l15 77h121l38 200h94l-38 -200h124l-16 -77h-124l-35 -180h124l-15 -78h-124l-43 -221h-93z" />
    <glyph glyph-name="bullet" unicode="&#x2022;" horiz-adv-x="409" 
d="M203 136q-65 0 -110 45t-45 110t45 110t110 45q64 0 109 -45.5t45 -109.5t-45 -109.5t-109 -45.5z" />
    <glyph glyph-name="ellipsis" unicode="&#x2026;" horiz-adv-x="766" 
d="M536 0l20 105h102l-21 -105h-101zM276 0l21 105h101l-20 -105h-102zM17 0l20 105h102l-21 -105h-101z" />
    <glyph glyph-name="perthousand" unicode="&#x2030;" horiz-adv-x="1121" 
d="M232 422q-61 0 -98 36t-37 95q0 63 53.5 114t120.5 51q60 0 97.5 -37t37.5 -95q0 -64 -53.5 -114t-120.5 -50zM12 0l667 706h99l-667 -706h-99zM239 496q35 0 61.5 26t26.5 62q0 27 -17.5 44t-45.5 17q-34 0 -61 -27t-27 -63q0 -26 17 -42.5t46 -16.5zM738 119
q0 63 53.5 114t120.5 51q60 0 97.5 -37t37.5 -95q0 -64 -53.5 -114t-119.5 -50q-61 0 -98.5 36t-37.5 95zM383 119q0 63 53 114t120 51q60 0 97.5 -37t37.5 -95q0 -64 -53.5 -114t-119.5 -50q-61 0 -98 36t-37 95zM817 121q0 -26 17.5 -42.5t45.5 -16.5q35 0 61.5 26
t26.5 62q0 27 -17 44t-45 17q-34 0 -61.5 -27.5t-27.5 -62.5zM461 121q0 -26 17.5 -42.5t46.5 -16.5q34 0 61 26.5t27 61.5q0 27 -17.5 44t-45.5 17q-34 0 -61.5 -27.5t-27.5 -62.5z" />
    <glyph glyph-name="guilsinglleft" unicode="&#x2039;" horiz-adv-x="346" 
d="M166 77l-129 207l191 204h102l-200 -210l128 -201h-92z" />
    <glyph glyph-name="guilsinglright" unicode="&#x203a;" horiz-adv-x="346" 
d="M9 77l200 210l-127 201h92l129 -207l-192 -204h-102z" />
    <glyph glyph-name="fraction" unicode="&#x2044;" horiz-adv-x="168" 
d="M-169 0h-80l472 706h80z" />
    <glyph glyph-name="zerosuperior" unicode="&#x2070;" 
d="M149 413q-135 0 -135 146q0 47 10.5 97.5t32 100t62.5 81.5t94 32q135 0 135 -147q0 -37 -6 -76.5t-21 -82t-37 -75.5t-57 -54.5t-78 -21.5zM150 482q41 0 70 41.5t40.5 93t11.5 101.5q0 82 -59 82q-41 0 -70 -41.5t-40.5 -93.5t-11.5 -103q0 -80 59 -80z" />
    <glyph glyph-name="foursuperior" unicode="&#x2074;" 
d="M185 423l21 107h-209l9 50l252 280h86l-52 -264h62l-12 -66h-62l-21 -107h-74zM96 596h122l24 123l15 58h-2q-18 -27 -38 -48l-121 -131v-2z" />
    <glyph glyph-name="fivesuperior" unicode="&#x2075;" 
d="M151 413q-44 0 -79.5 17t-49.5 34l-13 17l50 48q3 -5 9.5 -13t30.5 -21t52 -13q39 0 71.5 28.5t32.5 68.5q0 29 -21.5 48.5t-55.5 19.5q-20 0 -39.5 -5.5t-28.5 -11.5l-10 -5l-41 16l66 219h233l-13 -67h-170l-19 -62l-11 -32h2q22 10 50 10q58 0 96.5 -36t38.5 -91
q0 -66 -53.5 -117.5t-127.5 -51.5z" />
    <glyph glyph-name="sixsuperior" unicode="&#x2076;" 
d="M163 413q-65 0 -103.5 42.5t-38.5 116.5q0 60 28 127t86.5 119t129.5 52q27 0 51 -6t35 -12l11 -5l-34 -60q-26 13 -64 13q-46 0 -83.5 -35.5t-57.5 -89.5h2q38 31 85 31q54 0 87.5 -33.5t33.5 -86.5q0 -74 -50 -123.5t-118 -49.5zM166 482q39 0 64.5 30.5t25.5 70.5
q0 29 -18 46.5t-49 17.5q-36 0 -63.5 -23t-27.5 -55q0 -35 18.5 -61t49.5 -26z" />
    <glyph glyph-name="sevensuperior" unicode="&#x2077;" 
d="M-2 423l237 323l38 47v2q-19 -2 -45 -2h-166l13 67h302l-10 -51l-283 -386h-86z" />
    <glyph glyph-name="eightsuperior" unicode="&#x2078;" 
d="M158 413q-62 0 -104.5 31t-42.5 87q0 73 94 136q-33 28 -33 70q0 62 48 97.5t108 35.5q59 0 95.5 -27.5t36.5 -74.5q0 -65 -78 -133q48 -34 48 -82q0 -59 -53 -99.5t-119 -40.5zM253 552q0 10 -4.5 18.5t-9.5 15t-17.5 14l-19.5 11.5t-23.5 12.5t-23.5 11.5
q-68 -43 -68 -97q0 -27 21.5 -43.5t51.5 -16.5q34 0 63.5 21.5t29.5 52.5zM144 740q0 -18 15.5 -34t27.5 -22l42 -21q57 44 57 95q0 22 -18 34.5t-44 12.5q-30 0 -55 -17t-25 -48z" />
    <glyph glyph-name="ninesuperior" unicode="&#x2079;" 
d="M13 436l34 60q26 -13 64 -13q46 0 83.5 35.5t57.5 89.5h-2q-38 -31 -85 -31q-54 0 -87.5 33.5t-33.5 86.5q0 74 50 123.5t118 49.5q65 0 103.5 -42.5t38.5 -116.5q0 -60 -28 -127t-86.5 -119t-129.5 -52q-27 0 -51 5.5t-35 11.5zM186 636q36 0 63.5 23t27.5 55
q0 35 -18.5 61t-49.5 26q-39 0 -64.5 -30.5t-25.5 -71.5q0 -28 17.5 -45.5t49.5 -17.5z" />
    <glyph glyph-name="zeroinferior" unicode="&#x2080;" 
d="M56 -167q-135 0 -135 146q0 47 10.5 97.5t32 100t62.5 81.5t94 32q135 0 135 -147q0 -37 -6 -76.5t-21 -82t-37 -75.5t-57 -54.5t-78 -21.5zM57 -98q41 0 70 41.5t40.5 93t11.5 101.5q0 82 -59 82q-41 0 -70 -41.5t-40.5 -93.5t-11.5 -103q0 -80 59 -80z" />
    <glyph glyph-name="oneinferior" unicode="&#x2081;" 
d="M-70 -157l12 66h93l47 244l8 26h-2q-6 -8 -22 -22l-40 -32l-38 52l127 103h67l-72 -371h92l-13 -66h-259z" />
    <glyph glyph-name="twoinferior" unicode="&#x2082;" 
d="M-91 -157q1 58 29.5 102t68 70t79 48t67 48.5t27.5 57.5q0 23 -16.5 37.5t-43.5 14.5q-22 0 -45.5 -12t-36.5 -24l-12 -12l-44 49q7 8 19.5 19t50 30t73.5 19q59 0 96 -31.5t37 -83.5q0 -43 -23.5 -77t-58 -56.5t-70 -41.5t-65 -42t-37.5 -49h210l-13 -66h-292z" />
    <glyph glyph-name="threeinferior" unicode="&#x2083;" 
d="M46 -168q-43 0 -80.5 16.5t-53.5 33.5l-15 16l47 49q4 -5 11.5 -12.5t34.5 -20.5t57 -13q38 0 66 25.5t28 62.5q0 27 -22.5 43t-53.5 16h-34l-12 38l108 103l29 24v2q-19 -3 -36 -3h-138l12 67h272l-9 -48l-134 -126q37 -7 66 -36t29 -79q0 -62 -49.5 -110t-122.5 -48z
" />
    <glyph glyph-name="fourinferior" unicode="&#x2084;" 
d="M84 -157l21 107h-209l9 50l252 280h86l-52 -264h62l-12 -66h-62l-21 -107h-74zM-5 16h122l24 123l15 58h-2q-18 -27 -38 -48l-121 -131v-2z" />
    <glyph glyph-name="fiveinferior" unicode="&#x2085;" 
d="M46 -167q-44 0 -79.5 17t-48.5 34l-14 17l50 48q3 -5 9.5 -13t30.5 -21t52 -13q39 0 71.5 28.5t32.5 68.5q0 29 -21.5 48.5t-55.5 19.5q-20 0 -39.5 -5.5t-29.5 -11.5l-9 -5l-41 16l66 219h233l-13 -67h-170l-19 -62l-11 -32h2q22 10 50 10q58 0 96.5 -36t38.5 -91
q0 -66 -53.5 -117.5t-127.5 -51.5z" />
    <glyph glyph-name="sixinferior" unicode="&#x2086;" 
d="M67 -167q-65 0 -103.5 42.5t-38.5 116.5q0 60 28 127t86.5 119t129.5 52q27 0 51 -6t35 -12l11 -5l-34 -60q-26 13 -64 13q-46 0 -83.5 -35.5t-57.5 -89.5h2q38 31 85 31q54 0 87.5 -33.5t33.5 -86.5q0 -74 -50 -123.5t-118 -49.5zM70 -98q39 0 64.5 30.5t25.5 70.5
q0 29 -18 46.5t-49 17.5q-36 0 -63.5 -23t-27.5 -55q0 -35 18.5 -61t49.5 -26z" />
    <glyph glyph-name="seveninferior" unicode="&#x2087;" 
d="M-92 -158l237 323l38 47v2q-19 -2 -45 -2h-166l13 67h302l-10 -51l-283 -386h-86z" />
    <glyph glyph-name="eightinferior" unicode="&#x2088;" 
d="M60 -166q-62 0 -104.5 31t-42.5 87q0 73 94 136q-33 28 -33 70q0 62 48 97.5t108 35.5q59 0 95.5 -27.5t36.5 -74.5q0 -65 -78 -133q48 -34 48 -82q0 -59 -53 -99.5t-119 -40.5zM155 -27q0 10 -4.5 18.5t-9.5 15t-17.5 14l-19.5 11.5t-23.5 12.5t-23.5 11.5
q-68 -43 -68 -97q0 -27 21.5 -43.5t51.5 -16.5q34 0 63.5 21.5t29.5 52.5zM46 161q0 -18 15.5 -34t27.5 -22l42 -21q57 44 57 95q0 22 -18 34.5t-44 12.5q-30 0 -55 -17t-25 -48z" />
    <glyph glyph-name="nineinferior" unicode="&#x2089;" 
d="M-88 -144l34 60q26 -13 64 -13q46 0 83.5 35.5t57.5 89.5h-2q-38 -31 -85 -31q-54 0 -87.5 33.5t-33.5 86.5q0 74 50 123.5t118 49.5q65 0 103.5 -42.5t38.5 -116.5q0 -60 -28 -127t-86.5 -119t-129.5 -52q-27 0 -51 5.5t-35 11.5zM85 56q36 0 63.5 23t27.5 55
q0 35 -18.5 61t-49.5 26q-39 0 -64.5 -30.5t-25.5 -71.5q0 -28 17.5 -45.5t49.5 -17.5z" />
    <glyph glyph-name="Euro" unicode="&#x20ac;" horiz-adv-x="587" 
d="M54 393l12 64h62q50 115 153.5 188t222.5 73q30 0 59 -4t43 -8l14 -4l-40 -86q-35 10 -77 10q-82 0 -154 -46.5t-112 -122.5h282l-25 -64h-283q-11 -37 -14 -72h269l-24 -63h-239q9 -78 59.5 -127t137.5 -49q23 0 46.5 3t35.5 7l12 3l2 -92q-45 -15 -101 -15
q-126 0 -207 74t-91 196h-69l12 63h55q3 37 12 72h-53z" />
    <glyph glyph-name="trademark" unicode="&#x2122;" horiz-adv-x="997" 
d="M498 266l35 440h69l104 -230l14 -42h2q6 24 13 42l104 230h70l34 -440h-75l-21 263l1 30h-2l-95 -212h-61l-95 212h-2l1 -30l-21 -263h-75zM238 266v373h-152v67h380v-67h-152v-373h-76z" />
    <glyph glyph-name="minus" unicode="&#x2212;" horiz-adv-x="613" 
d="M-10 246v78h517v-78h-517z" />
    <glyph glyph-name="infinity" unicode="&#x221e;" horiz-adv-x="508" 
d="M196 167q-75 0 -128.5 53.5t-53.5 128.5t53.5 128t128.5 53q76 0 129 -52.5t53 -128.5q0 -75 -53 -128.5t-129 -53.5z" />
    <glyph glyph-name="approxequal" unicode="&#x2248;" horiz-adv-x="613" 
d="M40 321l-41 59q69 73 151 73q50 0 107.5 -35t90.5 -35q59 0 110 55l41 -59q-70 -72 -151 -72q-50 0 -107.5 35t-90.5 35q-56 0 -110 -56zM40 133l-41 58q69 73 151 73q50 0 107.5 -35t90.5 -35q59 0 110 55l41 -59q-70 -72 -151 -72q-50 0 -107.5 35t-90.5 35
q-57 0 -110 -55z" />
    <glyph glyph-name="notequal" unicode="&#x2260;" horiz-adv-x="613" 
d="M64 73l56 78h-110v78h162l80 111h-242v78h294l82 115l51 -35l-58 -80h108v-78h-160l-79 -111h239v-78h-292l-79 -112z" />
    <glyph glyph-name="lessequal" unicode="&#x2264;" horiz-adv-x="613" 
d="M9 252v66l466 208v-89l-358 -151v-2l358 -151v-89zM10 -95h465v-78h-465v78z" />
    <glyph glyph-name="greaterequal" unicode="&#x2265;" horiz-adv-x="613" 
d="M22 44v89l358 151v2l-358 151v89l467 -208v-66zM22 -95h465v-78h-465v78z" />
    <glyph glyph-name="commaaccent" horiz-adv-x="335" 
d="M63 -59h85v-15q0 -59 -46 -130h-74q38 68 38 116q0 14 -3 29z" />
    <glyph glyph-name="apple" horiz-adv-x="1130" 
d="M110 -5v152l-126 72v278l126 71v151l265 142l134 -71l132 71l265 -142v-151l124 -71v-278l-124 -72v-152l-265 -141l-132 71l-134 -71zM150 30l238 -126l121 66l118 -66l238 126v139l114 64v249l-114 66v136l-238 126l-118 -64l-121 64l-238 -126v-136l-114 -66v-249
l114 -64v-139zM184 64v121l-99 60v225l99 58v123l215 114l110 -59l107 59l214 -114v-123l100 -58v-225l-100 -60v-121l-214 -114l-107 58l-110 -58zM380 91h79v204h206v69h-206v165h151q14 0 19 -6t5 -20v-33h73v74q0 28 -12 40.5t-42 12.5h-331v-68h58v-438z" />
    <glyph glyph-name="zero.tnum" horiz-adv-x="574" 
d="M-35 221q0 58 10 121.5t34 131.5t59.5 121.5t92 88t125.5 34.5q209 0 209 -233q0 -58 -10 -121.5t-34 -131.5t-59.5 -121.5t-92 -88t-126.5 -34.5q-208 0 -208 233zM67 223q0 -144 110 -144q45 0 82.5 28.5t61.5 72.5t40.5 99t23.5 106t7 96q0 146 -109 146
q-54 0 -97.5 -40.5t-68 -104t-37.5 -130.5t-13 -129z" />
    <glyph glyph-name="one.tnum" horiz-adv-x="574" 
d="M-26 0l15 86h156l88 448l9 43h-2q-11 -16 -41 -41l-77 -63l-52 68l204 165h89l-121 -620h153l-16 -86h-405z" />
    <glyph glyph-name="two.tnum" horiz-adv-x="574" 
d="M-59 0q1 63 25.5 116t63.5 90.5t86 70t94 61t85.5 56.5t62.5 63t24 74q0 43 -29 68.5t-77 25.5q-27 0 -53.5 -9.5t-45 -22.5t-33.5 -26t-22 -23l-8 -9l-70 55l11 13.5t31.5 31t51 39t67 30.5t82.5 14q90 0 145.5 -48.5t55.5 -128.5q0 -68 -40 -124.5t-98.5 -96
t-118.5 -74t-107.5 -75.5t-57.5 -85h345l-16 -86h-454z" />
    <glyph glyph-name="three.tnum" horiz-adv-x="574" 
d="M-61 84l62 69q2 -3 6 -7.5t19.5 -17t32.5 -22t46 -17t60 -7.5q67 0 119 45t52 109q0 52 -40 78.5t-103 26.5h-51l-12 53l185 181l53 46v2q-21 -3 -60 -3h-233l17 86h422l-13 -63l-233 -224q28 -3 55.5 -13.5t54 -30.5t43 -55t16.5 -80q0 -101 -78 -176.5t-192 -75.5
q-45 0 -84.5 10t-64.5 24t-44 28t-27 24z" />
    <glyph glyph-name="four.tnum" horiz-adv-x="574" 
d="M-67 189l12 62l406 455h122l-85 -433h96l-16 -84h-96l-37 -189h-97l36 189h-341zM67 273h224l50 257l17 70h-2q-23 -32 -46 -58l-243 -268v-1z" />
    <glyph glyph-name="five.tnum" horiz-adv-x="574" 
d="M-52 86l64 67q2 -3 5.5 -7.5t17 -17t29 -22t41.5 -17t55 -7.5q70 0 126.5 49.5t56.5 121.5q0 52 -37.5 84.5t-98.5 32.5q-32 0 -63.5 -9t-47.5 -17l-15 -9l-56 22l104 349h359l-17 -86h-271l-45 -147l-12 -37h2q40 20 91 20q92 0 151 -56t59 -142q0 -112 -85.5 -191
t-199.5 -79q-44 0 -82 10t-61 24.5t-39.5 29t-23.5 24.5z" />
    <glyph glyph-name="six.tnum" horiz-adv-x="574" 
d="M198 -12q-103 0 -164.5 69.5t-61.5 188.5q0 70 26.5 150t73.5 153t123.5 121t166.5 48q41 0 77 -7.5t51 -14.5l16 -8l-45 -81q-42 20 -98 20q-91 0 -159 -69.5t-100 -167.5h2q27 30 71 48.5t87 18.5q90 0 141.5 -53.5t51.5 -140.5q0 -105 -73 -190t-186 -85zM197 79
q68 0 114.5 53t46.5 128q0 52 -31.5 82.5t-89.5 30.5q-59 0 -112 -39.5t-53 -96.5q0 -64 34.5 -111t90.5 -47z" />
    <glyph glyph-name="seven.tnum" horiz-adv-x="574" 
d="M-24 0l383 556q13 18 26.5 34.5t20.5 23.5l7 7v2q-16 -3 -51 -3h-309l17 86h472l-13 -68l-443 -638h-110z" />
    <glyph glyph-name="eight.tnum" horiz-adv-x="574" 
d="M-48 180q0 42 19.5 81.5t50 68t49 43t34.5 23.5q-60 50 -60 117q0 81 67.5 143t177.5 62q95 0 149.5 -44t54.5 -122q0 -35 -15.5 -72t-39.5 -66.5t-39.5 -45.5t-28.5 -27q75 -52 75 -127q0 -92 -78.5 -159t-191.5 -67q-102 0 -163 52t-61 140zM344 213q0 19 -8.5 34.5
t-29.5 31t-35 23.5t-49 25.5l-47 23.5q-16 -9 -33 -22t-38 -34.5t-34.5 -50t-13.5 -59.5q0 -49 35 -78.5t87 -29.5q65 0 115.5 38t50.5 98zM145 514q0 -14 4.5 -26.5t15 -24t19 -19.5t26.5 -18l27.5 -15t31.5 -15.5l30 -14.5q94 81 94 164q0 39 -28.5 61.5t-78.5 22.5
q-62 0 -101.5 -33.5t-39.5 -81.5z" />
    <glyph glyph-name="nine.tnum" horiz-adv-x="574" 
d="M-46 18l45 81q43 -20 99 -20q91 0 158.5 69.5t99.5 167.5h-2q-22 -27 -66 -46.5t-91 -19.5q-91 0 -142 53t-51 140q0 105 73.5 190t186.5 85q103 0 164 -69.5t61 -188.5q0 -55 -16 -118t-49.5 -125.5t-78.5 -113.5t-109.5 -83t-136.5 -32q-41 0 -77 7.5t-52 14.5z
M222 333q59 0 112.5 40t53.5 97q0 64 -34 110.5t-91 46.5q-68 0 -114.5 -53t-46.5 -128q0 -51 31.5 -82t88.5 -31z" />
    <glyph glyph-name="hyphen.case" horiz-adv-x="505" 
d="M106 305l16 86h292l-16 -86h-292z" />
    <glyph glyph-name="parenleft.case" horiz-adv-x="337" 
d="M141 -65q-52 131 -52 268q0 320 207 562h88q-208 -260 -208 -564q0 -140 46 -266h-81z" />
    <glyph glyph-name="parenright.case" horiz-adv-x="336" 
d="M61 -65h-89q208 262 208 564q0 140 -46 266h82q51 -131 51 -268q0 -317 -206 -562z" />
    <glyph glyph-name="bracketleft.case" horiz-adv-x="346" 
d="M46 -65l162 830h166l-15 -73h-81l-132 -683h81l-15 -74h-166z" />
    <glyph glyph-name="bracketright.case" horiz-adv-x="347" 
d="M10 9h80l132 683h-81l15 73h166l-162 -830h-164z" />
    <glyph glyph-name="braceleft.case" horiz-adv-x="396" 
d="M110 63q0 23 6 51l17 89q3 18 3 30q0 33 -17 53t-33 24l-17 3l17 86q3 0 9 1t22 8t29.5 17.5t26.5 32.5t19 51l18 91q33 168 195 168l23 -1l-15 -75q-6 1 -13 1q-86 0 -107 -106l-22 -109q-9 -44 -35.5 -74.5t-48.5 -39.5l-22 -8v-2q2 -1 6.5 -3t14.5 -10.5t18 -19
t14.5 -29t6.5 -40.5q0 -14 -3 -30l-21 -102q-5 -22 -5 -41q0 -71 71 -71l14 1l-15 -75q-10 -1 -24 -1q-17 0 -35.5 4.5t-42.5 16.5t-39 40t-15 69z" />
    <glyph glyph-name="braceright.case" horiz-adv-x="398" 
d="M18 8q88 0 108 105l23 119q6 29 19 52.5t27.5 36t28 21t22.5 11.5l9 3v2q-7 3 -16.5 9t-26 31.5t-16.5 59.5q0 13 3 30l18 94q5 25 5 40q0 70 -71 70h-13l14 74q11 2 24 2t27 -2.5t34 -10.5t35 -21.5t26 -38t11 -57.5q0 -15 -6 -51l-15 -80q-3 -16 -3 -29q0 -33 16.5 -53
t32.5 -23l17 -4l-16 -86q-4 0 -10 -1t-22 -8t-29 -18t-26.5 -33t-19.5 -51l-19 -100q-32 -169 -196 -169l-22 2l14 74h13z" />
    <glyph glyph-name="at.case" horiz-adv-x="832" 
d="M77 286q0 86 36 166.5t95.5 139.5t139 94.5t162.5 35.5q123 0 178 -47t55 -124q0 -24 -5 -49l-51 -267h71l-14 -73h-262q-85 0 -134.5 47t-49.5 118q0 82 69 147t167 65h118q2 10 2 16q0 38 -37.5 62.5t-105.5 24.5q-134 0 -235.5 -107.5t-101.5 -243.5q0 -100 63 -164
t172 -64l-15 -78q-138 0 -227.5 85.5t-89.5 215.5zM396 329q0 -41 26.5 -67.5t70.5 -26.5h100l46 237h-98q-59 0 -102 -43.5t-43 -99.5z" />
    <glyph glyph-name="guillemotleft.case" horiz-adv-x="591" 
d="M397 137l-129 207l207 204h104l-218 -210l128 -201h-92zM198 137l-129 207l191 204h102l-200 -210l128 -201h-92z" />
    <glyph glyph-name="guillemotright.case" horiz-adv-x="592" 
d="M246 137l201 210l-128 201h92l129 -207l-192 -204h-102zM30 137l218 210l-128 201h92l129 -207l-208 -204h-103z" />
    <glyph glyph-name="guilsinglleft.case" horiz-adv-x="384" 
d="M198 137l-129 207l192 204h101l-200 -210l128 -201h-92z" />
    <glyph glyph-name="guilsinglright.case" horiz-adv-x="383" 
d="M38 137l200 210l-127 201h92l128 -207l-191 -204h-102z" />
    <glyph glyph-name="endash.case" horiz-adv-x="739" 
d="M106 306l15 78h526l-15 -78h-526z" />
    <glyph glyph-name="emdash.case" horiz-adv-x="939" 
d="M106 306l15 78h726l-15 -78h-726z" />
    <glyph glyph-name="periodcentered.case" horiz-adv-x="306" 
d="M99 293l20 106h102l-20 -106h-102z" />
    <glyph glyph-name="questiondown.case" horiz-adv-x="513" 
d="M304 608l19 98h101l-20 -98h-100zM44 148q0 49 21.5 89t53.5 67.5t65.5 51.5t60.5 54t35 63l9 39h94l-9 -45q-9 -44 -35.5 -81t-58.5 -62l-62 -48.5t-50.5 -52.5t-20.5 -63q0 -36 26 -59t70 -23q29 0 59.5 11t46.5 21l16 11l43 -75l-25 -16t-62.5 -26t-90.5 -16
q-81 0 -133.5 43.5t-52.5 116.5z" />
    <glyph glyph-name="exclamdown.case" horiz-adv-x="347" 
d="M181 608l20 98h100l-19 -98h-101zM64 0l107 512h87l-94 -512h-100z" />
    <glyph glyph-name="bullet.case" horiz-adv-x="447" 
d="M233 198q-64 0 -109.5 45.5t-45.5 109.5q0 65 45 110t110 45q64 0 109 -45.5t45 -109.5t-45 -109.5t-109 -45.5z" />
    <glyph glyph-name="zero.p_osf" horiz-adv-x="585" 
d="M39 205q0 61 20 123t55.5 113.5t91.5 84t122 32.5q104 0 155.5 -61.5t51.5 -157.5q0 -61 -19.5 -122.5t-55 -113t-91.5 -83.5t-123 -32q-105 0 -156 60.5t-51 156.5zM138 208q0 -60 27.5 -98t82.5 -38q83 0 135.5 84t52.5 180q0 61 -27.5 99.5t-82.5 38.5
q-57 0 -101.5 -43.5t-65.5 -103t-21 -119.5z" />
    <glyph glyph-name="one.p_osf" horiz-adv-x="469" 
d="M4 0l17 83h152l58 300l12 59h-2q-18 -15 -44 -29l-99 -52l-33 72l206 113h86l-90 -463h138l-17 -83h-384z" />
    <glyph glyph-name="two.p_osf" horiz-adv-x="527" 
d="M-4 0l13 67q90 52 149 90.5t113.5 82t80.5 82t26 75.5t-28 56t-71 19q-37 0 -78 -19t-63 -39l-23 -19l-44 70q4 4 11 10t30.5 22t47.5 28.5t60.5 22.5t71.5 10q87 0 136.5 -41t49.5 -109q0 -90 -78 -165.5t-236 -160.5v-2q21 3 60 3h220l-16 -83h-432z" />
    <glyph glyph-name="three.p_osf" horiz-adv-x="514" 
d="M-51 -39l58 63q2 -3 6 -7.5t18 -16t30 -20.5t42.5 -16.5t54.5 -7.5q67 0 118.5 41t51.5 106q0 49 -41 75t-100 26h-55l-13 51l175 165q12 11 25.5 22t20.5 16l6 6v1q-20 -3 -60 -3h-200l16 84h396l-11 -57l-233 -213q42 -3 79 -19.5t66 -55.5t29 -94q0 -97 -79.5 -166
t-192.5 -69q-41 0 -77.5 9t-59 22t-39.5 26.5t-24 22.5z" />
    <glyph glyph-name="four.p_osf" horiz-adv-x="584" 
d="M-24 33l12 62l394 451h118l-84 -429h101l-16 -84h-101l-29 -149h-96l29 149h-328zM106 117h214l50 254q13 70 18 70h-2q-24 -36 -48 -63l-232 -260v-1z" />
    <glyph glyph-name="five.p_osf" horiz-adv-x="533" 
d="M-31 -32l58 61q5 -7 15.5 -18t47.5 -29.5t81 -18.5q68 0 126 43.5t58 117.5q0 50 -37.5 78.5t-93.5 28.5q-31 0 -63 -7.5t-49 -15.5l-16 -8l-54 20l99 326h347l-16 -84h-260l-42 -134l-13 -35h2q42 17 92 17q90 0 147.5 -49.5t57.5 -132.5q0 -111 -86 -180.5t-199 -69.5
q-40 0 -75.5 9.5t-57.5 22.5t-38.5 26t-23.5 22z" />
    <glyph glyph-name="six.p_osf" horiz-adv-x="583" 
d="M50 227q0 53 15.5 113t48 119.5t77 107.5t107.5 77.5t133 29.5q41 0 77 -7.5t52 -14.5l15 -8l-43 -74q-40 20 -99 20q-90 0 -157 -66.5t-98 -160.5h2q28 29 71.5 46.5t86.5 17.5q91 0 143 -50t52 -132q0 -98 -75 -177.5t-185 -79.5q-102 0 -162.5 64t-60.5 175zM149 219
q0 -59 34 -103t92 -44q66 0 112.5 48.5t46.5 120.5q0 48 -32 77t-90 29q-62 0 -112.5 -38t-50.5 -90z" />
    <glyph glyph-name="seven.p_osf" horiz-adv-x="510" 
d="M-10 -116l364 519q12 17 24 32t18 21l5 7v2q-13 -2 -49 -2h-295l16 83h460l-13 -64l-420 -598h-110z" />
    <glyph glyph-name="eight.p_osf" horiz-adv-x="581" 
d="M27 166q0 38 17 74t43.5 62.5t46 42t38.5 26.5q-57 45 -57 108q0 76 65.5 135.5t170.5 59.5q92 0 146.5 -40.5t54.5 -110.5q0 -96 -114 -204q70 -49 70 -118q0 -84 -77 -148.5t-186 -64.5q-98 0 -158 49t-60 129zM409 199q0 18 -8.5 32.5t-29 29t-35 22.5t-48 24
l-46.5 22q-24 -13 -46 -29.5t-46 -52t-24 -73.5q0 -46 34.5 -74t85.5 -28q61 0 112 36.5t51 90.5zM211 483q0 -13 4 -24t14 -21.5t18 -18t26.5 -17l27.5 -14t33 -15.5t32 -15q88 71 88 153q0 37 -28.5 58.5t-76.5 21.5q-60 0 -99 -31.5t-39 -76.5z" />
    <glyph glyph-name="nine.p_osf" horiz-adv-x="583" 
d="M41 -24q40 -20 99 -20q89 0 156.5 66.5t98.5 160.5h-2q-28 -29 -71.5 -46.5t-86.5 -17.5q-91 0 -143 50t-52 132q0 98 75 177.5t185 79.5q102 0 162.5 -63.5t60.5 -175.5q0 -53 -15.5 -113t-48 -119.5t-77 -107t-107.5 -77.5t-133 -30q-41 0 -77 7.5t-51 14.5l-16 8z
M260 199q62 0 113 38t51 90q0 59 -34 103t-92 44q-66 0 -112.5 -48.5t-46.5 -120.5q0 -48 32 -77t89 -29z" />
    <glyph glyph-name="zero.t_osf" horiz-adv-x="574" 
d="M-32 205q0 61 20 123t55.5 113.5t91.5 84t122 32.5q104 0 155.5 -61.5t51.5 -157.5q0 -61 -19.5 -122.5t-55 -113t-91.5 -83.5t-123 -32q-105 0 -156 60.5t-51 156.5zM67 208q0 -60 27.5 -98t82.5 -38q83 0 135.5 84t52.5 180q0 61 -27.5 99.5t-82.5 38.5
q-57 0 -101.5 -43.5t-65.5 -103t-21 -119.5z" />
    <glyph glyph-name="one.t_osf" horiz-adv-x="574" 
d="M-4 0l17 83h152l58 300l12 59h-2q-18 -15 -44 -29l-99 -52l-33 72l206 113h86l-90 -463h138l-17 -83h-384z" />
    <glyph glyph-name="two.t_osf" horiz-adv-x="574" 
d="M-39 0l13 67q90 52 149 90.5t113.5 82t80.5 82t26 75.5t-28 56t-71 19q-37 0 -78 -19t-64 -39l-22 -19l-44 70q4 4 11 10t30.5 22t47.5 28.5t60.5 22.5t71.5 10q87 0 136.5 -41t49.5 -109q0 -90 -78 -165.5t-236 -160.5v-2q21 3 60 3h220l-16 -83h-432z" />
    <glyph glyph-name="three.t_osf" horiz-adv-x="574" 
d="M-72 -38l58 63q2 -3 6 -7.5t18 -16t30 -20.5t42.5 -16.5t54.5 -7.5q67 0 118 41t51 106q0 49 -40.5 75t-99.5 26h-55l-13 51l175 164l25 22t20 16l6 6v1q-20 -3 -59 -3h-200l16 84h395l-11 -57l-232 -212q41 -3 78 -19.5t66 -55.5t29 -94q0 -97 -79.5 -166t-191.5 -69
q-41 0 -77.5 9t-59 22.5t-39.5 26.5t-24 22z" />
    <glyph glyph-name="four.t_osf" horiz-adv-x="574" 
d="M-86 33l12 62l394 451h118l-84 -429h101l-16 -84h-101l-29 -149h-96l29 149h-328zM44 117h214l50 254q13 70 18 70h-2q-24 -36 -48 -63l-232 -260v-1z" />
    <glyph glyph-name="five.t_osf" horiz-adv-x="574" 
d="M-69 -32l58 61q5 -7 15.5 -18t47.5 -29.5t81 -18.5q68 0 126 43.5t58 117.5q0 50 -37.5 78.5t-93.5 28.5q-31 0 -63 -7.5t-49 -15.5l-16 -8l-54 20l99 326h347l-16 -84h-260l-42 -134l-13 -35h2q42 17 92 17q90 0 147.5 -49.5t57.5 -132.5q0 -111 -86 -180.5t-199 -69.5
q-40 0 -75.5 9.5t-57.5 22.5t-38.5 26t-23.5 22z" />
    <glyph glyph-name="six.t_osf" horiz-adv-x="574" 
d="M-28 227q0 53 15.5 113t48 119.5t77 107.5t107.5 77.5t133 29.5q41 0 77 -7.5t52 -14.5l15 -8l-43 -74q-40 20 -99 20q-90 0 -157 -66.5t-98 -160.5h2q28 29 71.5 46.5t86.5 17.5q91 0 143 -50t52 -132q0 -98 -75 -177.5t-185 -79.5q-102 0 -162.5 64t-60.5 175zM71 219
q0 -59 34 -103t92 -44q66 0 112.5 48.5t46.5 120.5q0 48 -32 77t-90 29q-62 0 -112.5 -38t-50.5 -90z" />
    <glyph glyph-name="seven.t_osf" horiz-adv-x="574" 
d="M-39 -116l364 519q12 17 24 32l17 21l6 7v2q-13 -2 -49 -2h-295l16 83h460l-13 -64l-420 -598h-110z" />
    <glyph glyph-name="eight.t_osf" horiz-adv-x="574" 
d="M-48 166q0 38 17 74t43.5 62.5t46 42t38.5 26.5q-57 45 -57 108q0 76 65.5 135.5t170.5 59.5q92 0 146.5 -40.5t54.5 -110.5q0 -96 -114 -204q70 -49 70 -118q0 -84 -77 -148.5t-186 -64.5q-98 0 -158 49t-60 129zM334 199q0 18 -8.5 32.5t-29 29t-35 22.5t-48 24
l-46.5 22q-24 -13 -46 -29.5t-46 -52t-24 -73.5q0 -46 34.5 -74t85.5 -28q61 0 112 36.5t51 90.5zM136 483q0 -13 4 -24t14 -21.5t18 -18t26.5 -17l27.5 -14t33 -15.5t32 -15q88 71 88 153q0 37 -28.5 58.5t-76.5 21.5q-60 0 -99 -31.5t-39 -76.5z" />
    <glyph glyph-name="nine.t_osf" horiz-adv-x="574" 
d="M-23 -24q40 -20 99 -20q89 0 156.5 66.5t98.5 160.5h-2q-28 -29 -71.5 -46.5t-86.5 -17.5q-91 0 -143 50t-52 132q0 98 75 177.5t185 79.5q102 0 162.5 -63.5t60.5 -175.5q0 -53 -15.5 -113t-48 -119.5t-77 -107t-107.5 -77.5t-133 -30q-41 0 -77 7.5t-51 14.5l-16 8z
M196 199q62 0 113 38t51 90q0 59 -34 103t-92 44q-66 0 -112.5 -48.5t-46.5 -120.5q0 -48 32 -77t89 -29z" />
    <glyph glyph-name="dollar.osf" horiz-adv-x="524" 
d="M6 85l59 65q7 -8 19 -20.5t52.5 -33t83.5 -20.5q50 0 87 24.5t37 66.5q0 25 -26 45t-62.5 36t-73 35t-62.5 52t-26 77q0 69 55.5 118.5t143.5 56.5l18 88h70l-18 -89q40 -5 74.5 -20.5t48.5 -28.5l15 -13l-53 -71q-5 6 -15 14t-44 22t-71 14q-49 0 -86 -22.5t-37 -67.5
q0 -25 25.5 -45t62.5 -35.5t74 -34t62.5 -51.5t25.5 -77q0 -75 -59.5 -125t-145.5 -55l-18 -92h-70l19 95q-50 8 -91.5 31t-57.5 42z" />
    <glyph glyph-name="cent.osf" horiz-adv-x="558" 
d="M48 259q0 108 76.5 189t186.5 95l17 83h72l-17 -82q45 -6 83.5 -25.5t53.5 -36.5l16 -17l-55 -66q-5 7 -14 16.5t-42.5 26t-73.5 16.5q-83 0 -143 -56.5t-60 -135.5q0 -56 38 -91.5t103 -35.5q39 0 77 16t56 32l19 16l34 -77q-9 -8 -24.5 -19.5t-64.5 -32t-98 -22.5
l-15 -79h-73l16 84q-79 16 -123.5 70t-44.5 132z" />
    <glyph glyph-name="sterling.osf" horiz-adv-x="617" 
d="M-1 0l15 83h62l30 158h-45l13 68h45l19 94q17 85 86 136t163 51q48 0 90.5 -14.5t60.5 -29.5l18 -14l-56 -66q-43 37 -119 37q-56 0 -97 -31.5t-50 -77.5l-17 -85h216l-13 -68h-216l-31 -158h325l-16 -83h-483z" />
    <glyph glyph-name="yen.osf" horiz-adv-x="620" 
d="M66 149l13 63h165l3 14l-24 57h-131l13 64h93l-94 232h106l69 -184l29 -90h2q29 50 58 90l138 184h118l-184 -232h95l-12 -64h-133l-45 -57l-3 -14h167l-12 -63h-167l-29 -149h-98l29 149h-166z" />
    <glyph glyph-name="florin.osf" horiz-adv-x="567" 
d="M-39 -37q32 -6 62 -6q105 0 137 111l66 236h-82l15 78h89l32 113q16 57 45 95.5t63.5 55.5t62 23t56.5 6q19 0 42.5 -2.5t37.5 -4.5l14 -2l-16 -82q-48 7 -78 7q-103 0 -135 -111l-28 -98h117l-16 -78h-124l-71 -253q-13 -45 -35.5 -79t-46 -52.5t-52 -29.5t-49.5 -14
t-43 -3q-18 0 -38 2t-31 4l-11 2z" />
    <glyph glyph-name="Euro.osf" horiz-adv-x="606" 
d="M58 318l12 60h70q41 92 127.5 152t205.5 60q30 0 57.5 -4t40.5 -8l13 -4l-36 -76q-34 10 -74 10q-78 0 -136.5 -36t-92.5 -94h254l-25 -60h-255q-10 -34 -11 -61h245l-24 -59h-216q14 -57 59 -92t120 -35q22 0 44.5 3.5t33.5 7.5l12 3l2 -83q-43 -14 -95 -14
q-122 0 -192 58.5t-84 151.5h-78l12 59h63q1 29 9 61h-61z" />
    <glyph glyph-name="zero.numerator" 
d="M128 259q-135 0 -135 146q0 47 10.5 97.5t32 100t62.5 81.5t94 32q135 0 135 -147q0 -37 -6 -76.5t-21 -82t-37 -75.5t-57 -54.5t-78 -21.5zM129 328q41 0 70 41.5t40.5 93t11.5 101.5q0 82 -59 82q-41 0 -70 -41.5t-40.5 -93.5t-11.5 -103q0 -80 59 -80z" />
    <glyph glyph-name="one.numerator" 
d="M-4 269l12 66h93l47 244l8 26h-2q-6 -8 -22 -22l-40 -32l-38 52l127 103h67l-72 -371h92l-13 -66h-259z" />
    <glyph glyph-name="two.numerator" 
d="M-22 269q1 58 29.5 102t68 70t79 48t67 48.5t27.5 57.5q0 23 -16.5 37.5t-43.5 14.5q-22 0 -45.5 -12t-35.5 -24l-13 -12l-44 49q7 8 19.5 19t50 30t73.5 19q59 0 96 -31.5t37 -83.5q0 -43 -23.5 -77t-58 -56.5t-70 -41.5t-65 -42t-37.5 -49h210l-13 -66h-292z" />
    <glyph glyph-name="three.numerator" 
d="M125 259q-43 0 -80.5 16.5t-52.5 32.5l-16 17l47 49q4 -5 11.5 -12.5t34.5 -20.5t57 -13q38 0 66 25.5t28 62.5q0 27 -22.5 43t-53.5 16h-34l-12 38l108 103l29 24v2q-19 -3 -36 -3h-138l12 67h272l-9 -48l-134 -126q37 -7 66 -36t29 -79q0 -62 -49.5 -110t-122.5 -48z
" />
    <glyph glyph-name="four.numerator" 
d="M148 269l21 107h-209l9 50l252 280h86l-52 -264h62l-12 -66h-62l-21 -107h-74zM59 442h122l24 123l15 58h-2q-18 -27 -38 -48l-121 -131v-2z" />
    <glyph glyph-name="five.numerator" 
d="M119 259q-44 0 -79.5 17t-49.5 34l-13 17l50 48q3 -5 9.5 -13t30.5 -21t52 -13q39 0 71.5 28.5t32.5 68.5q0 29 -21.5 48.5t-55.5 19.5q-20 0 -39.5 -5.5t-28.5 -11.5l-10 -5l-41 16l66 219h233l-13 -67h-170l-19 -62l-11 -32h2q22 10 50 10q58 0 96.5 -36t38.5 -91
q0 -66 -53.5 -117.5t-127.5 -51.5z" />
    <glyph glyph-name="six.numerator" 
d="M132 259q-65 0 -103.5 42.5t-38.5 116.5q0 60 28 127t86.5 119t129.5 52q27 0 51 -6t35 -12l11 -5l-34 -60q-26 13 -64 13q-46 0 -83.5 -35.5t-57.5 -89.5h2q38 31 85 31q54 0 87.5 -33.5t33.5 -86.5q0 -74 -50 -123.5t-118 -49.5zM135 328q39 0 64.5 30.5t25.5 70.5
q0 29 -17.5 46.5t-49.5 17.5q-36 0 -63.5 -23t-27.5 -55q0 -35 18.5 -61t49.5 -26z" />
    <glyph glyph-name="seven.numerator" 
d="M-17 269l237 323l38 47v2q-19 -2 -45 -2h-166l13 67h302l-10 -51l-283 -386h-86z" />
    <glyph glyph-name="eight.numerator" 
d="M132 259q-62 0 -104.5 31t-42.5 87q0 73 94 136q-33 28 -33 70q0 62 48 97.5t108 35.5q59 0 95.5 -27.5t36.5 -74.5q0 -65 -78 -133q48 -34 48 -82q0 -59 -53 -99.5t-119 -40.5zM227 398q0 10 -4.5 18.5t-9.5 15t-17.5 14l-19.5 11.5t-23.5 12.5t-23.5 11.5
q-68 -43 -68 -97q0 -27 21.5 -43.5t51.5 -16.5q34 0 63.5 21.5t29.5 52.5zM118 586q0 -18 15.5 -34t27.5 -22l42 -21q57 44 57 95q0 22 -18 34.5t-44 12.5q-30 0 -55 -17t-25 -48z" />
    <glyph glyph-name="nine.numerator" 
d="M-5 282l34 60q26 -13 64 -13q46 0 83.5 35.5t57.5 89.5h-2q-38 -31 -85 -31q-54 0 -87.5 33.5t-33.5 86.5q0 74 50 123.5t118 49.5q65 0 103.5 -42.5t38.5 -116.5q0 -60 -28 -127t-86.5 -119t-129.5 -52q-27 0 -51 5.5t-35 11.5zM168 482q36 0 63.5 23t27.5 55
q0 35 -18.5 61t-49.5 26q-39 0 -64.5 -30.5t-25.5 -71.5q0 -28 17.5 -45.5t49.5 -17.5z" />
    <glyph glyph-name="zero.denominator" 
d="M86 -10q-135 0 -135 146q0 47 10.5 97.5t32 100t62.5 81.5t94 32q135 0 135 -147q0 -37 -6 -76.5t-21 -82t-37 -75.5t-57 -54.5t-78 -21.5zM87 59q41 0 70 41.5t40.5 93t11.5 101.5q0 82 -59 82q-41 0 -70 -41.5t-40.5 -93.5t-11.5 -103q0 -80 59 -80z" />
    <glyph glyph-name="one.denominator" 
d="M-43 0l12 66h93l47 244l8 26h-2q-6 -8 -22 -22l-40 -32l-38 52l127 103h67l-72 -371h92l-13 -66h-259z" />
    <glyph glyph-name="two.denominator" 
d="M-70 0q1 58 29.5 102t68 70t79 48t67 48.5t27.5 57.5q0 23 -16.5 37.5t-43.5 14.5q-22 0 -45.5 -12t-35.5 -24l-13 -12l-44 49q7 8 19.5 19t50 30t73.5 19q59 0 96 -31.5t37 -83.5q0 -43 -23.5 -77t-58 -56.5t-70 -41.5t-65 -42t-37.5 -49h210l-13 -66h-292z" />
    <glyph glyph-name="three.denominator" 
d="M71 -10q-43 0 -80.5 16.5t-52.5 33.5l-16 16l47 49q4 -5 11.5 -12.5t34.5 -20.5t57 -13q38 0 66 25.5t28 62.5q0 27 -22.5 43t-53.5 16h-34l-12 38l108 103l29 24v2q-19 -3 -36 -3h-138l12 67h272l-9 -48l-134 -126q37 -7 66 -36t29 -79q0 -62 -49.5 -110t-122.5 -48z
" />
    <glyph glyph-name="four.denominator" 
d="M110 0l21 107h-209l9 50l252 280h86l-52 -264h62l-12 -66h-62l-21 -107h-74zM21 173h122l24 123l15 58h-2q-18 -27 -38 -48l-121 -131v-2z" />
    <glyph glyph-name="five.denominator" 
d="M70 -10q-44 0 -79.5 17t-48.5 34l-14 17l50 48q3 -5 9.5 -13t30.5 -21t52 -13q39 0 71.5 28.5t32.5 68.5q0 29 -21.5 48.5t-55.5 19.5q-20 0 -39.5 -5.5t-29.5 -10.5l-9 -6l-41 16l66 219h233l-13 -67h-170l-19 -62l-11 -32h2q22 10 50 10q58 0 96.5 -36t38.5 -91
q0 -66 -53.5 -117.5t-127.5 -51.5z" />
    <glyph glyph-name="six.denominator" 
d="M90 -10q-65 0 -103.5 42.5t-38.5 116.5q0 60 28 127t86.5 119t129.5 52q27 0 51 -5.5t35 -11.5l11 -6l-34 -60q-26 13 -64 13q-46 0 -83.5 -35.5t-57.5 -89.5h2q38 31 85 31q54 0 87.5 -33.5t33.5 -86.5q0 -74 -50 -123.5t-118 -49.5zM93 59q39 0 64.5 30.5t25.5 70.5
q0 28 -17.5 46t-49.5 18q-36 0 -63.5 -23t-27.5 -55q0 -35 18.5 -61t49.5 -26z" />
    <glyph glyph-name="seven.denominator" 
d="M-70 0l237 323l38 47v2q-19 -2 -45 -2h-166l13 67h302l-10 -51l-283 -386h-86z" />
    <glyph glyph-name="eight.denominator" 
d="M82 -10q-62 0 -104.5 31t-42.5 87q0 73 94 136q-33 28 -33 70q0 62 48 97.5t108 35.5q59 0 95.5 -27.5t36.5 -74.5q0 -65 -78 -133q48 -34 48 -82q0 -59 -53 -99.5t-119 -40.5zM177 129q0 10 -4.5 18.5t-9.5 15t-17.5 14l-19.5 11.5t-23.5 12.5t-23.5 11.5
q-68 -43 -68 -97q0 -27 21.5 -43.5t51.5 -16.5q34 0 63.5 21.5t29.5 52.5zM68 317q0 -18 15.5 -34t27.5 -22l42 -21q57 44 57 95q0 22 -18 34.5t-44 12.5q-30 0 -55 -17t-25 -48z" />
    <glyph glyph-name="nine.denominator" 
d="M-60 13l34 60q26 -13 64 -13q46 0 83.5 35.5t57.5 89.5h-2q-38 -31 -85 -31q-54 0 -87.5 33.5t-33.5 86.5q0 74 50 123.5t118 49.5q65 0 103.5 -42.5t38.5 -116.5q0 -60 -28 -127t-86.5 -119t-129.5 -52q-27 0 -51 6t-35 12zM113 213q36 0 63.5 23t27.5 55q0 35 -18.5 61
t-49.5 26q-39 0 -64.5 -30.5t-25.5 -71.5q0 -28 17.5 -45.5t49.5 -17.5z" />
    </font>
</defs>
</svg>
