<?xml version="1.0" standalone="no"?>
<!DOCTYPE svg PUBLIC "-//W3C//DTD SVG 1.1//EN" "http://www.w3.org/Graphics/SVG/1.1/DTD/svg11.dtd" >
<svg>
<metadata>
Created by FontForge 20090622 at Fri May  6 09:20:30 2016
 By deploy user
Copyright (c) 2008 by Jos Buivenga. All rights reserved.
</metadata>
<defs>
<font id="MuseoSans-900Italic" horiz-adv-x="406" >
  <font-face 
    font-family="Museo Sans 900"
    font-weight="700"
    font-style="italic"
    font-stretch="normal"
    units-per-em="1000"
    panose-1="2 0 0 0 0 0 0 0 0 0"
    ascent="750"
    descent="-250"
    x-height="515"
    cap-height="715"
    bbox="-261 -210 1216 918"
    underline-thickness="50"
    underline-position="-50"
    unicode-range="U+0020-U+FB04"
  />
<missing-glyph horiz-adv-x="510" 
d="M-53 0v700h500v-700h-500zM197 395l170 255h-340zM227 350l170 -255v510zM-3 95l170 255l-170 255v-510zM27 50h340l-170 255z" />
    <glyph glyph-name="f_f" unicode="ff" horiz-adv-x="766" 
d="M420 0l74 380h-209l-74 -380h-173l74 380h-63l27 135h63l2 13q7 48 30 84t50.5 55.5t63 32t62.5 16t55 3.5l63 -3l-30 -146q-10 2 -26 2q-90 0 -97 -50l-1 -7h210l2 13q7 48 30 84t50.5 55.5t63 32t62.5 16t55 3.5l63 -3l-30 -146q-10 2 -26 2q-90 0 -97 -50l-1 -7h95
l-26 -135h-95l-74 -380h-173z" />
    <glyph glyph-name="fi" unicode="fi" horiz-adv-x="683" 
d="M389 0l73 380h-177l-74 -380h-173l74 380h-63l27 135h63l2 13q7 48 30 84t50.5 55.5t63 32t62.5 16t55 3.5l63 -3l-30 -146q-10 2 -26 2q-90 0 -97 -50l-1 -7h350l-100 -515h-172zM503 580l26 135h169l-26 -135h-169z" />
    <glyph glyph-name="fl" unicode="fl" horiz-adv-x="706" 
d="M38 0l72 371h-63l27 135h63l4 22q9 48 32 84.5t50 56t62.5 31.5t62 15.5t54.5 3.5l63 -3l-30 -146q-10 2 -26 2q-88 0 -97 -50l-3 -16h95l-26 -135h-95l-72 -371h-173zM413 137q0 29 7 63l100 515h173l-96 -496q-5 -22 -5 -39q0 -33 39 -33l21 1l-29 -150q-23 -3 -47 -3
q-163 0 -163 142z" />
    <glyph glyph-name="f_f_i" unicode="ffi" horiz-adv-x="1066" 
d="M420 0l74 380h-209l-74 -380h-173l74 380h-63l27 135h63l2 13q7 48 30 84t50.5 55.5t63 32t62.5 16t55 3.5l63 -3l-30 -146q-10 2 -26 2q-90 0 -97 -50l-1 -7h210l2 13q7 48 30 84t50.5 55.5t63 32t62.5 16t55 3.5l63 -3l-30 -146q-10 2 -26 2q-90 0 -97 -50l-1 -7h351
l-100 -515h-172l73 380h-178l-74 -380h-173zM886 580l26 135h169l-26 -135h-169z" />
    <glyph glyph-name="f_f_l" unicode="ffl" horiz-adv-x="1089" 
d="M796 137q0 29 7 63l100 515h173l-96 -496q-5 -22 -5 -39q0 -33 39 -33l21 1l-29 -150q-23 -3 -47 -3q-163 0 -163 142zM420 0l74 380h-209l-74 -380h-173l74 380h-63l27 135h63l2 13q7 48 30 84t50.5 55.5t63 32t62.5 16t55 3.5l63 -3l-30 -146q-10 2 -26 2
q-90 0 -97 -50l-1 -7h210l2 13q7 48 30 84t50.5 55.5t63 32t62.5 16t55 3.5l63 -3l-30 -146q-10 2 -26 2q-90 0 -97 -50l-1 -7h95l-26 -135h-95l-74 -380h-173z" />
    <glyph glyph-name="f_j" unicode="fj" horiz-adv-x="684" 
d="M38 0l74 380h-63l27 135h63l2 13q7 48 30 84t50.5 55.5t63 32t62.5 16t55 3.5l63 -3l-30 -146q-10 2 -26 2q-90 0 -97 -50l-1 -7h351l-102 -526q-12 -62 -43.5 -104t-73.5 -60.5t-76.5 -25.5t-70.5 -7l-61 3l28 144q9 -1 22 -1q92 0 105 66l73 376h-178l-74 -380h-173z
M504 580l26 135h169l-26 -135h-169z" />
    <glyph glyph-name=".notdef" horiz-adv-x="510" 
d="M-53 0v700h500v-700h-500zM197 395l170 255h-340zM227 350l170 -255v510zM-3 95l170 255l-170 255v-510zM27 50h340l-170 255z" />
    <glyph glyph-name=".null" horiz-adv-x="0" 
 />
    <glyph glyph-name="nonmarkingreturn" horiz-adv-x="333" 
 />
    <glyph glyph-name="space" unicode=" " horiz-adv-x="235" 
 />
    <glyph glyph-name="exclam" unicode="!" horiz-adv-x="364" 
d="M93 221l80 494h180l-112 -494h-148zM47 0l29 150h158l-29 -150h-158z" />
    <glyph glyph-name="quotedbl" unicode="&#x22;" horiz-adv-x="414" 
d="M278 490l47 240h122l-47 -240h-122zM87 490l47 240h122l-47 -240h-122z" />
    <glyph glyph-name="numbersign" unicode="#" horiz-adv-x="699" 
d="M40 0l66 180h-97l42 120h98l36 95h-96l43 120h96l74 200h137l-74 -200h108l74 200h137l-74 -200h102l-43 -120h-102l-36 -95h100l-43 -120h-100l-66 -180h-137l66 180h-108l-66 -180h-137zM286 300h108l36 95h-108z" />
    <glyph glyph-name="dollar" unicode="$" horiz-adv-x="597" 
d="M2 90l104 124q7 -7 21 -18t58 -29t90 -18q32 0 59 15.5t27 47.5q0 17 -20 33.5t-49.5 30.5t-64 35t-64 45t-49.5 62.5t-20 85.5q0 92 68.5 151.5t164.5 69.5l18 90h109l-18 -94q51 -8 93 -27.5t59 -34.5l16 -15l-94 -129q-7 6 -20 14.5t-53 22.5t-80 14q-32 0 -60 -16
t-28 -46q0 -18 20 -35t50 -30.5t64.5 -34t64.5 -44t50 -62.5t20 -86q0 -89 -69 -152.5t-176 -70.5l-16 -88h-109l18 95q-56 11 -102 34.5t-64 41.5z" />
    <glyph glyph-name="percent" unicode="%" horiz-adv-x="872" 
d="M241 382q-73 0 -119 43.5t-46 110.5q0 74 62 132.5t140 58.5q73 0 119.5 -45t46.5 -113q0 -74 -63 -130.5t-140 -56.5zM26 0l674 715h159l-674 -715h-159zM254 502q24 0 43 18t19 43q0 19 -13.5 31.5t-36.5 12.5t-42.5 -19t-19.5 -43q0 -19 13.5 -31t36.5 -12zM444 142
q0 74 62 132.5t140 58.5q73 0 119.5 -45t46.5 -113q0 -74 -63 -130.5t-140 -56.5q-73 0 -119 43.5t-46 110.5zM572 151q0 -19 13.5 -31t36.5 -12q24 0 43 18t19 43q0 19 -13.5 31.5t-36.5 12.5t-42.5 -19t-19.5 -43z" />
    <glyph glyph-name="ampersand" unicode="&#x26;" horiz-adv-x="706" 
d="M19 194q0 59 45 113.5t111 73.5v2q-3 1 -7 3.5t-14.5 12t-19 21t-15 32.5t-6.5 46q0 59 24.5 105t64 72t85 39t93.5 13q26 0 53 -4.5t41 -9.5l14 -5l-64 -130q-17 4 -38 4q-39 0 -69 -23t-30 -66q0 -24 15.5 -39t45.5 -15h87l17 88h172l-17 -88h89l-29 -150h-89l-13 -69
q-22 -114 -97.5 -173t-195.5 -59q-118 0 -185.5 57.5t-67.5 148.5zM203 207q0 -26 21 -43t54 -17q48 0 79 23t38 60l11 59h-98q-40 0 -72.5 -19.5t-32.5 -62.5z" />
    <glyph glyph-name="quotesingle" unicode="'" horiz-adv-x="226" 
d="M87 490l47 240h125l-47 -240h-125z" />
    <glyph glyph-name="parenleft" unicode="(" horiz-adv-x="338" 
d="M113 -95q-59 135 -59 276q0 333 214 569h147q-211 -260 -211 -573q0 -146 46 -272h-137z" />
    <glyph glyph-name="parenright" unicode=")" horiz-adv-x="339" 
d="M80 -95h-147q211 260 211 573q0 146 -46 272h137q59 -135 59 -276q0 -333 -214 -569z" />
    <glyph glyph-name="asterisk" unicode="*" horiz-adv-x="465" 
d="M177 309l-110 90l92 86l1 2l-101 21l73 140l93 -45l11 112h152l-34 -112l112 46l20 -146l-120 -25l-1 -2l59 -80l-131 -88l-40 98h-2z" />
    <glyph glyph-name="plus" unicode="+" horiz-adv-x="621" 
d="M185 0l43 222h-205l25 130h205l43 223h136l-43 -223h205l-25 -130h-205l-43 -222h-136z" />
    <glyph glyph-name="comma" unicode="," horiz-adv-x="298" 
d="M-68 -111l127 277h169l-167 -277h-129z" />
    <glyph glyph-name="hyphen" unicode="-" horiz-adv-x="450" 
d="M51 212l29 150h314l-29 -150h-314z" />
    <glyph glyph-name="period" unicode="." horiz-adv-x="283" 
d="M3 0l31 164h164l-31 -164h-164z" />
    <glyph glyph-name="slash" unicode="/" horiz-adv-x="442" 
d="M108 -42h-153l408 792h154z" />
    <glyph glyph-name="zero" unicode="0" horiz-adv-x="644" 
d="M51 238q0 48 7.5 99.5t22.5 107.5t41.5 106t61.5 89.5t85.5 63t110.5 23.5q237 0 237 -248q0 -58 -10 -121t-35 -130t-61.5 -119.5t-94.5 -86.5t-129 -34q-236 0 -236 250zM293 148q34 0 62.5 34.5t45 85.5t25.5 104t9 97q0 98 -61 98q-34 0 -62.5 -34.5t-45 -86
t-25.5 -104.5t-9 -96q0 -98 61 -98z" />
    <glyph glyph-name="one" unicode="1" horiz-adv-x="554" 
d="M3 0l27 150h152l57 285l12 55h-2q-13 -20 -36 -38l-50 -39l-87 118l236 184h151l-110 -565h152l-29 -150h-473z" />
    <glyph glyph-name="two" unicode="2" horiz-adv-x="604" 
d="M4 0q0 70 22 129.5t57 99.5t77.5 73t84.5 58l77 47.5t57 47.5t22 52t-19 41t-46 14q-32 0 -62.5 -19t-44.5 -38l-14 -19l-123 96q4 6 11.5 15.5t33.5 34.5t55 44.5t75.5 35t95.5 15.5q89 0 158 -53t69 -145q0 -46 -18 -87.5t-48 -72.5t-66 -57.5t-73 -48l-69 -40
t-55 -37.5t-29 -36h295l-29 -150h-494z" />
    <glyph glyph-name="three" unicode="3" horiz-adv-x="589" 
d="M-12 82l100 124q5 -6 15.5 -15t47.5 -23.5t81 -14.5q53 0 85 25t32 60q0 65 -119 65h-50l-20 85l107 113q18 19 37 36t29 24l10 7v2q-24 -5 -69 -5h-163l29 150h451l-21 -109l-173 -173q54 -14 93 -63t39 -123q0 -103 -77.5 -181t-212.5 -78q-49 0 -93 9.5t-71.5 23.5
t-48 28t-29.5 23z" />
    <glyph glyph-name="four" unicode="4" horiz-adv-x="641" 
d="M2 173l19 106l346 436h229l-77 -397h85l-28 -145h-85l-34 -173h-173l34 173h-316zM220 318h126l31 160l21 80h-2q-25 -43 -49 -74l-127 -164v-2z" />
    <glyph glyph-name="five" unicode="5" horiz-adv-x="589" 
d="M-1 82l102 125q6 -6 17 -15t47.5 -24t75.5 -15q43 0 81 28.5t38 76.5q0 34 -27.5 53t-71.5 19q-24 0 -49 -6t-38 -12l-13 -6l-92 36l102 373h405l-29 -150h-248l-17 -64l-9 -28h2q26 5 53 5q91 0 153 -60.5t62 -149.5q0 -118 -89.5 -199t-210.5 -81q-48 0 -90.5 9.5
t-69.5 23.5t-47 28t-28 23z" />
    <glyph glyph-name="six" unicode="6" horiz-adv-x="620" 
d="M306 -12q-111 0 -186 70.5t-75 201.5q0 79 29 160.5t80 150.5t129.5 112.5t168.5 43.5q50 0 92.5 -8.5t59.5 -16.5l18 -8l-71 -142q-46 15 -97 15q-114 0 -177 -118h2q30 25 88 25q99 0 151 -60.5t52 -154.5q0 -103 -74.5 -187t-189.5 -84zM309 148q39 0 64 32t25 72
q0 35 -21.5 58t-67.5 23q-41 0 -63.5 -21.5t-22.5 -53.5q0 -48 25.5 -79t60.5 -31z" />
    <glyph glyph-name="seven" unicode="7" horiz-adv-x="570" 
d="M-3 0l349 501q15 22 30 38.5t22 21.5l7 5v2q-10 -3 -46 -3h-271l29 150h513l-24 -122l-415 -593h-194z" />
    <glyph glyph-name="eight" unicode="8" horiz-adv-x="627" 
d="M27 196q0 34 16 67.5t41 59.5t43.5 41.5t35.5 26.5q-48 51 -48 116q0 86 70 153t189 67q102 0 166.5 -50.5t64.5 -139.5q0 -39 -23.5 -83t-43.5 -66.5t-38 -39.5q64 -52 64 -126q0 -90 -79 -162t-207 -72q-121 0 -186 59t-65 149zM384 222q0 18 -17.5 35.5t-34.5 27.5
t-56 30q-65 -53 -65 -106q0 -29 20 -48t52 -19q41 0 71 22t30 58zM289 506q0 -28 22.5 -47.5t66.5 -42.5q51 54 51 104q0 25 -16.5 39t-47.5 14q-35 0 -55.5 -19.5t-20.5 -47.5z" />
    <glyph glyph-name="nine" unicode="9" horiz-adv-x="619" 
d="M20 21l71 142q46 -15 97 -15q114 0 177 118h-2q-40 -25 -88 -25q-99 0 -151 60.5t-52 154.5q0 65 32 126.5t95 103t140 41.5q111 0 184.5 -70.5t73.5 -201.5q0 -79 -29 -160.5t-80 -150.5t-129.5 -112.5t-168.5 -43.5q-50 0 -92.5 8t-59.5 16zM333 382q41 0 63.5 21.5
t22.5 53.5q0 48 -25.5 79t-60.5 31q-39 0 -64 -32t-25 -72q0 -35 21.5 -58t67.5 -23z" />
    <glyph glyph-name="colon" unicode=":" horiz-adv-x="303" 
d="M80 351l32 164h164l-32 -164h-164zM11 0l32 164h164l-32 -164h-164z" />
    <glyph glyph-name="semicolon" unicode=";" horiz-adv-x="311" 
d="M96 351l32 164h158l-32 -164h-158zM-68 -111l127 277h169l-167 -277h-129z" />
    <glyph glyph-name="less" unicode="&#x3c;" horiz-adv-x="645" 
d="M55 234v107l504 223v-145l-330 -131v-2l330 -130v-145z" />
    <glyph glyph-name="equal" unicode="=" horiz-adv-x="659" 
d="M72 337v130h506v-130h-506zM72 107v130h506v-130h-506z" />
    <glyph glyph-name="greater" unicode="&#x3e;" horiz-adv-x="651" 
d="M88 11v145l330 130v2l-330 131v145l504 -223v-107z" />
    <glyph glyph-name="question" unicode="?" horiz-adv-x="497" 
d="M111 221l9 50q9 48 43 88t69.5 62t64 49t28.5 54q0 22 -17 35.5t-43 13.5q-24 0 -49.5 -10.5t-39.5 -21.5l-14 -11l-79 127q10 8 28.5 20t73.5 32.5t108 20.5q88 0 151 -48t63 -132q0 -49 -21.5 -90t-53 -67t-63 -48t-56.5 -44t-29 -44l-7 -36h-166zM73 0l29 150h158
l-29 -150h-158z" />
    <glyph glyph-name="at" unicode="@" horiz-adv-x="860" 
d="M29 177q0 179 133 308.5t320 129.5q273 0 273 -204q0 -26 -7 -61l-33 -173h74l-23 -119h-268q-101 0 -155 47.5t-54 118.5q0 75 67 133.5t181 58.5h64q1 4 1 7q0 27 -37.5 42t-85.5 15q-113 0 -196 -92.5t-83 -199.5q0 -83 54 -136.5t156 -53.5l-25 -128
q-157 0 -256.5 86.5t-99.5 220.5zM461 228q0 -23 14 -37t41 -14h39l26 134h-37q-37 0 -60 -25t-23 -58z" />
    <glyph glyph-name="A" unicode="A" horiz-adv-x="669" 
d="M-57 0l372 715h201l99 -715h-175l-15 150h-223l-72 -150h-187zM270 290h141l-14 139l-6 123h-2q-29 -78 -51 -123z" />
    <glyph glyph-name="B" unicode="B" horiz-adv-x="664" 
d="M26 0l139 715h230q78 0 125 -16q54 -19 83.5 -59.5t29.5 -94.5q0 -50 -30 -96.5t-81 -72.5v-2q44 -16 65 -53.5t21 -83.5q0 -82 -48.5 -139t-126.5 -82q-48 -16 -114 -16h-293zM286 438h90q35 0 56 24.5t21 55.5q0 47 -55 47h-87zM230 150h105q28 0 49 12q44 28 44 80
q0 25 -16 40.5t-47 15.5h-106z" />
    <glyph glyph-name="C" unicode="C" horiz-adv-x="722" 
d="M43 305q0 173 124 297.5t296 124.5q53 0 101.5 -10.5t79 -25.5t53 -30.5t32.5 -26.5l10 -10l-99 -120q-8 7 -22.5 17.5t-59.5 28t-89 17.5q-111 0 -178 -78t-67 -172q0 -73 42.5 -121t123.5 -48q48 0 100 21t80 43l29 21l68 -139l-14 -11.5t-38.5 -25.5t-61 -32
t-79 -25.5t-94.5 -11.5q-155 0 -246 88t-91 229z" />
    <glyph glyph-name="D" unicode="D" horiz-adv-x="746" 
d="M27 0l138 715h229q156 0 243.5 -74.5t87.5 -208.5q0 -182 -118 -307t-301 -125h-279zM231 150h72q108 0 175 77t67 189q0 73 -42.5 111t-118.5 38h-72z" />
    <glyph glyph-name="E" unicode="E" horiz-adv-x="588" 
d="M26 0l140 715h447l-29 -150h-273l-25 -130h217l-30 -150h-217l-26 -135h287l-29 -150h-462z" />
    <glyph glyph-name="F" unicode="F" horiz-adv-x="551" 
d="M27 0l138 715h437l-28 -150h-263l-29 -150h217l-28 -150h-218l-52 -265h-174z" />
    <glyph glyph-name="G" unicode="G" horiz-adv-x="771" 
d="M44 304q0 174 124 298.5t307 124.5q52 0 99 -9.5t77.5 -23t54 -27t34.5 -23.5l10 -9l-101 -121q-7 6 -20.5 15t-58 23.5t-91.5 14.5q-120 0 -186.5 -76t-66.5 -175q0 -82 48 -125t120 -43q37 0 76 13t59 26l20 13l11 55h-101l29 149h256l-79 -404h-146l4 20l7 30h-2
q-2 -3 -6.5 -7t-21 -14.5t-35 -19t-49 -15t-63.5 -6.5q-125 0 -217 85.5t-92 230.5z" />
    <glyph glyph-name="H" unicode="H" horiz-adv-x="778" 
d="M26 0l139 715h175l-56 -286h260l56 286h175l-139 -715h-175l54 280h-260l-54 -280h-175z" />
    <glyph glyph-name="I" unicode="I" horiz-adv-x="343" 
d="M26 0l139 715h175l-139 -715h-175z" />
    <glyph glyph-name="J" unicode="J" horiz-adv-x="572" 
d="M1 178q0 28 5 52l8 42h175l-7 -37q-4 -24 -4 -33q0 -54 53 -54q62 0 76 75l67 342h-191l29 150h366l-98 -505q-21 -108 -91 -165t-162 -57q-94 0 -160 50t-66 140z" />
    <glyph glyph-name="K" unicode="K" horiz-adv-x="697" 
d="M26 0l139 715h175l-54 -276h67l205 276h203l-271 -351v-2l130 -362h-186l-95 290h-82l-56 -290h-175z" />
    <glyph glyph-name="L" unicode="L" horiz-adv-x="559" 
d="M26 0l139 715h175l-110 -565h292l-30 -150h-466z" />
    <glyph glyph-name="M" unicode="M" horiz-adv-x="901" 
d="M4 0l191 715h191l47 -302l12 -118h2l60 118l163 302h192l-81 -715h-172l41 322l23 120h-2q-38 -76 -63 -120l-116 -207h-152l-36 207l-15 122h-2q-9 -68 -23 -122l-84 -322h-176z" />
    <glyph glyph-name="N" unicode="N" horiz-adv-x="765" 
d="M26 0l139 715h170l133 -334q8 -21 17 -51.5t14 -50.5l5 -20h2q7 77 16 122l65 334h175l-139 -715h-169l-134 333q-8 21 -17.5 51.5t-14.5 50.5l-5 20h-2q-6 -77 -15 -122l-65 -333h-175z" />
    <glyph glyph-name="O" unicode="O" horiz-adv-x="816" 
d="M42 307q0 111 58.5 208.5t155.5 154.5t205 57q152 0 244.5 -87.5t92.5 -224.5q0 -113 -59.5 -212t-156.5 -157t-204 -58q-152 0 -244 89.5t-92 229.5zM222 317q0 -75 44 -122t114 -47q91 0 164 75.5t73 180.5q0 73 -44 118t-114 45q-92 0 -164.5 -73.5t-72.5 -176.5z" />
    <glyph glyph-name="P" unicode="P" horiz-adv-x="635" 
d="M26 0l139 715h273q64 0 109 -22q50 -24 77 -71t27 -110q0 -88 -45.5 -160.5t-118.5 -106.5q-51 -24 -110 -24h-133l-43 -221h-175zM273 371h85q37 0 59 15q54 36 54 110q0 32 -18.5 50.5t-53.5 18.5h-88z" />
    <glyph glyph-name="Q" unicode="Q" horiz-adv-x="826" 
d="M42 307q0 111 58.5 208.5t155.5 154.5t205 57q152 0 244.5 -87.5t92.5 -224.5q0 -153 -111 -274l60 -61l-110 -102l-59 70q-88 -60 -200 -60q-152 0 -244 89.5t-92 229.5zM222 317q0 -75 44 -122t114 -47q45 0 91 22l-62 67l110 102l59 -71q39 63 39 136t-44 118t-114 45
q-92 0 -164.5 -73.5t-72.5 -176.5z" />
    <glyph glyph-name="R" unicode="R" horiz-adv-x="680" 
d="M26 0l139 715h266q63 0 105 -17q107 -43 107 -164q0 -73 -37 -142.5t-112 -99.5v-2q7 -12 18 -43l92 -247h-188l-80 241h-88l-47 -241h-175zM277 391h75q48 0 79.5 29t31.5 81q0 31 -19.5 47.5t-53.5 16.5h-79z" />
    <glyph glyph-name="S" unicode="S" horiz-adv-x="582" 
d="M-6 90l104 124q7 -7 21 -18t58 -29t90 -18q32 0 59 15.5t27 47.5q0 20 -27.5 39.5t-66.5 39.5t-78.5 45.5t-67 69t-27.5 98.5q0 101 80 162t186 61q47 0 89.5 -8.5t69.5 -20.5t47 -24.5t29 -21.5l9 -8l-94 -129q-7 6 -20 14.5t-53 22.5t-80 14q-32 0 -60 -16t-28 -46
q0 -18 20 -35t50 -31t64.5 -34.5t64.5 -44t50 -62t20 -85.5q0 -93 -76 -158.5t-190 -65.5q-51 0 -98 10.5t-77 25.5t-52.5 30t-32.5 26z" />
    <glyph glyph-name="T" unicode="T" horiz-adv-x="616" 
d="M161 0l110 565h-216l29 150h607l-29 -150h-216l-110 -565h-175z" />
    <glyph glyph-name="U" unicode="U" horiz-adv-x="747" 
d="M63 210q0 28 6 58l87 447h175l-88 -452q-3 -15 -3 -28q0 -42 28 -64.5t77 -22.5q58 0 96.5 29.5t49.5 85.5l88 452h175l-89 -457q-24 -122 -111.5 -196t-214.5 -74q-118 0 -197 59t-79 163z" />
    <glyph glyph-name="V" unicode="V" horiz-adv-x="683" 
d="M187 0l-115 715h187l47 -407l5 -115h2q27 70 49 115l206 407h199l-392 -715h-188z" />
    <glyph glyph-name="W" unicode="W" horiz-adv-x="1015" 
d="M145 0l-46 715h182l11 -447l-2 -75h2q7 31 26 75l196 447h145l21 -447l-2 -75h2q7 35 23 75l179 447h191l-314 -715h-203l-19 361q-2 49 2 84h-2q-11 -38 -31 -84l-160 -361h-201z" />
    <glyph glyph-name="X" unicode="X" horiz-adv-x="670" 
d="M-42 0l286 360l-149 355h191l52 -144l28 -91h2q25 45 59 91l105 144h204l-291 -364l151 -351h-187l-56 147l-28 88h-2q-25 -43 -59 -88l-109 -147h-197z" />
    <glyph glyph-name="Y" unicode="Y" horiz-adv-x="631" 
d="M164 0l57 293l-149 422h189l48 -172l23 -103h2l63 103l109 172h210l-322 -429l-55 -286h-175z" />
    <glyph glyph-name="Z" unicode="Z" horiz-adv-x="638" 
d="M-19 0l22 110l340 391q18 20 35 36l25 23l8 6v2q-22 -3 -54 -3h-253l28 150h540l-22 -108l-343 -393q-17 -20 -34 -36t-25 -22l-9 -7v-2q23 3 55 3h273l-29 -150h-557z" />
    <glyph glyph-name="bracketleft" unicode="[" horiz-adv-x="368" 
d="M7 -95l165 845h246l-24 -120h-102l-117 -605h102l-24 -120h-246z" />
    <glyph glyph-name="backslash" unicode="\" horiz-adv-x="428" 
d="M203 -42l-103 792h138l103 -792h-138z" />
    <glyph glyph-name="bracketright" unicode="]" horiz-adv-x="371" 
d="M-12 25h102l117 605h-102l24 120h246l-165 -845h-245z" />
    <glyph glyph-name="asciicircum" unicode="^" horiz-adv-x="630" 
d="M0 241l203 474h107l203 -474h-145l-112 300l-111 -300h-145z" />
    <glyph glyph-name="underscore" unicode="_" horiz-adv-x="622" 
d="M-45 0h596l-25 -130h-595z" />
    <glyph glyph-name="grave" unicode="`" horiz-adv-x="484" 
d="M168 761l-88 150h165l51 -150h-128z" />
    <glyph glyph-name="a" unicode="a" horiz-adv-x="556" 
d="M-6 121q0 55 32.5 96.5t84.5 62.5t105.5 31t108.5 10h7q2 14 2 19q0 47 -65 47q-29 0 -66 -11.5t-60 -23.5l-23 -12l-37 130l32.5 15.5t78.5 25.5t109 16q36 0 69 -8t65 -25t51 -51t19 -80q0 -20 -5 -50l-60 -313h-158l6 31l9 32h-2q-6 -8 -18 -20.5t-51.5 -33.5
t-82.5 -21q-62 0 -106.5 35.5t-44.5 97.5zM168 153q0 -33 42 -33q33 0 64.5 29t37.5 62l2 11h-16q-18 0 -36.5 -2.5t-41.5 -9t-37.5 -21.5t-14.5 -36z" />
    <glyph glyph-name="b" unicode="b" horiz-adv-x="638" 
d="M7 0l138 715h173l-38 -194l-11 -46h2q54 52 135 52q93 0 146 -60.5t53 -163.5q0 -135 -86 -225t-196 -90q-100 0 -145 63h-2q-1 -13 -4 -29l-4 -22h-161zM220 221q0 -39 20.5 -64.5t60.5 -25.5q48 0 88.5 44t40.5 115q0 42 -22 66.5t-59 24.5q-45 0 -87 -44.5t-42 -115.5
z" />
    <glyph glyph-name="c" unicode="c" horiz-adv-x="553" 
d="M16 224q0 117 91 210t231 93q41 0 77.5 -8t59.5 -19t40.5 -22t24.5 -19l8 -8l-87 -108q-47 40 -115 40t-111.5 -46.5t-43.5 -102.5q0 -43 27 -72.5t79 -29.5q32 0 70.5 15.5t60.5 30.5l23 16l44 -131q-10 -8 -28.5 -20.5t-76.5 -33.5t-117 -21q-123 0 -190 66.5
t-67 169.5z" />
    <glyph glyph-name="d" unicode="d" horiz-adv-x="639" 
d="M18 209q0 139 85.5 228.5t203.5 89.5q92 0 130 -46h2q1 13 3 23l41 211h173l-139 -715h-162l7 34l6 29h-2q-56 -75 -148 -75q-94 0 -147 60t-53 161zM193 222q0 -42 22 -66.5t59 -24.5q45 0 86.5 45.5t41.5 113.5q0 40 -20 65.5t-60 25.5q-48 0 -88.5 -44t-40.5 -115z
" />
    <glyph glyph-name="e" unicode="e" horiz-adv-x="562" 
d="M17 213q0 134 85 224t212 90q107 0 163.5 -55t56.5 -147q0 -21 -5 -46t-9 -40l-5 -15h-325q0 -44 26.5 -68t74.5 -24q33 0 71.5 13t59.5 26l22 13l44 -129q-10 -8 -28.5 -19t-73 -29.5t-106.5 -18.5q-126 0 -194.5 64.5t-68.5 160.5zM213 323h152q1 12 1 18
q0 25 -14.5 40.5t-40.5 15.5q-69 0 -98 -74z" />
    <glyph glyph-name="f" unicode="f" horiz-adv-x="383" 
d="M38 0l72 371h-63l27 135h63l4 22q9 48 32 84.5t50 56t62.5 31.5t62 15.5t54.5 3.5l63 -3l-30 -146q-10 2 -26 2q-88 0 -97 -50l-3 -16h95l-26 -135h-95l-72 -371h-173z" />
    <glyph glyph-name="g" unicode="g" horiz-adv-x="628" 
d="M61 -33q50 -33 141 -33q52 0 90.5 23t47.5 76l3 17l4 19h-1q-51 -54 -124 -54q-98 0 -149 60.5t-51 155.5q0 116 75.5 206t199.5 90q97 0 138 -55h3q1 10 2 16l5 27h162l-93 -478q-26 -129 -112 -188t-196 -59q-63 0 -116 13t-75 27l-22 13zM197 246q0 -39 19.5 -63
t59.5 -24q53 0 86 47.5t33 101.5q0 75 -83 75q-52 0 -83.5 -39.5t-31.5 -97.5z" />
    <glyph glyph-name="h" unicode="h" horiz-adv-x="636" 
d="M6 0l139 715h173l-44 -226l-10 -44h2q22 35 68 58.5t95 23.5q73 0 117.5 -35t44.5 -111q0 -20 -7 -57l-63 -324h-173l58 296q3 18 3 30q0 44 -46 44q-50 0 -89.5 -42t-50.5 -100l-44 -228h-173z" />
    <glyph glyph-name="i" unicode="i" horiz-adv-x="300" 
d="M120 580l26 135h169l-26 -135h-169zM6 0l99 515h173l-100 -515h-172z" />
    <glyph glyph-name="j" unicode="j" horiz-adv-x="301" 
d="M121 580l26 135h169l-26 -135h-169zM7 4l99 511h173l-102 -526q-12 -62 -43.5 -104t-73.5 -60.5t-76.5 -25.5t-70.5 -7l-61 3l28 144q9 -1 22 -1q92 0 105 66z" />
    <glyph glyph-name="k" unicode="k" horiz-adv-x="602" 
d="M6 0l139 715h173l-72 -370h47l136 170h201l-207 -244v-2l115 -269h-183l-75 200h-62l-39 -200h-173z" />
    <glyph glyph-name="l" unicode="l" horiz-adv-x="323" 
d="M30 137q0 29 7 63l100 515h173l-96 -496q-5 -22 -5 -39q0 -33 39 -33l21 1l-29 -150q-23 -3 -47 -3q-163 0 -163 142z" />
    <glyph glyph-name="m" unicode="m" horiz-adv-x="917" 
d="M6 0l100 515h167l-8 -40l-10 -37h2q69 89 156 89q110 0 137 -87h2q27 36 74 61.5t98 25.5q147 0 147 -141q0 -29 -8 -72l-60 -314h-173l59 300q3 16 3 30q0 40 -34 40q-45 0 -78.5 -45.5t-46.5 -111.5l-42 -213h-173l59 300q3 16 3 30q0 40 -34 40q-44 0 -78 -45.5
t-47 -111.5l-42 -213h-173z" />
    <glyph glyph-name="n" unicode="n" horiz-adv-x="636" 
d="M6 0l100 515h167l-5 -26l-13 -51h2q23 36 72 62.5t100 26.5q73 0 117.5 -35t44.5 -111q0 -20 -7 -57l-63 -324h-173l58 296q3 18 3 30q0 44 -46 44q-50 0 -89.5 -42t-50.5 -100l-44 -228h-173z" />
    <glyph glyph-name="o" unicode="o" horiz-adv-x="634" 
d="M15 219q0 131 97.5 219.5t223.5 88.5q117 0 192 -63.5t75 -167.5q0 -132 -98 -220t-223 -88q-118 0 -192.5 63t-74.5 168zM190 227q0 -44 26.5 -69.5t68.5 -25.5q55 0 99 43t44 110q0 45 -26.5 71.5t-67.5 26.5q-54 0 -99 -44.5t-45 -111.5z" />
    <glyph glyph-name="p" unicode="p" horiz-adv-x="636" 
d="M177 -2l-38 -198h-172l138 715h156l-5 -26l-9 -33h2q58 71 155 71q92 0 145.5 -60.5t53.5 -163.5q0 -135 -86 -225t-196 -90q-85 0 -135 54h-2q-2 -18 -7 -44zM219 222q0 -40 20 -65.5t60 -25.5q49 0 89 44t40 115q0 42 -21.5 66.5t-58.5 24.5q-45 0 -87 -44.5
t-42 -114.5z" />
    <glyph glyph-name="q" unicode="q" horiz-adv-x="639" 
d="M18 209q0 139 85.5 228.5t203.5 89.5q93 0 139 -55h2q1 11 4 28l3 15h162l-139 -715h-173l39 202l11 44h-2q-55 -58 -135 -58q-94 0 -147 60t-53 161zM193 222q0 -42 22 -66.5t59 -24.5q45 0 86.5 45.5t41.5 113.5q0 40 -20 65.5t-60 25.5q-48 0 -88.5 -44t-40.5 -115z
" />
    <glyph glyph-name="r" unicode="r" horiz-adv-x="430" 
d="M6 0l100 515h166l-17 -87l-8 -32h1q25 54 75.5 91t103.5 37l30 -2l-33 -170q-13 3 -34 3q-30 0 -63 -14.5t-67.5 -58t-46.5 -107.5l-34 -175h-173z" />
    <glyph glyph-name="s" unicode="s" horiz-adv-x="470" 
d="M-20 63l86 111q6 -5 17 -12.5t45 -20.5t68 -13q22 0 39 6.5t17 19.5q0 14 -32 30.5t-70 32.5t-70 53.5t-32 89.5q0 72 65 119.5t151 47.5q55 0 103.5 -14.5t69.5 -29.5l21 -15l-74 -118q-43 37 -120 37q-22 0 -39 -7t-17 -20q0 -10 21 -21t51 -24.5t60.5 -32t51.5 -52
t21 -76.5q0 -75 -60 -120.5t-157 -45.5q-57 0 -111 19t-79 37z" />
    <glyph glyph-name="t" unicode="t" horiz-adv-x="410" 
d="M62 160q0 17 5 40l34 171h-65l26 135h71l29 148h166l-29 -148h109l-26 -135h-109l-28 -147q-3 -14 -3 -27q0 -50 76 -50l27 1l-29 -150q-26 -3 -46 -3q-92 0 -150 40.5t-58 124.5z" />
    <glyph glyph-name="u" unicode="u" horiz-adv-x="629" 
d="M28 134q0 20 7 57l63 324h173l-58 -296q-3 -18 -3 -30q0 -44 46 -44q48 0 85.5 42t48.5 100l44 228h173l-100 -515h-167l5 26l13 51h-2q-23 -37 -69 -63t-97 -26q-73 0 -117.5 35t-44.5 111z" />
    <glyph glyph-name="v" unicode="v" horiz-adv-x="549" 
d="M115 0l-77 515h171l26 -274l2 -89h2q19 55 36 89l133 274h183l-276 -515h-200z" />
    <glyph glyph-name="w" unicode="w" horiz-adv-x="828" 
d="M97 0l-44 515h172l4 -304l-4 -54h2l3 7q2 7 6.5 21t9.5 26l131 304h145l11 -304l-2 -54h2q5 26 17 54l123 304h184l-245 -515h-192l-11 238v55h-2q-8 -27 -20 -55l-105 -238h-185z" />
    <glyph glyph-name="x" unicode="x" horiz-adv-x="556" 
d="M-44 0l216 260l-122 255h182l42 -110l11 -38h2q13 25 22 38l78 110h200l-220 -265l119 -250h-178l-46 111l-9 30h-2q-11 -21 -18 -30l-80 -111h-197z" />
    <glyph glyph-name="y" unicode="y" horiz-adv-x="547" 
d="M-16 -50q21 -16 51 -16q61 0 93 52l15 24l-121 505h180l42 -255l5 -76h2q18 45 31 73l115 258h194l-322 -570q-45 -79 -105 -117t-120 -38q-34 0 -67.5 10t-50.5 20l-17 10z" />
    <glyph glyph-name="z" unicode="z" horiz-adv-x="540" 
d="M-24 0l16 86l229 237q14 14 27.5 26l19.5 17l6 4v2q-12 -2 -44 -2h-176l29 145h459l-16 -87l-229 -237q-14 -14 -28 -25.5t-21 -16.5l-7 -5v-2q14 3 47 3h187l-29 -145h-470z" />
    <glyph glyph-name="braceleft" unicode="{" horiz-adv-x="405" 
d="M78 38q0 20 4 39l16 83q3 15 3 26q0 31 -17.5 48.5t-34.5 19.5l-17 2l29 150q3 0 9 0.5t22 6t28.5 14.5t26 29.5t18.5 48.5l20 103q9 47 33.5 78.5t59.5 45t66 18.5t69 5l42 -2l-24 -124q-11 2 -25 2q-72 0 -83 -54l-26 -132q-8 -40 -35.5 -68.5t-50.5 -36.5l-23 -9v-2
q3 -1 7 -2.5t15 -9.5t19 -19t15 -31t7 -45q0 -14 -3 -32l-22 -112q-1 -4 -1 -12q0 -42 64 -42l25 2l-24 -124q-19 -2 -44 -2q-23 0 -47.5 5t-54 18.5t-48 43t-18.5 71.5z" />
    <glyph glyph-name="bar" unicode="|" horiz-adv-x="354" 
d="M108 -165v967h144v-967h-144z" />
    <glyph glyph-name="braceright" unicode="}" horiz-adv-x="408" 
d="M13 24q72 0 83 54l28 139q5 25 18 46t28 33t29.5 20.5t24.5 11.5l9 3v2q-3 1 -7 2.5t-15 9.5t-19 19t-15 31t-7 45q0 14 3 32l20 105q1 4 1 12q0 42 -64 42l-25 -2l24 124q19 2 44 2q23 0 47.5 -5t54 -18.5t48 -43t18.5 -71.5q0 -20 -4 -39l-14 -76q-3 -15 -3 -26
q0 -31 17 -48.5t35 -19.5l17 -2l-29 -150q-3 0 -9 -0.5t-22 -6t-28.5 -14.5t-26 -29.5t-18.5 -48.5l-22 -110q-9 -47 -33.5 -78.5t-59.5 -45t-66 -18.5t-69 -5l-42 2l24 124q11 -2 25 -2z" />
    <glyph glyph-name="asciitilde" unicode="~" horiz-adv-x="614" 
d="M39 191q0 203 174 203q31 0 58.5 -12.5t43 -27.5t34.5 -27.5t36 -12.5q25 0 40 19.5t15 56.5h133q0 -203 -173 -203q-31 0 -58.5 12.5t-43 27.5t-35 27.5t-36.5 12.5q-24 0 -39 -19.5t-15 -56.5h-134z" />
    <glyph glyph-name="uni00A0" unicode="&#xa0;" horiz-adv-x="235" 
 />
    <glyph glyph-name="exclamdown" unicode="&#xa1;" horiz-adv-x="322" 
d="M94 365l29 150h158l-29 -150h-158zM-25 -200l112 494h148l-80 -494h-180z" />
    <glyph glyph-name="cent" unicode="&#xa2;" horiz-adv-x="601" 
d="M194 -12l18 92q-74 23 -119 85.5t-45 150.5q0 69 24.5 128.5t64.5 100t87.5 65.5t96.5 32l16 84h110l-17 -91q38 -10 67.5 -31.5t45 -44t25.5 -44t13 -35.5l3 -13l-155 -56q0 3 -1 8t-6 17.5t-12.5 22t-23.5 17.5t-37 8q-45 0 -86 -47.5t-41 -115.5q0 -43 21.5 -66
t56.5 -23q33 0 61 18t40 36l12 17l149 -63q-3 -6 -9.5 -16.5t-29.5 -38.5t-49 -49.5t-67.5 -42t-86.5 -24.5l-16 -81h-110z" />
    <glyph glyph-name="sterling" unicode="&#xa3;" horiz-adv-x="609" 
d="M61 299l22 112h42l22 110q18 92 91 149t173 57q35 0 67.5 -9.5t54.5 -22.5t39 -26t25 -23l8 -9l-109 -108q-37 41 -90 41q-29 0 -53 -17.5t-30 -46.5l-19 -95h166l-22 -112h-165l-29 -149h290l-29 -150h-523l29 150h54l29 149h-43z" />
    <glyph glyph-name="yen" unicode="&#xa5;" horiz-adv-x="645" 
d="M171 0l33 167h-163l18 96h163l6 28l-15 49h-139l19 96h92l-83 279h191l28 -143l22 -133h2q29 68 66 133l79 143h208l-192 -279h93l-19 -96h-140l-33 -49l-6 -28h164l-18 -96h-164l-33 -167h-179z" />
    <glyph glyph-name="section" unicode="&#xa7;" horiz-adv-x="521" 
d="M118 179l-22 263q-10 120 54 202.5t189 82.5q60 0 113.5 -20.5t76.5 -40.5l23 -21l-86 -98q-5 5 -15 12t-43 18.5t-69 11.5q-65 0 -94 -40t-23 -110l22 -260h-126zM64 118q5 -5 15 -12t43 -18.5t69 -11.5q65 0 94 40t23 110l-22 260h126l22 -263q10 -120 -54 -202.5
t-189 -82.5q-60 0 -113.5 20.5t-76.5 41.5l-23 20z" />
    <glyph glyph-name="dieresis" unicode="&#xa8;" horiz-adv-x="485" 
d="M217 771l28 140h126l-28 -140h-126zM8 771l28 140h126l-28 -140h-126z" />
    <glyph glyph-name="copyright" unicode="&#xa9;" horiz-adv-x="813" 
d="M56 358q0 153 105 260.5t254 107.5q151 0 257 -107.5t106 -260.5t-106 -261.5t-257 -108.5q-148 0 -253.5 108.5t-105.5 261.5zM169 358q0 -112 71 -189.5t175 -77.5q106 0 178.5 77.5t72.5 189.5q0 111 -72.5 188t-178.5 77q-104 0 -175 -77t-71 -188zM245 355
q0 78 51 132.5t121 54.5q36 0 66.5 -12t47 -28.5t28.5 -33.5t16 -29l4 -12l-100 -39l-5.5 13.5t-18 22t-34.5 13.5q-23 0 -41 -23t-18 -59q0 -39 16.5 -60.5t42.5 -21.5q20 0 34.5 12.5t18.5 24.5l5 12l100 -39q-1 -5 -4 -12.5t-15.5 -27.5t-29 -35t-47 -27.5t-66.5 -12.5
q-70 0 -121 54.5t-51 132.5z" />
    <glyph glyph-name="ordfeminine" unicode="&#xaa;" horiz-adv-x="415" 
d="M177 383q-38 0 -65 24t-27 63q0 34 17 58.5t39 36.5t53.5 19t50.5 8.5t39 1.5h10q3 11 3 17q0 27 -41 27q-17 0 -38.5 -6t-34.5 -12l-13 -7l-25 78q57 34 148 34q60 0 90.5 -28t30.5 -79q0 -15 -3 -33l-38 -195h-108l7 39h-2q-3 -5 -10 -12.5t-31 -20.5t-52 -13zM225 472
q18 0 34 14t19 31l1 5h-10q-64 0 -64 -35q0 -15 20 -15zM49 268l16 85h305l-17 -85h-304z" />
    <glyph glyph-name="guillemotleft" unicode="&#xab;" horiz-adv-x="655" 
d="M285 282l213 206h167l-227 -213l130 -198h-153zM155 77l-130 205l191 206h164l-202 -213l130 -198h-153z" />
    <glyph glyph-name="logicalnot" unicode="&#xac;" horiz-adv-x="629" 
d="M54 337v130h506v-335h-135v205h-371z" />
    <glyph glyph-name="uni00AD" unicode="&#xad;" horiz-adv-x="430" 
d="M-15 212l29 150h314l-29 -150h-314z" />
    <glyph glyph-name="registered" unicode="&#xae;" horiz-adv-x="813" 
d="M56 358q0 153 105 260.5t254 107.5q151 0 257 -107.5t106 -260.5t-106 -261.5t-257 -108.5q-148 0 -253.5 108.5t-105.5 261.5zM169 358q0 -112 71 -189.5t175 -77.5q106 0 178.5 77.5t72.5 189.5q0 111 -72.5 188t-178.5 77q-104 0 -175 -77t-71 -188zM285 187v347h163
q56 0 89 -31t33 -84q0 -37 -19.5 -60.5t-38.5 -28.5v-2q4 -3 13 -20l63 -121h-118l-49 118h-28v-118h-108zM393 377h27q40 0 40 42q0 41 -38 41h-29v-83z" />
    <glyph glyph-name="macron" unicode="&#xaf;" horiz-adv-x="485" 
d="M42 782l22 112h275l-22 -112h-275z" />
    <glyph glyph-name="degree" unicode="&#xb0;" horiz-adv-x="419" 
d="M244 385q-74 0 -121 44t-47 111q0 74 60.5 132t134.5 58t121.5 -44.5t47.5 -111.5q0 -75 -61 -132t-135 -57zM252 505q23 0 42.5 17.5t19.5 40.5q0 21 -14 34t-37 13q-24 0 -42.5 -18.5t-18.5 -41.5q0 -20 14 -32.5t36 -12.5z" />
    <glyph glyph-name="plusminus" unicode="&#xb1;" horiz-adv-x="684" 
d="M38 222v130h205v223h136v-223h205v-130h-205v-222h-136v222h-205zM48 -70h526v-130h-526v130z" />
    <glyph glyph-name="twosuperior" unicode="&#xb2;" 
d="M-13 423q0 55 18.5 98.5t47 68t61 45.5t61 33.5t47 29t18.5 34.5q0 13 -11.5 20t-27.5 7q-17 0 -37 -11.5t-32 -22.5l-11 -11l-75 78q8 9 22 22.5t57.5 36.5t86.5 23q63 0 111 -33.5t48 -95.5q0 -34 -15.5 -63.5t-38.5 -48t-50.5 -34.5t-52 -26.5t-43 -21.5t-22.5 -20
h186l-21 -108h-327z" />
    <glyph glyph-name="threesuperior" unicode="&#xb3;" 
d="M154 413q-30 0 -57.5 7t-46 17t-32 20t-20.5 17l-6 7l72 83q3 -4 9.5 -10t30 -16t51.5 -10q27 0 43.5 12.5t16.5 32.5q0 16 -15.5 24.5t-39.5 8.5h-37l-18 57l74 69l28 23v2q-21 -2 -34 -2h-103l21 109h294l-15 -79l-99 -92q35 -12 54.5 -44t19.5 -72q0 -64 -52 -114
t-139 -50z" />
    <glyph glyph-name="acute" unicode="&#xb4;" horiz-adv-x="484" 
d="M44 761l111 150h177l-148 -150h-140z" />
    <glyph glyph-name="mu" unicode="&#xb5;" horiz-adv-x="651" 
d="M-26 -200l139 715h173l-58 -296q-3 -18 -3 -30q0 -44 46 -44q48 0 85.5 42t48.5 100l44 228h173l-100 -515h-167l5 26l13 51h-2q-23 -37 -69 -63t-97 -26q-26 0 -53 5h-2q-1 -49 -9 -89l-20 -104h-147z" />
    <glyph glyph-name="mu" unicode="&#x3bc;" horiz-adv-x="651" 
d="M-26 -200l139 715h173l-58 -296q-3 -18 -3 -30q0 -44 46 -44q48 0 85.5 42t48.5 100l44 228h173l-100 -515h-167l5 26l13 51h-2q-23 -37 -69 -63t-97 -26q-26 0 -53 5h-2q-1 -49 -9 -89l-20 -104h-147z" />
    <glyph glyph-name="paragraph" unicode="&#xb6;" horiz-adv-x="660" 
d="M197 -50l57 291q-76 0 -134 60.5t-58 149.5q0 107 83 185.5t186 78.5h372l-29 -150h-237l-120 -615h-120zM379 -50l110 565h120l-110 -565h-120z" />
    <glyph glyph-name="periodcentered" unicode="&#xb7;" horiz-adv-x="294" 
d="M51 213l31 164h158l-31 -164h-158z" />
    <glyph glyph-name="cedilla" unicode="&#xb8;" horiz-adv-x="484" 
d="M83 -116q22 -8 44 -8q43 0 43 26q0 18 -37 18l-27 -2l57 111l69 -17l-2 -7l-18 -41q24 -5 43 -21t19 -45q0 -56 -40.5 -82t-91.5 -26q-18 0 -37 2t-29 4l-9 3z" />
    <glyph glyph-name="onesuperior" unicode="&#xb9;" 
d="M6 423l21 108h89l26 136l10 32h-2q-7 -10 -14 -15l-27 -20l-59 84l148 116h108l-64 -333h90l-21 -108h-305z" />
    <glyph glyph-name="ordmasculine" unicode="&#xba;" horiz-adv-x="459" 
d="M256 385q-71 0 -116.5 40t-45.5 106q0 83 63 138.5t144 55.5q71 0 116.5 -40t45.5 -106q0 -83 -63 -138.5t-144 -55.5zM266 488q30 0 53.5 23t23.5 59q0 24 -14.5 38.5t-36.5 14.5q-29 0 -53.5 -24t-24.5 -60q0 -24 14.5 -37.5t37.5 -13.5zM54 268l17 85h338l-17 -85
h-338z" />
    <glyph glyph-name="guillemotright" unicode="&#xbb;" horiz-adv-x="655" 
d="M268 77l202 213l-130 198h153l130 -205l-191 -206h-164zM-17 77l227 213l-130 198h153l130 -205l-213 -206h-167z" />
    <glyph glyph-name="onequarter" unicode="&#xbc;" horiz-adv-x="1016" 
d="M744 0l17 87h-196l15 84l216 270h157l-48 -247h53l-20 -107h-53l-17 -87h-124zM711 194h70l18 90l14 50h-2q-14 -28 -30 -46l-70 -92v-2zM338 0h-126l474 715h126zM45 274l21 108h89l26 136l10 32h-2q-7 -10 -14 -15l-27 -20l-59 84l148 116h108l-64 -333h90l-21 -108
h-305z" />
    <glyph glyph-name="onehalf" unicode="&#xbd;" horiz-adv-x="1018" 
d="M343 0h-126l474 715h126zM46 274l21 108h89l26 136l10 32h-2q-7 -10 -14 -15l-27 -20l-59 84l148 116h108l-64 -333h90l-21 -108h-305zM584 0q0 55 18.5 98.5t47 68t61 45.5t61 33.5t47 29t18.5 34.5q0 13 -11.5 20t-27.5 7q-17 0 -37 -11t-31 -23l-12 -11l-75 78
q8 9 22 22.5t57.5 36.5t86.5 23q63 0 111 -33.5t48 -95.5q0 -34 -15.5 -63.5t-38.5 -48t-50.5 -34.5t-52 -26.5t-43 -21.5t-22.5 -20h186l-21 -108h-327z" />
    <glyph glyph-name="threequarters" unicode="&#xbe;" horiz-adv-x="1014" 
d="M193 264q-30 0 -57.5 7t-46 17t-32 20t-19.5 17l-7 7l72 83q3 -4 9.5 -10t30 -16t51.5 -10q27 0 43.5 12.5t16.5 32.5q0 16 -15.5 24.5t-39.5 8.5h-37l-18 57l74 69l28 23v2q-21 -2 -34 -2h-103l21 109h294l-15 -79l-99 -92q35 -12 54.5 -44t19.5 -72q0 -64 -52 -114
t-139 -50zM336 0h-126l474 715h126zM742 0l17 87h-196l15 84l216 270h157l-48 -247h53l-20 -107h-53l-17 -87h-124zM709 194h70l18 90l14 50h-2q-14 -28 -30 -46l-70 -92v-2z" />
    <glyph glyph-name="questiondown" unicode="&#xbf;" horiz-adv-x="490" 
d="M215 365l29 150h158l-29 -150h-158zM-31 -30q0 49 21.5 90t53 67t63 48t56.5 44t29 44l6 31h166l-8 -45q-9 -48 -43 -88t-69.5 -62t-64 -49t-28.5 -54q0 -22 17 -35.5t43 -13.5q24 0 49.5 10.5t39.5 21.5l14 11l79 -127q-10 -8 -28.5 -20t-73.5 -32.5t-108 -20.5
q-88 0 -151 48t-63 132z" />
    <glyph glyph-name="Agrave" unicode="&#xc0;" horiz-adv-x="669" 
d="M-57 0l372 715h201l99 -715h-175l-15 150h-223l-72 -150h-187zM270 290h141l-14 139l-6 123h-2q-29 -78 -51 -123zM354 761l-88 150h165l51 -150h-128z" />
    <glyph glyph-name="Aacute" unicode="&#xc1;" horiz-adv-x="669" 
d="M-57 0l372 715h201l99 -715h-175l-15 150h-223l-72 -150h-187zM270 290h141l-14 139l-6 123h-2q-29 -78 -51 -123zM351 761l111 150h177l-148 -150h-140z" />
    <glyph glyph-name="Acircumflex" unicode="&#xc2;" horiz-adv-x="669" 
d="M-57 0l372 715h201l99 -715h-175l-15 150h-223l-72 -150h-187zM270 290h141l-14 139l-6 123h-2q-29 -78 -51 -123zM238 761l129 150h168l69 -150h-130l-31 82h-2l-63 -82h-140z" />
    <glyph glyph-name="Atilde" unicode="&#xc3;" horiz-adv-x="669" 
d="M-57 0l372 715h201l99 -715h-175l-15 150h-223l-72 -150h-187zM270 290h141l-14 139l-6 123h-2q-29 -78 -51 -123zM233 761q31 153 149 153q21 0 38 -9.5t26.5 -20.5t21 -20.5t22.5 -9.5q34 0 44 57h113q-30 -153 -148 -153q-25 0 -45 15t-35.5 30t-28.5 15
q-32 0 -44 -57h-113z" />
    <glyph glyph-name="Adieresis" unicode="&#xc4;" horiz-adv-x="669" 
d="M-57 0l372 715h201l99 -715h-175l-15 150h-223l-72 -150h-187zM270 290h141l-14 139l-6 123h-2q-29 -78 -51 -123zM470 771l28 140h126l-28 -140h-126zM261 771l28 140h126l-28 -140h-126z" />
    <glyph glyph-name="Aring" unicode="&#xc5;" horiz-adv-x="669" 
d="M-57 0l372 715h201l99 -715h-175l-15 150h-223l-72 -150h-187zM270 290h141l-14 139l-6 123h-2q-29 -78 -51 -123zM428 747q-41 0 -70 19t-29 54q0 47 37.5 72.5t84.5 25.5q42 0 71 -19.5t29 -56.5q0 -46 -38.5 -70.5t-84.5 -24.5zM433 797q18 0 30.5 12.5t12.5 30.5
q0 28 -29 28q-17 0 -29.5 -12.5t-12.5 -32.5q0 -26 28 -26z" />
    <glyph glyph-name="AE" unicode="&#xc6;" horiz-adv-x="971" 
d="M-62 0l432 715h626l-29 -150h-273l-25 -130h218l-30 -150h-218l-26 -135h286l-29 -150h-461l56 288h-166l-167 -288h-194zM460 565l-80 -137h112l26 137h-58z" />
    <glyph glyph-name="Ccedilla" unicode="&#xc7;" horiz-adv-x="722" 
d="M236 -116q22 -8 44 -8q43 0 43 26q0 18 -37 18l-27 -2l39 77q-119 22 -187 105.5t-68 204.5q0 173 124 297.5t296 124.5q53 0 101.5 -10.5t79 -25.5t53 -30.5t32.5 -26.5l10 -10l-99 -120q-8 7 -22.5 17.5t-59.5 28t-89 17.5q-111 0 -178 -78t-67 -172q0 -73 42.5 -121
t123.5 -48q48 0 100 21t80 43l29 21l68 -139l-14 -11.5t-38.5 -25.5t-61 -32t-79 -25.5t-94.5 -11.5h-5l-10 -24q24 -5 43 -21t19 -45q0 -56 -40.5 -82t-91.5 -26q-18 0 -37 2t-28 4l-10 3z" />
    <glyph glyph-name="Egrave" unicode="&#xc8;" horiz-adv-x="588" 
d="M26 0l140 715h447l-29 -150h-273l-25 -130h217l-30 -150h-217l-26 -135h287l-29 -150h-462zM334 761l-88 150h165l51 -150h-128z" />
    <glyph glyph-name="Eacute" unicode="&#xc9;" horiz-adv-x="588" 
d="M26 0l140 715h447l-29 -150h-273l-25 -130h217l-30 -150h-217l-26 -135h287l-29 -150h-462zM331 761l111 150h177l-148 -150h-140z" />
    <glyph glyph-name="Ecircumflex" unicode="&#xca;" horiz-adv-x="588" 
d="M26 0l140 715h447l-29 -150h-273l-25 -130h217l-30 -150h-217l-26 -135h287l-29 -150h-462zM218 761l129 150h168l69 -150h-130l-31 82h-2l-63 -82h-140z" />
    <glyph glyph-name="Edieresis" unicode="&#xcb;" horiz-adv-x="588" 
d="M26 0l140 715h447l-29 -150h-273l-25 -130h217l-30 -150h-217l-26 -135h287l-29 -150h-462zM450 771l28 140h126l-28 -140h-126zM241 771l28 140h126l-28 -140h-126z" />
    <glyph glyph-name="Igrave" unicode="&#xcc;" horiz-adv-x="343" 
d="M26 0l139 715h175l-139 -715h-175zM190 761l-88 150h165l51 -150h-128z" />
    <glyph glyph-name="Iacute" unicode="&#xcd;" horiz-adv-x="343" 
d="M26 0l139 715h175l-139 -715h-175zM186 761l111 150h177l-148 -150h-140z" />
    <glyph glyph-name="Icircumflex" unicode="&#xce;" horiz-adv-x="343" 
d="M26 0l139 715h175l-139 -715h-175zM73 761l129 150h168l69 -150h-130l-31 82h-2l-63 -82h-140z" />
    <glyph glyph-name="Idieresis" unicode="&#xcf;" horiz-adv-x="343" 
d="M26 0l139 715h175l-139 -715h-175zM305 771l28 140h126l-28 -140h-126zM96 771l28 140h126l-28 -140h-126z" />
    <glyph glyph-name="Eth" unicode="&#xd0;" horiz-adv-x="765" 
d="M45 284l27 140h57l56 291h229q156 0 243.5 -74.5t87.5 -208.5q0 -182 -118 -307t-301 -125h-279l55 284h-57zM251 150h72q108 0 175 77t67 189q0 73 -42.5 111t-118.5 38h-72l-28 -141h104l-27 -140h-104z" />
    <glyph glyph-name="Ntilde" unicode="&#xd1;" horiz-adv-x="765" 
d="M26 0l139 715h170l133 -334q8 -21 17 -51.5t14 -50.5l5 -20h2q7 77 16 122l65 334h175l-139 -715h-169l-134 333q-8 21 -17.5 51.5t-14.5 50.5l-5 20h-2q-6 -77 -15 -122l-65 -333h-175zM278 761q31 153 149 153q21 0 38 -9.5t26.5 -20.5t21 -20.5t22.5 -9.5q33 0 44 57
h113q-30 -153 -148 -153q-25 0 -45 15t-35.5 30t-28.5 15q-32 0 -44 -57h-113z" />
    <glyph glyph-name="Ograve" unicode="&#xd2;" horiz-adv-x="816" 
d="M42 307q0 111 58.5 208.5t155.5 154.5t205 57q152 0 244.5 -87.5t92.5 -224.5q0 -113 -59.5 -212t-156.5 -157t-204 -58q-152 0 -244 89.5t-92 229.5zM222 317q0 -75 44 -122t114 -47q91 0 164 75.5t73 180.5q0 73 -44 118t-114 45q-92 0 -164.5 -73.5t-72.5 -176.5z
M425 761l-88 150h165l51 -150h-128z" />
    <glyph glyph-name="Oacute" unicode="&#xd3;" horiz-adv-x="816" 
d="M42 307q0 111 58.5 208.5t155.5 154.5t205 57q152 0 244.5 -87.5t92.5 -224.5q0 -113 -59.5 -212t-156.5 -157t-204 -58q-152 0 -244 89.5t-92 229.5zM222 317q0 -75 44 -122t114 -47q91 0 164 75.5t73 180.5q0 73 -44 118t-114 45q-92 0 -164.5 -73.5t-72.5 -176.5z
M422 761l111 150h177l-148 -150h-140z" />
    <glyph glyph-name="Ocircumflex" unicode="&#xd4;" horiz-adv-x="816" 
d="M42 307q0 111 58.5 208.5t155.5 154.5t205 57q152 0 244.5 -87.5t92.5 -224.5q0 -113 -59.5 -212t-156.5 -157t-204 -58q-152 0 -244 89.5t-92 229.5zM222 317q0 -75 44 -122t114 -47q91 0 164 75.5t73 180.5q0 73 -44 118t-114 45q-92 0 -164.5 -73.5t-72.5 -176.5z
M309 761l129 150h168l69 -150h-130l-31 82h-2l-63 -82h-140z" />
    <glyph glyph-name="Otilde" unicode="&#xd5;" horiz-adv-x="816" 
d="M42 307q0 111 58.5 208.5t155.5 154.5t205 57q152 0 244.5 -87.5t92.5 -224.5q0 -113 -59.5 -212t-156.5 -157t-204 -58q-152 0 -244 89.5t-92 229.5zM222 317q0 -75 44 -122t114 -47q91 0 164 75.5t73 180.5q0 73 -44 118t-114 45q-92 0 -164.5 -73.5t-72.5 -176.5z
M304 761q31 153 149 153q21 0 38 -9.5t26.5 -20.5t21 -20.5t22.5 -9.5q33 0 44 57h113q-30 -153 -148 -153q-25 0 -45 15t-35.5 30t-28.5 15q-32 0 -44 -57h-113z" />
    <glyph glyph-name="Odieresis" unicode="&#xd6;" horiz-adv-x="816" 
d="M42 307q0 111 58.5 208.5t155.5 154.5t205 57q152 0 244.5 -87.5t92.5 -224.5q0 -113 -59.5 -212t-156.5 -157t-204 -58q-152 0 -244 89.5t-92 229.5zM222 317q0 -75 44 -122t114 -47q91 0 164 75.5t73 180.5q0 73 -44 118t-114 45q-92 0 -164.5 -73.5t-72.5 -176.5z
M541 771l28 140h126l-28 -140h-126zM332 771l28 140h126l-28 -140h-126z" />
    <glyph glyph-name="multiply" unicode="&#xd7;" horiz-adv-x="669" 
d="M61 92l182 195l-182 196l92 92l179 -192l180 192l92 -92l-183 -196l183 -195l-92 -92l-180 192l-179 -192z" />
    <glyph glyph-name="Oslash" unicode="&#xd8;" horiz-adv-x="820" 
d="M45 307q0 111 58.5 208.5t155.5 154.5t205 57q109 0 191 -48l59 64l65 -52l-59 -64q81 -84 81 -212q0 -113 -59.5 -212t-156.5 -157t-204 -58q-119 0 -203 56l-66 -72l-65 53l69 74q-71 85 -71 208zM620 404q0 49 -23 90l-300 -323q37 -23 86 -23q91 0 164 75.5t73 180.5
zM225 317q0 -46 17 -82l293 316q-34 16 -73 16q-92 0 -164.5 -73.5t-72.5 -176.5z" />
    <glyph glyph-name="Ugrave" unicode="&#xd9;" horiz-adv-x="747" 
d="M63 210q0 28 6 58l87 447h175l-88 -452q-3 -15 -3 -28q0 -42 28 -64.5t77 -22.5q58 0 96.5 29.5t49.5 85.5l88 452h175l-89 -457q-24 -122 -111.5 -196t-214.5 -74q-118 0 -197 59t-79 163zM392 761l-88 150h165l51 -150h-128z" />
    <glyph glyph-name="Uacute" unicode="&#xda;" horiz-adv-x="747" 
d="M63 210q0 28 6 58l87 447h175l-88 -452q-3 -15 -3 -28q0 -42 28 -64.5t77 -22.5q58 0 96.5 29.5t49.5 85.5l88 452h175l-89 -457q-24 -122 -111.5 -196t-214.5 -74q-118 0 -197 59t-79 163zM389 761l111 150h177l-148 -150h-140z" />
    <glyph glyph-name="Ucircumflex" unicode="&#xdb;" horiz-adv-x="747" 
d="M63 210q0 28 6 58l87 447h175l-88 -452q-3 -15 -3 -28q0 -42 28 -64.5t77 -22.5q58 0 96.5 29.5t49.5 85.5l88 452h175l-89 -457q-24 -122 -111.5 -196t-214.5 -74q-118 0 -197 59t-79 163zM276 761l129 150h168l69 -150h-130l-31 82h-2l-63 -82h-140z" />
    <glyph glyph-name="Udieresis" unicode="&#xdc;" horiz-adv-x="747" 
d="M63 210q0 28 6 58l87 447h175l-88 -452q-3 -15 -3 -28q0 -42 28 -64.5t77 -22.5q58 0 96.5 29.5t49.5 85.5l88 452h175l-89 -457q-24 -122 -111.5 -196t-214.5 -74q-118 0 -197 59t-79 163zM508 771l28 140h126l-28 -140h-126zM299 771l28 140h126l-28 -140h-126z" />
    <glyph glyph-name="Yacute" unicode="&#xdd;" horiz-adv-x="631" 
d="M164 0l57 293l-149 422h189l48 -172l23 -103h2l63 103l109 172h210l-322 -429l-55 -286h-175zM323 761l111 150h177l-148 -150h-140z" />
    <glyph glyph-name="Thorn" unicode="&#xde;" horiz-adv-x="636" 
d="M26 0l139 715h175l-21 -106h99q64 0 109 -22q50 -24 77 -71t27 -110q0 -88 -45.5 -160.5t-118.5 -106.5q-51 -24 -110 -24h-134l-22 -115h-175zM253 265h85q37 0 59 15q54 36 54 110q0 32 -18.5 50.5t-53.5 18.5h-89z" />
    <glyph glyph-name="germandbls" unicode="&#xdf;" horiz-adv-x="638" 
d="M7 0l104 537q17 90 94 140t173 50q94 0 156.5 -46.5t62.5 -122.5q0 -39 -16.5 -71t-36 -48t-36 -35t-16.5 -35q0 -18 15 -39t33.5 -38t33.5 -46t15 -61q0 -80 -65 -136t-150 -56q-40 0 -74 5t-48 10l-13 6l28 139q37 -16 91 -16q22 0 40 11t18 36q0 18 -15.5 38.5
t-34.5 37t-34.5 42.5t-15.5 54t11 53t27 42l31.5 32t26.5 30t11 28q0 19 -14 30.5t-39 11.5q-77 0 -90 -68l-100 -515h-173z" />
    <glyph glyph-name="agrave" unicode="&#xe0;" horiz-adv-x="556" 
d="M-6 121q0 55 32.5 96.5t84.5 62.5t105.5 31t108.5 10h7q2 14 2 19q0 47 -65 47q-29 0 -66 -11.5t-60 -23.5l-23 -12l-37 130l32.5 15.5t78.5 25.5t109 16q36 0 69 -8t65 -25t51 -51t19 -80q0 -20 -5 -50l-60 -313h-158l6 31l9 32h-2q-6 -8 -18 -20.5t-51.5 -33.5
t-82.5 -21q-62 0 -106.5 35.5t-44.5 97.5zM168 153q0 -33 42 -33q33 0 64.5 29t37.5 62l2 11h-16q-18 0 -36.5 -2.5t-41.5 -9t-37.5 -21.5t-14.5 -36zM254 565l-88 150h165l51 -150h-128z" />
    <glyph glyph-name="aacute" unicode="&#xe1;" horiz-adv-x="556" 
d="M-6 121q0 55 32.5 96.5t84.5 62.5t105.5 31t108.5 10h7q2 14 2 19q0 47 -65 47q-29 0 -66 -11.5t-60 -23.5l-23 -12l-37 130l32.5 15.5t78.5 25.5t109 16q36 0 69 -8t65 -25t51 -51t19 -80q0 -20 -5 -50l-60 -313h-158l6 31l9 32h-2q-6 -8 -18 -20.5t-51.5 -33.5
t-82.5 -21q-62 0 -106.5 35.5t-44.5 97.5zM168 153q0 -33 42 -33q33 0 64.5 29t37.5 62l2 11h-16q-18 0 -36.5 -2.5t-41.5 -9t-37.5 -21.5t-14.5 -36zM251 565l111 150h177l-148 -150h-140z" />
    <glyph glyph-name="acircumflex" unicode="&#xe2;" horiz-adv-x="556" 
d="M-6 121q0 55 32.5 96.5t84.5 62.5t105.5 31t108.5 10h7q2 14 2 19q0 47 -65 47q-29 0 -66 -11.5t-60 -23.5l-23 -12l-37 130l32.5 15.5t78.5 25.5t109 16q36 0 69 -8t65 -25t51 -51t19 -80q0 -20 -5 -50l-60 -313h-158l6 31l9 32h-2q-6 -8 -18 -20.5t-51.5 -33.5
t-82.5 -21q-62 0 -106.5 35.5t-44.5 97.5zM168 153q0 -33 42 -33q33 0 64.5 29t37.5 62l2 11h-16q-18 0 -36.5 -2.5t-41.5 -9t-37.5 -21.5t-14.5 -36zM138 565l129 150h168l69 -150h-130l-31 82h-2l-63 -82h-140z" />
    <glyph glyph-name="atilde" unicode="&#xe3;" horiz-adv-x="556" 
d="M-6 121q0 55 32.5 96.5t84.5 62.5t105.5 31t108.5 10h7q2 14 2 19q0 47 -65 47q-29 0 -66 -11.5t-60 -23.5l-23 -12l-37 130l32.5 15.5t78.5 25.5t109 16q36 0 69 -8t65 -25t51 -51t19 -80q0 -20 -5 -50l-60 -313h-158l6 31l9 32h-2q-6 -8 -18 -20.5t-51.5 -33.5
t-82.5 -21q-62 0 -106.5 35.5t-44.5 97.5zM168 153q0 -33 42 -33q33 0 64.5 29t37.5 62l2 11h-16q-18 0 -36.5 -2.5t-41.5 -9t-37.5 -21.5t-14.5 -36zM133 565q31 153 149 153q21 0 38 -9.5t26.5 -20.5t21 -20.5t22.5 -9.5q34 0 44 57h113q-30 -153 -148 -153q-25 0 -45 15
t-35.5 30t-28.5 15q-32 0 -44 -57h-113z" />
    <glyph glyph-name="adieresis" unicode="&#xe4;" horiz-adv-x="556" 
d="M-6 121q0 55 32.5 96.5t84.5 62.5t105.5 31t108.5 10h7q2 14 2 19q0 47 -65 47q-29 0 -66 -11.5t-60 -23.5l-23 -12l-37 130l32.5 15.5t78.5 25.5t109 16q36 0 69 -8t65 -25t51 -51t19 -80q0 -20 -5 -50l-60 -313h-158l6 31l9 32h-2q-6 -8 -18 -20.5t-51.5 -33.5
t-82.5 -21q-62 0 -106.5 35.5t-44.5 97.5zM168 153q0 -33 42 -33q33 0 64.5 29t37.5 62l2 11h-16q-18 0 -36.5 -2.5t-41.5 -9t-37.5 -21.5t-14.5 -36zM370 575l28 140h126l-28 -140h-126zM161 575l28 140h126l-28 -140h-126z" />
    <glyph glyph-name="aring" unicode="&#xe5;" horiz-adv-x="556" 
d="M-6 121q0 55 32.5 96.5t84.5 62.5t105.5 31t108.5 10h7q2 14 2 19q0 47 -65 47q-29 0 -66 -11.5t-60 -23.5l-23 -12l-37 130l32.5 15.5t78.5 25.5t109 16q36 0 69 -8t65 -25t51 -51t19 -80q0 -20 -5 -50l-60 -313h-158l6 31l9 32h-2q-6 -8 -18 -20.5t-51.5 -33.5
t-82.5 -21q-62 0 -106.5 35.5t-44.5 97.5zM168 153q0 -33 42 -33q33 0 64.5 29t37.5 62l2 11h-16q-18 0 -36.5 -2.5t-41.5 -9t-37.5 -21.5t-14.5 -36zM328 551q-41 0 -70 19t-29 54q0 47 37.5 72.5t84.5 25.5q42 0 71 -19.5t29 -56.5q0 -46 -38.5 -70.5t-84.5 -24.5z
M333 601q18 0 30.5 12.5t12.5 30.5q0 28 -29 28q-17 0 -29.5 -12.5t-12.5 -32.5q0 -26 28 -26z" />
    <glyph glyph-name="ae" unicode="&#xe6;" horiz-adv-x="852" 
d="M-6 121q0 55 32.5 96.5t84.5 62.5t105.5 31t108.5 10h7q2 10 2 20q0 46 -65 46q-29 0 -66 -11.5t-60 -23.5l-23 -12l-37 130l32.5 15.5t78.5 25.5t109 16q87 0 146 -53h2q72 53 153 53q107 0 163.5 -55t56.5 -147q0 -21 -5 -46t-9 -40l-5 -15h-325q0 -47 28.5 -69.5
t72.5 -22.5q33 0 71.5 13t59.5 26l22 13l44 -129q-10 -8 -28.5 -19t-73 -29.5t-106.5 -18.5q-143 0 -214 91h-2q-7 -11 -17.5 -22.5t-32.5 -29t-58.5 -28.5t-80.5 -11q-71 0 -121 35.5t-50 97.5zM503 323h152q1 12 1 18q0 25 -14.5 40.5t-40.5 15.5q-69 0 -98 -74zM168 153
q0 -33 42 -33q33 0 64.5 29t37.5 62l2 11h-16q-18 0 -36.5 -2.5t-41.5 -9t-37.5 -21.5t-14.5 -36z" />
    <glyph glyph-name="ccedilla" unicode="&#xe7;" horiz-adv-x="554" 
d="M137 -116q22 -8 44 -8q43 0 43 26q0 18 -37 18l-27 -2l40 78q-88 18 -135.5 80t-47.5 148q0 117 91 210t231 93q41 0 77.5 -8t59.5 -19t40.5 -22t25.5 -19l7 -8l-87 -108q-47 40 -115 40t-111.5 -46.5t-43.5 -102.5q0 -43 27 -72.5t79 -29.5q32 0 70.5 15.5t61.5 30.5
l22 16l44 -131q-10 -8 -28.5 -20.5t-76 -33.5t-115.5 -21l-10 -24q24 -5 43 -21t19 -45q0 -56 -40.5 -82t-91.5 -26q-18 0 -37 2t-29 4l-9 3z" />
    <glyph glyph-name="egrave" unicode="&#xe8;" horiz-adv-x="562" 
d="M17 213q0 134 85 224t212 90q107 0 163.5 -55t56.5 -147q0 -21 -5 -46t-9 -40l-5 -15h-325q0 -44 26.5 -68t74.5 -24q33 0 71.5 13t59.5 26l22 13l44 -129q-10 -8 -28.5 -19t-73 -29.5t-106.5 -18.5q-126 0 -194.5 64.5t-68.5 160.5zM213 323h152q1 12 1 18
q0 25 -14.5 40.5t-40.5 15.5q-69 0 -98 -74zM270 565l-88 150h165l51 -150h-128z" />
    <glyph glyph-name="eacute" unicode="&#xe9;" horiz-adv-x="562" 
d="M17 213q0 134 85 224t212 90q107 0 163.5 -55t56.5 -147q0 -21 -5 -46t-9 -40l-5 -15h-325q0 -44 26.5 -68t74.5 -24q33 0 71.5 13t59.5 26l22 13l44 -129q-10 -8 -28.5 -19t-73 -29.5t-106.5 -18.5q-126 0 -194.5 64.5t-68.5 160.5zM213 323h152q1 12 1 18
q0 25 -14.5 40.5t-40.5 15.5q-69 0 -98 -74zM267 565l111 150h177l-148 -150h-140z" />
    <glyph glyph-name="ecircumflex" unicode="&#xea;" horiz-adv-x="562" 
d="M17 213q0 134 85 224t212 90q107 0 163.5 -55t56.5 -147q0 -21 -5 -46t-9 -40l-5 -15h-325q0 -44 26.5 -68t74.5 -24q33 0 71.5 13t59.5 26l22 13l44 -129q-10 -8 -28.5 -19t-73 -29.5t-106.5 -18.5q-126 0 -194.5 64.5t-68.5 160.5zM213 323h152q1 12 1 18
q0 25 -14.5 40.5t-40.5 15.5q-69 0 -98 -74zM154 565l129 150h168l69 -150h-130l-31 82h-2l-63 -82h-140z" />
    <glyph glyph-name="edieresis" unicode="&#xeb;" horiz-adv-x="562" 
d="M17 213q0 134 85 224t212 90q107 0 163.5 -55t56.5 -147q0 -21 -5 -46t-9 -40l-5 -15h-325q0 -44 26.5 -68t74.5 -24q33 0 71.5 13t59.5 26l22 13l44 -129q-10 -8 -28.5 -19t-73 -29.5t-106.5 -18.5q-126 0 -194.5 64.5t-68.5 160.5zM213 323h152q1 12 1 18
q0 25 -14.5 40.5t-40.5 15.5q-69 0 -98 -74zM386 575l28 140h126l-28 -140h-126zM177 575l28 140h126l-28 -140h-126z" />
    <glyph glyph-name="igrave" unicode="&#xec;" horiz-adv-x="300" 
d="M6 0l99 515h173l-100 -515h-172zM129 565l-88 150h165l51 -150h-128z" />
    <glyph glyph-name="iacute" unicode="&#xed;" horiz-adv-x="300" 
d="M6 0l99 515h173l-100 -515h-172zM125 565l111 150h177l-148 -150h-140z" />
    <glyph glyph-name="icircumflex" unicode="&#xee;" horiz-adv-x="300" 
d="M6 0l99 515h173l-100 -515h-172zM13 565l129 150h168l69 -150h-130l-31 82h-2l-63 -82h-140z" />
    <glyph glyph-name="idieresis" unicode="&#xef;" horiz-adv-x="300" 
d="M6 0l99 515h173l-100 -515h-172zM245 575l28 140h126l-28 -140h-126zM36 575l28 140h126l-28 -140h-126z" />
    <glyph glyph-name="eth" unicode="&#xf0;" horiz-adv-x="593" 
d="M95 444l20 98l104 39q-49 25 -90 33l70 124q120 -31 201 -89l188 70l-19 -98l-98 -37q85 -98 85 -237q0 -44 -10 -90.5t-33.5 -95t-57.5 -87t-86.5 -62.5t-115.5 -24q-114 0 -177 61t-63 153q0 102 79 182t200 80q17 0 36 -4t30 -8l10 -4h2q-15 37 -62 76zM188 204
q0 -72 66 -72q51 0 84.5 43.5t33.5 93.5q0 29 -18 46t-52 17q-54 0 -84 -38t-30 -90z" />
    <glyph glyph-name="ntilde" unicode="&#xf1;" horiz-adv-x="636" 
d="M6 0l100 515h167l-5 -26l-13 -51h2q23 36 72 62.5t100 26.5q73 0 117.5 -35t44.5 -111q0 -20 -7 -57l-63 -324h-173l58 296q3 18 3 30q0 44 -46 44q-50 0 -89.5 -42t-50.5 -100l-44 -228h-173zM183 565q31 153 149 153q21 0 38 -9.5t26.5 -20.5t21 -20.5t22.5 -9.5
q34 0 44 57h113q-30 -153 -148 -153q-25 0 -45 15t-35.5 30t-28.5 15q-32 0 -44 -57h-113z" />
    <glyph glyph-name="ograve" unicode="&#xf2;" horiz-adv-x="634" 
d="M15 219q0 131 97.5 219.5t223.5 88.5q117 0 192 -63.5t75 -167.5q0 -132 -98 -220t-223 -88q-118 0 -192.5 63t-74.5 168zM190 227q0 -44 26.5 -69.5t68.5 -25.5q55 0 99 43t44 110q0 45 -26.5 71.5t-67.5 26.5q-54 0 -99 -44.5t-45 -111.5zM297 565l-88 150h165l51 -150
h-128z" />
    <glyph glyph-name="oacute" unicode="&#xf3;" horiz-adv-x="634" 
d="M15 219q0 131 97.5 219.5t223.5 88.5q117 0 192 -63.5t75 -167.5q0 -132 -98 -220t-223 -88q-118 0 -192.5 63t-74.5 168zM190 227q0 -44 26.5 -69.5t68.5 -25.5q55 0 99 43t44 110q0 45 -26.5 71.5t-67.5 26.5q-54 0 -99 -44.5t-45 -111.5zM294 565l111 150h177
l-148 -150h-140z" />
    <glyph glyph-name="ocircumflex" unicode="&#xf4;" horiz-adv-x="634" 
d="M15 219q0 131 97.5 219.5t223.5 88.5q117 0 192 -63.5t75 -167.5q0 -132 -98 -220t-223 -88q-118 0 -192.5 63t-74.5 168zM190 227q0 -44 26.5 -69.5t68.5 -25.5q55 0 99 43t44 110q0 45 -26.5 71.5t-67.5 26.5q-54 0 -99 -44.5t-45 -111.5zM181 565l129 150h168l69 -150
h-130l-31 82h-2l-63 -82h-140z" />
    <glyph glyph-name="otilde" unicode="&#xf5;" horiz-adv-x="634" 
d="M15 219q0 131 97.5 219.5t223.5 88.5q117 0 192 -63.5t75 -167.5q0 -132 -98 -220t-223 -88q-118 0 -192.5 63t-74.5 168zM190 227q0 -44 26.5 -69.5t68.5 -25.5q55 0 99 43t44 110q0 45 -26.5 71.5t-67.5 26.5q-54 0 -99 -44.5t-45 -111.5zM176 565q31 153 149 153
q21 0 38 -9.5t26.5 -20.5t21 -20.5t22.5 -9.5q33 0 44 57h113q-30 -153 -148 -153q-25 0 -45 15t-35.5 30t-28.5 15q-32 0 -44 -57h-113z" />
    <glyph glyph-name="odieresis" unicode="&#xf6;" horiz-adv-x="634" 
d="M15 219q0 131 97.5 219.5t223.5 88.5q117 0 192 -63.5t75 -167.5q0 -132 -98 -220t-223 -88q-118 0 -192.5 63t-74.5 168zM190 227q0 -44 26.5 -69.5t68.5 -25.5q55 0 99 43t44 110q0 45 -26.5 71.5t-67.5 26.5q-54 0 -99 -44.5t-45 -111.5zM413 575l28 140h126l-28 -140
h-126zM204 575l28 140h126l-28 -140h-126z" />
    <glyph glyph-name="divide" unicode="&#xf7;" horiz-adv-x="722" 
d="M286 440v135h146v-135h-146zM86 222v130h546v-130h-546zM286 0v135h146v-135h-146z" />
    <glyph glyph-name="oslash" unicode="&#xf8;" horiz-adv-x="634" 
d="M15 219q0 131 97.5 219.5t223.5 88.5q83 0 145 -32l60 64l62 -50l-58 -62q58 -63 58 -151q0 -132 -98 -220t-223 -88q-77 0 -138 28l-62 -66l-62 51l57 61q-62 64 -62 157zM190 227q0 -22 6 -38l175 187q-15 7 -37 7q-54 0 -99 -44.5t-45 -111.5zM428 285q0 12 -4 32
l-169 -182q13 -3 30 -3q55 0 99 43t44 110z" />
    <glyph glyph-name="ugrave" unicode="&#xf9;" horiz-adv-x="629" 
d="M28 134q0 20 7 57l63 324h173l-58 -296q-3 -18 -3 -30q0 -44 46 -44q48 0 85.5 42t48.5 100l44 228h173l-100 -515h-167l5 26l13 51h-2q-23 -37 -69 -63t-97 -26q-73 0 -117.5 35t-44.5 111zM290 565l-88 150h165l51 -150h-128z" />
    <glyph glyph-name="uacute" unicode="&#xfa;" horiz-adv-x="629" 
d="M28 134q0 20 7 57l63 324h173l-58 -296q-3 -18 -3 -30q0 -44 46 -44q48 0 85.5 42t48.5 100l44 228h173l-100 -515h-167l5 26l13 51h-2q-23 -37 -69 -63t-97 -26q-73 0 -117.5 35t-44.5 111zM287 565l111 150h177l-148 -150h-140z" />
    <glyph glyph-name="ucircumflex" unicode="&#xfb;" horiz-adv-x="629" 
d="M28 134q0 20 7 57l63 324h173l-58 -296q-3 -18 -3 -30q0 -44 46 -44q48 0 85.5 42t48.5 100l44 228h173l-100 -515h-167l5 26l13 51h-2q-23 -37 -69 -63t-97 -26q-73 0 -117.5 35t-44.5 111zM174 565l129 150h168l69 -150h-130l-31 82h-2l-63 -82h-140z" />
    <glyph glyph-name="udieresis" unicode="&#xfc;" horiz-adv-x="629" 
d="M28 134q0 20 7 57l63 324h173l-58 -296q-3 -18 -3 -30q0 -44 46 -44q48 0 85.5 42t48.5 100l44 228h173l-100 -515h-167l5 26l13 51h-2q-23 -37 -69 -63t-97 -26q-73 0 -117.5 35t-44.5 111zM406 575l28 140h126l-28 -140h-126zM197 575l28 140h126l-28 -140h-126z" />
    <glyph glyph-name="yacute" unicode="&#xfd;" horiz-adv-x="547" 
d="M-16 -50q21 -16 51 -16q61 0 93 52l15 24l-121 505h180l42 -255l5 -76h2q18 45 31 73l115 258h194l-322 -570q-45 -79 -105 -117t-120 -38q-34 0 -67.5 10t-50.5 20l-17 10zM248 565l111 150h177l-148 -150h-140z" />
    <glyph glyph-name="thorn" unicode="&#xfe;" horiz-adv-x="637" 
d="M-32 -200l177 915h170l-40 -208l-9 -33h2q55 53 137 53q92 0 145.5 -60.5t53.5 -163.5q0 -135 -86 -225t-196 -90q-37 0 -74.5 14t-60.5 40h-2q-2 -18 -7 -44l-38 -198h-172zM220 222q0 -40 20 -65.5t60 -25.5q49 0 89 44t40 115q0 42 -21.5 66.5t-58.5 24.5
q-45 0 -87 -44.5t-42 -114.5z" />
    <glyph glyph-name="ydieresis" unicode="&#xff;" horiz-adv-x="547" 
d="M-16 -50q21 -16 51 -16q61 0 93 52l15 24l-121 505h180l42 -255l5 -76h2q18 45 31 73l115 258h194l-322 -570q-45 -79 -105 -117t-120 -38q-34 0 -67.5 10t-50.5 20l-17 10zM367 575l28 140h126l-28 -140h-126zM158 575l28 140h126l-28 -140h-126z" />
    <glyph glyph-name="Amacron" unicode="&#x100;" horiz-adv-x="669" 
d="M-57 0l372 715h201l99 -715h-175l-15 150h-223l-72 -150h-187zM270 290h141l-14 139l-6 123h-2q-29 -78 -51 -123zM293 782l22 112h275l-22 -112h-275z" />
    <glyph glyph-name="amacron" unicode="&#x101;" horiz-adv-x="556" 
d="M-6 121q0 55 32.5 96.5t84.5 62.5t105.5 31t108.5 10h7q2 14 2 19q0 47 -65 47q-29 0 -66 -11.5t-60 -23.5l-23 -12l-37 130l32.5 15.5t78.5 25.5t109 16q36 0 69 -8t65 -25t51 -51t19 -80q0 -20 -5 -50l-60 -313h-158l6 31l9 32h-2q-6 -8 -18 -20.5t-51.5 -33.5
t-82.5 -21q-62 0 -106.5 35.5t-44.5 97.5zM168 153q0 -33 42 -33q33 0 64.5 29t37.5 62l2 11h-16q-18 0 -36.5 -2.5t-41.5 -9t-37.5 -21.5t-14.5 -36zM193 586l22 112h275l-22 -112h-275z" />
    <glyph glyph-name="Abreve" unicode="&#x102;" horiz-adv-x="669" 
d="M-57 0l372 715h201l99 -715h-175l-15 150h-223l-72 -150h-187zM270 290h141l-14 139l-6 123h-2q-29 -78 -51 -123zM437 756q-79 0 -126.5 40t-34.5 105l2 10h117l-2 -11q-6 -28 8 -43t37 -15t43 15t26 43l2 11h117l-2 -10q-14 -71 -65 -108t-122 -37z" />
    <glyph glyph-name="abreve" unicode="&#x103;" horiz-adv-x="556" 
d="M-6 121q0 55 32.5 96.5t84.5 62.5t105.5 31t108.5 10h7q2 14 2 19q0 47 -65 47q-29 0 -66 -11.5t-60 -23.5l-23 -12l-37 130l32.5 15.5t78.5 25.5t109 16q36 0 69 -8t65 -25t51 -51t19 -80q0 -20 -5 -50l-60 -313h-158l6 31l9 32h-2q-6 -8 -18 -20.5t-51.5 -33.5
t-82.5 -21q-62 0 -106.5 35.5t-44.5 97.5zM168 153q0 -33 42 -33q33 0 64.5 29t37.5 62l2 11h-16q-18 0 -36.5 -2.5t-41.5 -9t-37.5 -21.5t-14.5 -36zM337 560q-79 0 -126.5 40t-34.5 105l2 10h117l-2 -11q-6 -28 8 -43t37 -15t43 15t26 43l2 11h117l-2 -10
q-14 -71 -65 -108t-122 -37z" />
    <glyph glyph-name="Aogonek" unicode="&#x104;" horiz-adv-x="669" 
d="M414 -126q0 63 84 124v2h-58l-15 150h-223l-72 -150h-187l372 715h201l99 -715q-56 -45 -56 -64q0 -8 9 -13.5t18 -6.5l9 -2l-66 -124q-5 0 -12.5 1.5t-27.5 7t-35 14t-27.5 25t-12.5 36.5zM270 290h141l-14 139l-6 123h-2q-29 -78 -51 -123z" />
    <glyph glyph-name="aogonek" unicode="&#x105;" horiz-adv-x="556" 
d="M241 -126q0 63 84 124v2h-41l6 31l9 32h-2q-6 -8 -18 -20.5t-51.5 -33.5t-82.5 -21q-62 0 -106.5 35.5t-44.5 97.5q0 55 32.5 96.5t84.5 62.5t105.5 31t108.5 10h7q2 14 2 19q0 47 -65 47q-29 0 -66 -11.5t-60 -23.5l-23 -12l-37 130l32.5 15.5t78.5 25.5t109 16
q36 0 69 -8t65 -25t51 -51t19 -80q0 -20 -5 -50l-60 -313q-56 -45 -56 -64q0 -8 9 -13.5t18 -6.5l9 -2l-66 -124q-5 0 -12.5 1.5t-27.5 7t-35 14t-27.5 25t-12.5 36.5zM168 153q0 -33 42 -33q33 0 64.5 29t37.5 62l2 11h-16q-18 0 -36.5 -2.5t-41.5 -9t-37.5 -21.5
t-14.5 -36z" />
    <glyph glyph-name="Cacute" unicode="&#x106;" horiz-adv-x="722" 
d="M43 305q0 173 124 297.5t296 124.5q53 0 101.5 -10.5t79 -25.5t53 -30.5t32.5 -26.5l10 -10l-99 -120q-8 7 -22.5 17.5t-59.5 28t-89 17.5q-111 0 -178 -78t-67 -172q0 -73 42.5 -121t123.5 -48q48 0 100 21t80 43l29 21l68 -139l-14 -11.5t-38.5 -25.5t-61 -32
t-79 -25.5t-94.5 -11.5q-155 0 -246 88t-91 229zM415 761l111 150h177l-148 -150h-140z" />
    <glyph glyph-name="cacute" unicode="&#x107;" horiz-adv-x="553" 
d="M16 224q0 117 91 210t231 93q41 0 77.5 -8t59.5 -19t40.5 -22t24.5 -19l8 -8l-87 -108q-47 40 -115 40t-111.5 -46.5t-43.5 -102.5q0 -43 27 -72.5t79 -29.5q32 0 70.5 15.5t60.5 30.5l23 16l44 -131q-10 -8 -28.5 -20.5t-76.5 -33.5t-117 -21q-123 0 -190 66.5
t-67 169.5zM270 565l111 150h177l-148 -150h-140z" />
    <glyph glyph-name="Ccircumflex" unicode="&#x108;" horiz-adv-x="722" 
d="M43 305q0 173 124 297.5t296 124.5q53 0 101.5 -10.5t79 -25.5t53 -30.5t32.5 -26.5l10 -10l-99 -120q-8 7 -22.5 17.5t-59.5 28t-89 17.5q-111 0 -178 -78t-67 -172q0 -73 42.5 -121t123.5 -48q48 0 100 21t80 43l29 21l68 -139l-14 -11.5t-38.5 -25.5t-61 -32
t-79 -25.5t-94.5 -11.5q-155 0 -246 88t-91 229zM302 761l129 150h168l69 -150h-130l-31 82h-2l-63 -82h-140z" />
    <glyph glyph-name="ccircumflex" unicode="&#x109;" horiz-adv-x="553" 
d="M16 224q0 117 91 210t231 93q41 0 77.5 -8t59.5 -19t40.5 -22t24.5 -19l8 -8l-87 -108q-47 40 -115 40t-111.5 -46.5t-43.5 -102.5q0 -43 27 -72.5t79 -29.5q32 0 70.5 15.5t60.5 30.5l23 16l44 -131q-10 -8 -28.5 -20.5t-76.5 -33.5t-117 -21q-123 0 -190 66.5
t-67 169.5zM157 565l129 150h168l69 -150h-130l-31 82h-2l-63 -82h-140z" />
    <glyph glyph-name="Cdotaccent" unicode="&#x10a;" horiz-adv-x="722" 
d="M43 305q0 173 124 297.5t296 124.5q53 0 101.5 -10.5t79 -25.5t53 -30.5t32.5 -26.5l10 -10l-99 -120q-8 7 -22.5 17.5t-59.5 28t-89 17.5q-111 0 -178 -78t-67 -172q0 -73 42.5 -121t123.5 -48q48 0 100 21t80 43l29 21l68 -139l-14 -11.5t-38.5 -25.5t-61 -32
t-79 -25.5t-94.5 -11.5q-155 0 -246 88t-91 229zM423 779l26 132h143l-26 -132h-143z" />
    <glyph glyph-name="cdotaccent" unicode="&#x10b;" horiz-adv-x="553" 
d="M16 224q0 117 91 210t231 93q41 0 77.5 -8t59.5 -19t40.5 -22t24.5 -19l8 -8l-87 -108q-47 40 -115 40t-111.5 -46.5t-43.5 -102.5q0 -43 27 -72.5t79 -29.5q32 0 70.5 15.5t60.5 30.5l23 16l44 -131q-10 -8 -28.5 -20.5t-76.5 -33.5t-117 -21q-123 0 -190 66.5
t-67 169.5zM278 583l26 132h143l-26 -132h-143z" />
    <glyph glyph-name="Ccaron" unicode="&#x10c;" horiz-adv-x="722" 
d="M43 305q0 173 124 297.5t296 124.5q53 0 101.5 -10.5t79 -25.5t53 -30.5t32.5 -26.5l10 -10l-99 -120q-8 7 -22.5 17.5t-59.5 28t-89 17.5q-111 0 -178 -78t-67 -172q0 -73 42.5 -121t123.5 -48q48 0 100 21t80 43l29 21l68 -139l-14 -11.5t-38.5 -25.5t-61 -32
t-79 -25.5t-94.5 -11.5q-155 0 -246 88t-91 229zM411 761l-69 150h130l31 -82h2l63 82h140l-129 -150h-168z" />
    <glyph glyph-name="ccaron" unicode="&#x10d;" horiz-adv-x="553" 
d="M16 224q0 117 91 210t231 93q41 0 77.5 -8t59.5 -19t40.5 -22t24.5 -19l8 -8l-87 -108q-47 40 -115 40t-111.5 -46.5t-43.5 -102.5q0 -43 27 -72.5t79 -29.5q32 0 70.5 15.5t60.5 30.5l23 16l44 -131q-10 -8 -28.5 -20.5t-76.5 -33.5t-117 -21q-123 0 -190 66.5
t-67 169.5zM266 565l-69 150h130l31 -82h2l63 82h140l-129 -150h-168z" />
    <glyph glyph-name="Dcaron" unicode="&#x10e;" horiz-adv-x="746" 
d="M27 0l138 715h229q156 0 243.5 -74.5t87.5 -208.5q0 -182 -118 -307t-301 -125h-279zM231 150h72q108 0 175 77t67 189q0 73 -42.5 111t-118.5 38h-72zM363 761l-69 150h130l31 -82h2l63 82h140l-129 -150h-168z" />
    <glyph glyph-name="dcaron" unicode="&#x10f;" horiz-adv-x="669" 
d="M18 209q0 139 85.5 228.5t203.5 89.5q92 0 130 -46h2q1 13 3 23l41 211h173l-139 -715h-162l7 34l6 29h-2q-56 -75 -148 -75q-94 0 -147 60t-53 161zM193 222q0 -42 22 -66.5t59 -24.5q45 0 86.5 45.5t41.5 113.5q0 40 -20 65.5t-60 25.5q-48 0 -88.5 -44t-40.5 -115z
M701 715h136v-18q0 -39 -12 -70t-41 -73h-123q23 41 32.5 68.5t9.5 62.5q0 8 -2 30z" />
    <glyph glyph-name="Dcroat" unicode="&#x110;" horiz-adv-x="765" 
d="M45 284l27 140h57l56 291h229q156 0 243.5 -74.5t87.5 -208.5q0 -182 -118 -307t-301 -125h-279l55 284h-57zM251 150h72q108 0 175 77t67 189q0 73 -42.5 111t-118.5 38h-72l-28 -141h104l-27 -140h-104z" />
    <glyph glyph-name="dcroat" unicode="&#x111;" horiz-adv-x="638" 
d="M326 554l19 95h125l13 66h173l-13 -66h67l-19 -95h-67l-107 -554h-162l7 34l6 29h-2q-56 -75 -148 -75q-94 0 -147 60t-53 161q0 139 85.5 228.5t203.5 89.5q92 0 130 -46h2q1 13 3 23l9 50h-125zM193 222q0 -42 22 -66.5t59 -24.5q45 0 86.5 45.5t41.5 113.5
q0 40 -20 65.5t-60 25.5q-48 0 -88.5 -44t-40.5 -115z" />
    <glyph glyph-name="Emacron" unicode="&#x112;" horiz-adv-x="588" 
d="M26 0l140 715h447l-29 -150h-273l-25 -130h217l-30 -150h-217l-26 -135h287l-29 -150h-462zM273 782l22 112h275l-22 -112h-275z" />
    <glyph glyph-name="emacron" unicode="&#x113;" horiz-adv-x="562" 
d="M17 213q0 134 85 224t212 90q107 0 163.5 -55t56.5 -147q0 -21 -5 -46t-9 -40l-5 -15h-325q0 -44 26.5 -68t74.5 -24q33 0 71.5 13t59.5 26l22 13l44 -129q-10 -8 -28.5 -19t-73 -29.5t-106.5 -18.5q-126 0 -194.5 64.5t-68.5 160.5zM213 323h152q1 12 1 18
q0 25 -14.5 40.5t-40.5 15.5q-69 0 -98 -74zM209 586l22 112h275l-22 -112h-275z" />
    <glyph glyph-name="Ebreve" unicode="&#x114;" horiz-adv-x="588" 
d="M26 0l140 715h447l-29 -150h-273l-25 -130h217l-30 -150h-217l-26 -135h287l-29 -150h-462zM417 756q-79 0 -126.5 40t-34.5 105l2 10h117l-2 -11q-6 -28 8 -43t37 -15t43 15t26 43l2 11h117l-2 -10q-14 -71 -65 -108t-122 -37z" />
    <glyph glyph-name="ebreve" unicode="&#x115;" horiz-adv-x="562" 
d="M17 213q0 134 85 224t212 90q107 0 163.5 -55t56.5 -147q0 -21 -5 -46t-9 -40l-5 -15h-325q0 -44 26.5 -68t74.5 -24q33 0 71.5 13t59.5 26l22 13l44 -129q-10 -8 -28.5 -19t-73 -29.5t-106.5 -18.5q-126 0 -194.5 64.5t-68.5 160.5zM213 323h152q1 12 1 18
q0 25 -14.5 40.5t-40.5 15.5q-69 0 -98 -74zM353 560q-79 0 -126.5 40t-34.5 105l2 10h117l-2 -11q-6 -28 8 -43t37 -15t43 15t26 43l2 11h117l-2 -10q-14 -71 -65 -108t-122 -37z" />
    <glyph glyph-name="Edotaccent" unicode="&#x116;" horiz-adv-x="588" 
d="M26 0l140 715h447l-29 -150h-273l-25 -130h217l-30 -150h-217l-26 -135h287l-29 -150h-462zM339 779l26 132h143l-26 -132h-143z" />
    <glyph glyph-name="edotaccent" unicode="&#x117;" horiz-adv-x="562" 
d="M17 213q0 134 85 224t212 90q107 0 163.5 -55t56.5 -147q0 -21 -5 -46t-9 -40l-5 -15h-325q0 -44 26.5 -68t74.5 -24q33 0 71.5 13t59.5 26l22 13l44 -129q-10 -8 -28.5 -19t-73 -29.5t-106.5 -18.5q-126 0 -194.5 64.5t-68.5 160.5zM213 323h152q1 12 1 18
q0 25 -14.5 40.5t-40.5 15.5q-69 0 -98 -74zM275 583l26 132h143l-26 -132h-143z" />
    <glyph glyph-name="Eogonek" unicode="&#x118;" horiz-adv-x="588" 
d="M26 0l140 715h447l-29 -150h-273l-25 -130h217l-30 -150h-217l-26 -135h287l-29 -150q-56 -45 -56 -64q0 -8 9 -13.5t18 -6.5l9 -2l-66 -124q-5 0 -12.5 1.5t-27.5 7t-35 14t-27.5 25t-12.5 36.5q0 63 84 124v2h-345z" />
    <glyph glyph-name="eogonek" unicode="&#x119;" horiz-adv-x="565" 
d="M18 213q0 134 85 224t212 90q107 0 163.5 -55t56.5 -147q0 -21 -4.5 -46t-9.5 -40l-5 -15h-325q0 -44 26.5 -68t74.5 -24q33 0 71.5 13t60.5 26l21 13l44 -129q-5 -4 -47 -28t-68 -47t-26 -44q0 -8 9.5 -13.5t18.5 -6.5l10 -2l-66 -124q-5 0 -12.5 1.5t-27.5 7t-35 14
t-27.5 25t-12.5 36.5q0 59 71 112v2q-124 1 -191 65.5t-67 159.5zM214 323h152q1 12 1 18q0 25 -14.5 40.5t-40.5 15.5q-69 0 -98 -74z" />
    <glyph glyph-name="Ecaron" unicode="&#x11a;" horiz-adv-x="588" 
d="M26 0l140 715h447l-29 -150h-273l-25 -130h217l-30 -150h-217l-26 -135h287l-29 -150h-462zM327 761l-69 150h130l31 -82h2l63 82h140l-129 -150h-168z" />
    <glyph glyph-name="ecaron" unicode="&#x11b;" horiz-adv-x="562" 
d="M17 213q0 134 85 224t212 90q107 0 163.5 -55t56.5 -147q0 -21 -5 -46t-9 -40l-5 -15h-325q0 -44 26.5 -68t74.5 -24q33 0 71.5 13t59.5 26l22 13l44 -129q-10 -8 -28.5 -19t-73 -29.5t-106.5 -18.5q-126 0 -194.5 64.5t-68.5 160.5zM213 323h152q1 12 1 18
q0 25 -14.5 40.5t-40.5 15.5q-69 0 -98 -74zM263 565l-69 150h130l31 -82h2l63 82h140l-129 -150h-168z" />
    <glyph glyph-name="Gcircumflex" unicode="&#x11c;" horiz-adv-x="771" 
d="M44 304q0 174 124 298.5t307 124.5q52 0 99 -9.5t77.5 -23t54 -27t34.5 -23.5l10 -9l-101 -121q-7 6 -20.5 15t-58 23.5t-91.5 14.5q-120 0 -186.5 -76t-66.5 -175q0 -82 48 -125t120 -43q37 0 76 13t59 26l20 13l11 55h-101l29 149h256l-79 -404h-146l4 20l7 30h-2
q-2 -3 -6.5 -7t-21 -14.5t-35 -19t-49 -15t-63.5 -6.5q-125 0 -217 85.5t-92 230.5zM302 761l129 150h168l69 -150h-130l-31 82h-2l-63 -82h-140z" />
    <glyph glyph-name="gcircumflex" unicode="&#x11d;" horiz-adv-x="628" 
d="M61 -33q50 -33 141 -33q52 0 90.5 23t47.5 76l3 17l4 19h-1q-51 -54 -124 -54q-98 0 -149 60.5t-51 155.5q0 116 75.5 206t199.5 90q97 0 138 -55h3q1 10 2 16l5 27h162l-93 -478q-26 -129 -112 -188t-196 -59q-63 0 -116 13t-75 27l-22 13zM197 246q0 -39 19.5 -63
t59.5 -24q53 0 86 47.5t33 101.5q0 75 -83 75q-52 0 -83.5 -39.5t-31.5 -97.5zM166 565l129 150h168l69 -150h-130l-31 82h-2l-63 -82h-140z" />
    <glyph glyph-name="Gbreve" unicode="&#x11e;" horiz-adv-x="771" 
d="M44 304q0 174 124 298.5t307 124.5q52 0 99 -9.5t77.5 -23t54 -27t34.5 -23.5l10 -9l-101 -121q-7 6 -20.5 15t-58 23.5t-91.5 14.5q-120 0 -186.5 -76t-66.5 -175q0 -82 48 -125t120 -43q37 0 76 13t59 26l20 13l11 55h-101l29 149h256l-79 -404h-146l4 20l7 30h-2
q-2 -3 -6.5 -7t-21 -14.5t-35 -19t-49 -15t-63.5 -6.5q-125 0 -217 85.5t-92 230.5zM501 756q-79 0 -126.5 40t-34.5 105l2 10h117l-2 -11q-6 -28 8 -43t37 -15t43 15t26 43l2 11h117l-2 -10q-14 -71 -65 -108t-122 -37z" />
    <glyph glyph-name="gbreve" unicode="&#x11f;" horiz-adv-x="628" 
d="M61 -33q50 -33 141 -33q52 0 90.5 23t47.5 76l3 17l4 19h-1q-51 -54 -124 -54q-98 0 -149 60.5t-51 155.5q0 116 75.5 206t199.5 90q97 0 138 -55h3q1 10 2 16l5 27h162l-93 -478q-26 -129 -112 -188t-196 -59q-63 0 -116 13t-75 27l-22 13zM197 246q0 -39 19.5 -63
t59.5 -24q53 0 86 47.5t33 101.5q0 75 -83 75q-52 0 -83.5 -39.5t-31.5 -97.5zM365 560q-79 0 -126.5 40t-34.5 105l2 10h117l-2 -11q-6 -28 8 -43t37 -15t43 15t26 43l2 11h117l-2 -10q-14 -71 -65 -108t-122 -37z" />
    <glyph glyph-name="Gdotaccent" unicode="&#x120;" horiz-adv-x="771" 
d="M44 304q0 174 124 298.5t307 124.5q52 0 99 -9.5t77.5 -23t54 -27t34.5 -23.5l10 -9l-101 -121q-7 6 -20.5 15t-58 23.5t-91.5 14.5q-120 0 -186.5 -76t-66.5 -175q0 -82 48 -125t120 -43q37 0 76 13t59 26l20 13l11 55h-101l29 149h256l-79 -404h-146l4 20l7 30h-2
q-2 -3 -6.5 -7t-21 -14.5t-35 -19t-49 -15t-63.5 -6.5q-125 0 -217 85.5t-92 230.5zM423 779l26 132h143l-26 -132h-143z" />
    <glyph glyph-name="gdotaccent" unicode="&#x121;" horiz-adv-x="628" 
d="M61 -33q50 -33 141 -33q52 0 90.5 23t47.5 76l3 17l4 19h-1q-51 -54 -124 -54q-98 0 -149 60.5t-51 155.5q0 116 75.5 206t199.5 90q97 0 138 -55h3q1 10 2 16l5 27h162l-93 -478q-26 -129 -112 -188t-196 -59q-63 0 -116 13t-75 27l-22 13zM197 246q0 -39 19.5 -63
t59.5 -24q53 0 86 47.5t33 101.5q0 75 -83 75q-52 0 -83.5 -39.5t-31.5 -97.5zM287 583l26 132h143l-26 -132h-143z" />
    <glyph glyph-name="Gcommaaccent" unicode="&#x122;" horiz-adv-x="771" 
d="M44 304q0 174 124 298.5t307 124.5q52 0 99 -9.5t77.5 -23t54 -27t34.5 -23.5l10 -9l-101 -121q-7 6 -20.5 15t-58 23.5t-91.5 14.5q-120 0 -186.5 -76t-66.5 -175q0 -82 48 -125t120 -43q37 0 76 13t59 26l20 13l11 55h-101l29 149h256l-79 -404h-146l4 20l7 30h-2
q-2 -3 -6.5 -7t-21 -14.5t-35 -19t-49 -15t-63.5 -6.5q-125 0 -217 85.5t-92 230.5zM250 -49h136v-18q0 -39 -12 -70t-41 -73h-123q23 41 32.5 68.5t9.5 62.5q0 8 -2 30z" />
    <glyph glyph-name="gcommaaccent" unicode="&#x123;" horiz-adv-x="628" 
d="M61 -33q50 -33 141 -33q52 0 90.5 23t47.5 76l3 17l4 19h-1q-51 -54 -124 -54q-98 0 -149 60.5t-51 155.5q0 116 75.5 206t199.5 90q97 0 138 -55h3q1 10 2 16l5 27h162l-93 -478q-26 -129 -112 -188t-196 -59q-63 0 -116 13t-75 27l-22 13zM197 246q0 -39 19.5 -63
t59.5 -24q53 0 86 47.5t33 101.5q0 75 -83 75q-52 0 -83.5 -39.5t-31.5 -97.5zM538 560h-135v18q0 37 12 67t41 70h122q-42 -73 -42 -126q0 -7 2 -29z" />
    <glyph glyph-name="Hcircumflex" unicode="&#x124;" horiz-adv-x="778" 
d="M26 0l139 715h175l-56 -286h260l56 286h175l-139 -715h-175l54 280h-260l-54 -280h-175zM291 761l129 150h168l69 -150h-130l-31 82h-2l-63 -82h-140z" />
    <glyph glyph-name="hcircumflex" unicode="&#x125;" horiz-adv-x="636" 
d="M6 0l139 715h173l-44 -226l-10 -44h2q22 35 68 58.5t95 23.5q73 0 117.5 -35t44.5 -111q0 -20 -7 -57l-63 -324h-173l58 296q3 18 3 30q0 44 -46 44q-50 0 -89.5 -42t-50.5 -100l-44 -228h-173zM53 761l129 150h168l69 -150h-130l-31 82h-2l-63 -82h-140z" />
    <glyph glyph-name="Hbar" unicode="&#x126;" horiz-adv-x="820" 
d="M86 517l21 107h61l18 91h175l-18 -91h260l18 91h175l-18 -91h60l-21 -107h-60l-100 -517h-175l54 280h-260l-54 -280h-175l100 517h-61zM305 429h260l17 88h-260z" />
    <glyph glyph-name="hbar" unicode="&#x127;" horiz-adv-x="637" 
d="M57 554l18 95h58l13 66h173l-13 -66h134l-18 -95h-135l-12 -65l-10 -44h2q22 35 68 58.5t95 23.5q73 0 117.5 -35t44.5 -111q0 -20 -7 -57l-63 -324h-173l58 296q3 18 3 30q0 44 -46 44q-50 0 -89.5 -42t-50.5 -100l-44 -228h-173l107 554h-57z" />
    <glyph glyph-name="Itilde" unicode="&#x128;" horiz-adv-x="343" 
d="M26 0l139 715h175l-139 -715h-175zM68 761q31 153 149 153q21 0 38 -9.5t26.5 -20.5t21 -20.5t22.5 -9.5q33 0 44 57h113q-30 -153 -148 -153q-25 0 -45 15t-35.5 30t-28.5 15q-32 0 -44 -57h-113z" />
    <glyph glyph-name="itilde" unicode="&#x129;" horiz-adv-x="300" 
d="M6 0l99 515h173l-100 -515h-172zM8 565q31 153 149 153q21 0 38 -9.5t26.5 -20.5t21 -20.5t22.5 -9.5q33 0 44 57h113q-30 -153 -148 -153q-25 0 -45 15t-35.5 30t-28.5 15q-32 0 -44 -57h-113z" />
    <glyph glyph-name="Imacron" unicode="&#x12a;" horiz-adv-x="343" 
d="M26 0l139 715h175l-139 -715h-175zM128 782l22 112h275l-22 -112h-275z" />
    <glyph glyph-name="imacron" unicode="&#x12b;" horiz-adv-x="300" 
d="M6 0l99 515h173l-100 -515h-172zM68 586l22 112h275l-22 -112h-275z" />
    <glyph glyph-name="Ibreve" unicode="&#x12c;" horiz-adv-x="343" 
d="M26 0l139 715h175l-139 -715h-175zM272 756q-79 0 -126.5 40t-34.5 105l2 10h117l-2 -11q-6 -28 8 -43t37 -15t43 15t26 43l2 11h117l-2 -10q-14 -71 -65 -108t-122 -37z" />
    <glyph glyph-name="ibreve" unicode="&#x12d;" horiz-adv-x="300" 
d="M6 0l99 515h173l-100 -515h-172zM212 560q-79 0 -126.5 40t-34.5 105l2 10h117l-2 -11q-6 -28 8 -43t37 -15t43 15t26 43l2 11h117l-2 -10q-14 -71 -65 -108t-122 -37z" />
    <glyph glyph-name="Iogonek" unicode="&#x12e;" horiz-adv-x="343" 
d="M26 0l139 715h175l-139 -715q-56 -45 -56 -64q0 -8 9 -13.5t18 -6.5l9 -2l-66 -124q-5 0 -12.5 1.5t-27.5 7t-35 14t-27.5 25t-12.5 36.5q0 63 84 124v2h-58z" />
    <glyph glyph-name="iogonek" unicode="&#x12f;" horiz-adv-x="300" 
d="M6 0l99 515h173l-100 -515q-56 -45 -56 -64q0 -8 9 -13.5t18 -6.5l9 -2l-66 -124q-5 0 -12.5 1.5t-27.5 7t-35 14t-27.5 25t-12.5 36.5q0 63 84 124v2h-55zM120 580l26 135h169l-26 -135h-169z" />
    <glyph glyph-name="Idotaccent" unicode="&#x130;" horiz-adv-x="343" 
d="M26 0l139 715h175l-139 -715h-175zM194 779l26 132h143l-26 -132h-143z" />
    <glyph glyph-name="dotlessi" unicode="&#x131;" horiz-adv-x="300" 
d="M6 0l99 515h173l-100 -515h-172z" />
    <glyph glyph-name="IJ" unicode="&#x132;" horiz-adv-x="694" 
d="M269 -4l30 158q42 0 85.5 27.5t55.5 88.5l86 445h175l-87 -447q-13 -67 -39 -117t-57.5 -79t-74.5 -46.5t-83.5 -23.5t-90.5 -6zM26 0l139 715h175l-139 -715h-175z" />
    <glyph glyph-name="ij" unicode="&#x133;" horiz-adv-x="601" 
d="M120 580l26 135h169l-26 -135h-169zM6 0l99 515h173l-100 -515h-172zM421 580l26 135h169l-26 -135h-169zM307 4l99 511h173l-102 -526q-12 -62 -43.5 -104t-73.5 -60.5t-76.5 -25.5t-70.5 -7l-61 3l28 144q9 -1 22 -1q92 0 105 66z" />
    <glyph glyph-name="Jcircumflex" unicode="&#x134;" horiz-adv-x="572" 
d="M1 178q0 28 5 52l8 42h175l-7 -37q-4 -24 -4 -33q0 -54 53 -54q62 0 76 75l67 342h-191l29 150h366l-98 -505q-21 -108 -91 -165t-162 -57q-94 0 -160 50t-66 140zM211 761l129 150h168l69 -150h-130l-31 82h-2l-63 -82h-140z" />
    <glyph glyph-name="jcircumflex" unicode="&#x135;" horiz-adv-x="301" 
d="M13 565l129 150h168l69 -150h-130l-31 82h-2l-63 -82h-140zM7 4l99 511h173l-102 -526q-12 -62 -43.5 -104t-73.5 -60.5t-76.5 -25.5t-70.5 -7l-61 3l28 144q9 -1 22 -1q92 0 105 66z" />
    <glyph glyph-name="Kcommaaccent" unicode="&#x136;" horiz-adv-x="697" 
d="M26 0l139 715h175l-54 -276h67l205 276h203l-271 -351v-2l130 -362h-186l-95 290h-82l-56 -290h-175zM224 -49h136v-18q0 -39 -12 -70t-41 -73h-123q23 41 32.5 68.5t9.5 62.5q0 8 -2 30z" />
    <glyph glyph-name="kcommaaccent" unicode="&#x137;" horiz-adv-x="601" 
d="M6 0l139 715h173l-72 -370h47l136 170h201l-207 -244v-2l115 -269h-183l-75 200h-62l-39 -200h-173zM207 -49h136v-18q0 -39 -12 -70t-41 -73h-123q23 41 32.5 68.5t9.5 62.5q0 8 -2 30z" />
    <glyph glyph-name="kgreenlandic" unicode="&#x138;" horiz-adv-x="599" 
d="M6 0l101 515h173l-35 -180h49l140 180h201l-215 -254v-2l113 -259h-187l-67 190h-63l-37 -190h-173z" />
    <glyph glyph-name="Lacute" unicode="&#x139;" horiz-adv-x="559" 
d="M26 0l139 715h175l-110 -565h292l-30 -150h-466zM185 761l111 150h177l-148 -150h-140z" />
    <glyph glyph-name="lacute" unicode="&#x13a;" horiz-adv-x="323" 
d="M30 137q0 29 7 63l100 515h173l-96 -496q-5 -22 -5 -39q0 -33 39 -33l21 1l-29 -150q-23 -3 -47 -3q-163 0 -163 142zM156 761l111 150h177l-148 -150h-140z" />
    <glyph glyph-name="Lcommaaccent" unicode="&#x13b;" horiz-adv-x="559" 
d="M26 0l139 715h175l-110 -565h292l-30 -150h-466zM184 -49h136v-18q0 -39 -12 -70t-41 -73h-123q23 41 32.5 68.5t9.5 62.5q0 8 -2 30z" />
    <glyph glyph-name="lcommaaccent" unicode="&#x13c;" horiz-adv-x="323" 
d="M30 137q0 29 7 63l100 515h173l-96 -496q-5 -22 -5 -39q0 -33 39 -33l21 1l-29 -150q-23 -3 -47 -3q-163 0 -163 142zM47 -49h136v-18q0 -39 -12 -70t-41 -73h-123q23 41 32.5 68.5t9.5 62.5q0 8 -2 30z" />
    <glyph glyph-name="Lcaron" unicode="&#x13d;" horiz-adv-x="559" 
d="M26 0l139 715h175l-110 -565h292l-30 -150h-466zM410 715h136v-18q0 -39 -12 -70t-41 -73h-123q23 41 32.5 68.5t9.5 62.5q0 8 -2 30z" />
    <glyph glyph-name="lcaron" unicode="&#x13e;" horiz-adv-x="353" 
d="M30 137q0 29 7 63l100 515h173l-96 -496q-5 -22 -5 -39q0 -33 39 -33l21 1l-29 -150q-23 -3 -47 -3q-163 0 -163 142zM357 715h136v-18q0 -39 -12 -70t-41 -73h-123q23 41 32.5 68.5t9.5 62.5q0 8 -2 30z" />
    <glyph glyph-name="Ldot" unicode="&#x13f;" horiz-adv-x="559" 
d="M26 0l139 715h175l-110 -565h292l-30 -150h-466zM356 315l31 164h158l-31 -164h-158z" />
    <glyph glyph-name="ldot" unicode="&#x140;" horiz-adv-x="467" 
d="M30 137q0 29 7 63l100 515h173l-96 -496q-5 -22 -5 -39q0 -33 39 -33l21 1l-29 -150q-23 -3 -47 -3q-163 0 -163 142zM315 315l31 164h158l-31 -164h-158z" />
    <glyph glyph-name="Lslash" unicode="&#x141;" horiz-adv-x="584" 
d="M35 175l31 166l58 30l67 344h175l-48 -244l113 58l-32 -166l-113 -58l-30 -155h292l-29 -150h-467l39 204z" />
    <glyph glyph-name="lslash" unicode="&#x142;" horiz-adv-x="369" 
d="M18 195l32 166l54 28l64 326h173l-44 -226l77 40l-32 -166l-77 -40l-20 -104q-5 -22 -5 -39q0 -33 39 -33l21 1l-29 -150q-23 -3 -47 -3q-163 0 -163 142q0 29 7 63l4 23z" />
    <glyph glyph-name="Nacute" unicode="&#x143;" horiz-adv-x="765" 
d="M26 0l139 715h170l133 -334q8 -21 17 -51.5t14 -50.5l5 -20h2q7 77 16 122l65 334h175l-139 -715h-169l-134 333q-8 21 -17.5 51.5t-14.5 50.5l-5 20h-2q-6 -77 -15 -122l-65 -333h-175zM396 761l111 150h177l-148 -150h-140z" />
    <glyph glyph-name="nacute" unicode="&#x144;" horiz-adv-x="636" 
d="M6 0l100 515h167l-5 -26l-13 -51h2q23 36 72 62.5t100 26.5q73 0 117.5 -35t44.5 -111q0 -20 -7 -57l-63 -324h-173l58 296q3 18 3 30q0 44 -46 44q-50 0 -89.5 -42t-50.5 -100l-44 -228h-173zM301 565l111 150h177l-148 -150h-140z" />
    <glyph glyph-name="Ncommaaccent" unicode="&#x145;" horiz-adv-x="765" 
d="M26 0l139 715h170l133 -334q8 -21 17 -51.5t14 -50.5l5 -20h2q7 77 16 122l65 334h175l-139 -715h-169l-134 333q-8 21 -17.5 51.5t-14.5 50.5l-5 20h-2q-6 -77 -15 -122l-65 -333h-175zM260 -49h136v-18q0 -39 -12 -70t-41 -73h-123q23 41 32.5 68.5t9.5 62.5q0 8 -2 30
z" />
    <glyph glyph-name="ncommaaccent" unicode="&#x146;" horiz-adv-x="636" 
d="M6 0l100 515h167l-5 -26l-13 -51h2q23 36 72 62.5t100 26.5q73 0 117.5 -35t44.5 -111q0 -20 -7 -57l-63 -324h-173l58 296q3 18 3 30q0 44 -46 44q-50 0 -89.5 -42t-50.5 -100l-44 -228h-173zM193 -49h136v-18q0 -39 -12 -70t-41 -73h-123q23 41 32.5 68.5t9.5 62.5
q0 8 -2 30z" />
    <glyph glyph-name="Ncaron" unicode="&#x147;" horiz-adv-x="765" 
d="M26 0l139 715h170l133 -334q8 -21 17 -51.5t14 -50.5l5 -20h2q7 77 16 122l65 334h175l-139 -715h-169l-134 333q-8 21 -17.5 51.5t-14.5 50.5l-5 20h-2q-6 -77 -15 -122l-65 -333h-175zM392 761l-69 150h130l31 -82h2l63 82h140l-129 -150h-168z" />
    <glyph glyph-name="ncaron" unicode="&#x148;" horiz-adv-x="636" 
d="M6 0l100 515h167l-5 -26l-13 -51h2q23 36 72 62.5t100 26.5q73 0 117.5 -35t44.5 -111q0 -20 -7 -57l-63 -324h-173l58 296q3 18 3 30q0 44 -46 44q-50 0 -89.5 -42t-50.5 -100l-44 -228h-173zM297 565l-69 150h130l31 -82h2l63 82h140l-129 -150h-168z" />
    <glyph glyph-name="napostrophe" unicode="&#x149;" horiz-adv-x="636" 
d="M6 0l100 515h167l-5 -26l-13 -51h2q23 36 72 62.5t100 26.5q73 0 117.5 -35t44.5 -111q0 -20 -7 -57l-63 -324h-173l58 296q3 18 3 30q0 44 -46 44q-50 0 -89.5 -42t-50.5 -100l-44 -228h-173zM49 715h136v-18q0 -39 -12 -70t-41 -73h-123q23 41 32.5 68.5t9.5 62.5
q0 8 -2 30z" />
    <glyph glyph-name="Eng" unicode="&#x14a;" horiz-adv-x="764" 
d="M26 0l139 715h170l133 -334q8 -21 17 -51.5t14 -50.5l5 -20h2q7 77 16 122l65 334h175l-126 -647q-14 -71 -42 -123t-60.5 -80t-77.5 -44t-81.5 -20.5t-83.5 -4.5l30 158q32 0 69 14t59 45l-129 320q-8 21 -17.5 51.5t-14.5 50.5l-5 20h-2q-6 -77 -15 -122l-65 -333h-175
z" />
    <glyph glyph-name="eng" unicode="&#x14b;" horiz-adv-x="636" 
d="M6 0l100 515h167l-5 -26l-13 -51h2q23 36 72 62.5t100 26.5q73 0 117.5 -35t44.5 -111q0 -20 -7 -57l-65 -335q-12 -62 -43.5 -104t-73.5 -60.5t-76.5 -25.5t-70.5 -7l-61 3l28 144q9 -1 22 -1q92 0 105 66l57 292q3 18 3 30q0 44 -46 44q-50 0 -89.5 -42t-50.5 -100
l-44 -228h-173z" />
    <glyph glyph-name="Omacron" unicode="&#x14c;" horiz-adv-x="816" 
d="M42 307q0 111 58.5 208.5t155.5 154.5t205 57q152 0 244.5 -87.5t92.5 -224.5q0 -113 -59.5 -212t-156.5 -157t-204 -58q-152 0 -244 89.5t-92 229.5zM222 317q0 -75 44 -122t114 -47q91 0 164 75.5t73 180.5q0 73 -44 118t-114 45q-92 0 -164.5 -73.5t-72.5 -176.5z
M364 782l22 112h275l-22 -112h-275z" />
    <glyph glyph-name="omacron" unicode="&#x14d;" horiz-adv-x="634" 
d="M15 219q0 131 97.5 219.5t223.5 88.5q117 0 192 -63.5t75 -167.5q0 -132 -98 -220t-223 -88q-118 0 -192.5 63t-74.5 168zM190 227q0 -44 26.5 -69.5t68.5 -25.5q55 0 99 43t44 110q0 45 -26.5 71.5t-67.5 26.5q-54 0 -99 -44.5t-45 -111.5zM236 586l22 112h275l-22 -112
h-275z" />
    <glyph glyph-name="Obreve" unicode="&#x14e;" horiz-adv-x="816" 
d="M42 307q0 111 58.5 208.5t155.5 154.5t205 57q152 0 244.5 -87.5t92.5 -224.5q0 -113 -59.5 -212t-156.5 -157t-204 -58q-152 0 -244 89.5t-92 229.5zM222 317q0 -75 44 -122t114 -47q91 0 164 75.5t73 180.5q0 73 -44 118t-114 45q-92 0 -164.5 -73.5t-72.5 -176.5z
M508 756q-79 0 -126.5 40t-34.5 105l2 10h117l-2 -11q-6 -28 8 -43t37 -15t43 15t26 43l2 11h117l-2 -10q-14 -71 -65 -108t-122 -37z" />
    <glyph glyph-name="obreve" unicode="&#x14f;" horiz-adv-x="634" 
d="M15 219q0 131 97.5 219.5t223.5 88.5q117 0 192 -63.5t75 -167.5q0 -132 -98 -220t-223 -88q-118 0 -192.5 63t-74.5 168zM190 227q0 -44 26.5 -69.5t68.5 -25.5q55 0 99 43t44 110q0 45 -26.5 71.5t-67.5 26.5q-54 0 -99 -44.5t-45 -111.5zM380 560q-79 0 -126.5 40
t-34.5 105l2 10h117l-2 -11q-6 -28 8 -43t37 -15t43 15t26 43l2 11h117l-2 -10q-14 -71 -65 -108t-122 -37z" />
    <glyph glyph-name="Ohungarumlaut" unicode="&#x150;" horiz-adv-x="816" 
d="M42 307q0 111 58.5 208.5t155.5 154.5t205 57q152 0 244.5 -87.5t92.5 -224.5q0 -113 -59.5 -212t-156.5 -157t-204 -58q-152 0 -244 89.5t-92 229.5zM222 317q0 -75 44 -122t114 -47q91 0 164 75.5t73 180.5q0 73 -44 118t-114 45q-92 0 -164.5 -73.5t-72.5 -176.5z
M520 761l111 150h169l-148 -150h-132zM312 761l106 150h145l-109 -150h-142z" />
    <glyph glyph-name="ohungarumlaut" unicode="&#x151;" horiz-adv-x="634" 
d="M15 219q0 131 97.5 219.5t223.5 88.5q117 0 192 -63.5t75 -167.5q0 -132 -98 -220t-223 -88q-118 0 -192.5 63t-74.5 168zM190 227q0 -44 26.5 -69.5t68.5 -25.5q55 0 99 43t44 110q0 45 -26.5 71.5t-67.5 26.5q-54 0 -99 -44.5t-45 -111.5zM392 565l111 150h169
l-148 -150h-132zM184 565l106 150h145l-109 -150h-142z" />
    <glyph glyph-name="OE" unicode="&#x152;" horiz-adv-x="992" 
d="M41 306q0 111 61.5 208t159 153t202.5 56q48 0 94 -4t71 -4h388l-29 -150h-273l-25 -130h218l-30 -150h-218l-26 -135h288l-29 -150h-388q-19 0 -58 -4t-76 -4q-144 0 -237 89t-93 225zM220 313q0 -73 46 -120t120 -47q20 0 38.5 2t27.5 4l8 1l79 409q-26 7 -70 7
q-97 0 -173 -76t-76 -180z" />
    <glyph glyph-name="oe" unicode="&#x153;" horiz-adv-x="969" 
d="M15 219q0 131 97.5 219.5t223.5 88.5q119 0 193 -80h2q80 80 190 80q107 0 163.5 -55t56.5 -147q0 -21 -4.5 -46t-9.5 -40l-5 -15h-325q0 -46 28 -69t73 -23q33 0 71.5 13t60.5 26l21 13l44 -129q-10 -8 -28.5 -19t-73 -29.5t-106.5 -18.5q-129 0 -199 83h-2
q-89 -83 -204 -83q-118 0 -192.5 63t-74.5 168zM620 323h152q1 12 1 18q0 25 -14.5 40.5t-40.5 15.5q-69 0 -98 -74zM190 227q0 -44 26.5 -69.5t68.5 -25.5q55 0 99 43t44 110q0 45 -26.5 71.5t-67.5 26.5q-54 0 -99 -44.5t-45 -111.5z" />
    <glyph glyph-name="Racute" unicode="&#x154;" horiz-adv-x="680" 
d="M26 0l139 715h266q63 0 105 -17q107 -43 107 -164q0 -73 -37 -142.5t-112 -99.5v-2q7 -12 18 -43l92 -247h-188l-80 241h-88l-47 -241h-175zM277 391h75q48 0 79.5 29t31.5 81q0 31 -19.5 47.5t-53.5 16.5h-79zM340 761l111 150h177l-148 -150h-140z" />
    <glyph glyph-name="racute" unicode="&#x155;" horiz-adv-x="430" 
d="M6 0l100 515h166l-17 -87l-8 -32h1q25 54 75.5 91t103.5 37l30 -2l-33 -170q-13 3 -34 3q-30 0 -63 -14.5t-67.5 -58t-46.5 -107.5l-34 -175h-173zM234 565l111 150h177l-148 -150h-140z" />
    <glyph glyph-name="Rcommaaccent" unicode="&#x156;" horiz-adv-x="680" 
d="M26 0l139 715h266q63 0 105 -17q107 -43 107 -164q0 -73 -37 -142.5t-112 -99.5v-2q7 -12 18 -43l92 -247h-188l-80 241h-88l-47 -241h-175zM277 391h75q48 0 79.5 29t31.5 81q0 31 -19.5 47.5t-53.5 16.5h-79zM224 -49h136v-18q0 -39 -12 -70t-41 -73h-123
q23 41 32.5 68.5t9.5 62.5q0 8 -2 30z" />
    <glyph glyph-name="rcommaaccent" unicode="&#x157;" horiz-adv-x="430" 
d="M6 0l100 515h166l-17 -87l-8 -32h1q25 54 75.5 91t103.5 37l30 -2l-33 -170q-13 3 -34 3q-30 0 -63 -14.5t-67.5 -58t-46.5 -107.5l-34 -175h-173zM19 -49h136v-18q0 -39 -12 -70t-41 -73h-123q23 41 32.5 68.5t9.5 62.5q0 8 -2 30z" />
    <glyph glyph-name="Rcaron" unicode="&#x158;" horiz-adv-x="680" 
d="M26 0l139 715h266q63 0 105 -17q107 -43 107 -164q0 -73 -37 -142.5t-112 -99.5v-2q7 -12 18 -43l92 -247h-188l-80 241h-88l-47 -241h-175zM277 391h75q48 0 79.5 29t31.5 81q0 31 -19.5 47.5t-53.5 16.5h-79zM336 761l-69 150h130l31 -82h2l63 82h140l-129 -150h-168z
" />
    <glyph glyph-name="rcaron" unicode="&#x159;" horiz-adv-x="430" 
d="M6 0l100 515h166l-17 -87l-8 -32h1q25 54 75.5 91t103.5 37l30 -2l-33 -170q-13 3 -34 3q-30 0 -63 -14.5t-67.5 -58t-46.5 -107.5l-34 -175h-173zM230 565l-69 150h130l31 -82h2l63 82h140l-129 -150h-168z" />
    <glyph glyph-name="Sacute" unicode="&#x15a;" horiz-adv-x="582" 
d="M-6 90l104 124q7 -7 21 -18t58 -29t90 -18q32 0 59 15.5t27 47.5q0 20 -27.5 39.5t-66.5 39.5t-78.5 45.5t-67 69t-27.5 98.5q0 101 80 162t186 61q47 0 89.5 -8.5t69.5 -20.5t47 -24.5t29 -21.5l9 -8l-94 -129q-7 6 -20 14.5t-53 22.5t-80 14q-32 0 -60 -16t-28 -46
q0 -18 20 -35t50 -31t64.5 -34.5t64.5 -44t50 -62t20 -85.5q0 -93 -76 -158.5t-190 -65.5q-51 0 -98 10.5t-77 25.5t-52.5 30t-32.5 26zM308 761l111 150h177l-148 -150h-140z" />
    <glyph glyph-name="sacute" unicode="&#x15b;" horiz-adv-x="470" 
d="M-20 63l86 111q6 -5 17 -12.5t45 -20.5t68 -13q22 0 39 6.5t17 19.5q0 14 -32 30.5t-70 32.5t-70 53.5t-32 89.5q0 72 65 119.5t151 47.5q55 0 103.5 -14.5t69.5 -29.5l21 -15l-74 -118q-43 37 -120 37q-22 0 -39 -7t-17 -20q0 -10 21 -21t51 -24.5t60.5 -32t51.5 -52
t21 -76.5q0 -75 -60 -120.5t-157 -45.5q-57 0 -111 19t-79 37zM209 565l111 150h177l-148 -150h-140z" />
    <glyph glyph-name="Scircumflex" unicode="&#x15c;" horiz-adv-x="582" 
d="M-6 90l104 124q7 -7 21 -18t58 -29t90 -18q32 0 59 15.5t27 47.5q0 20 -27.5 39.5t-66.5 39.5t-78.5 45.5t-67 69t-27.5 98.5q0 101 80 162t186 61q47 0 89.5 -8.5t69.5 -20.5t47 -24.5t29 -21.5l9 -8l-94 -129q-7 6 -20 14.5t-53 22.5t-80 14q-32 0 -60 -16t-28 -46
q0 -18 20 -35t50 -31t64.5 -34.5t64.5 -44t50 -62t20 -85.5q0 -93 -76 -158.5t-190 -65.5q-51 0 -98 10.5t-77 25.5t-52.5 30t-32.5 26zM195 761l129 150h168l69 -150h-130l-31 82h-2l-63 -82h-140z" />
    <glyph glyph-name="scircumflex" unicode="&#x15d;" horiz-adv-x="470" 
d="M-20 63l86 111q6 -5 17 -12.5t45 -20.5t68 -13q22 0 39 6.5t17 19.5q0 14 -32 30.5t-70 32.5t-70 53.5t-32 89.5q0 72 65 119.5t151 47.5q55 0 103.5 -14.5t69.5 -29.5l21 -15l-74 -118q-43 37 -120 37q-22 0 -39 -7t-17 -20q0 -10 21 -21t51 -24.5t60.5 -32t51.5 -52
t21 -76.5q0 -75 -60 -120.5t-157 -45.5q-57 0 -111 19t-79 37zM96 565l129 150h168l69 -150h-130l-31 82h-2l-63 -82h-140z" />
    <glyph glyph-name="Scedilla" unicode="&#x15e;" horiz-adv-x="582" 
d="M134 -116q22 -8 44 -8q43 0 43 26q0 18 -37 18l-27 -2l38 75q-38 6 -73 18t-57 25t-39 25.5t-24 20.5l-8 8l104 124q7 -7 21 -18t58 -29t90 -18q32 0 59 15.5t27 47.5q0 20 -27.5 39.5t-66.5 39.5t-78.5 45.5t-67 69t-27.5 98.5q0 101 80 162t186 61q47 0 89.5 -8.5
t69.5 -20.5t47 -24.5t29 -21.5l9 -8l-94 -129q-7 6 -20 14.5t-53 22.5t-80 14q-32 0 -60 -16t-28 -46q0 -18 20 -35t50 -31t64.5 -34.5t64.5 -44t50 -62t20 -85.5q0 -92 -73 -156.5t-184 -67.5l-10 -24q24 -5 43 -21t19 -45q0 -56 -40.5 -82t-91.5 -26q-18 0 -37 2t-28 4
l-10 3z" />
    <glyph glyph-name="scedilla" unicode="&#x15f;" horiz-adv-x="470" 
d="M64 -116q22 -8 44 -8q43 0 43 26q0 18 -37 18l-27 -2l39 77q-40 8 -76.5 25t-53.5 30l-16 13l86 111q6 -5 17 -12.5t45 -20.5t68 -13q22 0 39 6.5t17 19.5q0 14 -32 30.5t-70 32.5t-70 53.5t-32 89.5q0 72 65 119.5t151 47.5q55 0 103.5 -14.5t69.5 -29.5l21 -15
l-74 -118q-43 37 -120 37q-22 0 -39 -7t-17 -20q0 -10 21 -21t51 -24.5t60.5 -32t51.5 -52t21 -76.5q0 -73 -58 -118.5t-152 -47.5l-10 -24q24 -5 43 -21t19 -45q0 -56 -40.5 -82t-91.5 -26q-18 0 -37 2t-28 4l-10 3z" />
    <glyph glyph-name="Scaron" unicode="&#x160;" horiz-adv-x="582" 
d="M-6 90l104 124q7 -7 21 -18t58 -29t90 -18q32 0 59 15.5t27 47.5q0 20 -27.5 39.5t-66.5 39.5t-78.5 45.5t-67 69t-27.5 98.5q0 101 80 162t186 61q47 0 89.5 -8.5t69.5 -20.5t47 -24.5t29 -21.5l9 -8l-94 -129q-7 6 -20 14.5t-53 22.5t-80 14q-32 0 -60 -16t-28 -46
q0 -18 20 -35t50 -31t64.5 -34.5t64.5 -44t50 -62t20 -85.5q0 -93 -76 -158.5t-190 -65.5q-51 0 -98 10.5t-77 25.5t-52.5 30t-32.5 26zM304 761l-69 150h130l31 -82h2l63 82h140l-129 -150h-168z" />
    <glyph glyph-name="scaron" unicode="&#x161;" horiz-adv-x="470" 
d="M-20 63l86 111q6 -5 17 -12.5t45 -20.5t68 -13q22 0 39 6.5t17 19.5q0 14 -32 30.5t-70 32.5t-70 53.5t-32 89.5q0 72 65 119.5t151 47.5q55 0 103.5 -14.5t69.5 -29.5l21 -15l-74 -118q-43 37 -120 37q-22 0 -39 -7t-17 -20q0 -10 21 -21t51 -24.5t60.5 -32t51.5 -52
t21 -76.5q0 -75 -60 -120.5t-157 -45.5q-57 0 -111 19t-79 37zM205 565l-69 150h130l31 -82h2l63 82h140l-129 -150h-168z" />
    <glyph glyph-name="Tcommaaccent" unicode="&#x162;" horiz-adv-x="616" 
d="M161 0l110 565h-216l29 150h607l-29 -150h-216l-110 -565h-46l-16 -36q24 -5 43 -21t19 -45q0 -56 -40.5 -82t-91.5 -26q-18 0 -37 2t-29 4l-9 3l16 85q22 -8 44 -8q43 0 43 26q0 18 -37 18l-27 -2l42 82h-49z" />
    <glyph glyph-name="tcommaaccent" unicode="&#x163;" horiz-adv-x="413" 
d="M66 -116q22 -8 44 -8q43 0 43 26q0 18 -37 18l-27 -2l54 105q-78 41 -78 137q0 17 5 40l34 171h-65l26 135h71l29 148h166l-29 -148h109l-26 -135h-109l-28 -147q-3 -14 -3 -27q0 -50 76 -50l27 1l-29 -150q-26 -3 -46 -3q-30 0 -62 5l-16 -36q24 -5 43 -21t19 -45
q0 -56 -40.5 -82t-91.5 -26q-18 0 -37 2t-28 4l-10 3z" />
    <glyph glyph-name="Tcaron" unicode="&#x164;" horiz-adv-x="616" 
d="M161 0l110 565h-216l29 150h607l-29 -150h-216l-110 -565h-175zM316 761l-69 150h130l31 -82h2l63 82h140l-129 -150h-168z" />
    <glyph glyph-name="tcaron" unicode="&#x165;" horiz-adv-x="410" 
d="M62 160q0 17 5 40l34 171h-65l26 135h71l29 148h166l-29 -148h109l-26 -135h-109l-28 -147q-3 -14 -3 -27q0 -50 76 -50l27 1l-29 -150q-26 -3 -46 -3q-92 0 -150 40.5t-58 124.5zM383 715h136v-17q0 -37 -12 -66t-41 -68h-123q23 39 32.5 64.5t9.5 58.5q0 8 -2 28z" />
    <glyph glyph-name="Tbar" unicode="&#x166;" horiz-adv-x="639" 
d="M82 272l25 127h141l33 166h-216l29 150h607l-29 -150h-216l-33 -166h149l-25 -127h-148l-53 -272h-175l53 272h-142z" />
    <glyph glyph-name="tbar" unicode="&#x167;" horiz-adv-x="432" 
d="M16 209l21 107h66l11 55h-65l26 135h71l29 148h166l-29 -148h109l-26 -135h-109l-11 -55h109l-21 -107h-108v-12q0 -50 76 -50l27 1l-29 -150q-26 -3 -46 -3q-92 0 -150 40.5t-58 124.5q0 17 5 40l2 9h-66z" />
    <glyph glyph-name="Utilde" unicode="&#x168;" horiz-adv-x="747" 
d="M63 210q0 28 6 58l87 447h175l-88 -452q-3 -15 -3 -28q0 -42 28 -64.5t77 -22.5q58 0 96.5 29.5t49.5 85.5l88 452h175l-89 -457q-24 -122 -111.5 -196t-214.5 -74q-118 0 -197 59t-79 163zM271 761q31 153 149 153q21 0 38 -9.5t26.5 -20.5t21 -20.5t22.5 -9.5
q34 0 44 57h113q-30 -153 -148 -153q-25 0 -45 15t-35.5 30t-28.5 15q-32 0 -44 -57h-113z" />
    <glyph glyph-name="utilde" unicode="&#x169;" horiz-adv-x="629" 
d="M28 134q0 20 7 57l63 324h173l-58 -296q-3 -18 -3 -30q0 -44 46 -44q48 0 85.5 42t48.5 100l44 228h173l-100 -515h-167l5 26l13 51h-2q-23 -37 -69 -63t-97 -26q-73 0 -117.5 35t-44.5 111zM169 565q31 153 149 153q21 0 38 -9.5t26.5 -20.5t21 -20.5t22.5 -9.5
q34 0 44 57h113q-30 -153 -148 -153q-25 0 -45 15t-35.5 30t-28.5 15q-32 0 -44 -57h-113z" />
    <glyph glyph-name="Umacron" unicode="&#x16a;" horiz-adv-x="747" 
d="M63 210q0 28 6 58l87 447h175l-88 -452q-3 -15 -3 -28q0 -42 28 -64.5t77 -22.5q58 0 96.5 29.5t49.5 85.5l88 452h175l-89 -457q-24 -122 -111.5 -196t-214.5 -74q-118 0 -197 59t-79 163zM331 782l22 112h275l-22 -112h-275z" />
    <glyph glyph-name="umacron" unicode="&#x16b;" horiz-adv-x="629" 
d="M28 134q0 20 7 57l63 324h173l-58 -296q-3 -18 -3 -30q0 -44 46 -44q48 0 85.5 42t48.5 100l44 228h173l-100 -515h-167l5 26l13 51h-2q-23 -37 -69 -63t-97 -26q-73 0 -117.5 35t-44.5 111zM229 586l22 112h275l-22 -112h-275z" />
    <glyph glyph-name="Ubreve" unicode="&#x16c;" horiz-adv-x="747" 
d="M63 210q0 28 6 58l87 447h175l-88 -452q-3 -15 -3 -28q0 -42 28 -64.5t77 -22.5q58 0 96.5 29.5t49.5 85.5l88 452h175l-89 -457q-24 -122 -111.5 -196t-214.5 -74q-118 0 -197 59t-79 163zM475 756q-79 0 -126.5 40t-34.5 105l2 10h117l-2 -11q-6 -28 8 -43t37 -15
t43 15t26 43l2 11h117l-2 -10q-14 -71 -65 -108t-122 -37z" />
    <glyph glyph-name="ubreve" unicode="&#x16d;" horiz-adv-x="629" 
d="M28 134q0 20 7 57l63 324h173l-58 -296q-3 -18 -3 -30q0 -44 46 -44q48 0 85.5 42t48.5 100l44 228h173l-100 -515h-167l5 26l13 51h-2q-23 -37 -69 -63t-97 -26q-73 0 -117.5 35t-44.5 111zM373 560q-79 0 -126.5 40t-34.5 105l2 10h117l-2 -11q-6 -28 8 -43t37 -15
t43 15t26 43l2 11h117l-2 -10q-14 -71 -65 -108t-122 -37z" />
    <glyph glyph-name="Uring" unicode="&#x16e;" horiz-adv-x="747" 
d="M63 210q0 28 6 58l87 447h175l-88 -452q-3 -15 -3 -28q0 -42 28 -64.5t77 -22.5q58 0 96.5 29.5t49.5 85.5l88 452h175l-89 -457q-24 -122 -111.5 -196t-214.5 -74q-118 0 -197 59t-79 163zM466 747q-41 0 -70 19t-29 54q0 47 37.5 72.5t84.5 25.5q42 0 71 -19.5
t29 -56.5q0 -46 -38.5 -70.5t-84.5 -24.5zM471 797q18 0 30.5 12.5t12.5 30.5q0 28 -29 28q-17 0 -29.5 -12.5t-12.5 -32.5q0 -26 28 -26z" />
    <glyph glyph-name="uring" unicode="&#x16f;" horiz-adv-x="629" 
d="M28 134q0 20 7 57l63 324h173l-58 -296q-3 -18 -3 -30q0 -44 46 -44q48 0 85.5 42t48.5 100l44 228h173l-100 -515h-167l5 26l13 51h-2q-23 -37 -69 -63t-97 -26q-73 0 -117.5 35t-44.5 111zM364 551q-41 0 -70 19t-29 54q0 47 37.5 72.5t84.5 25.5q42 0 71 -19.5
t29 -56.5q0 -46 -38.5 -70.5t-84.5 -24.5zM369 601q18 0 30.5 12.5t12.5 30.5q0 28 -29 28q-17 0 -29.5 -12.5t-12.5 -32.5q0 -26 28 -26z" />
    <glyph glyph-name="Uhungarumlaut" unicode="&#x170;" horiz-adv-x="747" 
d="M63 210q0 28 6 58l87 447h175l-88 -452q-3 -15 -3 -28q0 -42 28 -64.5t77 -22.5q58 0 96.5 29.5t49.5 85.5l88 452h175l-89 -457q-24 -122 -111.5 -196t-214.5 -74q-118 0 -197 59t-79 163zM487 761l111 150h169l-148 -150h-132zM279 761l106 150h145l-109 -150h-142z
" />
    <glyph glyph-name="uhungarumlaut" unicode="&#x171;" horiz-adv-x="629" 
d="M28 134q0 20 7 57l63 324h173l-58 -296q-3 -18 -3 -30q0 -44 46 -44q48 0 85.5 42t48.5 100l44 228h173l-100 -515h-167l5 26l13 51h-2q-23 -37 -69 -63t-97 -26q-73 0 -117.5 35t-44.5 111zM385 565l111 150h169l-148 -150h-132zM177 565l106 150h145l-109 -150h-142z
" />
    <glyph glyph-name="Uogonek" unicode="&#x172;" horiz-adv-x="747" 
d="M254 -126q0 59 71 112v2q-113 4 -187.5 62.5t-74.5 159.5q0 28 6 58l88 447h174l-88 -452q-3 -15 -3 -28q0 -42 28 -64.5t77 -22.5q58 0 96 29.5t49 85.5l89 452h175l-90 -457q-18 -91 -64 -144.5t-110 -92.5q-46 -28 -69.5 -47.5t-23.5 -37.5q0 -8 9.5 -13.5t19.5 -6.5
l9 -2l-66 -124q-5 0 -12.5 1.5t-27.5 7t-35 14t-27.5 25t-12.5 36.5z" />
    <glyph glyph-name="uogonek" unicode="&#x173;" horiz-adv-x="629" 
d="M306 -126q0 63 84 124v2h-50l5 26l13 51h-2q-23 -37 -69 -63t-97 -26q-73 0 -117.5 35t-44.5 111q0 20 7 57l63 324h173l-58 -296q-3 -18 -3 -30q0 -44 46 -44q48 0 85.5 42t48.5 100l44 228h173l-100 -515q-56 -45 -56 -64q0 -8 9 -13.5t18 -6.5l9 -2l-66 -124
q-5 0 -12.5 1.5t-27.5 7t-35 14t-27.5 25t-12.5 36.5z" />
    <glyph glyph-name="Wcircumflex" unicode="&#x174;" horiz-adv-x="1015" 
d="M145 0l-46 715h182l11 -447l-2 -75h2q7 31 26 75l196 447h145l21 -447l-2 -75h2q7 35 23 75l179 447h191l-314 -715h-203l-19 361q-2 49 2 84h-2q-11 -38 -31 -84l-160 -361h-201zM407 761l129 150h168l69 -150h-130l-31 82h-2l-63 -82h-140z" />
    <glyph glyph-name="wcircumflex" unicode="&#x175;" horiz-adv-x="828" 
d="M97 0l-44 515h172l4 -304l-4 -54h2l3 7q2 7 6.5 21t9.5 26l131 304h145l11 -304l-2 -54h2q5 26 17 54l123 304h184l-245 -515h-192l-11 238v55h-2q-8 -27 -20 -55l-105 -238h-185zM271 565l129 150h168l69 -150h-130l-31 82h-2l-63 -82h-140z" />
    <glyph glyph-name="Ycircumflex" unicode="&#x176;" horiz-adv-x="631" 
d="M164 0l57 293l-149 422h189l48 -172l23 -103h2l63 103l109 172h210l-322 -429l-55 -286h-175zM210 761l129 150h168l69 -150h-130l-31 82h-2l-63 -82h-140z" />
    <glyph glyph-name="ycircumflex" unicode="&#x177;" horiz-adv-x="547" 
d="M-16 -50q21 -16 51 -16q61 0 93 52l15 24l-121 505h180l42 -255l5 -76h2q18 45 31 73l115 258h194l-322 -570q-45 -79 -105 -117t-120 -38q-34 0 -67.5 10t-50.5 20l-17 10zM135 565l129 150h168l69 -150h-130l-31 82h-2l-63 -82h-140z" />
    <glyph glyph-name="Ydieresis" unicode="&#x178;" horiz-adv-x="631" 
d="M164 0l57 293l-149 422h189l48 -172l23 -103h2l63 103l109 172h210l-322 -429l-55 -286h-175zM442 771l28 140h126l-28 -140h-126zM233 771l28 140h126l-28 -140h-126z" />
    <glyph glyph-name="Zacute" unicode="&#x179;" horiz-adv-x="638" 
d="M-19 0l22 110l340 391q18 20 35 36l25 23l8 6v2q-22 -3 -54 -3h-253l28 150h540l-22 -108l-343 -393q-17 -20 -34 -36t-25 -22l-9 -7v-2q23 3 55 3h273l-29 -150h-557zM344 761l111 150h177l-148 -150h-140z" />
    <glyph glyph-name="zacute" unicode="&#x17a;" horiz-adv-x="540" 
d="M-24 0l16 86l229 237q14 14 27.5 26l19.5 17l6 4v2q-12 -2 -44 -2h-176l29 145h459l-16 -87l-229 -237q-14 -14 -28 -25.5t-21 -16.5l-7 -5v-2q14 3 47 3h187l-29 -145h-470zM241 565l111 150h177l-148 -150h-140z" />
    <glyph glyph-name="Zdotaccent" unicode="&#x17b;" horiz-adv-x="638" 
d="M-19 0l22 110l340 391q18 20 35 36l25 23l8 6v2q-22 -3 -54 -3h-253l28 150h540l-22 -108l-343 -393q-17 -20 -34 -36t-25 -22l-9 -7v-2q23 3 55 3h273l-29 -150h-557zM352 779l26 132h143l-26 -132h-143z" />
    <glyph glyph-name="zdotaccent" unicode="&#x17c;" horiz-adv-x="540" 
d="M-24 0l16 86l229 237q14 14 27.5 26l19.5 17l6 4v2q-12 -2 -44 -2h-176l29 145h459l-16 -87l-229 -237q-14 -14 -28 -25.5t-21 -16.5l-7 -5v-2q14 3 47 3h187l-29 -145h-470zM249 583l26 132h143l-26 -132h-143z" />
    <glyph glyph-name="Zcaron" unicode="&#x17d;" horiz-adv-x="638" 
d="M-19 0l22 110l340 391q18 20 35 36l25 23l8 6v2q-22 -3 -54 -3h-253l28 150h540l-22 -108l-343 -393q-17 -20 -34 -36t-25 -22l-9 -7v-2q23 3 55 3h273l-29 -150h-557zM340 761l-69 150h130l31 -82h2l63 82h140l-129 -150h-168z" />
    <glyph glyph-name="zcaron" unicode="&#x17e;" horiz-adv-x="540" 
d="M-24 0l16 86l229 237q14 14 27.5 26l19.5 17l6 4v2q-12 -2 -44 -2h-176l29 145h459l-16 -87l-229 -237q-14 -14 -28 -25.5t-21 -16.5l-7 -5v-2q14 3 47 3h187l-29 -145h-470zM237 565l-69 150h130l31 -82h2l63 82h140l-129 -150h-168z" />
    <glyph glyph-name="longs" unicode="&#x17f;" horiz-adv-x="332" 
d="M38 0l72 371h-63l27 135h63l4 22q9 48 32 84.5t50 56t62.5 31.5t62 15.5t54.5 3.5l63 -3l-30 -146q-10 2 -26 2q-88 0 -97 -50l-101 -522h-173z" />
    <glyph glyph-name="florin" unicode="&#x192;" horiz-adv-x="596" 
d="M-28 27q41 -6 67 -6q88 0 105 64l62 225h-62l27 135h74l29 100q52 182 271 182l102 -9l-29 -144q-58 6 -74 6q-86 0 -103 -64l-20 -71h95l-27 -135h-107l-70 -254q-13 -46 -38.5 -80.5t-54 -53.5t-64 -30.5t-62.5 -14.5t-55 -3q-17 0 -41 2.5t-39 5.5l-15 2z" />
    <glyph glyph-name="Scommaaccent" unicode="&#x218;" horiz-adv-x="582" 
d="M-6 90l104 124q7 -7 21 -18t58 -29t90 -18q32 0 59 15.5t27 47.5q0 20 -27.5 39.5t-66.5 39.5t-78.5 45.5t-67 69t-27.5 98.5q0 101 80 162t186 61q47 0 89.5 -8.5t69.5 -20.5t47 -24.5t29 -21.5l9 -8l-94 -129q-7 6 -20 14.5t-53 22.5t-80 14q-32 0 -60 -16t-28 -46
q0 -18 20 -35t50 -31t64.5 -34.5t64.5 -44t50 -62t20 -85.5q0 -93 -76 -158.5t-190 -65.5q-51 0 -98 10.5t-77 25.5t-52.5 30t-32.5 26zM148 -49h136v-18q0 -39 -12 -70t-41 -73h-123q23 41 32.5 68.5t9.5 62.5q0 8 -2 30z" />
    <glyph glyph-name="scommaaccent" unicode="&#x219;" horiz-adv-x="470" 
d="M-20 63l86 111q6 -5 17 -12.5t45 -20.5t68 -13q22 0 39 6.5t17 19.5q0 14 -32 30.5t-70 32.5t-70 53.5t-32 89.5q0 72 65 119.5t151 47.5q55 0 103.5 -14.5t69.5 -29.5l21 -15l-74 -118q-43 37 -120 37q-22 0 -39 -7t-17 -20q0 -10 21 -21t51 -24.5t60.5 -32t51.5 -52
t21 -76.5q0 -75 -60 -120.5t-157 -45.5q-57 0 -111 19t-79 37zM92 -49h136v-18q0 -39 -12 -70t-41 -73h-123q23 41 32.5 68.5t9.5 62.5q0 8 -2 30z" />
    <glyph glyph-name="uni021A" unicode="&#x21a;" horiz-adv-x="616" 
d="M161 0l110 565h-216l29 150h607l-29 -150h-216l-110 -565h-175zM167 -49h136v-18q0 -39 -12 -70t-41 -73h-123q23 41 32.5 68.5t9.5 62.5q0 8 -2 30z" />
    <glyph glyph-name="uni021B" unicode="&#x21b;" horiz-adv-x="410" 
d="M62 160q0 17 5 40l34 171h-65l26 135h71l29 148h166l-29 -148h109l-26 -135h-109l-28 -147q-3 -14 -3 -27q0 -50 76 -50l27 1l-29 -150q-26 -3 -46 -3q-92 0 -150 40.5t-58 124.5zM98 -49h136v-18q0 -39 -12 -70t-41 -73h-123q23 41 32.5 68.5t9.5 62.5q0 8 -2 30z" />
    <glyph glyph-name="circumflex" unicode="&#x2c6;" horiz-adv-x="486" 
d="M-14 761l129 150h168l69 -150h-130l-31 82h-2l-63 -82h-140z" />
    <glyph glyph-name="caron" unicode="&#x2c7;" horiz-adv-x="486" 
d="M95 761l-69 150h130l31 -82h2l63 82h140l-129 -150h-168z" />
    <glyph glyph-name="breve" unicode="&#x2d8;" horiz-adv-x="484" 
d="M184 756q-79 0 -126.5 40t-34.5 105l2 10h117l-2 -11q-6 -28 8 -43t37 -15t43 15t26 43l2 11h117l-2 -10q-14 -71 -65 -108t-122 -37z" />
    <glyph glyph-name="dotaccent" unicode="&#x2d9;" horiz-adv-x="485" 
d="M106 779l26 132h143l-26 -132h-143z" />
    <glyph glyph-name="ring" unicode="&#x2da;" horiz-adv-x="485" 
d="M175 747q-41 0 -70 19t-29 54q0 47 37.5 72.5t84.5 25.5q42 0 71 -19.5t29 -56.5q0 -46 -38.5 -70.5t-84.5 -24.5zM180 797q18 0 30.5 12.5t12.5 30.5q0 28 -29 28q-17 0 -29.5 -12.5t-12.5 -32.5q0 -26 28 -26z" />
    <glyph glyph-name="ogonek" unicode="&#x2db;" horiz-adv-x="486" 
d="M82 -126q0 46 40 86t93 68l87 -14q-1 0 -18.5 -14t-35.5 -33.5t-18 -30.5q0 -8 8 -13.5t16 -6.5l9 -2l-66 -124q-5 0 -12.5 1.5t-27.5 7t-35 14t-27.5 25t-12.5 36.5z" />
    <glyph glyph-name="tilde" unicode="&#x2dc;" horiz-adv-x="485" 
d="M-23 761q31 153 149 153q21 0 38 -9.5t26.5 -20.5t21 -20.5t22.5 -9.5q34 0 44 57h113q-30 -153 -148 -153q-25 0 -45 15t-35.5 30t-28.5 15q-32 0 -44 -57h-113z" />
    <glyph glyph-name="hungarumlaut" unicode="&#x2dd;" horiz-adv-x="485" 
d="M153 761l111 150h169l-148 -150h-132zM-55 761l106 150h145l-109 -150h-142z" />
    <glyph glyph-name="uni1E9E" unicode="&#x1e9e;" horiz-adv-x="716" 
d="M18 0l96 495q19 100 87 160t163 60h356l-23 -120l-118 -149l-26 -29v-2q44 -15 71.5 -62.5t27.5 -103.5q0 -75 -43 -138t-113 -92q-45 -19 -149 -19h-85l29 150h69q55 0 74 12q38 24 38 72q0 25 -14.5 37.5t-53.5 12.5h-67l24 120l68 97q15 22 29 38t20 21l6 6v2
q-6 -3 -42 -3h-76q-28 0 -50 -23t-29 -58l-94 -484h-175z" />
    <glyph glyph-name="thinspace" unicode="&#x2009;" horiz-adv-x="20" 
 />
    <glyph glyph-name="endash" unicode="&#x2013;" horiz-adv-x="732" 
d="M54 222l25 130h596l-25 -130h-596z" />
    <glyph glyph-name="emdash" unicode="&#x2014;" horiz-adv-x="932" 
d="M54 222l25 130h796l-25 -130h-796z" />
    <glyph glyph-name="quoteleft" unicode="&#x2018;" horiz-adv-x="269" 
d="M65 475l138 255h123l-103 -255h-158z" />
    <glyph glyph-name="quoteright" unicode="&#x2019;" horiz-adv-x="263" 
d="M71 475l103 255h158l-138 -255h-123z" />
    <glyph glyph-name="quotesinglbase" unicode="&#x201a;" horiz-adv-x="282" 
d="M-50 -89l103 255h158l-138 -255h-123z" />
    <glyph glyph-name="quotedblleft" unicode="&#x201c;" horiz-adv-x="467" 
d="M263 475l138 255h123l-103 -255h-158zM65 475l138 255h123l-103 -255h-158z" />
    <glyph glyph-name="quotedblright" unicode="&#x201d;" horiz-adv-x="461" 
d="M269 475l103 255h158l-138 -255h-123zM71 475l103 255h158l-138 -255h-123z" />
    <glyph glyph-name="quotedblbase" unicode="&#x201e;" horiz-adv-x="480" 
d="M148 -89l103 255h158l-138 -255h-123zM-50 -89l103 255h158l-138 -255h-123z" />
    <glyph glyph-name="dagger" unicode="&#x2020;" horiz-adv-x="491" 
d="M95 -50l85 435h-130l25 130h130l39 200h165l-39 -200h131l-25 -130h-131l-85 -435h-165z" />
    <glyph glyph-name="daggerdbl" unicode="&#x2021;" horiz-adv-x="522" 
d="M110 -50l39 200h-129l24 130h130l21 105h-130l25 130h130l39 200h165l-39 -200h131l-25 -130h-131l-21 -105h131l-25 -130h-131l-39 -200h-165z" />
    <glyph glyph-name="bullet" unicode="&#x2022;" horiz-adv-x="467" 
d="M232 105q-77 0 -131.5 54.5t-54.5 131.5t54.5 131.5t131.5 54.5t131.5 -54.5t54.5 -131.5t-54.5 -131.5t-131.5 -54.5z" />
    <glyph glyph-name="ellipsis" unicode="&#x2026;" horiz-adv-x="925" 
d="M651 0l31 164h158l-31 -164h-158zM327 0l31 164h158l-31 -164h-158zM3 0l31 164h158l-31 -164h-158z" />
    <glyph glyph-name="perthousand" unicode="&#x2030;" horiz-adv-x="1275" 
d="M241 382q-73 0 -119 43.5t-46 110.5q0 74 62 132.5t140 58.5q73 0 119.5 -45t46.5 -113q0 -74 -63 -130.5t-140 -56.5zM26 0l674 715h159l-674 -715h-159zM254 502q24 0 43 18t19 43q0 19 -13.5 31.5t-36.5 12.5t-42.5 -19t-19.5 -43q0 -19 13.5 -31t36.5 -12zM848 142
q0 74 62 132.5t140 58.5q73 0 119.5 -45t46.5 -113q0 -74 -63 -130.5t-140 -56.5q-73 0 -119 43.5t-46 110.5zM444 142q0 74 62 132.5t140 58.5q73 0 119.5 -45t46.5 -113q0 -74 -63 -130.5t-140 -56.5q-73 0 -119 43.5t-46 110.5zM976 151q0 -19 13.5 -31t36.5 -12
q24 0 43 18t19 43q0 19 -13.5 31.5t-36.5 12.5t-42.5 -19t-19.5 -43zM572 151q0 -19 13.5 -31t36.5 -12q24 0 43 18t19 43q0 19 -13.5 31.5t-36.5 12.5t-42.5 -19t-19.5 -43z" />
    <glyph glyph-name="guilsinglleft" unicode="&#x2039;" horiz-adv-x="381" 
d="M155 77l-130 205l191 206h164l-202 -213l130 -198h-153z" />
    <glyph glyph-name="guilsinglright" unicode="&#x203a;" horiz-adv-x="382" 
d="M-5 77l202 213l-130 198h153l130 -205l-191 -206h-164z" />
    <glyph glyph-name="fraction" unicode="&#x2044;" horiz-adv-x="195" 
d="M-135 0h-126l474 715h126z" />
    <glyph glyph-name="zerosuperior" unicode="&#x2070;" 
d="M170 413q-154 0 -154 156q0 69 18.5 135t66.5 118t118 52q155 0 155 -156q0 -50 -11.5 -100.5t-34.5 -98t-64 -77t-94 -29.5zM171 528q31 0 52.5 57t21.5 124q0 49 -27 49q-31 0 -52.5 -57t-21.5 -124q0 -49 27 -49z" />
    <glyph glyph-name="foursuperior" unicode="&#x2074;" 
d="M164 423l17 87h-196l15 84l216 270h157l-48 -247h53l-20 -107h-53l-17 -87h-124zM131 617h70l18 90l14 50h-2q-14 -28 -30 -46l-70 -92v-2z" />
    <glyph glyph-name="fivesuperior" unicode="&#x2075;" 
d="M160 413q-47 0 -87.5 16.5t-58.5 32.5l-17 16l74 86q33 -36 89 -36q25 0 46 14t21 39q0 18 -15 29t-38 11q-17 0 -34 -3.5t-25 -6.5l-8 -3l-64 24l65 232h269l-21 -109h-164l-6 -23l-6 -16l1 -1q15 4 39 4q56 0 96 -38t40 -93q0 -67 -55 -121t-141 -54z" />
    <glyph glyph-name="sixsuperior" unicode="&#x2076;" 
d="M179 413q-70 0 -117 43.5t-47 125.5q0 66 31.5 132.5t92.5 113t134 46.5q31 0 58.5 -6.5t40.5 -13.5l12 -6l-49 -102q-27 12 -66 12q-58 0 -86 -52h2q20 6 38 6q58 0 94.5 -36.5t36.5 -90.5q0 -65 -49.5 -118.5t-125.5 -53.5zM186 528q18 0 30 16.5t12 35.5
q0 17 -10.5 29t-33.5 12q-24 0 -32 -10.5t-8 -30.5q0 -23 12 -37.5t30 -14.5z" />
    <glyph glyph-name="sevensuperior" unicode="&#x2077;" 
d="M-23 423l235 308l22 24v2q-19 -2 -32 -2h-153l21 109h334l-16 -85l-267 -356h-144z" />
    <glyph glyph-name="eightsuperior" unicode="&#x2078;" 
d="M167 413q-71 0 -120.5 33t-49.5 92q0 61 88 125q-28 28 -28 66q0 68 52 106.5t117 38.5q71 0 112 -30.5t41 -80.5q0 -25 -17.5 -55t-31 -44.5t-24.5 -24.5q45 -33 45 -81q0 -67 -58 -106t-126 -39zM223 558q0 16 -15.5 28t-47.5 28q-35 -33 -35 -61q0 -16 13.5 -25
t32.5 -9t35.5 10.5t16.5 28.5zM177 733q0 -28 48 -51q8 6 19.5 23.5t11.5 36.5q0 12 -11 19t-26 7q-17 0 -29.5 -9t-12.5 -26z" />
    <glyph glyph-name="ninesuperior" unicode="&#x2079;" 
d="M5 439l49 102q27 -12 66 -12q58 0 86 52h-2q-20 -6 -38 -6q-58 0 -94.5 36.5t-36.5 90.5q0 65 49.5 118.5t125.5 53.5q70 0 117 -43.5t47 -125.5q0 -66 -31.5 -132.5t-92.5 -113t-134 -46.5q-31 0 -58.5 6.5t-39.5 12.5zM205 666q24 0 32 10.5t8 30.5q0 23 -12 37.5
t-30 14.5t-30 -16.5t-12 -35.5q0 -41 44 -41z" />
    <glyph glyph-name="zeroinferior" unicode="&#x2080;" 
d="M81 -167q-154 0 -154 156q0 69 18.5 135t66.5 118t118 52q155 0 155 -156q0 -50 -11.5 -100.5t-34.5 -98t-64 -77t-94 -29.5zM82 -52q31 0 52.5 57t21.5 124q0 49 -27 49q-31 0 -52.5 -57t-21.5 -124q0 -49 27 -49z" />
    <glyph glyph-name="oneinferior" unicode="&#x2081;" 
d="M-88 -157l21 108h89l26 136l10 32h-2q-7 -10 -14 -15l-27 -20l-59 84l148 116h108l-64 -333h90l-21 -108h-305z" />
    <glyph glyph-name="twoinferior" unicode="&#x2082;" 
d="M-110 -157q0 55 18.5 98.5t47 68t61 45.5t61 33.5t47 29t18.5 34.5q0 13 -11.5 20t-27.5 7q-17 0 -37 -11.5t-31 -22.5l-12 -11l-75 78q8 9 22 22.5t57.5 36.5t86.5 23q63 0 111 -33.5t48 -95.5q0 -34 -15.5 -63.5t-38.5 -48t-50.5 -34.5t-52 -26.5t-43 -21.5t-22.5 -20
h186l-21 -108h-327z" />
    <glyph glyph-name="threeinferior" unicode="&#x2083;" 
d="M50 -167q-30 0 -57.5 7t-46 17t-32 20t-20.5 17l-6 7l72 83q3 -4 9.5 -10t30 -16t51.5 -10q27 0 43.5 12.5t16.5 32.5q0 16 -15.5 24.5t-39.5 8.5h-37l-18 57l74 69l28 23v2q-21 -2 -34 -2h-103l21 109h294l-15 -79l-99 -92q35 -12 54.5 -44t19.5 -72q0 -64 -52 -114
t-139 -50z" />
    <glyph glyph-name="fourinferior" unicode="&#x2084;" 
d="M61 -157l17 87h-196l15 84l216 270h157l-48 -247h53l-20 -107h-53l-17 -87h-124zM28 37h70l18 90l14 50h-2q-14 -28 -30 -46l-70 -92v-2z" />
    <glyph glyph-name="fiveinferior" unicode="&#x2085;" 
d="M49 -167q-47 0 -87.5 16.5t-57.5 32.5l-18 16l74 86q33 -36 89 -36q25 0 46 14t21 39q0 18 -15 29t-38 11q-17 0 -34 -3.5t-25 -6.5l-8 -3l-64 24l65 232h269l-21 -109h-164l-6 -23l-6 -16l1 -1q15 4 39 4q56 0 96 -38t40 -93q0 -67 -55 -121t-141 -54z" />
    <glyph glyph-name="sixinferior" unicode="&#x2086;" 
d="M80 -167q-70 0 -117 43.5t-47 125.5q0 66 31.5 132.5t92.5 113t134 46.5q31 0 58.5 -6.5t39.5 -13.5l13 -6l-49 -102q-27 12 -66 12q-58 0 -86 -52h2q20 6 38 6q58 0 94.5 -36.5t36.5 -90.5q0 -65 -49.5 -118.5t-125.5 -53.5zM87 -52q18 0 30 16.5t12 35.5q0 17 -10.5 29
t-33.5 12q-24 0 -32 -10.5t-8 -30.5q0 -23 12 -37.5t30 -14.5z" />
    <glyph glyph-name="seveninferior" unicode="&#x2087;" 
d="M-113 -157l235 308l22 24v2q-19 -2 -32 -2h-153l21 109h334l-16 -85l-267 -356h-144z" />
    <glyph glyph-name="eightinferior" unicode="&#x2088;" 
d="M68 -167q-71 0 -120.5 33t-49.5 92q0 61 88 125q-28 28 -28 66q0 68 52 106.5t117 38.5q71 0 112 -30.5t41 -80.5q0 -25 -17.5 -55t-31 -44.5t-24.5 -24.5q45 -33 45 -81q0 -67 -58 -106t-126 -39zM124 -22q0 16 -15.5 28t-47.5 28q-35 -33 -35 -61q0 -16 13.5 -25
t32.5 -9t35.5 10.5t16.5 28.5zM78 153q0 -28 48 -51q8 6 19.5 23.5t11.5 36.5q0 12 -11 19t-26 7q-17 0 -29.5 -9t-12.5 -26z" />
    <glyph glyph-name="nineinferior" unicode="&#x2089;" 
d="M-93 -141l49 102q27 -12 66 -12q58 0 86 52h-2q-19 -6 -38 -6q-58 0 -94.5 36.5t-36.5 90.5q0 65 49.5 118.5t125.5 53.5q70 0 117 -43.5t47 -125.5q0 -66 -31.5 -132.5t-92.5 -113t-134 -46.5q-31 0 -58.5 6.5t-39.5 12.5zM107 86q24 0 32 10.5t8 30.5q0 23 -12 37.5
t-30 14.5t-30 -16.5t-12 -35.5q0 -41 44 -41z" />
    <glyph glyph-name="Euro" unicode="&#x20ac;" horiz-adv-x="597" 
d="M43 381l19 96h63q51 109 151.5 179.5t217.5 70.5q38 0 74.5 -5.5t53.5 -11.5l18 -5l-70 -150q-37 10 -77 10q-106 0 -172 -88h217l-39 -96h-221q-6 -32 -7 -48h209l-39 -96h-154q37 -84 134 -84q22 0 46.5 3.5t38.5 7.5l13 4v-163q-50 -17 -108 -17q-125 0 -208.5 67.5
t-106.5 181.5h-81l19 96h55q1 24 6 48h-52z" />
    <glyph glyph-name="trademark" unicode="&#x2122;" horiz-adv-x="1026" 
d="M507 268l35 447h118l73 -175l13 -44h2q7 29 13 44l73 175h118l33 -447h-127l-10 174l1 32h-2l-51 -125h-98l-51 125h-2l1 -32l-12 -174h-127zM222 268v338h-142v109h408v-109h-140v-338h-126z" />
    <glyph glyph-name="minus" unicode="&#x2212;" horiz-adv-x="630" 
d="M-16 222v130h546v-130h-546z" />
    <glyph glyph-name="infinity" unicode="&#x221e;" horiz-adv-x="531" 
d="M208 143q-85 0 -145.5 60.5t-60.5 145.5t60.5 145t145.5 60q86 0 145.5 -60t59.5 -145t-60 -145.5t-145 -60.5z" />
    <glyph glyph-name="approxequal" unicode="&#x2248;" horiz-adv-x="630" 
d="M57 322l-63 99q81 81 165 81q50 0 107.5 -35t90.5 -35q55 0 102 54l63 -99q-81 -81 -165 -81q-50 0 -107.5 35t-90.5 35q-52 0 -102 -54zM57 93l-63 99q81 81 165 81q50 0 107.5 -35t90.5 -35q55 0 102 54l63 -99q-81 -81 -165 -81q-50 0 -107.5 35t-90.5 35
q-52 0 -102 -54z" />
    <glyph glyph-name="notequal" unicode="&#x2260;" horiz-adv-x="630" 
d="M54 47l38 60h-88v130h171l64 100h-235v130h319l69 108l76 -49l-38 -59h80v-130h-163l-64 -100h227v-130h-310l-68 -107z" />
    <glyph glyph-name="lessequal" unicode="&#x2264;" horiz-adv-x="630" 
d="M1 234v107l504 223v-145l-330 -131v-2l330 -130v-145zM4 -70h501v-130h-501v130z" />
    <glyph glyph-name="greaterequal" unicode="&#x2265;" horiz-adv-x="630" 
d="M9 11v145l330 130v2l-330 131v145l504 -223v-107zM10 -70h501v-130h-501v130z" />
    <glyph glyph-name="commaaccent" horiz-adv-x="335" 
d="M53 -49h136v-18q0 -39 -12 -70t-41 -73h-123q23 41 32.5 68.5t9.5 62.5q0 8 -2 30z" />
    <glyph glyph-name="apple" horiz-adv-x="1130" 
d="M110 -5v152l-126 72v278l126 71v151l265 142l134 -71l132 71l265 -142v-151l124 -71v-278l-124 -72v-152l-265 -141l-132 71l-134 -71zM150 30l238 -126l121 66l118 -66l238 126v139l114 64v249l-114 66v136l-238 126l-118 -64l-121 64l-238 -126v-136l-114 -66v-249
l114 -64v-139zM184 64v121l-99 60v225l99 58v123l215 114l110 -59l107 59l214 -114v-123l100 -58v-225l-100 -60v-121l-214 -114l-107 58l-110 -58zM368 91h129v171h176v108h-176v128h85q10 0 13 -4.5t3 -16.5v-21h115v102q0 26 -10 37t-37 11h-346v-108h48v-407z" />
    <glyph glyph-name="zero.tnum" horiz-adv-x="600" 
d="M-40 238q0 48 7.5 99.5t22.5 107.5t41.5 106t61.5 89.5t85.5 63t110.5 23.5q237 0 237 -248q0 -58 -10 -121t-35 -130t-61.5 -119.5t-94.5 -86.5t-129 -34q-236 0 -236 250zM202 148q34 0 62.5 34.5t45 85.5t25.5 104t9 97q0 98 -61 98q-34 0 -62.5 -34.5t-45 -86
t-25.5 -104.5t-9 -96q0 -98 61 -98z" />
    <glyph glyph-name="one.tnum" horiz-adv-x="600" 
d="M-43 0l27 150h152l57 285l12 55h-2q-13 -20 -36 -38l-50 -39l-87 118l236 184h151l-110 -565h152l-29 -150h-473z" />
    <glyph glyph-name="two.tnum" horiz-adv-x="600" 
d="M-66 0q0 70 22 129.5t57 99.5t77 73t84.5 58l77.5 47.5t57 47.5t22 52t-19 41t-46 14q-32 0 -62.5 -19t-44.5 -38l-14 -19l-123 96q4 6 11.5 15.5t33.5 34.5t55 44.5t75.5 35t95.5 15.5q89 0 158 -53t69 -145q0 -46 -18 -87.5t-48 -72.5t-66 -57.5t-73 -48l-69 -40
t-55 -37.5t-29 -36h295l-29 -150h-494z" />
    <glyph glyph-name="three.tnum" horiz-adv-x="600" 
d="M-71 82l100 124q5 -6 15.5 -15t47.5 -23.5t81 -14.5q53 0 85 25t32 60q0 65 -119 65h-50l-20 85l107 113q18 19 37 36t29 24l10 7v2q-24 -5 -69 -5h-163l29 150h451l-21 -109l-173 -173q54 -14 93 -63t39 -123q0 -103 -77.5 -181t-212.5 -78q-49 0 -93 9.5t-71.5 23.5
t-48 28t-29.5 23z" />
    <glyph glyph-name="four.tnum" horiz-adv-x="600" 
d="M-77 173l19 106l346 436h229l-77 -397h85l-28 -145h-85l-34 -173h-173l34 173h-316zM141 318h126l31 160l21 80h-2q-25 -43 -49 -74l-127 -164v-2z" />
    <glyph glyph-name="five.tnum" horiz-adv-x="600" 
d="M-64 82l102 125q6 -6 17 -15t47.5 -24t75.5 -15q43 0 81 28.5t38 76.5q0 34 -27.5 53t-71.5 19q-24 0 -49 -6t-38 -12l-13 -6l-92 36l102 373h405l-29 -150h-248l-17 -64l-9 -28h2q26 5 53 5q91 0 153 -60.5t62 -149.5q0 -118 -89.5 -199t-210.5 -81q-48 0 -90.5 9.5
t-69.5 23.5t-47 28t-29 23z" />
    <glyph glyph-name="six.tnum" horiz-adv-x="600" 
d="M228 -12q-111 0 -186 70.5t-75 201.5q0 79 29 160.5t80 150.5t129.5 112.5t168.5 43.5q50 0 92.5 -8.5t59.5 -16.5l18 -8l-71 -142q-46 15 -97 15q-114 0 -177 -118h2q30 25 88 25q99 0 151 -60.5t52 -154.5q0 -103 -74.5 -187t-189.5 -84zM231 148q39 0 64 32t25 72
q0 35 -21.5 58t-67.5 23q-41 0 -63.5 -21.5t-22.5 -53.5q0 -48 25.5 -79t60.5 -31z" />
    <glyph glyph-name="seven.tnum" horiz-adv-x="600" 
d="M-58 0l349 501q15 22 30 38.5t22 21.5l7 5v2q-10 -3 -46 -3h-271l29 150h513l-24 -122l-415 -593h-194z" />
    <glyph glyph-name="eight.tnum" horiz-adv-x="600" 
d="M-56 196q0 34 16 67.5t41 59.5t43.5 41.5t35.5 26.5q-48 51 -48 116q0 86 70 153t189 67q102 0 166.5 -50.5t64.5 -139.5q0 -39 -23.5 -83t-43.5 -66.5t-38 -39.5q64 -52 64 -126q0 -90 -79 -162t-207 -72q-121 0 -186 59t-65 149zM301 222q0 18 -17.5 35.5t-34.5 27.5
t-56 30q-65 -53 -65 -106q0 -29 20 -48t52 -19q41 0 71 22t30 58zM206 506q0 -28 22.5 -47.5t66.5 -42.5q51 54 51 104q0 25 -16.5 39t-47.5 14q-35 0 -55.5 -19.5t-20.5 -47.5z" />
    <glyph glyph-name="nine.tnum" horiz-adv-x="600" 
d="M-55 21l71 142q46 -15 97 -15q114 0 177 118h-2q-40 -25 -88 -25q-99 0 -151 60.5t-52 154.5q0 65 32 126.5t95 103t140 41.5q111 0 184.5 -70.5t73.5 -201.5q0 -79 -29 -160.5t-80 -150.5t-129.5 -112.5t-168.5 -43.5q-50 0 -92.5 8t-60.5 16zM258 382q41 0 63.5 21.5
t22.5 53.5q0 48 -25.5 79t-60.5 31q-39 0 -64 -32t-25 -72q0 -35 21.5 -58t67.5 -23z" />
    <glyph glyph-name="hyphen.case" horiz-adv-x="485" 
d="M79 272l29 150h314l-29 -150h-314z" />
    <glyph glyph-name="parenleft.case" horiz-adv-x="377" 
d="M138 -65q-59 135 -59 276q0 333 214 569h147q-211 -260 -211 -573q0 -146 46 -272h-137z" />
    <glyph glyph-name="parenright.case" horiz-adv-x="377" 
d="M107 -65h-147q211 260 211 573q0 146 -46 272h137q59 -135 59 -276q0 -333 -214 -569z" />
    <glyph glyph-name="bracketleft.case" horiz-adv-x="408" 
d="M32 -65l165 845h246l-24 -120h-102l-117 -605h102l-24 -120h-246z" />
    <glyph glyph-name="bracketright.case" horiz-adv-x="409" 
d="M13 55h102l117 605h-102l24 120h246l-165 -845h-245z" />
    <glyph glyph-name="braceleft.case" horiz-adv-x="445" 
d="M103 68q0 20 4 39l16 83q3 15 3 26q0 31 -17 48.5t-35 19.5l-17 2l29 150q3 0 9 0.5t22 6t28.5 14.5t26 29.5t18.5 48.5l20 103q9 47 33.5 78.5t59.5 45t66 18.5t69 5l42 -2l-24 -124q-11 2 -25 2q-72 0 -83 -54l-26 -132q-5 -25 -18 -46t-28 -33t-29.5 -20.5
t-24.5 -11.5l-9 -3v-2q3 -1 7 -2.5t15 -9.5t19 -19t15 -31t7 -45q0 -14 -3 -32l-22 -112q-1 -4 -1 -12q0 -42 64 -42l25 2l-24 -124q-19 -2 -44 -2q-23 0 -47.5 5t-54 18.5t-48 43t-18.5 71.5z" />
    <glyph glyph-name="braceright.case" horiz-adv-x="446" 
d="M38 54q72 0 83 54l28 139q8 40 35.5 68.5t50.5 36.5l23 9v2q-3 1 -7 2.5t-15 9.5t-19 19t-15 31t-7 45q0 14 3 32l20 105q1 4 1 12q0 42 -64 42l-25 -2l24 124q19 2 44 2q23 0 47.5 -5t54 -18.5t48 -43t18.5 -71.5q0 -20 -4 -39l-14 -76q-3 -15 -3 -26q0 -31 17.5 -48.5
t34.5 -19.5l17 -2l-29 -150q-3 0 -9 -0.5t-22 -6t-28.5 -14.5t-26 -29.5t-18.5 -48.5l-22 -110q-9 -47 -33.5 -78.5t-59.5 -45t-66 -18.5t-69 -5l-42 2l24 124q11 -2 25 -2z" />
    <glyph glyph-name="at.case" horiz-adv-x="882" 
d="M67 293q0 179 133 308.5t320 129.5q273 0 273 -204q0 -27 -6 -56l-34 -178h74l-23 -119h-268q-101 0 -155 47.5t-54 118.5q0 75 67 133.5t181 58.5h64q0 1 0.5 3.5t0.5 3.5q0 27 -37.5 42t-85.5 15q-113 0 -196 -92.5t-83 -199.5q0 -83 54 -136.5t156 -53.5l-25 -128
q-157 0 -256.5 86.5t-99.5 220.5zM499 344q0 -23 14 -37t41 -14h39l26 134h-37q-37 0 -60 -25t-23 -58z" />
    <glyph glyph-name="guillemotleft.case" horiz-adv-x="696" 
d="M447 137l-130 205l213 206h167l-227 -213l130 -198h-153zM187 137l-130 205l191 206h164l-202 -213l130 -198h-153z" />
    <glyph glyph-name="guillemotright.case" horiz-adv-x="695" 
d="M300 137l202 213l-130 198h153l130 -205l-191 -206h-164zM15 137l227 213l-130 198h153l130 -205l-213 -206h-167z" />
    <glyph glyph-name="guilsinglleft.case" horiz-adv-x="421" 
d="M187 137l-130 205l191 206h164l-202 -213l130 -198h-153z" />
    <glyph glyph-name="guilsinglright.case" horiz-adv-x="422" 
d="M27 137l202 213l-130 198h153l130 -205l-191 -206h-164z" />
    <glyph glyph-name="endash.case" horiz-adv-x="767" 
d="M82 282l25 130h596l-25 -130h-596z" />
    <glyph glyph-name="emdash.case" horiz-adv-x="967" 
d="M82 282l25 130h796l-25 -130h-796z" />
    <glyph glyph-name="periodcentered.case" horiz-adv-x="330" 
d="M78 263l31 164h158l-31 -164h-158z" />
    <glyph glyph-name="questiondown.case" horiz-adv-x="552" 
d="M285 565l29 150h158l-29 -150h-158zM37 168q0 49 21.5 90t53 67t63 48t56.5 44t29 44l7 33h166l-9 -47q-9 -48 -43 -88t-69.5 -62t-64 -49t-28.5 -54q0 -22 17 -35.5t43 -13.5q24 0 49.5 10.5t39.5 21.5l14 11l79 -127q-10 -8 -28.5 -20t-73.5 -32.5t-108 -20.5
q-88 0 -151 48t-63 132z" />
    <glyph glyph-name="exclamdown.case" horiz-adv-x="388" 
d="M165 565l29 150h158l-29 -150h-158zM46 0l112 494h148l-80 -494h-180z" />
    <glyph glyph-name="bullet.case" horiz-adv-x="508" 
d="M265 170q-77 0 -131.5 54.5t-54.5 131.5t54.5 131.5t131.5 54.5t131.5 -54.5t54.5 -131.5t-54.5 -131.5t-131.5 -54.5z" />
    <glyph glyph-name="zero.p_osf" horiz-adv-x="593" 
d="M29 210q0 62 18.5 123.5t53 114.5t92 86t128.5 33q122 0 178 -62t56 -161q0 -87 -31.5 -166t-99.5 -134.5t-160 -55.5q-123 0 -179 61.5t-56 160.5zM203 213q0 -81 61 -81q38 0 66 35t39.5 80.5t11.5 91.5q0 84 -60 84q-38 0 -66.5 -36t-40 -82.5t-11.5 -91.5z" />
    <glyph glyph-name="one.p_osf" horiz-adv-x="521" 
d="M-1 0l28 145h143l30 155l16 74h-2q-19 -19 -45 -32l-58 -29l-58 123l216 119h147l-79 -410h134l-28 -145h-444z" />
    <glyph glyph-name="two.p_osf" horiz-adv-x="555" 
d="M-7 0l23 115q317 174 317 259q0 23 -16.5 34t-39.5 11q-30 0 -67 -17.5t-59 -35.5l-22 -17l-72 121q4 4 11.5 10.5t33 23t52.5 29.5t68.5 23.5t82.5 10.5q84 0 144 -42t60 -127q0 -45 -21 -86t-57.5 -72.5t-74.5 -55t-82 -42.5v-2q24 5 69 5h148l-29 -145h-469z" />
    <glyph glyph-name="three.p_osf" horiz-adv-x="543" 
d="M-58 -41l91 111q6 -6 18 -15t49 -24t74 -15q54 0 86.5 24t32.5 62q0 36 -34.5 53.5t-78.5 17.5h-59l-26 79l95 97q18 18 36.5 33.5l27.5 22.5l10 7v1q-23 -4 -68 -4h-131l28 146h431l-19 -98l-178 -168q62 -11 102 -60.5t40 -120.5q0 -93 -82.5 -164.5t-212.5 -71.5
q-72 0 -130 22t-80 44z" />
    <glyph glyph-name="four.p_osf" horiz-adv-x="615" 
d="M-30 23l20 106l333 426h227l-76 -387h85l-28 -145h-85l-27 -139h-170l27 139h-306zM183 168h121l31 156q16 80 21 80h-2q0 -1 -7 -12.5t-19 -29.5t-23 -32l-122 -160v-2z" />
    <glyph glyph-name="five.p_osf" horiz-adv-x="557" 
d="M-40 -42l89 112q6 -6 17.5 -15t48.5 -24t75 -15q47 0 86 27t39 76q0 35 -26.5 54.5t-68.5 19.5q-26 0 -52.5 -5.5t-39.5 -11.5l-14 -5l-88 33l97 351h392l-28 -146h-238l-17 -64l-9 -27h2q26 7 53 7q96 0 155.5 -56.5t59.5 -141.5q0 -113 -90 -184t-213 -71q-43 0 -82 9
t-65 21.5t-45.5 25t-28.5 21.5z" />
    <glyph glyph-name="six.p_osf" horiz-adv-x="597" 
d="M37 239q0 101 46 201.5t138.5 171.5t207.5 71q50 0 92 -8.5t59 -16.5l18 -9l-68 -128q-38 18 -96 18q-55 0 -100 -33.5t-73 -83.5h2q13 10 41 16.5t48 6.5q97 0 150.5 -57.5t53.5 -143.5q0 -95 -74.5 -175.5t-188.5 -80.5q-111 0 -183.5 64t-72.5 187zM211 238
q0 -46 23.5 -76t61.5 -30q34 0 59.5 30t25.5 73q0 33 -21 55t-65 22q-39 0 -61.5 -20.5t-22.5 -53.5z" />
    <glyph glyph-name="seven.p_osf" horiz-adv-x="545" 
d="M-34 -116l329 466q15 21 27.5 36t17.5 20l5 5v2q-5 -3 -41 -3h-260l28 145h502l-23 -115l-395 -556h-190z" />
    <glyph glyph-name="eight.p_osf" horiz-adv-x="598" 
d="M16 176q0 57 40.5 106.5t86.5 82.5q-43 43 -43 102q0 84 67.5 149.5t180.5 65.5q100 0 163.5 -44.5t63.5 -122.5q0 -35 -20.5 -79.5t-38.5 -68.5t-34 -43q57 -47 57 -114q0 -85 -77 -153.5t-201 -68.5q-118 0 -181.5 53.5t-63.5 134.5zM364 208q0 7 -2.5 14t-9.5 13.5
t-13 11.5t-19 12l-20 10.5l-24 11.5t-24 12q-61 -42 -61 -96q0 -28 20.5 -47t52.5 -19q41 0 70.5 21t29.5 56zM267 475q0 -27 24 -45.5t72 -40.5q42 46 42 99q0 24 -16 37.5t-46 13.5q-36 0 -56 -19t-20 -45z" />
    <glyph glyph-name="nine.p_osf" horiz-adv-x="598" 
d="M59 34q38 -18 96 -18q55 0 100 33.5t73 83.5h-2q-13 -10 -41 -16.5t-48 -6.5q-97 0 -150.5 57.5t-53.5 143.5q0 95 74.5 175.5t188.5 80.5q111 0 183.5 -64t72.5 -187q0 -101 -46 -201.5t-138.5 -171.5t-207.5 -71q-50 0 -92 8.5t-60 17.5l-17 8zM208 320q0 -33 21 -55
t65 -22q39 0 61.5 20.5t22.5 53.5q0 46 -23.5 76t-61.5 30q-34 0 -59.5 -30t-25.5 -73z" />
    <glyph glyph-name="zero.t_osf" horiz-adv-x="600" 
d="M-32 210q0 62 18.5 123.5t53 114.5t92 86t128.5 33q122 0 178 -62t56 -161q0 -87 -31.5 -166t-99.5 -134.5t-160 -55.5q-123 0 -179 61.5t-56 160.5zM142 213q0 -81 61 -81q38 0 66 35t39.5 80.5t11.5 91.5q0 84 -60 84q-38 0 -66.5 -36t-40 -82.5t-11.5 -91.5z" />
    <glyph glyph-name="one.t_osf" horiz-adv-x="600" 
d="M-17 0l28 145h143l30 155l16 74h-2q-19 -19 -45 -32l-58 -29l-58 123l216 119h147l-79 -410h134l-28 -145h-444z" />
    <glyph glyph-name="two.t_osf" horiz-adv-x="600" 
d="M-47 0l23 115q317 174 317 259q0 23 -16.5 34t-39.5 11q-30 0 -67 -17.5t-59 -35.5l-22 -17l-72 121q4 4 11.5 10.5t33 23t52.5 29.5t68.5 23.5t82.5 10.5q84 0 144 -42t60 -127q0 -45 -21 -86t-57.5 -72.5t-74.5 -55t-82 -42.5v-2q24 5 69 5h148l-29 -145h-469z" />
    <glyph glyph-name="three.t_osf" horiz-adv-x="600" 
d="M-80 -39l91 111q6 -6 18 -15t48.5 -24t73.5 -15q54 0 86.5 24t32.5 62q0 35 -34.5 52.5t-78.5 17.5h-58l-26 79l94 97q18 18 36.5 33t28.5 22l9 7v1q-23 -4 -68 -4h-130l28 146h429l-19 -98l-177 -167q61 -11 101 -60.5t40 -119.5q0 -93 -82 -164t-212 -71q-45 0 -85.5 9
t-66 21.5t-44.5 25t-27 21.5z" />
    <glyph glyph-name="four.t_osf" horiz-adv-x="600" 
d="M-96 23l20 106l333 426h227l-76 -387h85l-28 -145h-85l-27 -139h-170l27 139h-306zM117 168h121l31 156q16 80 21 80h-2q0 -1 -7 -12.5t-19 -29.5t-23 -32l-122 -160v-2z" />
    <glyph glyph-name="five.t_osf" horiz-adv-x="600" 
d="M-79 -42l89 112q6 -6 17.5 -15t48.5 -24t75 -15q47 0 86 27t39 76q0 35 -26.5 54.5t-68.5 19.5q-26 0 -52.5 -5.5t-40.5 -11.5l-13 -5l-88 33l97 351h392l-28 -146h-238l-17 -64l-9 -27h2q26 7 53 7q96 0 155.5 -56.5t59.5 -141.5q0 -113 -90 -184t-213 -71q-43 0 -82 9
t-65 21.5t-45.5 25t-28.5 21.5z" />
    <glyph glyph-name="six.t_osf" horiz-adv-x="600" 
d="M-33 239q0 101 46 201.5t138.5 171.5t207.5 71q50 0 92 -8.5t59 -16.5l18 -9l-68 -128q-38 18 -96 18q-55 0 -100 -33.5t-73 -83.5h2q13 10 41 16.5t48 6.5q97 0 150.5 -57.5t53.5 -143.5q0 -95 -74.5 -175.5t-188.5 -80.5q-111 0 -183.5 64t-72.5 187zM141 238
q0 -46 23.5 -76t61.5 -30q34 0 59.5 30t25.5 73q0 33 -21 55t-65 22q-39 0 -61.5 -20.5t-22.5 -53.5z" />
    <glyph glyph-name="seven.t_osf" horiz-adv-x="600" 
d="M-65 -116l329 466q15 21 27.5 36t17.5 20l5 5v2q-5 -3 -41 -3h-260l28 145h502l-23 -115l-395 -556h-190z" />
    <glyph glyph-name="eight.t_osf" horiz-adv-x="600" 
d="M-57 176q0 57 40.5 106.5t86.5 82.5q-43 43 -43 102q0 84 67.5 149.5t180.5 65.5q100 0 163.5 -44.5t63.5 -122.5q0 -35 -20.5 -79.5t-38.5 -68.5t-34 -43q57 -47 57 -114q0 -85 -77 -153.5t-201 -68.5q-118 0 -181.5 53.5t-63.5 134.5zM291 208q0 7 -2.5 14t-9.5 13.5
t-13 11.5t-19 12l-20 10.5l-24 11.5t-24 12q-61 -42 -61 -96q0 -28 20.5 -47t52.5 -19q41 0 70.5 21t29.5 56zM194 475q0 -27 24 -45.5t72 -40.5q42 46 42 99q0 24 -16 37.5t-46 13.5q-36 0 -56 -19t-20 -45z" />
    <glyph glyph-name="nine.t_osf" horiz-adv-x="600" 
d="M-3 34q38 -18 96 -18q55 0 100 33.5t73 83.5h-2q-13 -10 -41 -16.5t-48 -6.5q-97 0 -150.5 57.5t-53.5 143.5q0 95 74.5 175.5t188.5 80.5q111 0 183.5 -64t72.5 -187q0 -101 -46 -201.5t-138.5 -171.5t-207.5 -71q-50 0 -92 8.5t-60 17.5l-17 8zM146 320q0 -33 21 -55
t65 -22q39 0 61.5 20.5t22.5 53.5q0 46 -23.5 76t-61.5 30q-34 0 -59.5 -30t-25.5 -73z" />
    <glyph glyph-name="dollar.osf" horiz-adv-x="552" 
d="M-3 83l94 118q7 -7 20 -17t50.5 -27t70.5 -17t53.5 10t20.5 27q0 14 -24 28t-58 29.5t-67.5 36t-57.5 56.5t-24 82q0 66 56 119t153 65l18 91h109l-19 -93q43 -7 80 -23.5t52 -29.5l15 -13l-82 -128q-6 5 -17 13t-44 21.5t-65 13.5q-76 0 -76 -38q0 -13 24 -26t57.5 -28
t67.5 -34.5t58 -54.5t24 -80q0 -80 -61.5 -130.5t-149.5 -61.5l-17 -92h-109l19 95q-49 9 -92 31t-61 40z" />
    <glyph glyph-name="cent.osf" horiz-adv-x="562" 
d="M37 264q0 99 69 181.5t181 103.5l16 80h114l-16 -79q42 -8 79.5 -27.5t53.5 -35.5l17 -16l-93 -113q-4 5 -12.5 12.5t-35.5 20t-56 12.5q-67 0 -104.5 -38.5t-37.5 -83.5q0 -36 25.5 -60t76.5 -24q29 0 58.5 12.5t45.5 25.5l15 13l57 -132q-8 -7 -24 -18t-64.5 -30.5
t-98.5 -22.5l-15 -75h-114l17 87q-74 22 -114 77.5t-40 129.5z" />
    <glyph glyph-name="sterling.osf" horiz-adv-x="620" 
d="M-8 0l28 145h55l16 86h-43l21 108h43l10 47q21 100 98 155.5t182 55.5q55 0 103.5 -16.5t69.5 -32.5l21 -17l-90 -116q-42 30 -114 30q-33 0 -61.5 -18t-34.5 -46l-9 -42h180l-21 -108h-180l-16 -86h289l-29 -145h-518z" />
    <glyph glyph-name="yen.osf" horiz-adv-x="668" 
d="M50 137l19 96h154l-23 59h-120l19 96h65l-74 197h190l31 -118l27 -110h2q29 61 60 110l74 118h208l-151 -197h74l-19 -96h-129l-45 -59h163l-19 -96h-170l-26 -137h-175l26 137h-161z" />
    <glyph glyph-name="florin.osf" horiz-adv-x="585" 
d="M-29 27q41 -6 67 -6q88 0 105 64l49 181h-62l27 135h74l29 100q53 182 265 182l102 -9l-29 -144q-58 6 -74 6q-86 0 -103 -64l-20 -71h95l-27 -135h-107l-57 -210q-16 -57 -48.5 -96t-74 -56t-75.5 -23.5t-70 -6.5q-17 0 -41 2.5t-39 5.5l-15 2z" />
    <glyph glyph-name="Euro.osf" horiz-adv-x="586" 
d="M49 315l17 86h72q42 86 125 141t195 55q38 0 70.5 -5t46.5 -10l14 -5l-59 -127q-30 9 -68 9q-79 0 -132 -58h182l-36 -86h-193q-7 -26 -7 -45h185l-33 -86h-131q33 -55 108 -55q21 0 43 3.5t34 7.5l12 3v-139q-44 -16 -95 -16q-119 0 -192.5 54t-95.5 142h-88l17 86h63
q0 15 6 45h-60z" />
    <glyph glyph-name="zero.numerator" 
d="M141 264q-154 0 -154 156q0 69 18.5 135t66.5 118t118 52q155 0 155 -156q0 -50 -11.5 -100.5t-34.5 -98t-64 -77t-94 -29.5zM142 379q31 0 52.5 57t21.5 124q0 49 -27 49q-31 0 -52.5 -57t-21.5 -124q0 -49 27 -49z" />
    <glyph glyph-name="one.numerator" 
d="M-11 274l21 108h89l26 136l10 32h-2q-7 -10 -14 -15l-27 -20l-59 84l148 116h108l-64 -333h90l-21 -108h-305z" />
    <glyph glyph-name="two.numerator" 
d="M-32 274q0 55 18.5 98.5t47 68t61 45.5t61 33.5t47 29t18.5 34.5q0 13 -11.5 20t-27.5 7q-17 0 -37 -11t-31 -23l-12 -11l-75 78q8 9 22 22.5t57.5 36.5t86.5 23q63 0 111 -33.5t48 -95.5q0 -34 -15.5 -63.5t-38.5 -48t-50.5 -34.5t-52 -26.5t-43 -21.5t-22.5 -20h186
l-21 -108h-327z" />
    <glyph glyph-name="three.numerator" 
d="M131 264q-30 0 -57.5 7t-46 17t-32 20t-19.5 17l-7 7l72 83q3 -4 9.5 -10t30 -16t51.5 -10q27 0 43.5 12.5t16.5 32.5q0 16 -15.5 24.5t-39.5 8.5h-37l-18 57l74 69l28 23v2q-21 -2 -34 -2h-103l21 109h294l-15 -79l-99 -92q35 -12 54.5 -44t19.5 -72q0 -64 -52 -114
t-139 -50z" />
    <glyph glyph-name="four.numerator" 
d="M130 274l17 87h-196l15 84l216 270h157l-48 -247h53l-20 -107h-53l-17 -87h-124zM97 468h70l18 90l14 50h-2q-14 -28 -30 -46l-70 -92v-2z" />
    <glyph glyph-name="five.numerator" 
d="M133 264q-47 0 -87.5 16t-57.5 32l-18 17l74 86q33 -36 89 -36q25 0 46 14t21 39q0 18 -15 29t-38 11q-17 0 -34 -3t-25 -7l-8 -3l-64 24l65 232h269l-21 -109h-164l-6 -23l-6 -16l1 -1q15 4 39 4q56 0 96 -38t40 -93q0 -67 -55 -121t-141 -54z" />
    <glyph glyph-name="six.numerator" 
d="M150 264q-70 0 -117 43.5t-47 125.5q0 66 31.5 132.5t92.5 113t134 46.5q31 0 58.5 -6.5t39.5 -12.5l13 -7l-49 -102q-27 12 -66 12q-58 0 -86 -52h2q20 6 38 6q58 0 94.5 -36.5t36.5 -90.5q0 -65 -49.5 -118.5t-125.5 -53.5zM157 379q18 0 30 16.5t12 35.5
q0 17 -10.5 29t-33.5 12q-24 0 -32 -10.5t-8 -30.5q0 -23 12 -37.5t30 -14.5z" />
    <glyph glyph-name="seven.numerator" 
d="M-40 274l235 308l22 24v2q-19 -2 -32 -2h-153l21 109h334l-16 -85l-267 -356h-144z" />
    <glyph glyph-name="eight.numerator" 
d="M143 264q-71 0 -120.5 33t-49.5 92q0 61 88 125q-28 28 -28 66q0 68 52 106.5t117 38.5q71 0 112 -30.5t41 -80.5q0 -25 -17.5 -55t-31 -44.5t-24.5 -24.5q45 -33 45 -81q0 -67 -58 -106t-126 -39zM199 409q0 16 -15.5 28t-47.5 28q-35 -33 -35 -61q0 -16 13.5 -25
t32.5 -9t35.5 10.5t16.5 28.5zM153 584q0 -28 48 -51q8 6 19.5 23.5t11.5 36.5q0 12 -11 19t-26 7q-17 0 -29.5 -9t-12.5 -26z" />
    <glyph glyph-name="nine.numerator" 
d="M-18 290l49 102q27 -12 66 -12q58 0 86 52h-2q-19 -6 -38 -6q-58 0 -94.5 36.5t-36.5 90.5q0 65 49.5 118.5t125.5 53.5q70 0 117 -43.5t47 -125.5q0 -66 -31.5 -132.5t-92.5 -113t-134 -46.5q-31 0 -58.5 6.5t-40.5 13.5zM182 517q24 0 32 10.5t8 30.5q0 23 -12 37.5
t-30 14.5t-30 -16.5t-12 -35.5q0 -41 44 -41z" />
    <glyph glyph-name="zero.denominator" 
d="M112 -10q-154 0 -154 156q0 69 18.5 135t66.5 118t118 52q155 0 155 -156q0 -50 -11.5 -100.5t-34.5 -98t-64 -77t-94 -29.5zM113 105q31 0 52.5 57t21.5 124q0 49 -27 49q-31 0 -52.5 -57t-21.5 -124q0 -49 27 -49z" />
    <glyph glyph-name="one.denominator" 
d="M-58 0l21 108h89l26 136l10 32h-2q-7 -10 -14 -15l-27 -20l-59 84l148 116h108l-64 -333h90l-21 -108h-305z" />
    <glyph glyph-name="two.denominator" 
d="M-81 0q0 55 18.5 98.5t47 68t61 45.5t61 33.5t47 29t18.5 34.5q0 13 -11.5 20t-27.5 7q-17 0 -37 -11t-32 -23l-11 -11l-75 78q8 9 22 22.5t57.5 36.5t86.5 23q63 0 111 -33.5t48 -95.5q0 -34 -15.5 -63.5t-38.5 -48t-50.5 -34.5t-52 -26.5t-43 -21.5t-22.5 -20h186
l-21 -108h-327z" />
    <glyph glyph-name="three.denominator" 
d="M75 -10q-30 0 -57.5 7t-46 17t-32 20t-19.5 17l-7 7l72 83q3 -4 9.5 -10t30 -16t51.5 -10q27 0 43.5 12.5t16.5 32.5q0 16 -15.5 24.5t-39.5 8.5h-37l-18 57l74 69l28 23v2q-21 -2 -34 -2h-103l21 109h294l-15 -79l-99 -92q35 -12 54.5 -44t19.5 -72q0 -64 -52 -114
t-139 -50z" />
    <glyph glyph-name="four.denominator" 
d="M90 0l17 87h-196l15 84l216 270h157l-48 -247h53l-20 -107h-53l-17 -87h-124zM57 194h70l18 90l14 50h-2q-14 -28 -30 -46l-70 -92v-2z" />
    <glyph glyph-name="five.denominator" 
d="M85 -10q-47 0 -87.5 16t-57.5 32l-18 17l74 86q33 -36 89 -36q25 0 46 14t21 39q0 18 -15 29t-38 11q-17 0 -34 -3t-25 -7l-8 -3l-64 24l65 232h269l-21 -109h-164l-6 -23l-6 -16l1 -1q15 4 39 4q56 0 96 -38t40 -93q0 -67 -55 -121t-141 -54z" />
    <glyph glyph-name="six.denominator" 
d="M100 -10q-70 0 -117 43.5t-47 125.5q0 66 31.5 132.5t92.5 113t134 46.5q31 0 58.5 -6.5t39.5 -12.5l13 -7l-49 -102q-27 12 -66 12q-58 0 -86 -52h2q20 6 38 6q58 0 94.5 -36.5t36.5 -90.5q0 -65 -49.5 -118.5t-125.5 -53.5zM107 105q18 0 30 16.5t12 35.5
q0 17 -10.5 29t-33.5 12q-24 0 -32 -10.5t-8 -30.5q0 -23 12 -37.5t30 -14.5z" />
    <glyph glyph-name="seven.denominator" 
d="M-103 0l235 308l22 24v2q-19 -2 -32 -2h-153l21 109h334l-16 -85l-267 -356h-144z" />
    <glyph glyph-name="eight.denominator" 
d="M93 -10q-71 0 -120.5 33t-49.5 92q0 61 88 125q-28 28 -28 66q0 68 52 106.5t117 38.5q71 0 112 -30.5t41 -80.5q0 -25 -17.5 -55t-31 -44.5t-24.5 -24.5q45 -33 45 -81q0 -67 -58 -106t-126 -39zM149 135q0 16 -15.5 28t-47.5 28q-35 -33 -35 -61q0 -16 13.5 -25
t32.5 -9t35.5 10.5t16.5 28.5zM103 310q0 -28 48 -51q8 6 19.5 23.5t11.5 36.5q0 12 -11 19t-26 7q-17 0 -29.5 -9t-12.5 -26z" />
    <glyph glyph-name="nine.denominator" 
d="M-66 16l49 102q27 -12 66 -12q58 0 86 52h-2q-19 -6 -38 -6q-58 0 -94.5 36.5t-36.5 90.5q0 65 49.5 118.5t125.5 53.5q70 0 117 -43.5t47 -125.5q0 -66 -31.5 -132.5t-92.5 -113t-134 -46.5q-31 0 -58.5 6.5t-40.5 13.5zM134 243q24 0 32 10.5t8 30.5q0 23 -12 37.5
t-30 14.5t-30 -16.5t-12 -35.5q0 -41 44 -41z" />
    </font>
</defs>
</svg>
